  0
SECTION
  2
HEADER
  9
$ACADVER
  1
AC1014
  9
$ACADMAINTVER
 70
     9
  9
$DWGCODEPAGE
  3
ANSI_932
  9
$INSBASE
 10
0.0
 20
0.0
 30
0.0
  9
$EXTMIN
 10
-94.02502198083162
 20
-26.25000100000002
 30
-0.00000001
  9
$EXTMAX
 10
15.46484148501992
 20
15.03482745971506
 30
0.00000001
  9
$LIMMIN
 10
-98.94168101531841
 20
-36.66226367413097
  9
$LIMMAX
 10
18.48376559323867
 20
25.04533903870165
  9
$ORTHOMODE
 70
     0
  9
$REGENMODE
 70
     1
  9
$FILLMODE
 70
     1
  9
$QTEXTMODE
 70
     0
  9
$MIRRTEXT
 70
     0
  9
$DRAGMODE
 70
     2
  9
$LTSCALE
 40
1.0
  9
$OSMODE
 70
    55
  9
$ATTMODE
 70
     1
  9
$TEXTSIZE
 40
2.5
  9
$TRACEWID
 40
1.0
  9
$TEXTSTYLE
  7
STANDARD
  9
$CLAYER
  8
AM_0
  9
$CELTYPE
  6
BYLAYER
  9
$CECOLOR
 62
   256
  9
$CELTSCALE
 40
1.0
  9
$DELOBJ
 70
     1
  9
$DISPSILH
 70
     0
  9
$DIMSCALE
 40
0.5
  9
$DIMASZ
 40
2.5
  9
$DIMEXO
 40
1.0
  9
$DIMDLI
 40
12.0
  9
$DIMRND
 40
0.0
  9
$DIMDLE
 40
0.0
  9
$DIMEXE
 40
1.0
  9
$DIMTP
 40
0.1
  9
$DIMTM
 40
0.1
  9
$DIMTXT
 40
3.2
  9
$DIMCEN
 40
0.0
  9
$DIMTSZ
 40
0.0
  9
$DIMTOL
 70
     0
  9
$DIMLIM
 70
     0
  9
$DIMTIH
 70
     0
  9
$DIMTOH
 70
     0
  9
$DIMSE1
 70
     0
  9
$DIMSE2
 70
     0
  9
$DIMTAD
 70
     3
  9
$DIMZIN
 70
     8
  9
$DIMBLK
  1
OPEN30
  9
$DIMASO
 70
     1
  9
$DIMSHO
 70
     1
  9
$DIMPOST
  1

  9
$DIMAPOST
  1
"
  9
$DIMALT
 70
     0
  9
$DIMALTD
 70
     2
  9
$DIMALTF
 40
0.0393701
  9
$DIMLFAC
 40
1.0
  9
$DIMTOFL
 70
     1
  9
$DIMTVP
 40
0.0
  9
$DIMTIX
 70
     0
  9
$DIMSOXD
 70
     0
  9
$DIMSAH
 70
     0
  9
$DIMBLK1
  1

  9
$DIMBLK2
  1

  9
$DIMSTYLE
  2
AM_JIS
  9
$DIMCLRD
 70
   256
  9
$DIMCLRE
 70
   256
  9
$DIMCLRT
 70
     2
  9
$DIMTFAC
 40
0.71
  9
$DIMGAP
 40
1.5
  9
$DIMJUST
 70
     0
  9
$DIMSD1
 70
     0
  9
$DIMSD2
 70
     0
  9
$DIMTOLJ
 70
     0
  9
$DIMTZIN
 70
     0
  9
$DIMALTZ
 70
     0
  9
$DIMALTTZ
 70
     0
  9
$DIMFIT
 70
     3
  9
$DIMUPT
 70
     0
  9
$DIMUNIT
 70
     2
  9
$DIMDEC
 70
     3
  9
$DIMTDEC
 70
     3
  9
$DIMALTU
 70
     2
  9
$DIMALTTD
 70
     2
  9
$DIMTXSTY
  7
ASAMI
  9
$DIMAUNIT
 70
     0
  9
$LUNITS
 70
     2
  9
$LUPREC
 70
     2
  9
$SKETCHINC
 40
1.0
  9
$FILLETRAD
 40
2.5
  9
$AUNITS
 70
     0
  9
$AUPREC
 70
     0
  9
$MENU
  1
.
  9
$ELEVATION
 40
0.0
  9
$PELEVATION
 40
0.0
  9
$THICKNESS
 40
0.0
  9
$LIMCHECK
 70
     0
  9
$BLIPMODE
 70
     0
  9
$CHAMFERA
 40
0.25
  9
$CHAMFERB
 40
0.25
  9
$CHAMFERC
 40
20.0
  9
$CHAMFERD
 40
0.0
  9
$SKPOLY
 70
     0
  9
$TDCREATE
 40
2452800.443498622
  9
$TDUPDATE
 40
2453151.579239896
  9
$TDINDWG
 40
0.0786724306
  9
$TDUSRTIMER
 40
0.0786724306
  9
$USRTIMER
 70
     1
  9
$ANGBASE
 50
0.0
  9
$ANGDIR
 70
     0
  9
$PDMODE
 70
     3
  9
$PDSIZE
 40
0.0
  9
$PLINEWID
 40
0.0
  9
$COORDS
 70
     1
  9
$SPLFRAME
 70
     0
  9
$SPLINETYPE
 70
     6
  9
$SPLINESEGS
 70
     8
  9
$ATTDIA
 70
     1
  9
$ATTREQ
 70
     1
  9
$HANDLING
 70
 12289
  9
$HANDSEED
  5
2CD0
  9
$SURFTAB1
 70
     6
  9
$SURFTAB2
 70
     6
  9
$SURFTYPE
 70
     6
  9
$SURFU
 70
     6
  9
$SURFV
 70
     6
  9
$UCSNAME
  2

  9
$UCSORG
 10
0.0
 20
0.0
 30
0.0
  9
$UCSXDIR
 10
1.0
 20
0.000000000000002
 30
0.0
  9
$UCSYDIR
 10
-0.000000000000002
 20
1.0
 30
0.0
  9
$PUCSNAME
  2

  9
$PUCSORG
 10
0.0
 20
0.0
 30
0.0
  9
$PUCSXDIR
 10
1.0
 20
0.0
 30
0.0
  9
$PUCSYDIR
 10
0.0
 20
1.0
 30
0.0
  9
$USERI1
 70
     0
  9
$USERI2
 70
     0
  9
$USERI3
 70
     0
  9
$USERI4
 70
     0
  9
$USERI5
 70
     0
  9
$USERR1
 40
0.0
  9
$USERR2
 40
0.0
  9
$USERR3
 40
0.0
  9
$USERR4
 40
0.0
  9
$USERR5
 40
0.0
  9
$WORLDVIEW
 70
     1
  9
$SHADEDGE
 70
     3
  9
$SHADEDIF
 70
    70
  9
$TILEMODE
 70
     1
  9
$MAXACTVP
 70
    64
  9
$PINSBASE
 10
0.0
 20
0.0
 30
0.0
  9
$PLIMCHECK
 70
     0
  9
$PEXTMIN
 10
1.000000000000000E+20
 20
1.000000000000000E+20
 30
1.000000000000000E+20
  9
$PEXTMAX
 10
-1.000000000000000E+20
 20
-1.000000000000000E+20
 30
-1.000000000000000E+20
  9
$PLIMMIN
 10
0.0
 20
0.0
  9
$PLIMMAX
 10
841.0
 20
594.0
  9
$UNITMODE
 70
     0
  9
$VISRETAIN
 70
     1
  9
$PLINEGEN
 70
     0
  9
$PSLTSCALE
 70
     0
  9
$TREEDEPTH
 70
  3020
  9
$PICKSTYLE
 70
     0
  9
$CMLSTYLE
  2
STANDARD
  9
$CMLJUST
 70
     0
  9
$CMLSCALE
 40
20.0
  9
$PROXYGRAPHICS
 70
     1
  9
$MEASUREMENT
 70
     1
  0
ENDSEC
  0
SECTION
  2
CLASSES
  0
CLASS
  1
ACDBDICTIONARYWDFLT
  2
AcDbDictionaryWithDefault
  3
AutoCAD 2000
 90
        0
280
     0
281
     0
  0
CLASS
  1
ACDBPLACEHOLDER
  2
AcDbPlaceHolder
  3
AutoCAD 2000
 90
        0
280
     0
281
     0
  0
CLASS
  1
LAYOUT
  2
AcDbLayout
  3
AutoCAD 2000
 90
        0
280
     0
281
     0
  0
CLASS
  1
AMGSETTINGSOBJ
  2
AmgSettingsObj
  3
"AcadM|Product Description: AutoCAD Mechanical 2000|Company: Autodesk"
 90
        0
280
     0
281
     0
  0
CLASS
  1
ACME_DOCUMENT
  2
AcMeDbDoc
  3
AcMeServices
 90
        0
280
     0
281
     0
  0
CLASS
  1
ACMESCOPE
  2
AcMeScope
  3
AcMeServices
 90
        0
280
     0
281
     0
  0
CLASS
  1
ACMECOMMANDHISTORY
  2
AcMeCommandHistory
  3
AcMeServices
 90
        0
280
     0
281
     0
  0
CLASS
  1
DICTIONARYVAR
  2
AcDbDictionaryVar
  3
AutoCAD 2000
 90
        0
280
     0
281
     0
  0
CLASS
  1
ACIMSYSVARMAN
  2
AcImSysVarManager
  3
AcMeServices
 90
        0
280
     0
281
     0
  0
CLASS
  1
ACIMREALSYSVAR
  2
AcImRealSysVar
  3
AcMeServices
 90
        0
280
     0
281
     0
  0
CLASS
  1
ACIMINTSYSVAR
  2
AcImIntSysVar
  3
AcMeServices
 90
        0
280
     0
281
     0
  0
CLASS
  1
ACMEDRAWINGMAN
  2
AcMeDrawingMan
  3
AcMeServices
 90
        0
280
     0
281
     0
  0
CLASS
  1
ACMEVIEW
  2
AcMeView
  3
AcMeServices
 90
        0
280
     0
281
     0
  0
CLASS
  1
ACDBENTITYCACHE
  2
AcMeEntityCache
  3
AcMeServices
 90
        0
280
     0
281
     0
  0
CLASS
  1
GSMANAGER
  2
AcMeGSManager
  3
AcMeServices
 90
        0
280
     0
281
     0
  0
CLASS
  1
AmdtInternalReactor
  2
AmdtInternalReactor
  3
AcMeServices
 90
        0
280
     0
281
     0
  0
CLASS
  1
ACMESTATEMGR
  2
AcMeStateMgr
  3
AcMeServices
 90
        0
280
     0
281
     0
  0
CLASS
  1
ACME_DATABASE
  2
AcMeDbDatabase
  3
AcMeServices
 90
        0
280
     0
281
     0
  0
CLASS
  1
ACRFINSADJUSTERMGR
  2
AcRfInsAdjusterMgr
  3
AcMeServices
 90
        0
280
     0
281
     0
  0
CLASS
  1
ACMDATADICTIONARY
  2
AcmDataDictionary
  3
"AcmSymBB|Product Description: AutoCAD Mechanical 2000|Company: Autodesk"
 90
        0
280
     0
281
     0
  0
CLASS
  1
ACMDATAENTRYBLOCK
  2
AcmDataEntryBlock
  3
"AcmSymBB|Product Description: AutoCAD Mechanical 2000|Company: Autodesk"
 90
        0
280
     0
281
     0
  0
CLASS
  1
AMGOBJPROPCFG
  2
AmgObjPropCfg
  3
"AmgLay|Product Description: AutoCAD Mechanical 2000|Company: Autodesk"
 90
        1
280
     0
281
     0
  0
CLASS
  1
ACAMGFILTERDAT
  2
AcAmgFilterDat
  3
"AcadM|Product Description: AutoCAD Mechanical 2000|Company: Autodesk"
 90
        0
280
     0
281
     0
  0
CLASS
  1
LAYER_INDEX
  2
AcDbLayerIndex
  3
AutoCAD 2000
 90
        0
280
     0
281
     0
  0
CLASS
  1
IDBUFFER
  2
AcDbIdBuffer
  3
AutoCAD 2000
 90
        0
280
     0
281
     0
  0
CLASS
  1
ACIMSTRSYSVAR
  2
AcImStrSysVar
  3
AcMeServices
 90
        0
280
     0
281
     0
  0
CLASS
  1
ACMSTANDARDJIS
  2
AcmStandardJIS
  3
"AcmSymBB|Product Description: AutoCAD Mechanical 2000|Company: Autodesk"
 90
        0
280
     0
281
     0
  0
CLASS
  1
ACMSURFSTANDARDJIS
  2
AcmSurfTextStdJIS
  3
"AcmSymBB|Product Description: AutoCAD Mechanical 2000|Company: Autodesk"
 90
        0
280
     0
281
     0
  0
CLASS
  1
ACMFCFSTANDARDJIS
  2
AcmFCFStdJIS
  3
"AcmSymBB|Product Description: AutoCAD Mechanical 2000|Company: Autodesk"
 90
        0
280
     0
281
     0
  0
CLASS
  1
ACMWELDSTANDARDJIS
  2
AcmWeldingStdJIS
  3
"AcmSymBB|Product Description: AutoCAD Mechanical 2000|Company: Autodesk"
 90
        0
280
     0
281
     0
  0
CLASS
  1
ACMIDSTANDARDJIS
  2
AcmIdStdJIS
  3
"AcmSymBB|Product Description: AutoCAD Mechanical 2000|Company: Autodesk"
 90
        0
280
     0
281
     0
  0
CLASS
  1
ACMDATUMSTANDARDJIS
  2
AcmDatumStdJIS
  3
"AcmSymBB|Product Description: AutoCAD Mechanical 2000|Company: Autodesk"
 90
        0
280
     0
281
     0
  0
CLASS
  1
ACMBOMSTANDARDJIS
  2
AcmBOMStdJIS
  3
"AcmSymBB|Product Description: AutoCAD Mechanical 2000|Company: Autodesk"
 90
        0
280
     0
281
     0
  0
CLASS
  1
ACMSTANDARDANSI
  2
AcmStandardANSI
  3
"AcmSymBB|Product Description: AutoCAD Mechanical 2000|Company: Autodesk"
 90
        0
280
     0
281
     0
  0
CLASS
  1
ACMSURFSTANDARDANSI
  2
AcmSurfTextStdANSI
  3
"AcmSymBB|Product Description: AutoCAD Mechanical 2000|Company: Autodesk"
 90
        0
280
     0
281
     0
  0
CLASS
  1
ACMFCFSTANDARDANSI
  2
AcmFCFStdANSI
  3
"AcmSymBB|Product Description: AutoCAD Mechanical 2000|Company: Autodesk"
 90
        0
280
     0
281
     0
  0
CLASS
  1
ACMWELDSTANDARDANSI
  2
AcmWeldingStdANSI
  3
"AcmSymBB|Product Description: AutoCAD Mechanical 2000|Company: Autodesk"
 90
        0
280
     0
281
     0
  0
CLASS
  1
ACMIDSTANDARDANSI
  2
AcmIdStdANSI
  3
"AcmSymBB|Product Description: AutoCAD Mechanical 2000|Company: Autodesk"
 90
        0
280
     0
281
     0
  0
CLASS
  1
ACMDATUMSTANDARDANSI
  2
AcmDatumStdANSI
  3
"AcmSymBB|Product Description: AutoCAD Mechanical 2000|Company: Autodesk"
 90
        0
280
     0
281
     0
  0
CLASS
  1
ACMBOMSTANDARDANSI
  2
AcmBOMStdANSI
  3
"AcmSymBB|Product Description: AutoCAD Mechanical 2000|Company: Autodesk"
 90
        0
280
     0
281
     0
  0
CLASS
  1
ACMSTANDARDBSI
  2
AcmStandardBSI
  3
"AcmSymBB|Product Description: AutoCAD Mechanical 2000|Company: Autodesk"
 90
        0
280
     0
281
     0
  0
CLASS
  1
ACMSURFSTANDARDBSI
  2
AcmSurfTextStdBSI
  3
"AcmSymBB|Product Description: AutoCAD Mechanical 2000|Company: Autodesk"
 90
        0
280
     0
281
     0
  0
CLASS
  1
ACMFCFSTANDARDBSI
  2
AcmFCFStdBSI
  3
"AcmSymBB|Product Description: AutoCAD Mechanical 2000|Company: Autodesk"
 90
        0
280
     0
281
     0
  0
CLASS
  1
ACMWELDSTANDARDBSI
  2
AcmWeldingStdBSI
  3
"AcmSymBB|Product Description: AutoCAD Mechanical 2000|Company: Autodesk"
 90
        0
280
     0
281
     0
  0
CLASS
  1
ACMIDSTANDARDBSI
  2
AcmIdStdBSI
  3
"AcmSymBB|Product Description: AutoCAD Mechanical 2000|Company: Autodesk"
 90
        0
280
     0
281
     0
  0
CLASS
  1
ACMDATUMSTANDARDBSI
  2
AcmDatumStdBSI
  3
"AcmSymBB|Product Description: AutoCAD Mechanical 2000|Company: Autodesk"
 90
        0
280
     0
281
     0
  0
CLASS
  1
ACMBOMSTANDARDBSI
  2
AcmBOMStdBSI
  3
"AcmSymBB|Product Description: AutoCAD Mechanical 2000|Company: Autodesk"
 90
        0
280
     0
281
     0
  0
CLASS
  1
LONG_TRANSACTION
  2
AcDbLongTransaction
  3
AutoCAD 2000
 90
        0
280
     0
281
     0
  0
CLASS
  1
LWPOLYLINE
  2
AcDbPolyline
  3
AutoCAD 2000
 90
        0
280
     0
281
     1
  0
CLASS
  1
HATCH
  2
AcDbHatch
  3
AutoCAD 2000
 90
        0
280
     0
281
     1
  0
CLASS
  1
XRECORD
  2
AcDbXrecord
  3
AutoCAD 2000
 90
        0
280
     0
281
     0
  0
ENDSEC
  0
SECTION
  2
TABLES
  0
TABLE
  2
VPORT
  5
8
330
0
100
AcDbSymbolTable
 70
     3
  0
VPORT
  5
2CA5
330
8
100
AcDbSymbolTableRecord
100
AcDbViewportTableRecord
  2
*ACTIVE
 70
     0
 10
0.0
 20
0.0
 11
1.0
 21
1.0
 12
-37.23183948417358
 22
-5.606021765735022
 13
0.0
 23
0.0
 14
2.5
 24
2.5
 15
10.0
 25
10.0
 16
0.0
 26
0.0
 36
1.0
 17
0.0
 27
0.0
 37
0.0
 40
72.89654304563047
 41
1.56570841889117
 42
50.0
 43
0.0
 44
0.0
 50
0.0
 51
0.0
 71
     0
 72
   100
 73
     1
 74
     1
 75
     0
 76
     0
 77
     0
 78
     0
  0
ENDTAB
  0
TABLE
  2
LTYPE
  5
5
330
0
100
AcDbSymbolTable
 70
    10
  0
LTYPE
  5
14
330
5
100
AcDbSymbolTableRecord
100
AcDbLinetypeTableRecord
  2
BYBLOCK
 70
     0
  3

 72
    65
 73
     0
 40
0.0
  0
LTYPE
  5
15
330
5
100
AcDbSymbolTableRecord
100
AcDbLinetypeTableRecord
  2
BYLAYER
 70
     0
  3

 72
    65
 73
     0
 40
0.0
  0
LTYPE
  5
16
330
5
100
AcDbSymbolTableRecord
100
AcDbLinetypeTableRecord
  2
CONTINUOUS
 70
     0
  3
Solid line
 72
    65
 73
     0
 40
0.0
  0
LTYPE
  5
4B
330
5
100
AcDbSymbolTableRecord
100
AcDbLinetypeTableRecord
  2
AM_ISO02W050
 70
     0
  3
__ __ __ __ __ __ __ __ __ __ __ __ __ __ __
 72
    65
 73
     2
 40
7.5
 49
6.0
 74
     0
 49
-1.5
 74
     0
  0
LTYPE
  5
4C
330
5
100
AcDbSymbolTableRecord
100
AcDbLinetypeTableRecord
  2
AM_ISO08W050
 70
     0
  3
____ . ____ . ____ . ____ . ____ . ____ . ____
 72
    65
 73
     4
 40
18.0
 49
12.0
 74
     0
 49
-1.5
 74
     0
 49
3.0
 74
     0
 49
-1.5
 74
     0
  0
LTYPE
  5
4D
330
5
100
AcDbSymbolTableRecord
100
AcDbLinetypeTableRecord
  2
AM_ISO09W050
 70
     0
  3
_____ . . _____ . . _____ . . ____ .. ____
 72
    65
 73
     6
 40
22.5
 49
12.0
 74
     0
 49
-1.5
 74
     0
 49
3.0
 74
     0
 49
-1.5
 74
     0
 49
3.0
 74
     0
 49
-1.5
 74
     0
  0
LTYPE
  5
4E
330
5
100
AcDbSymbolTableRecord
100
AcDbLinetypeTableRecord
  2
AMCONSTR
 70
     0
  3
_______________________
 72
    65
 73
     2
 40
9999.0
 49
9999.0
 74
     0
 49
0.0
 74
     0
  0
LTYPE
  5
4F
330
5
100
AcDbSymbolTableRecord
100
AcDbLinetypeTableRecord
  2
AM_ISO02W050X2
 70
     0
  3
 _ _ _ _ _ _ _ _ _ _ _ _
 72
    65
 73
     2
 40
3.75
 49
3.0
 74
     0
 49
-0.75
 74
     0
  0
LTYPE
  5
50
330
5
100
AcDbSymbolTableRecord
100
AcDbLinetypeTableRecord
  2
AM_ISO08W050X2
 70
     0
  3
__ . __ . __ . __ . __ . __
 72
    65
 73
     4
 40
9.0
 49
6.0
 74
     0
 49
-0.75
 74
     0
 49
1.5
 74
     0
 49
-0.75
 74
     0
  0
LTYPE
  5
53
330
5
100
AcDbSymbolTableRecord
100
AcDbLinetypeTableRecord
  2
AMZIGZAG
 70
     0
  3
/\/-/\/-/\/-/\/-/\/-/\/
 72
    65
 73
     2
 40
11.00009999999999
 49
0.0001
 74
     4
 75
   135
340
52
 46
0.04
 50
0.0
 44
0.0
 45
0.0
 49
-11.0
 74
     0
  0
LTYPE
  5
166
330
5
100
AcDbSymbolTableRecord
100
AcDbLinetypeTableRecord
  2
ACJISTGL
 70
     0
  3
_ _ _ _ _
 72
    65
 73
     2
 40
3.0
 49
2.0
 74
     0
 49
-1.0
 74
     0
  0
LTYPE
  5
26A
330
5
100
AcDbSymbolTableRecord
100
AcDbLinetypeTableRecord
  2
ACJISTGB
 70
     0
  3
__ . . __ . .
 72
    65
 73
     6
 40
9.0
 49
4.0
 74
     0
 49
-1.0
 74
     0
 49
1.0
 74
     0
 49
-1.0
 74
     0
 49
1.0
 74
     0
 49
-1.0
 74
     0
  0
ENDTAB
  0
TABLE
  2
LAYER
  5
2
330
0
100
AcDbSymbolTable
 70
     7
  0
LAYER
  5
10
330
2
100
AcDbSymbolTableRecord
100
AcDbLayerTableRecord
  2
0
 70
     0
 62
     7
  6
CONTINUOUS
  0
LAYER
  5
3F9
330
2
100
AcDbSymbolTableRecord
100
AcDbLayerTableRecord
  2
AM_0
 70
     0
 62
     7
  6
CONTINUOUS
  0
LAYER
  5
C7C
330
2
100
AcDbSymbolTableRecord
100
AcDbLayerTableRecord
  2
AM_7
 70
     0
 62
     4
  6
AM_ISO08W050
  0
LAYER
  5
C97
330
2
100
AcDbSymbolTableRecord
100
AcDbLayerTableRecord
  2
AM_11
 70
     0
 62
     3
  6
AM_ISO09W050
  0
LAYER
  5
CC5
330
2
100
AcDbSymbolTableRecord
100
AcDbLayerTableRecord
  2
AM_5
 70
     0
 62
     3
  6
CONTINUOUS
  0
LAYER
  5
CC7
330
2
100
AcDbSymbolTableRecord
100
AcDbLayerTableRecord
  2
DEFPOINTS
 70
     0
 62
     7
  6
CONTINUOUS
  0
LAYER
  5
19BC
330
2
100
AcDbSymbolTableRecord
100
AcDbLayerTableRecord
  2
AM_6
 70
     0
 62
     2
  6
CONTINUOUS
  0
ENDTAB
  0
TABLE
  2
STYLE
  5
3
330
0
100
AcDbSymbolTable
 70
     5
  0
STYLE
  5
11
330
3
100
AcDbSymbolTableRecord
100
AcDbTextStyleTableRecord
  2
STANDARD
 70
     0
 40
0.0
 41
1.0
 50
0.0
 71
     0
 42
2.5
  3
simplex.shx
  4
EXTFONT.SHX
  0
STYLE
  5
52
330
3
100
AcDbSymbolTableRecord
100
AcDbTextStyleTableRecord
  2

 70
     1
 40
0.0
 41
1.0
 50
0.0
 71
     0
 42
2.5
  3
ltypeshp.shx
  4

  0
STYLE
  5
6B
330
3
100
AcDbSymbolTableRecord
100
AcDbTextStyleTableRecord
  2
ASAMI
 70
     0
 40
0.0
 41
1.0
 50
0.0
 71
     0
 42
2.5
  3
simplex.shx
  4
EXTFONT.SHX
  0
STYLE
  5
262
330
3
100
AcDbSymbolTableRecord
100
AcDbTextStyleTableRecord
  2
ACJISTS
 70
     0
 40
1.0
 41
1.0
 50
0.0
 71
     0
 42
2.5
  3
simplex.shx
  4
bigfont.shx
  0
STYLE
  5
269
330
3
100
AcDbSymbolTableRecord
100
AcDbTextStyleTableRecord
  2
ACJISGDT
 70
     0
 40
0.0
 41
1.0
 50
0.0
 71
     0
 42
2.5
  3
amgdtans.shx
  4

  0
ENDTAB
  0
TABLE
  2
VIEW
  5
6
330
0
100
AcDbSymbolTable
 70
     0
  0
ENDTAB
  0
TABLE
  2
UCS
  5
7
330
0
100
AcDbSymbolTable
 70
     0
  0
ENDTAB
  0
TABLE
  2
APPID
  5
9
330
0
100
AcDbSymbolTable
 70
    16
  0
APPID
  5
12
330
9
100
AcDbSymbolTableRecord
100
AcDbRegAppTableRecord
  2
ACAD
 70
     0
  0
APPID
  5
30
330
9
100
AcDbSymbolTableRecord
100
AcDbRegAppTableRecord
  2
MCAD_NO_VIS
 70
     0
  0
APPID
  5
31
330
9
100
AcDbSymbolTableRecord
100
AcDbRegAppTableRecord
  2
ACAD_TEMP_GRAPHIC
 70
     0
  0
APPID
  5
2C2
330
9
100
AcDbSymbolTableRecord
100
AcDbRegAppTableRecord
  2
GENIUS_GENDTOL_13
 70
     0
  0
APPID
  5
339
330
9
100
AcDbSymbolTableRecord
100
AcDbRegAppTableRecord
  2
GENIUS_GENODEF_13
 70
     0
  0
APPID
  5
33A
330
9
100
AcDbSymbolTableRecord
100
AcDbRegAppTableRecord
  2
GENIUS_GENOBJ-N-RSBK_13
 70
     0
  0
APPID
  5
33B
330
9
100
AcDbSymbolTableRecord
100
AcDbRegAppTableRecord
  2
GENIUS_GENOBJ-N-LIB_13
 70
     0
  0
APPID
  5
33C
330
9
100
AcDbSymbolTableRecord
100
AcDbRegAppTableRecord
  2
GENIUS_GENSCALE_13
 70
     0
  0
APPID
  5
378
330
9
100
AcDbSymbolTableRecord
100
AcDbRegAppTableRecord
  2
GENIUS_GENDIMSH_14
 70
     0
  0
APPID
  5
C82
330
9
100
AcDbSymbolTableRecord
100
AcDbRegAppTableRecord
  2
GENIUS_GENOBJ-N-CRS_13
 70
     0
  0
APPID
  5
C83
330
9
100
AcDbSymbolTableRecord
100
AcDbRegAppTableRecord
  2
GENIUS_GENOENT_13
 70
     0
  0
APPID
  5
C84
330
9
100
AcDbSymbolTableRecord
100
AcDbRegAppTableRecord
  2
GENIUS_GENOREF_13
 70
     0
  0
APPID
  5
C85
330
9
100
AcDbSymbolTableRecord
100
AcDbRegAppTableRecord
  2
GENIUS_GENOLIS_13
 70
     0
  0
APPID
  5
CA0
330
9
100
AcDbSymbolTableRecord
100
AcDbRegAppTableRecord
  2
GENIUS_GENOBJ-N-CEN_13
 70
     0
  0
APPID
  5
1CFA
330
9
100
AcDbSymbolTableRecord
100
AcDbRegAppTableRecord
  2
GENIUS_GENFIL_13
 70
     0
  0
APPID
  5
1CFB
330
9
100
AcDbSymbolTableRecord
100
AcDbRegAppTableRecord
  2
GENIUS_GENOBJ-N-CHA_13
 70
     0
  0
ENDTAB
  0
TABLE
  2
DIMSTYLE
  5
A
330
0
100
AcDbSymbolTable
 70
     9
  0
DIMSTYLE
105
58
330
A
100
AcDbSymbolTableRecord
100
AcDbDimStyleTableRecord
  2
AM_JIS
 70
     0
  3

  4
"
  5
OPEN30
  6

  7

 40
0.5
 41
2.5
 42
1.0
 43
12.0
 44
1.0
 45
0.0
 46
0.0
 47
0.1
 48
0.1
140
3.2
141
0.0
142
0.0
143
0.0393701
144
1.0
145
0.0
146
0.71
147
1.5
 71
     0
 72
     0
 73
     0
 74
     0
 75
     0
 76
     0
 77
     3
 78
     8
170
     0
171
     2
172
     1
173
     0
174
     0
175
     0
176
   256
177
   256
178
     2
270
     2
271
     3
272
     3
273
     2
274
     2
340
6B
275
     0
280
     0
281
     0
282
     0
283
     0
284
     0
285
     0
286
     0
287
     3
288
     0
  0
DIMSTYLE
105
5F
330
A
100
AcDbSymbolTableRecord
100
AcDbDimStyleTableRecord
  2
AM_JIS$3
 70
     0
  3

  4
"
  5
OPEN30
  6

  7

 40
0.5
 41
2.5
 42
1.0
 43
10.0
 44
1.0
 45
0.0
 46
0.0
 47
0.1
 48
0.1
140
3.2
141
0.0
142
0.0
143
0.0393701
144
1.0
145
0.0
146
0.71
147
1.5
 71
     0
 72
     0
 73
     0
 74
     1
 75
     0
 76
     0
 77
     3
 78
     8
170
     0
171
     2
172
     0
173
     0
174
     0
175
     0
176
   256
177
   256
178
     2
270
     2
271
     2
272
     3
273
     2
274
     2
340
6B
275
     0
280
     0
281
     0
282
     0
283
     0
284
     0
285
     0
286
     0
287
     0
288
     1
  0
DIMSTYLE
105
60
330
A
100
AcDbSymbolTableRecord
100
AcDbDimStyleTableRecord
  2
AM_JIS$4
 70
     0
  3

  4
"
  5
OPEN30
  6

  7

 40
0.5
 41
2.5
 42
1.0
 43
10.0
 44
1.0
 45
0.0
 46
0.0
 47
0.1
 48
0.1
140
3.2
141
0.0
142
0.0
143
0.0393701
144
1.0
145
0.0
146
0.71
147
1.5
 71
     0
 72
     0
 73
     0
 74
     1
 75
     0
 76
     0
 77
     3
 78
     8
170
     0
171
     2
172
     0
173
     0
174
     0
175
     0
176
   256
177
   256
178
     2
270
     2
271
     2
272
     3
273
     2
274
     2
340
6B
275
     0
280
     0
281
     0
282
     0
283
     0
284
     0
285
     0
286
     0
287
     0
288
     1
  0
DIMSTYLE
105
61
330
A
100
AcDbSymbolTableRecord
100
AcDbDimStyleTableRecord
  2
AM_JIS$6
 70
     0
  3

  4
"
  5
OPEN30
  6

  7

 40
0.5
 41
2.5
 42
1.0
 43
10.0
 44
1.0
 45
0.0
 46
0.0
 47
0.1
 48
0.1
140
3.2
141
0.0
142
0.0
143
0.0393701
144
1.0
145
0.0
146
0.71
147
1.5
 71
     0
 72
     0
 73
     0
 74
     0
 75
     0
 76
     0
 77
     0
 78
     8
170
     0
171
     2
172
     1
173
     0
174
     0
175
     0
176
   256
177
   256
178
     2
270
     2
271
     2
272
     2
273
     2
274
     2
340
6B
275
     0
280
     0
281
     0
282
     0
283
     0
284
     0
285
     0
286
     0
287
     3
288
     0
  0
DIMSTYLE
105
62
330
A
100
AcDbSymbolTableRecord
100
AcDbDimStyleTableRecord
  2
AM_JIS$7
 70
     0
  3

  4
"
  5
OPEN30
  6

  7

 40
0.5
 41
2.5
 42
1.0
 43
10.0
 44
1.0
 45
0.0
 46
0.0
 47
0.1
 48
0.1
140
3.2
141
0.0
142
0.0
143
0.0393701
144
1.0
145
0.0
146
0.71
147
1.5
 71
     0
 72
     0
 73
     0
 74
     0
 75
     0
 76
     0
 77
     3
 78
     8
170
     0
171
     2
172
     1
173
     0
174
     0
175
     0
176
   256
177
   256
178
     2
270
     2
271
     2
272
     3
273
     2
274
     2
340
6B
275
     0
280
     0
281
     0
282
     0
283
     0
284
     0
285
     0
286
     0
287
     3
288
     0
  0
DIMSTYLE
105
63
330
A
100
AcDbSymbolTableRecord
100
AcDbDimStyleTableRecord
  2
AM_JIS$SF
 70
     0
  3

  4
"
  5
OPEN30
  6

  7

 40
0.5
 41
2.5
 42
1.0
 43
10.0
 44
1.0
 45
0.0
 46
0.0
 47
0.1
 48
0.1
140
3.2
141
0.0
142
0.0
143
0.0393701
144
1.0
145
0.0
146
0.71
147
1.5
 71
     0
 72
     0
 73
     0
 74
     0
 75
     1
 76
     1
 77
     3
 78
     8
170
     0
171
     2
172
     1
173
     0
174
     0
175
     0
176
   256
177
   256
178
     2
270
     2
271
     2
272
     2
273
     2
274
     2
340
6B
275
     0
280
     0
281
     0
282
     0
283
     0
284
     0
285
     0
286
     0
287
     3
288
     0
  0
DIMSTYLE
105
68
330
A
100
AcDbSymbolTableRecord
100
AcDbDimStyleTableRecord
  2
AM_JIS$SH
 70
     0
  3

  4
"
  5

  6
GENAXEH
  7
OPEN30
 40
0.5
 41
2.5
 42
1.0
 43
10.0
 44
1.0
 45
0.0
 46
0.0
 47
0.1
 48
0.1
140
3.2
141
0.0
142
0.0
143
0.0393701
144
2.0
145
0.0
146
0.71
147
1.5
 71
     0
 72
     0
 73
     0
 74
     0
 75
     1
 76
     1
 77
     3
 78
     8
170
     0
171
     2
172
     1
173
     1
174
     0
175
     0
176
   256
177
   256
178
     2
270
     2
271
     2
272
     2
273
     2
274
     2
340
6B
275
     0
280
     0
281
     0
282
     0
283
     0
284
     0
285
     0
286
     0
287
     3
288
     0
  0
DIMSTYLE
105
B34
102
{ACAD_REACTORS
330
299F
102
}
330
A
100
AcDbSymbolTableRecord
100
AcDbDimStyleTableRecord
  2
AM_JIS$2
 70
     0
  3

  4
"
  5
OPEN30
  6

  7

 40
0.5
 41
2.5
 42
1.0
 43
12.0
 44
1.0
 45
0.0
 46
0.0
 47
0.1
 48
0.1
140
3.2
141
0.0
142
0.0
143
0.0393701
144
1.0
145
0.0
146
0.71
147
1.5
 71
     0
 72
     0
 73
     0
 74
     0
 75
     0
 76
     0
 77
     3
 78
     8
170
     0
171
     2
172
     1
173
     0
174
     0
175
     0
176
   256
177
   256
178
     2
270
     2
271
     3
272
     3
273
     2
274
     2
340
6B
275
     0
280
     0
281
     0
282
     0
283
     0
284
     0
285
     0
286
     0
287
     3
288
     0
  0
DIMSTYLE
105
BA5
102
{ACAD_REACTORS
330
CC6
330
DF5
330
2424
330
254C
102
}
330
A
100
AcDbSymbolTableRecord
100
AcDbDimStyleTableRecord
  2
AM_JIS$0
 70
     0
  3

  4
"
  5
OPEN30
  6

  7

 40
0.5
 41
2.5
 42
0.0
 43
10.0
 44
1.0
 45
0.0
 46
0.0
 47
0.1
 48
0.1000000001
140
3.799999999999999
141
0.0
142
0.0
143
0.0393701
144
1.0
145
0.0
146
0.71
147
1.5
 71
     0
 72
     0
 73
     0
 74
     0
 75
     0
 76
     0
 77
     3
 78
     1
170
     0
171
     2
172
     1
173
     0
174
     0
175
     0
176
     3
177
     3
178
     2
270
     2
271
     2
272
     2
273
     2
274
     2
340
11
275
     1
280
     0
281
     0
282
     0
283
     0
284
     8
285
     0
286
     0
287
     0
288
     0
  0
ENDTAB
  0
TABLE
  2
BLOCK_RECORD
  5
1
330
0
100
AcDbSymbolTable
 70
    10
  0
BLOCK_RECORD
  5
1F
102
{ACAD_XDICTIONARY
360
74
102
}
330
1
100
AcDbSymbolTableRecord
100
AcDbBlockTableRecord
  2
*MODEL_SPACE
  0
BLOCK_RECORD
  5
101
102
{ACAD_XDICTIONARY
360
2CCE
102
}
330
1
100
AcDbSymbolTableRecord
100
AcDbBlockTableRecord
  2
*PAPER_SPACE
  0
BLOCK_RECORD
  5
59
330
1
100
AcDbSymbolTableRecord
100
AcDbBlockTableRecord
  2
_OPEN30
  0
BLOCK_RECORD
  5
64
330
1
100
AcDbSymbolTableRecord
100
AcDbBlockTableRecord
  2
GENAXEH
  0
BLOCK_RECORD
  5
CC8
330
1
100
AcDbSymbolTableRecord
100
AcDbBlockTableRecord
  2
*D5
  0
BLOCK_RECORD
  5
DF6
330
1
100
AcDbSymbolTableRecord
100
AcDbBlockTableRecord
  2
*D6
  0
BLOCK_RECORD
  5
2425
330
1
100
AcDbSymbolTableRecord
100
AcDbBlockTableRecord
  2
*D7
  0
BLOCK_RECORD
  5
254D
330
1
100
AcDbSymbolTableRecord
100
AcDbBlockTableRecord
  2
*D8
  0
BLOCK_RECORD
  5
29A0
330
1
100
AcDbSymbolTableRecord
100
AcDbBlockTableRecord
  2
*D9
  0
ENDTAB
  0
ENDSEC
  0
SECTION
  2
BLOCKS
  0
BLOCK
  5
20
330
1F
100
AcDbEntity
  8
0
100
AcDbBlockBegin
  2
*MODEL_SPACE
 70
     0
 10
0.0
 20
0.0
 30
0.0
  3
*MODEL_SPACE
  1

  0
ENDBLK
  5
21
330
1F
100
AcDbEntity
  8
0
100
AcDbBlockEnd
  0
BLOCK
  5
103
330
101
100
AcDbEntity
 67
     1
  8
0
100
AcDbBlockBegin
  2
*PAPER_SPACE
 70
     0
 10
0.0
 20
0.0
 30
0.0
  3
*PAPER_SPACE
  1

  0
ENDBLK
  5
104
330
101
100
AcDbEntity
 67
     1
  8
0
100
AcDbBlockEnd
  0
BLOCK
  5
5D
330
59
100
AcDbEntity
  8
0
100
AcDbBlockBegin
  2
_OPEN30
 70
     0
 10
0.0
 20
0.0
 30
0.0
  3
_OPEN30
  1

  0
LINE
  5
5A
330
59
100
AcDbEntity
  8
0
 62
     0
100
AcDbLine
 10
-1.0
 20
0.26794919
 30
0.0
 11
0.0
 21
0.0
 31
0.0
  0
LINE
  5
5B
330
59
100
AcDbEntity
  8
0
 62
     0
100
AcDbLine
 10
0.0
 20
0.0
 30
0.0
 11
-1.0
 21
-0.26794919
 31
0.0
  0
LINE
  5
5C
330
59
100
AcDbEntity
  8
0
 62
     0
100
AcDbLine
 10
0.0
 20
0.0
 30
0.0
 11
-1.0
 21
0.0
 31
0.0
  0
ENDBLK
  5
5E
330
59
100
AcDbEntity
  8
0
100
AcDbBlockEnd
  0
BLOCK
  5
66
330
64
100
AcDbEntity
  8
0
100
AcDbBlockBegin
  2
GENAXEH
 70
     0
 10
0.0
 20
0.0
 30
0.0
  3
GENAXEH
  1

  0
LINE
  5
65
330
64
100
AcDbEntity
  8
0
100
AcDbLine
 10
-1.0
 20
0.0
 30
0.0
 11
1.0
 21
0.0
 31
0.0
  0
ENDBLK
  5
67
330
64
100
AcDbEntity
  8
0
100
AcDbBlockEnd
  0
BLOCK
  5
CD2
330
CC8
100
AcDbEntity
  8
0
100
AcDbBlockBegin
  2
*D5
 70
     1
 10
0.0
 20
0.0
 30
0.0
  3
*D5
  1

  0
LINE
  5
2C51
330
CC8
100
AcDbEntity
  8
AM_5
 62
     3
100
AcDbLine
 10
-82.99999999999995
 20
-2.750000000000173
 30
0.0
 11
-82.99999999999995
 21
-15.50000099999999
 31
0.0
  0
LINE
  5
2C52
330
CC8
100
AcDbEntity
  8
AM_5
 62
     3
100
AcDbLine
 10
-0.9999999999999584
 20
-2.649999853618084
 30
0.0
 11
-0.9999999999999591
 21
-15.50000099999999
 31
0.0
  0
LINE
  5
2C53
330
CC8
100
AcDbEntity
  8
AM_5
 62
     3
100
AcDbLine
 10
-81.74999999999995
 20
-15.00000099999999
 30
0.0
 11
-2.249999999999959
 21
-15.00000099999999
 31
0.0
  0
INSERT
  5
2C54
330
CC8
100
AcDbEntity
  8
AM_5
 62
     3
100
AcDbBlockReference
  2
_OPEN30
 10
-82.99999999999995
 20
-15.00000099999999
 30
0.0
 41
1.25
 42
1.25
 43
1.25
 50
180.0
  0
INSERT
  5
2C55
330
CC8
100
AcDbEntity
  8
AM_5
 62
     3
100
AcDbBlockReference
  2
_OPEN30
 10
-0.9999999999999591
 20
-15.00000099999999
 30
0.0
 41
1.25
 42
1.25
 43
1.25
  0
MTEXT
  5
2C56
330
CC8
100
AcDbEntity
  8
AM_5
 62
     2
100
AcDbMText
 10
-41.99999999999994
 20
-13.30000099999999
 30
0.0
 40
1.9
 41
0.0
 71
     5
 72
     1
  1
82
1001
ACAD
1000
MTEXTBEGIN
1070
    73
1070
     1
1070
    44
1040
1.0
1070
    74
1070
     0
1000
MTEXTEND
  0
POINT
  5
2C57
330
CC8
100
AcDbEntity
  8
DEFPOINTS
 62
     0
100
AcDbPoint
 10
-82.99999999999995
 20
-2.750000000000173
 30
0.0
  0
POINT
  5
2C58
330
CC8
100
AcDbEntity
  8
DEFPOINTS
 62
     0
100
AcDbPoint
 10
-0.9999999999999584
 20
-2.649999853618084
 30
0.0
  0
POINT
  5
2C59
330
CC8
100
AcDbEntity
  8
DEFPOINTS
 62
     0
100
AcDbPoint
 10
-0.9999999999999591
 20
-15.00000099999999
 30
0.0
  0
ENDBLK
  5
CD3
330
CC8
100
AcDbEntity
  8
0
100
AcDbBlockEnd
  0
BLOCK
  5
E00
330
DF6
100
AcDbEntity
  8
0
100
AcDbBlockBegin
  2
*D6
 70
     1
 10
0.0
 20
0.0
 30
0.0
  3
*D6
  1

  0
LINE
  5
2C6E
330
DF6
100
AcDbEntity
  8
AM_5
 62
     3
100
AcDbLine
 10
-30.99999999999996
 20
-3.000000000000055
 30
0.0
 11
-30.99999999999996
 21
-10.50000099999996
 31
0.0
  0
LINE
  5
2C6F
330
DF6
100
AcDbEntity
  8
AM_5
 62
     3
100
AcDbLine
 10
-0.9999999999999584
 20
-2.649999853618084
 30
0.0
 11
-0.9999999999999587
 21
-10.50000099999996
 31
0.0
  0
LINE
  5
2C70
330
DF6
100
AcDbEntity
  8
AM_5
 62
     3
100
AcDbLine
 10
-29.74999999999996
 20
-10.00000099999996
 30
0.0
 11
-2.249999999999958
 21
-10.00000099999996
 31
0.0
  0
INSERT
  5
2C71
330
DF6
100
AcDbEntity
  8
AM_5
 62
     3
100
AcDbBlockReference
  2
_OPEN30
 10
-30.99999999999996
 20
-10.00000099999996
 30
0.0
 41
1.25
 42
1.25
 43
1.25
 50
180.0
  0
INSERT
  5
2C72
330
DF6
100
AcDbEntity
  8
AM_5
 62
     3
100
AcDbBlockReference
  2
_OPEN30
 10
-0.9999999999999587
 20
-10.00000099999996
 30
0.0
 41
1.25
 42
1.25
 43
1.25
  0
MTEXT
  5
2C73
330
DF6
100
AcDbEntity
  8
AM_5
 62
     2
100
AcDbMText
 10
-15.99999999999995
 20
-8.300000999999964
 30
0.0
 40
1.9
 41
0.0
 71
     5
 72
     1
  1
30
1001
ACAD
1000
MTEXTBEGIN
1070
    73
1070
     1
1070
    44
1040
1.0
1070
    74
1070
     0
1000
MTEXTEND
  0
POINT
  5
2C74
330
DF6
100
AcDbEntity
  8
DEFPOINTS
 62
     0
100
AcDbPoint
 10
-30.99999999999996
 20
-3.000000000000055
 30
0.0
  0
POINT
  5
2C75
330
DF6
100
AcDbEntity
  8
DEFPOINTS
 62
     0
100
AcDbPoint
 10
-0.9999999999999584
 20
-2.649999853618084
 30
0.0
  0
POINT
  5
2C76
330
DF6
100
AcDbEntity
  8
DEFPOINTS
 62
     0
100
AcDbPoint
 10
-0.9999999999999587
 20
-10.00000099999996
 30
0.0
  0
ENDBLK
  5
E01
330
DF6
100
AcDbEntity
  8
0
100
AcDbBlockEnd
  0
BLOCK
  5
2431
330
2425
100
AcDbEntity
  8
0
100
AcDbBlockBegin
  2
*D7
 70
     1
 10
0.0
 20
0.0
 30
0.0
  3
*D7
  1

  0
LINE
  5
2C77
330
2425
100
AcDbEntity
  8
AM_5
 62
     3
100
AcDbLine
 10
-0.9999999999999587
 20
-2.649999853618084
 30
0.0
 11
8.925011198283794
 21
-2.649999853618087
 31
0.0
  0
LINE
  5
2C78
330
2425
100
AcDbEntity
  8
AM_5
 62
     3
100
AcDbLine
 10
-0.9999999999999337
 20
2.65000014638191
 30
0.0
 11
8.925011198283792
 21
2.650000146381907
 31
0.0
  0
LINE
  5
2C79
330
2425
100
AcDbEntity
  8
AM_5
 62
     3
100
AcDbLine
 10
8.425011198283792
 20
-3.899999853618087
 30
0.0
 11
8.42501119828379
 21
-5.149999853618087
 31
0.0
  0
LINE
  5
2C7A
330
2425
100
AcDbEntity
  8
AM_5
 62
     3
100
AcDbLine
 10
8.425011198283792
 20
3.900000146381907
 30
0.0
 11
8.425011198283796
 21
12.3500001463819
 31
0.0
  0
LINE
  5
2C7B
330
2425
100
AcDbEntity
  8
AM_5
 62
     3
100
AcDbLine
 10
8.425011198283792
 20
-2.649999853618087
 30
0.0
 11
8.425011198283792
 21
2.650000146381907
 31
0.0
  0
INSERT
  5
2C7C
330
2425
100
AcDbEntity
  8
AM_5
 62
     3
100
AcDbBlockReference
  2
_OPEN30
 10
8.425011198283792
 20
-2.649999853618087
 30
0.0
 41
1.25
 42
1.25
 43
1.25
 50
90.0
  0
INSERT
  5
2C7D
330
2425
100
AcDbEntity
  8
AM_5
 62
     3
100
AcDbBlockReference
  2
_OPEN30
 10
8.425011198283792
 20
2.650000146381907
 30
0.0
 41
1.25
 42
1.25
 43
1.25
 50
270.0
  0
MTEXT
  5
2C7E
330
2425
100
AcDbEntity
  8
AM_5
 62
     2
100
AcDbMText
 10
6.725011198283793
 20
8.750000146381909
 30
0.0
 40
1.9
 41
0.0
 71
     5
 72
     1
  1
%%c5.3
 11
0.0000000000000001
 21
1.0
 31
0.0
1001
ACAD
1000
MTEXTBEGIN
1070
    73
1070
     1
1070
    44
1040
1.0
1070
    74
1070
     0
1000
MTEXTEND
  0
POINT
  5
2C7F
330
2425
100
AcDbEntity
  8
DEFPOINTS
 62
     0
100
AcDbPoint
 10
-0.9999999999999587
 20
-2.649999853618084
 30
0.0
  0
POINT
  5
2C80
330
2425
100
AcDbEntity
  8
DEFPOINTS
 62
     0
100
AcDbPoint
 10
-0.9999999999999337
 20
2.65000014638191
 30
0.0
  0
POINT
  5
2C81
330
2425
100
AcDbEntity
  8
DEFPOINTS
 62
     0
100
AcDbPoint
 10
8.425011198283792
 20
2.650000146381907
 30
0.0
  0
ENDBLK
  5
2432
330
2425
100
AcDbEntity
  8
0
100
AcDbBlockEnd
  0
BLOCK
  5
2557
330
254D
100
AcDbEntity
  8
0
100
AcDbBlockBegin
  2
*D8
 70
     1
 10
0.0
 20
0.0
 30
0.0
  3
*D8
  1

  0
LINE
  5
2C5A
330
254D
100
AcDbEntity
  8
AM_5
 62
     3
100
AcDbLine
 10
-82.74999999999973
 20
2.999999999999881
 30
0.0
 11
-91.87502198083162
 21
2.999999999999864
 31
0.0
  0
LINE
  5
2C5B
330
254D
100
AcDbEntity
  8
AM_5
 62
     3
100
AcDbLine
 10
-82.74999999999961
 20
-3.000000000000668
 30
0.0
 11
-91.87502198083162
 21
-3.000000000000686
 31
0.0
  0
LINE
  5
2C5C
330
254D
100
AcDbEntity
  8
AM_5
 62
     3
100
AcDbLine
 10
-91.37502198083161
 20
1.749999999999864
 30
0.0
 11
-91.37502198083161
 21
-1.750000000000685
 31
0.0
  0
INSERT
  5
2C5D
330
254D
100
AcDbEntity
  8
AM_5
 62
     3
100
AcDbBlockReference
  2
_OPEN30
 10
-91.37502198083161
 20
2.999999999999864
 30
0.0
 41
1.25
 42
1.25
 43
1.25
 50
90.0000000000001
  0
INSERT
  5
2C5E
330
254D
100
AcDbEntity
  8
AM_5
 62
     3
100
AcDbBlockReference
  2
_OPEN30
 10
-91.37502198083161
 20
-3.000000000000685
 30
0.0
 41
1.25
 42
1.25
 43
1.25
 50
270.0000000000001
  0
MTEXT
  5
2C5F
330
254D
100
AcDbEntity
  8
AM_5
 62
     2
100
AcDbMText
 10
-93.07502198083161
 20
-0.0000000000004101
 30
0.0
 40
1.9
 41
0.0
 71
     5
 72
     1
  1
%%c6
 11
-0.000000000000002
 21
1.0
 31
0.0
1001
ACAD
1000
MTEXTBEGIN
1070
    73
1070
     1
1070
    44
1040
1.0
1070
    74
1070
     0
1000
MTEXTEND
  0
POINT
  5
2C60
330
254D
100
AcDbEntity
  8
DEFPOINTS
 62
     0
100
AcDbPoint
 10
-82.74999999999973
 20
3.000000000000065
 30
0.0
  0
POINT
  5
2C61
330
254D
100
AcDbEntity
  8
DEFPOINTS
 62
     0
100
AcDbPoint
 10
-82.74999999999961
 20
-3.000000000000485
 30
0.0
  0
POINT
  5
2C62
330
254D
100
AcDbEntity
  8
DEFPOINTS
 62
     0
100
AcDbPoint
 10
-91.37502198083161
 20
-3.000000000000482
 30
0.0
  0
ENDBLK
  5
2558
330
254D
100
AcDbEntity
  8
0
100
AcDbBlockEnd
  0
BLOCK
  5
29AE
330
29A0
100
AcDbEntity
  8
0
100
AcDbBlockBegin
  2
*D9
 70
     1
 10
0.0
 20
0.0
 30
0.0
  3
*D9
  1

  0
LINE
  5
2C63
330
29A0
100
AcDbEntity
  8
AM_5
100
AcDbLine
 10
0.1710100704081095
 20
-0.4698463108495743
 30
0.0
 11
5.472234143428625
 21
-15.03483986796905
 31
0.0
  0
LINE
  5
2C64
330
29A0
100
AcDbEntity
  8
AM_5
100
AcDbLine
 10
0.1710111357777003
 20
0.4698459230855616
 30
0.0
 11
5.472268234706838
 21
15.03482745971506
 31
0.0
  0
ARC
  5
2C65
330
29A0
100
AcDbEntity
  8
AM_5
100
AcDbCircle
 10
0.000000000000035
 20
0.0000000000000963
 30
0.0
 40
15.49974238467546
100
AcDbArc
 50
294.6219571253923
 51
65.37791295721693
  0
INSERT
  5
2C66
330
29A0
100
AcDbEntity
  8
AM_5
100
AcDbBlockReference
  2
_OPEN30
 10
5.301224073020557
 20
-14.5649935571194
 30
0.0
 41
1.25
 42
1.25
 43
1.25
 50
202.3109784861893
  0
INSERT
  5
2C67
330
29A0
100
AcDbEntity
  8
AM_5
100
AcDbBlockReference
  2
_OPEN30
 10
5.301257098929173
 20
14.56498153662959
 30
0.0
 41
1.25
 42
1.25
 43
1.25
 50
157.6888915964199
  0
MTEXT
  5
2C68
330
29A0
100
AcDbEntity
  8
AM_5
 62
     2
100
AcDbMText
 10
13.94974238466653
 20
-0.0000158154242444
 30
0.0
 40
1.6
 41
0.0
 71
     5
 72
     1
  1
140°
  7
ASAMI
 11
0.0000011337431117
 21
0.9999999999993573
 31
0.0
1001
ACAD
1000
MTEXTBEGIN
1070
    73
1070
     1
1070
    44
1040
1.0
1070
    74
1070
     0
1000
MTEXTEND
  0
POINT
  5
2C69
330
29A0
100
AcDbEntity
  8
DEFPOINTS
 62
     0
100
AcDbPoint
 10
14.23210846450061
 20
-6.139145107097153
 30
0.0
  0
POINT
  5
2C6A
330
29A0
100
AcDbEntity
  8
DEFPOINTS
 62
     0
100
AcDbPoint
 10
0.000000000000032
 20
0.000000000000088
 30
0.0
  0
POINT
  5
2C6B
330
29A0
100
AcDbEntity
  8
DEFPOINTS
 62
     0
100
AcDbPoint
 10
0.0000000000000418
 20
0.0000000000000776
 30
0.0
  0
POINT
  5
2C6C
330
29A0
100
AcDbEntity
  8
DEFPOINTS
 62
     0
100
AcDbPoint
 10
-0.308222001509926
 20
0.8468329963645008
 30
0.0
  0
POINT
  5
2C6D
330
29A0
100
AcDbEntity
  8
DEFPOINTS
 62
     0
100
AcDbPoint
 10
-0.3082275505119727
 20
-0.8468422675056155
 30
0.0
  0
ENDBLK
  5
29AF
330
29A0
100
AcDbEntity
  8
0
100
AcDbBlockEnd
  0
ENDSEC
  0
SECTION
  2
ENTITIES
  0
LINE
  5
C1D
330
1F
100
AcDbEntity
  8
AM_0
 48
0.5
100
AcDbLine
 10
0.0000000000000418
 20
0.0000000000000776
 30
0.0
 11
-0.3082220015099261
 21
0.8468329963645008
 31
0.0
  0
LINE
  5
C20
330
1F
100
AcDbEntity
  8
AM_0
 48
0.5
100
AcDbLine
 10
0.000000000000032
 20
0.000000000000088
 30
0.0
 11
-0.3082275505119727
 21
-0.8468422675056155
 31
0.0
  0
LINE
  5
C9F
330
1F
100
AcDbEntity
  8
AM_7
100
AcDbLine
 10
-84.37502098083161
 20
0.0000000000000402
 30
0.0
 11
1.425010198283796
 21
0.0000000000000908
 31
0.0
1001
GENIUS_GENODEF_13
1002
{
1000
HIER
1070
     0
1002
}
1002
{
1000
MANEDIT
1070
     0
1002
}
1002
{
1000
NOSEL
1070
     0
1002
}
1002
{
1000
BEHIND
1070
     0
1002
}
1002
{
1000
REACTOR
1002
}
1001
GENIUS_GENOBJ-N-CEN_13
1002
{
1000
OWNER
1000
GEN
1002
}
  0
DIMENSION
  5
CC6
330
1F
100
AcDbEntity
  8
AM_5
100
AcDbDimension
  2
*D5
 10
-0.9999999999999591
 20
-15.00000099999999
 30
0.0
 11
-41.99999999999994
 21
-13.30000099999999
 31
0.0
 70
    32
  1
<>
  3
AM_JIS$0
100
AcDbAlignedDimension
 13
-82.99999999999995
 23
-2.750000000000173
 33
0.0
 14
-0.9999999999999584
 24
-2.649999853618084
 34
0.0
 50
0.0000000000001132
100
AcDbRotatedDimension
1001
GENIUS_GENDTOL_13
1000

1000
h7
1000

1040
0.0
1001
ACAD
1000
DSTYLE
1002
{
1070
   271
1070
     0
1002
}
  0
DIMENSION
  5
DF5
330
1F
100
AcDbEntity
  8
AM_5
100
AcDbDimension
  2
*D6
 10
-0.9999999999999587
 20
-10.00000099999996
 30
0.0
 11
-15.99999999999995
 21
-8.300000999999964
 31
0.0
 70
    32
  1
<>
  3
AM_JIS$0
100
AcDbAlignedDimension
 13
-30.99999999999996
 23
-3.000000000000055
 33
0.0
 14
-0.9999999999999584
 24
-2.649999853618084
 34
0.0
 50
0.0000000000001527
100
AcDbRotatedDimension
1001
GENIUS_GENDTOL_13
1000

1000
h7
1000

1040
0.0
1001
ACAD
1000
DSTYLE
1002
{
1070
   271
1070
     0
1002
}
  0
ARC
  5
144A
330
1F
100
AcDbEntity
  8
AM_11
 48
0.5
100
AcDbCircle
 10
-44.30277188618321
 20
-12.14665270677926
 30
0.0
 40
13.42998806635521
100
AcDbArc
 50
64.74833051131179
 51
115.2516644797366
  0
ARC
  5
144B
330
1F
100
AcDbEntity
  8
AM_11
 48
0.5
100
AcDbCircle
 10
-44.30277188618319
 20
12.14666095543174
 30
0.0
 40
13.42998806635521
100
AcDbArc
 50
244.7482808787518
 51
295.2516148471758
  0
ARC
  5
144E
330
1F
100
AcDbEntity
  8
AM_11
 48
0.5
100
AcDbCircle
 10
-32.84443855284987
 20
-12.14665270677926
 30
0.0
 40
13.42998806635521
100
AcDbArc
 50
64.74833051131179
 51
115.2516644797366
  0
ARC
  5
144F
330
1F
100
AcDbEntity
  8
AM_11
 48
0.5
100
AcDbCircle
 10
-32.84443855284987
 20
12.14666095543174
 30
0.0
 40
13.42998806635521
100
AcDbArc
 50
244.7482808787518
 51
295.2516148471758
  0
ARC
  5
1450
330
1F
100
AcDbEntity
  8
AM_11
 48
0.5
100
AcDbCircle
 10
-21.38610521951974
 20
12.14666095543174
 30
0.0
 40
13.42998806635521
100
AcDbArc
 50
244.7482808787518
 51
295.2516148471758
  0
ARC
  5
1451
330
1F
100
AcDbEntity
  8
AM_11
 48
0.5
100
AcDbCircle
 10
-21.38610521951974
 20
-12.14665270677926
 30
0.0
 40
13.42998806635521
100
AcDbArc
 50
64.74833051131179
 51
115.2516644797366
  0
ARC
  5
1452
330
1F
100
AcDbEntity
  8
AM_11
 48
0.5
100
AcDbCircle
 10
-9.927771886186411
 20
-12.14665270677926
 30
0.0
 40
13.42998806635521
100
AcDbArc
 50
64.74833051131179
 51
115.2516644797366
  0
ARC
  5
1453
330
1F
100
AcDbEntity
  8
AM_11
 48
0.5
100
AcDbCircle
 10
-9.927771886186411
 20
12.14666095543174
 30
0.0
 40
13.42998806635521
100
AcDbArc
 50
244.7482808787518
 51
295.2516148471758
  0
TEXT
  5
19BD
330
1F
100
AcDbEntity
  8
AM_6
100
AcDbText
 10
-53.24999999999992
 20
-26.25000100000002
 30
0.0
 40
2.5
  1
MDW053MHK
 50
0.0000000000001527
 72
     4
 11
-41.99999999999992
 21
-25.00000099999999
 31
0.0
100
AcDbText
  0
ARC
  5
1DAB
330
1F
100
AcDbEntity
  8
AM_11
 48
0.5
100
AcDbCircle
 10
-55.76108015507429
 20
-12.14665270677929
 30
0.0
 40
13.42998806635521
100
AcDbArc
 50
64.74833051131179
 51
115.2516644797366
  0
ARC
  5
1DAC
330
1F
100
AcDbEntity
  8
AM_11
 48
0.5
100
AcDbCircle
 10
-55.76108015507428
 20
12.1466609554317
 30
0.0
 40
13.42998806635521
100
AcDbArc
 50
244.7482808787518
 51
295.2516148471758
  0
ARC
  5
1DAD
330
1F
100
AcDbEntity
  8
AM_11
 48
0.5
100
AcDbCircle
 10
-67.21938842396538
 20
-12.14665270677933
 30
0.0
 40
13.42998806635521
100
AcDbArc
 50
64.74833051131179
 51
115.2516644797366
  0
ARC
  5
1DAE
330
1F
100
AcDbEntity
  8
AM_11
 48
0.5
100
AcDbCircle
 10
-67.21938842396537
 20
12.14666095543167
 30
0.0
 40
13.42998806635521
100
AcDbArc
 50
244.7482808787518
 51
295.2516148471758
  0
ARC
  5
1DAF
330
1F
100
AcDbEntity
  8
AM_11
 48
0.5
100
AcDbCircle
 10
-78.67769669285647
 20
-12.14665270677936
 30
0.0
 40
13.42998806635521
100
AcDbArc
 50
64.74833051131179
 51
108.7742185832982
  0
ARC
  5
1DB0
330
1F
100
AcDbEntity
  8
AM_11
 48
0.5
100
AcDbCircle
 10
-78.67769669285646
 20
12.14666095543164
 30
0.0
 40
13.42998806635521
100
AcDbArc
 50
251.2257814167015
 51
295.2516148471758
  0
LINE
  5
1F19
330
1F
100
AcDbEntity
  8
AM_0
100
AcDbLine
 10
-82.74999999999996
 20
-2.999999999999933
 30
0.0
 11
-82.74999999999995
 21
3.000000000000065
 31
0.0
  0
LINE
  5
1F1A
330
1F
100
AcDbEntity
  8
AM_0
 48
0.5
100
AcDbLine
 10
-82.99999999999995
 20
-2.750000000000158
 30
0.0
 11
-82.99999999999995
 21
2.749999999999841
 31
0.0
  0
LINE
  5
1F1B
330
1F
100
AcDbEntity
  8
AM_0
100
AcDbLine
 10
-82.99999999999995
 20
-2.750000000000158
 30
0.0
 11
-82.74999999999996
 21
-3.000000000000158
 31
0.0
1001
GENIUS_GENFIL_13
1070
     0
1040
0.25
1040
0.25
1040
20.0
1040
0.0
1002
{
1002
}
1001
GENIUS_GENODEF_13
1002
{
1000
HIER
1070
     0
1002
}
1002
{
1000
MANEDIT
1070
     0
1002
}
1002
{
1000
NOSEL
1070
     0
1002
}
1002
{
1000
BEHIND
1070
     0
1002
}
1002
{
1000
REACTOR
1002
}
1001
GENIUS_GENOBJ-N-CHA_13
1002
{
1000
OWNER
1000
GEN
1002
}
  0
LINE
  5
1F1C
330
1F
100
AcDbEntity
  8
AM_0
100
AcDbLine
 10
-82.99999999999995
 20
2.749999999999841
 30
0.0
 11
-82.74999999999995
 21
2.999999999999841
 31
0.0
1001
GENIUS_GENFIL_13
1070
     0
1040
0.25
1040
0.25
1040
20.0
1040
0.0
1002
{
1002
}
1001
GENIUS_GENODEF_13
1002
{
1000
HIER
1070
     0
1002
}
1002
{
1000
MANEDIT
1070
     0
1002
}
1002
{
1000
NOSEL
1070
     0
1002
}
1002
{
1000
BEHIND
1070
     0
1002
}
1002
{
1000
REACTOR
1002
}
1001
GENIUS_GENOBJ-N-CHA_13
1002
{
1000
OWNER
1000
GEN
1002
}
  0
LINE
  5
1F2F
330
1F
100
AcDbEntity
  8
AM_0
 48
0.5
100
AcDbLine
 10
-30.99999999999996
 20
-3.000000000000055
 30
0.0
 11
-30.99999999999994
 21
3.000000000000169
 31
0.0
  0
LINE
  5
1F31
330
1F
100
AcDbEntity
  8
AM_0
100
AcDbLine
 10
-82.74999999999995
 20
3.000000000000065
 30
0.0
 11
-30.99999999999994
 21
3.000000000000167
 31
0.0
  0
LINE
  5
1F32
330
1F
100
AcDbEntity
  8
AM_0
100
AcDbLine
 10
-82.74999999999996
 20
-3.000000000000158
 30
0.0
 11
-30.99999999999996
 21
-3.000000000000056
 31
0.0
  0
LINE
  5
1F5B
330
1F
100
AcDbEntity
  8
AM_0
100
AcDbLine
 10
-30.99999999999994
 20
3.000000000000169
 30
0.0
 11
-30.39378247089186
 21
2.650000146382147
 31
0.0
  0
LINE
  5
1F5C
330
1F
100
AcDbEntity
  8
AM_0
100
AcDbLine
 10
-30.99999999999996
 20
-3.000000000000055
 30
0.0
 11
-30.39378247089191
 21
-2.650000146382043
 31
0.0
  0
DIMENSION
  5
2424
330
1F
100
AcDbEntity
  8
AM_5
100
AcDbDimension
  2
*D7
 10
8.425011198283792
 20
2.650000146381907
 30
0.0
 11
8.425011198283792
 21
8.750000146381909
 31
0.0
 70
   160
  1
%%c<>
  3
AM_JIS$0
100
AcDbAlignedDimension
 13
-0.9999999999999587
 23
-2.649999853618084
 33
0.0
 14
-0.9999999999999337
 24
2.65000014638191
 34
0.0
 50
89.99999999999955
100
AcDbRotatedDimension
1001
ACAD
1000
DSTYLE
1002
{
1070
   271
1070
     1
1002
}
1001
GENIUS_GENDTOL_13
1000

1000
h7
1000

1040
0.0
  0
LINE
  5
2437
330
1F
100
AcDbEntity
  8
AM_0
 48
0.5
100
AcDbLine
 10
-0.823204624305564
 20
-2.308499132519706
 30
0.0
 11
-0.9999999999999587
 21
-2.649999853618084
 31
0.0
  0
LINE
  5
2442
330
1F
100
AcDbEntity
  8
AM_0
100
AcDbLine
 10
-30.39378247089191
 20
-2.650000146382043
 30
0.0
 11
-30.39378247089186
 21
2.650000146382151
 31
0.0
  0
ELLIPSE
  5
245F
330
1F
100
AcDbEntity
  8
AM_0
 48
0.5
100
AcDbEllipse
 10
3.875377709857074
 20
-3.30598927757614
 30
0.0
 11
-4.522585147891904
 21
1.89960735216737
 31
0.0
210
0.0
220
0.0
230
1.0
 40
0.670656747097513
 41
-0.1980062927602497
 42
0.2770693262937132
  0
DIMENSION
  5
254C
330
1F
100
AcDbEntity
  8
AM_5
100
AcDbDimension
  2
*D8
 10
-91.37502198083161
 20
-3.000000000000482
 30
0.0
 11
-93.07502198083161
 21
-0.000000000000222
 31
0.0
 70
    32
  1
%%c<>
 51
359.9999999999998
  3
AM_JIS$0
100
AcDbAlignedDimension
 13
-82.74999999999973
 23
3.000000000000065
 33
0.0
 14
-82.74999999999961
 24
-3.000000000000485
 34
0.0
 50
270.0000000000002
100
AcDbRotatedDimension
1001
ACAD
1000
DSTYLE
1002
{
1070
   271
1070
     0
1002
}
1001
GENIUS_GENDTOL_13
1000

1000
h7
1000

1040
0.0
  0
ELLIPSE
  5
270B
330
1F
100
AcDbEntity
  8
AM_0
 48
0.5
100
AcDbEllipse
 10
3.87537770985707
 20
3.305989277576325
 30
0.0
 11
-4.522585147891902
 21
-1.899607352167375
 31
0.0
210
0.0
220
0.0
230
-1.0
 40
0.670656747097513
 41
-0.1980062927602497
 42
0.2770693262937132
  0
LINE
  5
270C
330
1F
100
AcDbEntity
  8
AM_0
 48
0.5
100
AcDbLine
 10
-0.8232046243055666
 20
2.308499132519885
 30
0.0
 11
-0.9999999999999337
 21
2.65000014638191
 31
0.0
  0
DIMENSION
  5
299F
330
1F
100
AcDbEntity
  8
AM_5
100
AcDbDimension
  2
*D9
 10
-0.3082275505119727
 20
-0.8468422675056155
 30
0.0
 11
13.94974238466653
 21
-0.0000158154242733
 31
0.0
 70
    34
  1
<>
 51
359.9999999999998
  3
AM_JIS$2
100
AcDb2LineAngularDimension
 13
0.0000000000000418
 23
0.0000000000000776
 33
0.0
 14
-0.3082220015099261
 24
0.8468329963645008
 34
0.0
 15
0.000000000000032
 25
0.000000000000088
 35
0.0
 16
14.23210846450061
 26
-6.139145107097153
 36
0.0
1001
ACAD
1000
DSTYLE
1002
{
1070
   179
1070
     3
1002
}
1001
GENIUS_GENDTOL_13
1000

1000
h7
1000

1040
0.0
  0
LINE
  5
2BF7
330
1F
100
AcDbEntity
  8
AM_0
100
AcDbLine
 10
-30.39378196380953
 20
-2.649999853617893
 30
0.0
 11
-27.60815470754691
 21
-2.649999853617951
 31
0.0
1001
GENIUS_GENODEF_13
1002
{
1000
HIER
1070
     0
1002
}
1002
{
1000
MANEDIT
1070
     0
1002
}
1002
{
1000
NOSEL
1070
     0
1002
}
1002
{
1000
BEHIND
1070
     0
1002
}
1002
{
1000
REACTOR
1002
}
1001
GENIUS_GENOBJ-N-CEN_13
1002
{
1000
OWNER
1000
GEN
1002
}
  0
LINE
  5
2BF8
330
1F
100
AcDbEntity
  8
AM_0
100
AcDbLine
 10
-30.39378247089186
 20
2.650000146382148
 30
0.0
 11
-26.58354856897613
 21
2.650000146382075
 31
0.0
1001
GENIUS_GENODEF_13
1002
{
1000
HIER
1070
     0
1002
}
1002
{
1000
MANEDIT
1070
     0
1002
}
1002
{
1000
NOSEL
1070
     0
1002
}
1002
{
1000
BEHIND
1070
     0
1002
}
1002
{
1000
REACTOR
1002
}
1001
GENIUS_GENOBJ-N-CEN_13
1002
{
1000
OWNER
1000
GEN
1002
}
  0
LINE
  5
2BF9
330
1F
100
AcDbEntity
  8
AM_0
 48
0.5
100
AcDbLine
 10
-2.484100341793569
 20
2.650000146381929
 30
0.0
 11
-0.9999999999999337
 21
2.65000014638191
 31
0.0
  0
LINE
  5
2BFA
330
1F
100
AcDbEntity
  8
AM_0
 48
0.5
100
AcDbLine
 10
0.000000000000032
 20
0.0000000000000919
 30
0.0
 11
-1.36431897812815
 21
1.030970025161617
 31
0.0
  0
LINE
  5
2BFB
330
1F
100
AcDbEntity
  8
AM_0
 48
0.5
100
AcDbLine
 10
-2.715771530751983
 20
-2.649999853618071
 30
0.0
 11
-0.9999999999999541
 21
-2.649999853618091
 31
0.0
  0
LINE
  5
2BFC
330
1F
100
AcDbEntity
  8
AM_0
100
AcDbLine
 10
-21.0668546953079
 20
2.649998461565528
 30
0.0
 11
-11.21485519408831
 21
2.650000146382033
 31
0.0
  0
LINE
  5
2BFD
330
1F
100
AcDbEntity
  8
AM_0
 48
0.5
100
AcDbLine
 10
-21.079580619885
 20
-2.650013914183562
 30
0.0
 11
-11.36353184519846
 21
-2.650001538434815
 31
0.0
  0
LINE
  5
2BFE
330
1F
100
AcDbEntity
  8
AM_11
 48
0.5
100
AcDbLine
 10
-26.58552378636768
 20
2.65037494215824
 30
0.0
 11
-21.0668546953079
 21
2.649998461565528
 31
0.0
  0
LINE
  5
2BFF
330
1F
100
AcDbEntity
  8
AM_0
 48
0.5
100
AcDbLine
 10
-22.29486721421854
 20
1.248845018531819
 30
0.0
 11
-28.49999999999994
 21
-0.2144559953724507
 31
0.0
  0
LINE
  5
2C00
330
1F
100
AcDbEntity
  8
AM_11
 48
0.5
100
AcDbLine
 10
-27.5961159853562
 20
-2.65000090720616
 30
0.0
 11
-21.079580619885
 21
-2.650013914183562
 31
0.0
  0
ELLIPSE
  5
2C01
330
1F
100
AcDbEntity
  8
AM_11
 48
0.5
100
AcDbEllipse
 10
1.530561447146961
 20
12.38025058919004
 30
0.0
 11
-0.0000000000001494
 21
13.68825706763127
 31
0.0
210
0.0
220
0.0
230
1.0
 40
0.9811320754717009
 41
2.700867013135191
 42
2.862597064175881
  0
LINE
  5
2C02
330
1F
100
AcDbEntity
  8
AM_11
 48
0.5
100
AcDbLine
 10
-11.21485519408831
 20
2.650000146382034
 30
0.0
 11
-2.484100341793569
 21
2.650000146381929
 31
0.0
  0
LINE
  5
2C03
330
1F
100
AcDbEntity
  8
AM_11
 48
0.5
100
AcDbLine
 10
-11.36353184519846
 20
-2.650001538434815
 30
0.0
 11
-2.715771530751983
 21
-2.650001538435129
 31
0.0
  0
SPLINE
  5
2C04
330
1F
100
AcDbEntity
  8
AM_0
 48
0.5
100
AcDbSpline
210
0.0
220
0.0
230
1.0
 70
     8
 71
     3
 72
    10
 73
     6
 74
     0
 42
0.0000000001
 43
0.0000000001
 40
0.0
 40
0.0
 40
0.0
 40
0.0
 40
2.69986029516136
 40
4.147722969032201
 40
6.285750005020438
 40
6.285750005020438
 40
6.285750005020438
 40
6.285750005020438
 10
-3.024559656775717
 20
0.4796360208122236
 30
0.0
 10
-2.694692144898299
 20
0.2334327084868872
 30
0.0
 10
-2.187925532491175
 20
-0.1448028377796206
 30
0.0
 10
-0.9894905693326048
 20
0.0383076162957513
 30
0.0
 10
-1.215190731525437
 20
0.6550478547410974
 30
0.0
 10
-1.364318978128149
 20
1.030970025161617
 30
0.0
  0
SPLINE
  5
2C05
330
1F
100
AcDbEntity
  8
AM_0
 48
0.5
100
AcDbSpline
210
0.0
220
0.0
230
1.0
 70
     8
 71
     3
 72
    25
 73
    21
 74
     0
 42
0.0000000001
 43
0.0000000001
 40
6.846175049578289
 40
6.846175049578289
 40
6.846175049578289
 40
6.846175049578289
 40
7.604337694224321
 40
8.711974558287883
 40
9.814980593243754
 40
10.91239053451967
 40
12.0033633515982
 40
13.08720139956839
 40
14.16337181880432
 40
15.23152222380919
 40
16.29148850140128
 40
17.34331105512262
 40
18.38723020264746
 40
19.42369128463655
 40
20.45333379090873
 40
21.47697865721768
 40
22.49561244472435
 40
23.5103574802404
 40
24.52244778960836
 40
25.53320666051913
 40
25.53320666051913
 40
25.53320666051913
 40
25.53320666051913
 10
-3.024633756897686
 20
0.4796674955366571
 30
0.0
 10
-3.129920368228544
 20
0.5261967825290096
 30
0.0
 10
-3.389246916617653
 20
0.6402373723177077
 30
0.0
 10
-3.80299878889353
 20
0.8193221509305812
 30
0.0
 10
-4.265970732947764
 20
1.014663916694776
 30
0.0
 10
-4.728965960161746
 20
1.20376456678261
 30
0.0
 10
-5.191988448527354
 20
1.385461404053854
 30
0.0
 10
-5.655043357257762
 20
1.558633450195987
 30
0.0
 10
-6.118134968156388
 20
1.722212770498041
 30
0.0
 10
-6.581265425093501
 20
1.875194051636403
 30
0.0
 10
-7.044440432648217
 20
2.016625242241925
 30
0.0
 10
-7.507659363626296
 20
2.145639080940034
 30
0.0
 10
-7.970925545232126
 20
2.261430522728065
 30
0.0
 10
-8.434237342578025
 20
2.363282952426045
 30
0.0
 10
-8.897592945733983
 20
2.450572087511931
 30
0.0
 10
-9.360989776343838
 20
2.522719335110413
 30
0.0
 10
-9.824420624138976
 20
2.579394496557422
 30
0.0
 10
-10.28788038164112
 20
2.619827782546638
 30
0.0
 10
-10.75136152550184
 20
2.64527153409056
 30
0.0
 10
-11.06042511306613
 20
2.648424634074563
 30
0.0
 10
-11.21485519408831
 20
2.650000146382033
 30
0.0
  0
SPLINE
  5
2C06
330
1F
100
AcDbEntity
  8
AM_0
 48
0.5
100
AcDbSpline
210
0.0
220
0.0
230
1.0
 70
     8
 71
     3
 72
    17
 73
    13
 74
     0
 42
0.0000000001
 43
0.0000000001
 40
0.0
 40
0.0
 40
0.0
 40
0.0
 40
1.010743614677189
 40
2.022833924044153
 40
3.037578959561199
 40
4.056212747067873
 40
5.079857613375832
 40
6.109500119648989
 40
7.14596120163808
 40
8.18989512056258
 40
9.241717674284874
 40
9.693948937866434
 40
9.693948937866434
 40
9.693948937866434
 40
9.693948937866434
 10
-2.484100341793569
 20
2.650000146381929
 30
0.0
 10
-2.638528090324424
 20
2.648424596818561
 30
0.0
 10
-2.947589343846923
 20
2.645271398460943
 30
0.0
 10
-3.411068164388017
 20
2.619827794535964
 30
0.0
 10
-3.874527903775096
 20
2.579394456281991
 30
0.0
 10
-4.337958819910565
 20
2.522719485101447
 30
0.0
 10
-4.801355393466479
 20
2.450571523692961
 30
0.0
 10
-5.264711964511768
 20
2.363285075826318
 30
0.0
 10
-5.7280223140225
 20
2.261422033233085
 30
0.0
 10
-6.191304420300018
 20
2.145668164149815
 30
0.0
 10
-6.565277817159969
 20
2.041391425639313
 30
0.0
 10
-6.784896922260178
 20
1.976203468419108
 30
0.0
 10
-6.850814794900609
 20
1.956249871101344
 30
0.0
  0
SPLINE
  5
2C07
330
1F
100
AcDbEntity
  8
AM_0
100
AcDbSpline
210
0.0
220
0.0
230
1.0
 70
     8
 71
     3
 72
    55
 73
    51
 74
     0
 42
0.0000000001
 43
0.0000000001
 40
0.0
 40
0.0
 40
0.0
 40
0.0
 40
1.010743684496582
 40
2.022833576467832
 40
3.037578957496688
 40
4.056212745003489
 40
5.079857003664532
 40
6.109500240690281
 40
7.145961322679372
 40
8.189895241603872
 40
9.241717795325891
 40
10.30168407291828
 40
11.36983447792315
 40
12.44600489715814
 40
13.52984294512926
 40
14.62081576220742
 40
15.7182257034828
 40
16.82123173843959
 40
17.92886860250316
 40
19.0400688939571
 40
20.15368796660465
 40
21.26852814259644
 40
22.38336992938901
 40
23.49698739941135
 40
24.6081876908653
 40
25.71582455492886
 40
26.81883757994213
 40
27.91624752121713
 40
29.00722033829659
 40
30.09105838626677
 40
31.16722880550176
 40
32.23537921050758
 40
33.29534548809967
 40
34.347168041821
 40
35.39108718934584
 40
36.42754827133493
 40
37.45720575381954
 40
38.48085062012849
 40
39.49948440763516
 40
40.51422944315121
 40
41.52631975251916
 40
42.53706336719636
 40
43.54780698187354
 40
44.55989729124051
 40
45.57464232675757
 40
46.59327611426424
 40
47.6169209805722
 40
48.64656348684535
 40
49.68302456883444
 40
50.58557219878025
 40
50.58557219878025
 40
50.58557219878025
 40
50.58557219878025
 10
-2.715771530751983
 20
-2.650001538435124
 30
0.0
 10
-2.868731261582903
 20
-2.648424852635292
 30
0.0
 10
-3.174854450001728
 20
-2.645269381051003
 30
0.0
 10
-3.633927828566729
 20
-2.619832737620188
 30
0.0
 10
-4.09298161102012
 20
-2.579395119357796
 30
0.0
 10
-4.552006982551219
 20
-2.522720259404645
 30
0.0
 10
-5.010999362809427
 20
-2.450576210773466
 30
0.0
 10
-5.46994969690131
 20
-2.363283786551584
 30
0.0
 10
-5.928859519995374
 20
-2.26143101962223
 30
0.0
 10
-6.387724762488926
 20
-2.145641607597264
 30
0.0
 10
-6.846542298673404
 20
-2.016626490442259
 30
0.0
 10
-7.305314415500558
 20
-1.875195482711154
 30
0.0
 10
-7.764042341653598
 20
-1.722214151867132
 30
0.0
 10
-8.222731808570564
 20
-1.558634845554602
 30
0.0
 10
-8.68138491630264
 20
-1.385462793658751
 30
0.0
 10
-9.140005917819904
 20
-1.203765965350669
 30
0.0
 10
-9.598599899291317
 20
-1.014665284960627
 30
0.0
 10
-10.05717088558251
 20
-0.8193236322029056
 30
0.0
 10
-10.51572332717716
 20
-0.6189424342317502
 30
0.0
 10
-10.97426213078121
 20
-0.4147550135141881
 30
0.0
 10
-11.43279131821653
 20
-0.2080166303991335
 30
0.0
 10
-11.89131736462544
 20
-0.0000020791310597
 30
0.0
 10
-12.34984135263607
 20
0.2080162165285625
 30
0.0
 10
-12.80837207696127
 20
0.4147513801801728
 30
0.0
 10
-13.26691031449305
 20
0.6189394189614255
 30
0.0
 10
-13.72546357368163
 20
0.8193213802956289
 30
0.0
 10
-14.18403646234524
 20
1.014661365973375
 30
0.0
 10
-14.64263116759912
 20
1.203763005366986
 30
0.0
 10
-15.10125223532599
 20
1.385459686337667
 30
0.0
 10
-15.55990532636915
 20
1.558631774650949
 30
0.0
 10
-16.01859479446061
 20
1.722211081202771
 30
0.0
 10
-16.47732273229785
 20
1.875192375466655
 30
0.0
 10
-16.93609480177471
 20
2.016623527611839
 30
0.0
 10
-17.39491036612995
 20
2.145637505564995
 30
0.0
 10
-17.853772771072
 20
2.261428434142375
 30
0.0
 10
-18.31268242393434
 20
2.363283249202742
 30
0.0
 10
-18.77163603508542
 20
2.45056570341802
 30
0.0
 10
-19.23062993172474
 20
2.522732082157354
 30
0.0
 10
-19.68965543933151
 20
2.579339761379206
 30
0.0
 10
-20.1487095407494
 20
2.620022942566563
 30
0.0
 10
-20.60778253007488
 20
2.644537566568147
 30
0.0
 10
-21.0668656072509
 20
2.652727091281433
 30
0.0
 10
-21.52594868375144
 20
2.644537566555336
 30
0.0
 10
-21.98502167510728
 20
2.620022942618133
 30
0.0
 10
-22.44407576904996
 20
2.579339761185164
 30
0.0
 10
-22.90310130468314
 20
2.52273208288696
 30
0.0
 10
-23.36209285827782
 20
2.450566052497808
 30
0.0
 10
-23.82104466132639
 20
2.363284141618842
 30
0.0
 10
-24.25908868818607
 20
2.266051997899549
 30
0.0
 10
-24.5432966413998
 20
2.194945211996691
 30
0.0
 10
-24.6751525668534
 20
2.160291406428306
 30
0.0
  0
SPLINE
  5
2C08
330
1F
100
AcDbEntity
  8
AM_0
100
AcDbSpline
210
0.0
220
0.0
230
1.0
 70
     8
 71
     3
 72
    23
 73
    19
 74
     0
 42
0.0000000001
 43
0.0000000001
 40
16.03460024169435
 40
16.03460024169435
 40
16.03460024169435
 40
16.03460024169435
 40
16.35212704903564
 40
17.38177054169784
 40
18.41822485651776
 40
19.46214173629503
 40
20.51396345435107
 40
21.57393551351153
 40
22.64208202342361
 40
23.7182574881101
 40
24.80209208578934
 40
25.89306333925047
 40
26.99048218457928
 40
28.09348763352352
 40
29.20111863782268
 40
30.31232390128032
 40
31.42594612798585
 40
32.5407912310448
 40
32.5407912310486
 40
32.5407912310486
 40
32.5407912310486
 10
-26.58552378636768
 20
2.650374942158236
 30
0.0
 10
-26.53835963851005
 20
2.641429008822217
 30
0.0
 10
-26.33845725521664
 20
2.602471987031917
 30
0.0
 10
-25.98632705424417
 20
2.526141648424878
 30
0.0
 10
-25.53031752216162
 20
2.412639269656651
 30
0.0
 10
-25.07473155318174
 20
2.285195017231086
 30
0.0
 10
-24.61954222636624
 20
2.144546473477902
 30
0.0
 10
-24.16473338623925
 20
1.991477757177192
 30
0.0
 10
-23.71027874593984
 20
1.82686387366243
 30
0.0
 10
-23.25614665897418
 20
1.651662834444619
 30
0.0
 10
-22.80231131992601
 20
1.466866792794004
 30
0.0
 10
-22.34873634317055
 20
1.273551033818475
 30
0.0
 10
-21.89538497152809
 20
1.072839192230978
 30
0.0
 10
-21.44222699948981
 20
0.8658852769768225
 30
0.0
 10
-20.98922451187851
 20
0.6538926967320355
 30
0.0
 10
-20.53633555106987
 20
0.4380993326354025
 30
0.0
 10
-20.08352323911812
 20
0.2197556487970496
 30
0.0
 10
-19.78172944796964
 20
0.0733681476926668
 30
0.0
 10
-19.63075025136688
 20
0.0001332475349213
 30
0.0
  0
SPLINE
  5
2C09
330
1F
100
AcDbEntity
  8
AM_0
100
AcDbSpline
210
0.0
220
0.0
230
1.0
 70
     8
 71
     3
 72
    17
 73
    13
 74
     0
 42
0.0000000001
 43
0.0000000001
 40
1.580019955310467
 40
1.580019955310467
 40
1.580019955310467
 40
1.580019955310467
 40
2.030549285115227
 40
3.082371838836284
 40
4.126290986361125
 40
5.162752068350215
 40
6.192395305374981
 40
7.216039564037012
 40
8.234688489606833
 40
9.249433870634691
 40
10.26152376260694
 40
11.27226744710342
 40
11.27226744710342
 40
11.27226744710342
 40
11.27226744710352
 10
-7.039314341436312
 20
-1.955779571899425
 30
0.0
 10
-7.104265561872016
 20
-1.975922460905174
 30
0.0
 10
-7.321224459281922
 20
-2.041943470088941
 30
0.0
 10
-7.691627100715565
 20
-2.145499785266363
 30
0.0
 10
-8.150425567455155
 20
-2.261469120580171
 30
0.0
 10
-8.609350340983086
 20
-2.363274799546239
 30
0.0
 10
-9.068296142283958
 20
-2.450574935813457
 30
0.0
 10
-9.527291944907332
 20
-2.522734503974647
 30
0.0
 10
-9.986319458233623
 20
-2.579341721192279
 30
0.0
 10
-10.44537555428737
 20
-2.620029753757772
 30
0.0
 10
-10.90444892311515
 20
-2.644536688080329
 30
0.0
 10
-11.21057211638549
 20
-2.650001553598257
 30
0.0
 10
-11.36353184519841
 20
-2.650001538434815
 30
0.0
  0
SPLINE
  5
2C0A
330
1F
100
AcDbEntity
  8
AM_0
100
AcDbSpline
210
0.0
220
0.0
230
1.0
 70
     8
 71
     3
 72
    22
 73
    18
 74
     0
 42
0.0000000001
 43
0.0000000001
 40
17.17441611292
 40
17.17441611292
 40
17.17441611292
 40
17.17441611292
 40
17.38177636558528
 40
18.41823744757437
 40
19.46215659509824
 40
20.51397914882054
 40
21.57394542641293
 40
22.64209583141747
 40
23.71826625065247
 40
24.80210429862395
 40
25.8930771157021
 40
26.99048705697709
 40
28.09349309193389
 40
29.20112995599786
 40
30.31233024745139
 40
31.42594771747373
 40
32.5407895042663
 40
32.54078950426994
 40
32.54078950426994
 40
32.54078950426994
 10
-13.11571323331685
 20
-2.379720718204755
 30
0.0
 10
-13.14645344054595
 20
-2.373586228121446
 30
0.0
 10
-13.33072419467943
 20
-2.336220378507707
 30
0.0
 10
-13.66829783263633
 20
-2.261296986758547
 30
0.0
 10
-14.12716017196369
 20
-2.145505725512918
 30
0.0
 10
-14.58597575418189
 20
-2.016491837888579
 30
0.0
 10
-15.04474781850319
 20
-1.875060660561473
 30
0.0
 10
-15.50347575892164
 20
-1.722079375757252
 30
0.0
 10
-15.9621652218462
 20
-1.55850005670306
 30
0.0
 10
-16.42081833113806
 20
-1.385328009262052
 30
0.0
 10
-16.87943933042913
 20
-1.203631175962065
 30
0.0
 10
-17.33803331929413
 20
-1.014530511175862
 30
0.0
 10
-17.79660427805217
 20
-0.8191888006097675
 30
0.0
 10
-18.25515682296142
 20
-0.618807819475966
 30
0.0
 10
-18.71369501869104
 20
-0.4146196839901892
 30
0.0
 10
-19.17222565808564
 20
-0.2078843453137237
 30
0.0
 10
-19.47785274829978
 20
-0.0692313389596192
 30
0.0
 10
-19.63075025136891
 20
0.0001332475358664
 30
0.0
  0
SPLINE
  5
2C0B
330
1F
100
AcDbEntity
  8
AM_0
100
AcDbSpline
210
0.0
220
0.0
230
1.0
 70
     8
 71
     3
 72
    11
 73
     7
 74
     0
 42
0.0000000001
 43
0.0000000001
 40
11.27226913003534
 40
11.27226913003534
 40
11.27226913003534
 40
11.2722691300354
 40
12.28301561507924
 40
13.29510212255852
 40
14.30984805882082
 40
15.18258238371378
 40
15.18258238371378
 40
15.18258238371378
 40
15.18258238371378
 10
-11.36353184519845
 20
-2.650001538434815
 30
0.0
 10
-11.51590994581869
 20
-2.637031668349836
 30
0.0
 10
-11.82037873298566
 20
-2.605632177345905
 30
0.0
 10
-12.27550969368039
 20
-2.542291637345295
 30
0.0
 10
-12.70743700058816
 20
-2.466638307333921
 30
0.0
 10
-12.98678222907185
 20
-2.408481340966636
 30
0.0
 10
-13.11551246470526
 20
-2.379753405934489
 30
0.0
  0
SPLINE
  5
2C0C
330
1F
100
AcDbEntity
  8
AM_0
100
AcDbSpline
210
0.0
220
0.0
230
1.0
 70
     8
 71
     3
 72
    46
 73
    42
 74
     0
 42
0.0000000001
 43
0.0000000001
 40
0.0
 40
0.0
 40
0.0
 40
0.0
 40
0.5056245176053715
 40
0.759310862862336
 40
1.013969309739036
 40
1.269880374404297
 40
1.527291183660732
 40
1.786406454158005
 40
2.047386241038974
 40
2.310345544571907
 40
2.575337113970003
 40
2.842374715221223
 40
3.111417320030211
 40
3.382376832022752
 40
3.655120036292296
 40
3.929472521611371
 40
4.205224030350333
 40
4.482133246366229
 40
4.759933319229942
 40
5.038338087391601
 40
5.317048131389549
 40
5.595758175387723
 40
5.874162943549383
 40
6.151963016412869
 40
6.428872232428759
 40
6.704623741167955
 40
6.978976226486705
 40
7.251719430756336
 40
7.522680721168327
 40
7.791723325977311
 40
8.058760927228529
 40
8.32375249662655
 40
8.586708135057122
 40
8.84768792193809
 40
9.106803192435362
 40
9.364213819003406
 40
9.620125035580644
 40
9.87478726697307
 40
10.12847352585208
 40
10.38149610319407
 40
10.63418200686337
 40
10.63418200686337
 40
10.63418200686337
 40
10.63418200686337
 10
-1.430678008299047
 20
-2.650001538435173
 30
0.0
 10
-1.736816153408995
 20
-2.643964633587739
 30
0.0
 10
-2.196552600168768
 20
-2.634898840159779
 30
0.0
 10
-2.807884201721124
 20
-2.579082415498751
 30
0.0
 10
-3.26691450500358
 20
-2.522804611613288
 30
0.0
 10
-3.72590557212253
 20
-2.450553471103245
 30
0.0
 10
-4.184856193938332
 20
-2.363289743553972
 30
0.0
 10
-4.643764012731629
 20
-2.261430623924924
 30
0.0
 10
-5.102628259900792
 20
-2.145639659720711
 30
0.0
 10
-5.561446893337811
 20
-2.016627824602289
 30
0.0
 10
-6.020220830111138
 20
-1.875195297814242
 30
0.0
 10
-6.478948836258379
 20
-1.722214201977865
 30
0.0
 10
-6.937638281490349
 20
-1.55863483196654
 30
0.0
 10
-7.396291395129456
 20
-1.38546279739329
 30
0.0
 10
-7.854912394918824
 20
-1.203765964127047
 30
0.0
 10
-8.313506377344413
 20
-1.014665286095723
 30
0.0
 10
-8.772077361547063
 20
-0.8193236288730968
 30
0.0
 10
-9.23062981057947
 20
-0.618942446478982
 30
0.0
 10
-9.689168586404793
 20
-0.4147549676757895
 30
0.0
 10
-10.14769787780472
 20
-0.2080168019269252
 30
0.0
 10
-10.60622331472645
 20
-0.0000015384769318
 30
0.0
 10
-11.06474875154746
 20
0.2080137252258332
 30
0.0
 10
-11.52327804324954
 20
0.4147518902167353
 30
0.0
 10
-11.98181681797046
 20
0.6189393717899773
 30
0.0
 10
-12.44036927109801
 20
0.8193205439109712
 30
0.0
 10
-12.89894024011629
 20
1.014662239225248
 30
0.0
 10
-13.35753427877481
 20
1.203762776189811
 30
0.0
 10
-13.81615606758185
 20
1.385460526264464
 30
0.0
 10
-14.27481096332567
 20
1.558630987481996
 30
0.0
 10
-14.73350122678931
 20
1.722211196272304
 30
0.0
 10
-15.19222922225607
 20
1.87519233762871
 30
0.0
 10
-15.65100127443817
 20
2.016623564772694
 30
0.0
 10
-16.109816850861
 20
2.145637395594925
 30
0.0
 10
-16.56867922497709
 20
2.261428832817905
 30
0.0
 10
-17.02758677817865
 20
2.363281288288585
 30
0.0
 10
-17.48653773646895
 20
2.450570325757573
 30
0.0
 10
-17.9455317329043
 20
2.522718290712519
 30
0.0
 10
-18.40455967091998
 20
2.579392279853252
 30
0.0
 10
-18.86361600877082
 20
2.619826186872795
 30
0.0
 10
-19.32268901002524
 20
2.64526969440709
 30
0.0
 10
-19.62881232664525
 20
2.648422905592502
 30
0.0
 10
-19.78177208468547
 20
2.649998461565483
 30
0.0
  0
SPLINE
  5
2C0D
330
1F
100
AcDbEntity
  8
AM_0
 48
0.5
100
AcDbSpline
210
0.0
220
0.0
230
1.0
 70
     8
 71
     3
 72
    26
 73
    22
 74
     0
 42
0.0000000001
 43
0.0000000001
 40
0.0
 40
0.0
 40
0.0
 40
0.0
 40
0.2526859211241313
 40
0.5057083941171959
 40
0.7593947393741639
 40
1.01405318625086
 40
1.26996425091637
 40
1.527375060172565
 40
1.786490330669834
 40
2.047470117551047
 40
2.310425755981314
 40
2.575417325379407
 40
2.842456731169063
 40
3.111495753801943
 40
3.382458822635121
 40
3.655202026904655
 40
3.929554512223505
 40
4.205306020962704
 40
4.482215236978595
 40
4.76001530984208
 40
5.029821427366006
 40
5.029821427366006
 40
5.029821427366006
 40
5.029821427366006
 10
-19.79722441994585
 20
-2.65013787886675
 30
0.0
 10
-19.95018415079518
 20
-2.648561193135622
 30
0.0
 10
-20.25630733925098
 20
-2.645405721688831
 30
0.0
 10
-20.71538071753922
 20
-2.619969077224834
 30
0.0
 10
-21.17443450104852
 20
-2.57953146290479
 30
0.0
 10
-21.63345986861062
 20
-2.522856588132581
 30
0.0
 10
-22.09245226379387
 20
-2.450712595227024
 30
0.0
 10
-22.55140254168929
 20
-2.363419961184671
 30
0.0
 10
-23.0103103969776
 20
-2.261568468910867
 30
0.0
 10
-23.46917269991739
 20
-2.145776713073169
 30
0.0
 10
-23.9279883657137
 20
-2.0167631621699
 30
0.0
 10
-24.38676117043665
 20
-1.875330807272836
 30
0.0
 10
-24.84548921308159
 20
-1.722352947584982
 30
0.0
 10
-25.30417769116631
 20
-1.558767987232155
 30
0.0
 10
-25.76283273767203
 20
-1.38560093072743
 30
0.0
 10
-26.2214553435799
 20
-1.203902254061294
 30
0.0
 10
-26.68004892768044
 20
-1.014800809520345
 30
0.0
 10
-27.13862191150529
 20
-0.8194633121901182
 30
0.0
 10
-27.59716671662685
 20
-0.6190661648609935
 30
0.0
 10
-28.05100127035595
 20
-0.4170454588299185
 30
0.0
 10
-28.35168373723332
 20
-0.2813265314263036
 30
0.0
 10
-28.49999999999996
 20
-0.2144559953724488
 30
0.0
  0
SPLINE
  5
2C0E
330
1F
100
AcDbEntity
  8
AM_0
100
AcDbSpline
210
0.0
220
0.0
230
1.0
 70
     8
 71
     3
 72
    13
 73
     9
 74
     0
 42
0.0000000001
 43
0.0000000001
 40
16.03460056234195
 40
16.03460056234195
 40
16.03460056234195
 40
16.03460056234195
 40
16.35212717791071
 40
17.38177067057215
 40
18.41822498539278
 40
19.46214186516937
 40
20.5139635832251
 40
21.34083983469381
 40
21.34083983469381
 40
21.34083983469381
 40
21.34083983469381
 10
-27.59210487269414
 20
-2.650137878866439
 30
0.0
 10
-27.46213542906854
 20
-2.64143321481717
 30
0.0
 10
-27.26223288036001
 20
-2.602477261881951
 30
0.0
 10
-26.91010287133915
 20
-2.526146032100303
 30
0.0
 10
-26.45409328186987
 20
-2.412643968047021
 30
0.0
 10
-25.99850732843145
 20
-2.285199630391363
 30
0.0
 10
-25.57694044771805
 20
-2.154940078839923
 30
0.0
 10
-25.30798820157546
 20
-2.065247107505612
 30
0.0
 10
-25.19000046313659
 20
-2.024705067179993
 30
0.0
  0
SPLINE
  5
2C0F
330
1F
100
AcDbEntity
  8
AM_0
 48
0.5
100
AcDbSpline
210
0.0
220
0.0
230
1.0
 70
     8
 71
     3
 72
    22
 73
    18
 74
     0
 42
0.0000000001
 43
0.0000000001
 40
0.0
 40
0.0
 40
0.0
 40
0.0
 40
1.010743684496582
 40
2.022833993863546
 40
3.037578683882831
 40
4.056212471389632
 40
5.079857945358201
 40
6.109499720892564
 40
7.145961650132166
 40
8.189873411961459
 40
9.241710626092514
 40
10.30166235592959
 40
11.36982472628033
 40
12.44598212828784
 40
13.52983440361964
 40
14.62080578343036
 40
14.90544694398022
 40
14.90544694398022
 40
14.90544694398022
 40
14.90544694398022
 10
-21.06633288120563
 20
-2.650137878866702
 30
0.0
 10
-21.23527770245771
 20
-2.648561664104948
 30
0.0
 10
-21.54140101253755
 20
-2.645407134573288
 30
0.0
 10
-22.00047391007986
 20
-2.619963405472663
 30
0.0
 10
-22.459528189278
 20
-2.579532595027278
 30
0.0
 10
-22.91855380488895
 20
-2.522857682828099
 30
0.0
 10
-23.37754493500462
 20
-2.450706903471057
 30
0.0
 10
-23.83649679129216
 20
-2.363421816922969
 30
0.0
 10
-24.29540264847794
 20
-2.261566623470631
 30
0.0
 10
-24.75426566215876
 20
-2.145773191205694
 30
0.0
 10
-25.21308169959787
 20
-2.016764514961181
 30
0.0
 10
-25.67185315852278
 20
-1.875325756072695
 30
0.0
 10
-26.13058299632377
 20
-1.722356954029631
 30
0.0
 10
-26.58927086844089
 20
-1.55876750188448
 30
0.0
 10
-27.0479253678511
 20
-1.385599538513071
 30
0.0
 10
-27.39263627696487
 20
-1.24903786331405
 30
0.0
 10
-27.58472122468281
 20
-1.170983599427252
 30
0.0
 10
-27.556991932002
 20
-1.182324566367156
 30
0.0
  0
ELLIPSE
  5
2C10
330
1F
100
AcDbEntity
  8
AM_0
 48
0.5
100
AcDbEllipse
 10
16.7380515098753
 20
-21.30058237588427
 30
0.0
 11
0.0000000004498238
 21
27.50057363585949
 31
0.0
210
0.0
220
0.0
230
1.0
 40
0.9622641509436252
 41
0.6847922390617143
 42
0.7157204709764296
  0
ELLIPSE
  5
2C11
330
1F
100
AcDbEntity
  8
AM_0
 48
0.5
100
AcDbEllipse
 10
-4.759485880530287
 20
4.447660846861898
 30
0.0
 11
-6.630541364351049
 21
0.0000000000093656
 31
0.0
210
0.0
220
0.0
230
1.0
 40
0.9636363636364244
 41
2.0813796520247
 42
2.169874429704207
  0
ELLIPSE
  5
2C12
330
1F
100
AcDbEntity
  8
AM_0
 48
0.5
100
AcDbEllipse
 10
2.845227559410943
 20
-0.5890583481858427
 30
0.0
 11
4.399991438324827
 21
0.0012551591209998
 31
0.0
210
0.0
220
0.0
230
1.0
 40
0.9635935483834341
 41
3.268485040414286
 42
3.648910773128156
  0
ELLIPSE
  5
2C13
330
1F
100
AcDbEntity
  8
AM_0
 48
0.5
100
AcDbEllipse
 10
1.756413141890038
 20
3.181488183491241
 30
0.0
 11
-5.54247307777397
 21
0.000000000000324
 31
0.0
210
0.0
220
0.0
230
1.0
 40
0.9636363636363615
 41
0.5303675532341448
 42
0.9384884834290382
  0
ELLIPSE
  5
2C14
330
1F
100
AcDbEntity
  8
AM_0
 48
0.5
100
AcDbEllipse
 10
-0.8184388478562258
 20
-0.6906280007435115
 30
0.0
 11
-0.3992186995912716
 21
0.2168227152832338
 31
0.0
210
0.0
220
0.0
230
1.0
 40
0.4904155227295639
 41
4.463112215120983
 42
7.606552556450489
  0
ELLIPSE
  5
2C15
330
1F
100
AcDbEntity
  8
AM_0
 48
0.5
100
AcDbEllipse
 10
-0.8184388478562258
 20
-0.6906280007435115
 30
0.0
 11
-0.0816063127645385
 21
0.434594955196399
 31
0.0
210
0.0
220
0.0
230
0.9999999999999998
 40
0.51763528294953
 41
1.796901787460982
 42
4.932243677172958
  0
ELLIPSE
  5
2C16
330
1F
100
AcDbEntity
  8
AM_0
 48
0.5
100
AcDbEllipse
 10
-27.81925904760194
 20
-1.793717934103251
 30
0.0
 11
-0.680964626399897
 21
0.0000000000003215
 31
0.0
210
0.0
220
0.0
230
1.0
 40
0.9728846026885225
 41
4.317028824483524
 42
6.257553905069814
  0
ELLIPSE
  5
2C17
330
1F
100
AcDbEntity
  8
AM_0
 48
0.5
100
AcDbEllipse
 10
-27.59210458767272
 20
-1.766804545533142
 30
0.0
 11
-0.9079528351998639
 21
0.0000000000006152
 31
0.0
210
0.0
220
0.0
230
1.0
 40
0.9728846026885122
 41
0.011246774789818
 42
1.570796012879029
  0
VIEWPORT
  5
110
330
101
100
AcDbEntity
 67
     1
  8
0
100
AcDbViewport
 10
420.5
 20
297.0
 30
0.0
 40
948.9782706766916
 41
628.452
 68
     1
 69
     1
1001
ACAD
1000
MVIEW
1002
{
1070
    16
1010
0.0
1020
0.0
1030
0.0
1010
0.0
1020
0.0
1030
1.0
1040
0.0
1040
628.452
1040
420.5
1040
297.0
1040
50.0
1040
0.0
1040
0.0
1070
     0
1070
   100
1070
     1
1070
     1
1070
     0
1070
     0
1070
     0
1070
     0
1040
0.0
1040
0.0
1040
0.0
1040
10.0
1040
10.0
1040
10.0
1040
10.0
1070
     0
1002
{
1002
}
1002
}
  0
ENDSEC
  0
SECTION
  2
OBJECTS
  0
DICTIONARY
  5
C
330
0
100
AcDbDictionary
  3
ACAD_GROUP
350
D
  3
ACAD_LAYOUT
350
1A
  3
ACAD_MLINESTYLE
350
17
  3
ACAD_PLOTSETTINGS
350
19
  3
ACAD_PLOTSTYLENAME
350
E
  3
ACDBVARIABLEDICTIONARY
350
34
  3
ACMDICTIONARY
350
43
  3
AMG
350
2B
  3
AMGSNAPSETTINGS
350
6E
  3
DWGPROPS
350
2C9A
  3
ACDBHEADERROUNDTRIPXREC
350
2CA6
  0
DICTIONARY
  5
74
330
1F
100
AcDbDictionary
280
     1
  3
ACAD_INDEX
360
2C9C
  3
ACAD_LAYOUTSELFREF
360
2CC9
  0
DICTIONARY
  5
2CCE
330
101
100
AcDbDictionary
280
     1
  3
ACAD_LAYOUTSELFREF
360
2CCF
  0
DICTIONARY
  5
D
102
{ACAD_REACTORS
330
C
102
}
330
C
100
AcDbDictionary
  0
DICTIONARY
  5
1A
102
{ACAD_REACTORS
330
C
102
}
330
C
100
AcDbDictionary
  0
DICTIONARY
  5
17
102
{ACAD_REACTORS
330
C
102
}
330
C
100
AcDbDictionary
  3
STANDARD
350
18
  0
DICTIONARY
  5
19
102
{ACAD_REACTORS
330
C
102
}
330
C
100
AcDbDictionary
  0
ACDBDICTIONARYWDFLT
  5
E
102
{ACAD_REACTORS
330
C
102
}
330
C
100
AcDbDictionary
281
     1
  3
Normal
350
F
100
AcDbDictionaryWithDefault
340
F
  0
DICTIONARY
  5
34
102
{ACAD_REACTORS
330
C
102
}
330
C
100
AcDbDictionary
  3
INDEXCTL
350
35
  3
SORTENTS
350
B5E
  0
DICTIONARY
  5
43
102
{ACAD_REACTORS
330
C
102
}
330
C
100
AcDbDictionary
  3
ACMSTDDICTIONARY
350
260
  0
DICTIONARY
  5
2B
102
{ACAD_REACTORS
330
C
102
}
330
C
100
AcDbDictionary
  3
ACMGSETTINGS
350
2C
  0
DICTIONARY
  5
6E
102
{ACAD_REACTORS
330
C
102
}
330
C
100
AcDbDictionary
  0
XRECORD
  5
2C9A
102
{ACAD_REACTORS
330
C
102
}
330
C
100
AcDbXrecord
  1
DWGPROPS COOKIE
  2

  3

  4

  6

  7

  8

  9

300
AmdtFileType=82
301
=
302
=
303
=
304
=
305
=
306
=
307
=
308
=
309
=
 40
0.0785823611111111
 41
2452800.443498622
 42
2452946.605351921
  1

 90
        1
  0
DICTIONARY
  5
2CA6
102
{ACAD_REACTORS
330
C
102
}
330
C
100
AcDbDictionary
  3
TSTACKALIGN
350
2CA7
  3
TSTACKSIZE
350
2CA8
  3
HYPERLINKBASE
350
2CA9
  3
STYLESHEET
350
2CAA
  3
LAYOUTDICT
350
2CAB
  3
PLOTSETDICT
350
2CAC
  3
PLOTSTYLNAMDICT
350
2CAD
  3
LWETCUNION
350
2CAE
  3
INSUNITS
350
2CAF
  3
CEPSNTYPE
350
2CB0
  3
FINGERPRINTGUID
350
2CB1
  3
VERSIONGUID
350
2CB2
  3
PSVPSCALE
350
2CB3
  3
DIMSTYLEDATA
350
2CB4
  3
PUCSORTHOREF
350
2CB5
  3
PUCSORTHOVIEW
350
2CB6
  3
PUCSBASE
350
2CB7
  3
PUCSORGTOP
350
2CB8
  3
PUCSORGBOTTOM
350
2CB9
  3
PUCSORGLEFT
350
2CBA
  3
PUCSORGRIGHT
350
2CBB
  3
PUCSORGFRONT
350
2CBC
  3
PUCSORGBACK
350
2CBD
  3
UCSORTHOREF
350
2CBE
  3
UCSORTHOVIEW
350
2CBF
  3
UCSBASE
350
2CC0
  3
UCSORGTOP
350
2CC1
  3
UCSORGBOTTOM
350
2CC2
  3
UCSORGLEFT
350
2CC3
  3
UCSORGRIGHT
350
2CC4
  3
UCSORGFRONT
350
2CC5
  3
UCSORGBACK
350
2CC6
  0
DICTIONARY
  5
2C9C
102
{ACAD_REACTORS
330
74
102
}
330
74
100
AcDbDictionary
  3
*A1
350
2C9D
  0
XRECORD
  5
2CC9
102
{ACAD_REACTORS
330
74
102
}
330
74
100
AcDbXrecord
340
1F
  0
XRECORD
  5
2CCF
102
{ACAD_REACTORS
330
2CCE
102
}
330
2CCE
100
AcDbXrecord
340
101
  0
MLINESTYLE
  5
18
102
{ACAD_REACTORS
330
17
102
}
330
17
100
AcDbMlineStyle
  2
STANDARD
 70
     0
  3

 62
   256
 51
90.0
 52
90.0
 71
     2
 49
0.5
 62
   256
  6
BYLAYER
 49
-0.5
 62
   256
  6
BYLAYER
  0
ACDBPLACEHOLDER
  5
F
102
{ACAD_REACTORS
330
E
102
}
330
E
100
AcDbPlaceHolder
280
     0
  0
DICTIONARYVAR
  5
35
102
{ACAD_REACTORS
330
34
102
}
330
34
100
DictionaryVariables
280
     0
  1
1
  0
DICTIONARYVAR
  5
B5E
102
{ACAD_REACTORS
330
34
102
}
330
34
100
DictionaryVariables
280
     0
  1
96
  0
DICTIONARY
  5
260
102
{ACAD_REACTORS
330
43
102
}
330
43
100
AcDbDictionary
  0
DICTIONARY
  5
2C
102
{ACAD_REACTORS
330
2B
102
}
330
2B
100
AcDbDictionary
  3
DWGSETTINGS
350
2D
  0
XRECORD
  5
2CA7
102
{ACAD_REACTORS
330
2CA6
102
}
330
2CA6
100
AcDbXrecord
 90
        1
  0
XRECORD
  5
2CA8
102
{ACAD_REACTORS
330
2CA6
102
}
330
2CA6
100
AcDbXrecord
 90
       70
  0
XRECORD
  5
2CA9
102
{ACAD_REACTORS
330
2CA6
102
}
330
2CA6
100
AcDbXrecord
  1

  0
XRECORD
  5
2CAA
102
{ACAD_REACTORS
330
2CA6
102
}
330
2CA6
100
AcDbXrecord
  1
ASAMI.ctb
  0
XRECORD
  5
2CAB
102
{ACAD_REACTORS
330
2CA6
102
}
330
2CA6
100
AcDbXrecord
340
1A
  0
XRECORD
  5
2CAC
102
{ACAD_REACTORS
330
2CA6
102
}
330
2CA6
100
AcDbXrecord
340
19
  0
XRECORD
  5
2CAD
102
{ACAD_REACTORS
330
2CA6
102
}
330
2CA6
100
AcDbXrecord
340
E
  0
XRECORD
  5
2CAE
102
{ACAD_REACTORS
330
2CA6
102
}
330
2CA6
100
AcDbXrecord
 90
    10781
  0
XRECORD
  5
2CAF
102
{ACAD_REACTORS
330
2CA6
102
}
330
2CA6
100
AcDbXrecord
 90
        4
  0
XRECORD
  5
2CB0
102
{ACAD_REACTORS
330
2CA6
102
}
330
2CA6
100
AcDbXrecord
 90
        0
  0
XRECORD
  5
2CB1
102
{ACAD_REACTORS
330
2CA6
102
}
330
2CA6
100
AcDbXrecord
  1
{AFB28963-8C59-40AE-9337-C84526B81ACE}
  0
XRECORD
  5
2CB2
102
{ACAD_REACTORS
330
2CA6
102
}
330
2CA6
100
AcDbXrecord
  1
{B88A3681-75AE-400C-93DF-3FE7C8FE4F16}
  0
XRECORD
  5
2CB3
102
{ACAD_REACTORS
330
2CA6
102
}
330
2CA6
100
AcDbXrecord
 40
0.0
  0
XRECORD
  5
2CB4
102
{ACAD_REACTORS
330
2CA6
102
}
330
2CA6
100
AcDbXrecord
1000
DSTYLE
1002
{
1070
    79
 70
     2
1070
   341
340
59
1070
   342
340
59
1070
   371
 70
    -1
1070
   372
 70
    -1
1002
}
  0
XRECORD
  5
2CB5
102
{ACAD_REACTORS
330
2CA6
102
}
330
2CA6
100
AcDbXrecord
340
0
  0
XRECORD
  5
2CB6
102
{ACAD_REACTORS
330
2CA6
102
}
330
2CA6
100
AcDbXrecord
 70
     0
  0
XRECORD
  5
2CB7
102
{ACAD_REACTORS
330
2CA6
102
}
330
2CA6
100
AcDbXrecord
340
0
  0
XRECORD
  5
2CB8
102
{ACAD_REACTORS
330
2CA6
102
}
330
2CA6
100
AcDbXrecord
 10
0.0
 20
0.0
 30
0.0
  0
XRECORD
  5
2CB9
102
{ACAD_REACTORS
330
2CA6
102
}
330
2CA6
100
AcDbXrecord
 10
0.0
 20
0.0
 30
0.0
  0
XRECORD
  5
2CBA
102
{ACAD_REACTORS
330
2CA6
102
}
330
2CA6
100
AcDbXrecord
 10
0.0
 20
0.0
 30
0.0
  0
XRECORD
  5
2CBB
102
{ACAD_REACTORS
330
2CA6
102
}
330
2CA6
100
AcDbXrecord
 10
0.0
 20
0.0
 30
0.0
  0
XRECORD
  5
2CBC
102
{ACAD_REACTORS
330
2CA6
102
}
330
2CA6
100
AcDbXrecord
 10
0.0
 20
0.0
 30
0.0
  0
XRECORD
  5
2CBD
102
{ACAD_REACTORS
330
2CA6
102
}
330
2CA6
100
AcDbXrecord
 10
0.0
 20
0.0
 30
0.0
  0
XRECORD
  5
2CBE
102
{ACAD_REACTORS
330
2CA6
102
}
330
2CA6
100
AcDbXrecord
340
0
  0
XRECORD
  5
2CBF
102
{ACAD_REACTORS
330
2CA6
102
}
330
2CA6
100
AcDbXrecord
 70
     0
  0
XRECORD
  5
2CC0
102
{ACAD_REACTORS
330
2CA6
102
}
330
2CA6
100
AcDbXrecord
340
0
  0
XRECORD
  5
2CC1
102
{ACAD_REACTORS
330
2CA6
102
}
330
2CA6
100
AcDbXrecord
 10
0.0
 20
0.0
 30
0.0
  0
XRECORD
  5
2CC2
102
{ACAD_REACTORS
330
2CA6
102
}
330
2CA6
100
AcDbXrecord
 10
0.0
 20
0.0
 30
0.0
  0
XRECORD
  5
2CC3
102
{ACAD_REACTORS
330
2CA6
102
}
330
2CA6
100
AcDbXrecord
 10
0.0
 20
0.0
 30
0.0
  0
XRECORD
  5
2CC4
102
{ACAD_REACTORS
330
2CA6
102
}
330
2CA6
100
AcDbXrecord
 10
0.0
 20
0.0
 30
0.0
  0
XRECORD
  5
2CC5
102
{ACAD_REACTORS
330
2CA6
102
}
330
2CA6
100
AcDbXrecord
 10
0.0
 20
0.0
 30
0.0
  0
XRECORD
  5
2CC6
102
{ACAD_REACTORS
330
2CA6
102
}
330
2CA6
100
AcDbXrecord
 10
0.0
 20
0.0
 30
0.0
  0
LAYER_INDEX
  5
2C9D
102
{ACAD_REACTORS
330
2C9C
102
}
330
2C9C
100
AcDbIndex
 40
2453151.579239896
100
AcDbLayerIndex
  8
0
360
2C9E
 90
        0
  8
AM_0
360
2C9F
 90
       44
  8
AM_7
360
2CA0
 90
        1
  8
AM_11
360
2CA1
 90
       19
  8
AM_5
360
2CA2
 90
        5
  8
Defpoints
360
2CA3
 90
        0
  8
AM_6
360
2CA4
 90
        1
  0
XRECORD
  5
2D
102
{ACAD_REACTORS
330
2C
102
}
330
2C
100
AcDbXrecord
  1
VERSION
140
15.0
  1
PRODUCT
  2
AutoCAD Mechanical 2000
  0
IDBUFFER
  5
2C9E
330
0
100
AcDbIdBuffer
  0
IDBUFFER
  5
2C9F
330
0
100
AcDbIdBuffer
330
2BF7
330
2BF8
330
2BF9
330
2BFA
330
2BFB
330
2BFC
330
2BFD
330
2BFF
330
2C04
330
2C05
330
2C06
330
2C07
330
2C08
330
2C09
330
2C0A
330
2C0B
330
2C0C
330
2C0D
330
2C0E
330
2C0F
330
2C10
330
2C11
330
2C12
330
2C13
330
2C14
330
2C15
330
2C16
330
2C17
330
C1D
330
C20
330
1F19
330
1F1A
330
1F1B
330
1F1C
330
1F2F
330
1F31
330
1F32
330
1F5B
330
1F5C
330
2437
330
2442
330
245F
330
270B
330
270C
  0
IDBUFFER
  5
2CA0
330
0
100
AcDbIdBuffer
330
C9F
  0
IDBUFFER
  5
2CA1
330
0
100
AcDbIdBuffer
330
2C01
330
2C02
330
2C03
330
144A
330
144B
330
144E
330
144F
330
1450
330
1451
330
1452
330
1453
330
1DAB
330
1DAC
330
1DAD
330
1DAE
330
1DAF
330
1DB0
330
2BFE
330
2C00
  0
IDBUFFER
  5
2CA2
330
0
100
AcDbIdBuffer
330
CC6
330
DF5
330
2424
330
254C
330
299F
  0
IDBUFFER
  5
2CA3
330
0
100
AcDbIdBuffer
  0
IDBUFFER
  5
2CA4
330
0
100
AcDbIdBuffer
330
19BD
  0
ENDSEC
  0
EOF
