  0
SECTION
  2
HEADER
  9
$ACADVER
  1
AC1014
  9
$ACADMAINTVER
 70
     9
  9
$DWGCODEPAGE
  3
ANSI_932
  9
$INSBASE
 10
0.0
 20
0.0
 30
0.0
  9
$EXTMIN
 10
-112.0250219808317
 20
-26.25000100000011
 30
-0.00000001
  9
$EXTMAX
 10
15.50703714757518
 20
15.04169468822249
 30
0.00000001
  9
$LIMMIN
 10
-118.7376616840613
 20
-44.05358703045147
  9
$LIMMAX
 10
23.3009026967577
 20
29.02021291074325
  9
$ORTHOMODE
 70
     0
  9
$REGENMODE
 70
     1
  9
$FILLMODE
 70
     1
  9
$QTEXTMODE
 70
     0
  9
$MIRRTEXT
 70
     0
  9
$DRAGMODE
 70
     2
  9
$LTSCALE
 40
1.0
  9
$OSMODE
 70
    55
  9
$ATTMODE
 70
     1
  9
$TEXTSIZE
 40
2.5
  9
$TRACEWID
 40
1.0
  9
$TEXTSTYLE
  7
STANDARD
  9
$CLAYER
  8
AM_0
  9
$CELTYPE
  6
BYLAYER
  9
$CECOLOR
 62
   256
  9
$CELTSCALE
 40
1.0
  9
$DELOBJ
 70
     1
  9
$DISPSILH
 70
     0
  9
$DIMSCALE
 40
0.5
  9
$DIMASZ
 40
2.5
  9
$DIMEXO
 40
1.0
  9
$DIMDLI
 40
12.0
  9
$DIMRND
 40
0.0
  9
$DIMDLE
 40
0.0
  9
$DIMEXE
 40
1.0
  9
$DIMTP
 40
0.1
  9
$DIMTM
 40
0.1
  9
$DIMTXT
 40
3.2
  9
$DIMCEN
 40
0.0
  9
$DIMTSZ
 40
0.0
  9
$DIMTOL
 70
     0
  9
$DIMLIM
 70
     0
  9
$DIMTIH
 70
     0
  9
$DIMTOH
 70
     0
  9
$DIMSE1
 70
     0
  9
$DIMSE2
 70
     0
  9
$DIMTAD
 70
     3
  9
$DIMZIN
 70
     8
  9
$DIMBLK
  1
OPEN30
  9
$DIMASO
 70
     1
  9
$DIMSHO
 70
     1
  9
$DIMPOST
  1

  9
$DIMAPOST
  1
"
  9
$DIMALT
 70
     0
  9
$DIMALTD
 70
     2
  9
$DIMALTF
 40
0.0393701
  9
$DIMLFAC
 40
1.0
  9
$DIMTOFL
 70
     1
  9
$DIMTVP
 40
0.0
  9
$DIMTIX
 70
     0
  9
$DIMSOXD
 70
     0
  9
$DIMSAH
 70
     0
  9
$DIMBLK1
  1

  9
$DIMBLK2
  1

  9
$DIMSTYLE
  2
AM_JIS
  9
$DIMCLRD
 70
   256
  9
$DIMCLRE
 70
   256
  9
$DIMCLRT
 70
     2
  9
$DIMTFAC
 40
0.71
  9
$DIMGAP
 40
1.5
  9
$DIMJUST
 70
     0
  9
$DIMSD1
 70
     0
  9
$DIMSD2
 70
     0
  9
$DIMTOLJ
 70
     0
  9
$DIMTZIN
 70
     0
  9
$DIMALTZ
 70
     0
  9
$DIMALTTZ
 70
     0
  9
$DIMFIT
 70
     3
  9
$DIMUPT
 70
     0
  9
$DIMUNIT
 70
     2
  9
$DIMDEC
 70
     3
  9
$DIMTDEC
 70
     3
  9
$DIMALTU
 70
     2
  9
$DIMALTTD
 70
     2
  9
$DIMTXSTY
  7
ASAMI
  9
$DIMAUNIT
 70
     0
  9
$LUNITS
 70
     2
  9
$LUPREC
 70
     2
  9
$SKETCHINC
 40
1.0
  9
$FILLETRAD
 40
2.5
  9
$AUNITS
 70
     0
  9
$AUPREC
 70
     0
  9
$MENU
  1
.
  9
$ELEVATION
 40
0.0
  9
$PELEVATION
 40
0.0
  9
$THICKNESS
 40
0.0
  9
$LIMCHECK
 70
     0
  9
$BLIPMODE
 70
     0
  9
$CHAMFERA
 40
0.25
  9
$CHAMFERB
 40
0.25
  9
$CHAMFERC
 40
20.0
  9
$CHAMFERD
 40
0.0
  9
$SKPOLY
 70
     0
  9
$TDCREATE
 40
2452800.443498622
  9
$TDUPDATE
 40
2453151.693363159
  9
$TDINDWG
 40
0.0789872685
  9
$TDUSRTIMER
 40
0.0789872685
  9
$USRTIMER
 70
     1
  9
$ANGBASE
 50
0.0
  9
$ANGDIR
 70
     0
  9
$PDMODE
 70
     3
  9
$PDSIZE
 40
0.0
  9
$PLINEWID
 40
0.0
  9
$COORDS
 70
     1
  9
$SPLFRAME
 70
     0
  9
$SPLINETYPE
 70
     6
  9
$SPLINESEGS
 70
     8
  9
$ATTDIA
 70
     1
  9
$ATTREQ
 70
     1
  9
$HANDLING
 70
 12289
  9
$HANDSEED
  5
2B7F
  9
$SURFTAB1
 70
     6
  9
$SURFTAB2
 70
     6
  9
$SURFTYPE
 70
     6
  9
$SURFU
 70
     6
  9
$SURFV
 70
     6
  9
$UCSNAME
  2

  9
$UCSORG
 10
-0.0000000000000168
 20
-0.0000000000000414
 30
0.0
  9
$UCSXDIR
 10
1.0
 20
0.000000000000002
 30
0.0
  9
$UCSYDIR
 10
-0.000000000000002
 20
1.0
 30
0.0
  9
$PUCSNAME
  2

  9
$PUCSORG
 10
0.0
 20
0.0
 30
0.0
  9
$PUCSXDIR
 10
1.0
 20
0.0
 30
0.0
  9
$PUCSYDIR
 10
0.0
 20
1.0
 30
0.0
  9
$USERI1
 70
     0
  9
$USERI2
 70
     0
  9
$USERI3
 70
     0
  9
$USERI4
 70
     0
  9
$USERI5
 70
     0
  9
$USERR1
 40
0.0
  9
$USERR2
 40
0.0
  9
$USERR3
 40
0.0
  9
$USERR4
 40
0.0
  9
$USERR5
 40
0.0
  9
$WORLDVIEW
 70
     1
  9
$SHADEDGE
 70
     3
  9
$SHADEDIF
 70
    70
  9
$TILEMODE
 70
     1
  9
$MAXACTVP
 70
    64
  9
$PINSBASE
 10
0.0
 20
0.0
 30
0.0
  9
$PLIMCHECK
 70
     0
  9
$PEXTMIN
 10
1.000000000000000E+20
 20
1.000000000000000E+20
 30
1.000000000000000E+20
  9
$PEXTMAX
 10
-1.000000000000000E+20
 20
-1.000000000000000E+20
 30
-1.000000000000000E+20
  9
$PLIMMIN
 10
0.0
 20
0.0
  9
$PLIMMAX
 10
841.0
 20
594.0
  9
$UNITMODE
 70
     0
  9
$VISRETAIN
 70
     1
  9
$PLINEGEN
 70
     0
  9
$PSLTSCALE
 70
     0
  9
$TREEDEPTH
 70
  3020
  9
$PICKSTYLE
 70
     0
  9
$CMLSTYLE
  2
STANDARD
  9
$CMLJUST
 70
     0
  9
$CMLSCALE
 40
20.0
  9
$PROXYGRAPHICS
 70
     1
  9
$MEASUREMENT
 70
     1
  0
ENDSEC
  0
SECTION
  2
CLASSES
  0
CLASS
  1
ACDBDICTIONARYWDFLT
  2
AcDbDictionaryWithDefault
  3
AutoCAD 2000
 90
        0
280
     0
281
     0
  0
CLASS
  1
ACDBPLACEHOLDER
  2
AcDbPlaceHolder
  3
AutoCAD 2000
 90
        0
280
     0
281
     0
  0
CLASS
  1
LAYOUT
  2
AcDbLayout
  3
AutoCAD 2000
 90
        0
280
     0
281
     0
  0
CLASS
  1
AMGSETTINGSOBJ
  2
AmgSettingsObj
  3
"AcadM|Product Description: AutoCAD Mechanical 2000|Company: Autodesk"
 90
        0
280
     0
281
     0
  0
CLASS
  1
ACME_DOCUMENT
  2
AcMeDbDoc
  3
AcMeServices
 90
        0
280
     0
281
     0
  0
CLASS
  1
ACMESCOPE
  2
AcMeScope
  3
AcMeServices
 90
        0
280
     0
281
     0
  0
CLASS
  1
ACMECOMMANDHISTORY
  2
AcMeCommandHistory
  3
AcMeServices
 90
        0
280
     0
281
     0
  0
CLASS
  1
DICTIONARYVAR
  2
AcDbDictionaryVar
  3
AutoCAD 2000
 90
        0
280
     0
281
     0
  0
CLASS
  1
ACIMSYSVARMAN
  2
AcImSysVarManager
  3
AcMeServices
 90
        0
280
     0
281
     0
  0
CLASS
  1
ACIMREALSYSVAR
  2
AcImRealSysVar
  3
AcMeServices
 90
        0
280
     0
281
     0
  0
CLASS
  1
ACIMINTSYSVAR
  2
AcImIntSysVar
  3
AcMeServices
 90
        0
280
     0
281
     0
  0
CLASS
  1
ACMEDRAWINGMAN
  2
AcMeDrawingMan
  3
AcMeServices
 90
        0
280
     0
281
     0
  0
CLASS
  1
ACMEVIEW
  2
AcMeView
  3
AcMeServices
 90
        0
280
     0
281
     0
  0
CLASS
  1
ACDBENTITYCACHE
  2
AcMeEntityCache
  3
AcMeServices
 90
        0
280
     0
281
     0
  0
CLASS
  1
GSMANAGER
  2
AcMeGSManager
  3
AcMeServices
 90
        0
280
     0
281
     0
  0
CLASS
  1
AmdtInternalReactor
  2
AmdtInternalReactor
  3
AcMeServices
 90
        0
280
     0
281
     0
  0
CLASS
  1
ACMESTATEMGR
  2
AcMeStateMgr
  3
AcMeServices
 90
        0
280
     0
281
     0
  0
CLASS
  1
ACME_DATABASE
  2
AcMeDbDatabase
  3
AcMeServices
 90
        0
280
     0
281
     0
  0
CLASS
  1
ACRFINSADJUSTERMGR
  2
AcRfInsAdjusterMgr
  3
AcMeServices
 90
        0
280
     0
281
     0
  0
CLASS
  1
ACMDATADICTIONARY
  2
AcmDataDictionary
  3
"AcmSymBB|Product Description: AutoCAD Mechanical 2000|Company: Autodesk"
 90
        0
280
     0
281
     0
  0
CLASS
  1
ACMDATAENTRYBLOCK
  2
AcmDataEntryBlock
  3
"AcmSymBB|Product Description: AutoCAD Mechanical 2000|Company: Autodesk"
 90
        0
280
     0
281
     0
  0
CLASS
  1
AMGOBJPROPCFG
  2
AmgObjPropCfg
  3
"AmgLay|Product Description: AutoCAD Mechanical 2000|Company: Autodesk"
 90
        1
280
     0
281
     0
  0
CLASS
  1
ACAMGFILTERDAT
  2
AcAmgFilterDat
  3
"AcadM|Product Description: AutoCAD Mechanical 2000|Company: Autodesk"
 90
        0
280
     0
281
     0
  0
CLASS
  1
LAYER_INDEX
  2
AcDbLayerIndex
  3
AutoCAD 2000
 90
        0
280
     0
281
     0
  0
CLASS
  1
IDBUFFER
  2
AcDbIdBuffer
  3
AutoCAD 2000
 90
        0
280
     0
281
     0
  0
CLASS
  1
ACIMSTRSYSVAR
  2
AcImStrSysVar
  3
AcMeServices
 90
        0
280
     0
281
     0
  0
CLASS
  1
ACMSTANDARDJIS
  2
AcmStandardJIS
  3
"AcmSymBB|Product Description: AutoCAD Mechanical 2000|Company: Autodesk"
 90
        0
280
     0
281
     0
  0
CLASS
  1
ACMSURFSTANDARDJIS
  2
AcmSurfTextStdJIS
  3
"AcmSymBB|Product Description: AutoCAD Mechanical 2000|Company: Autodesk"
 90
        0
280
     0
281
     0
  0
CLASS
  1
ACMFCFSTANDARDJIS
  2
AcmFCFStdJIS
  3
"AcmSymBB|Product Description: AutoCAD Mechanical 2000|Company: Autodesk"
 90
        0
280
     0
281
     0
  0
CLASS
  1
ACMWELDSTANDARDJIS
  2
AcmWeldingStdJIS
  3
"AcmSymBB|Product Description: AutoCAD Mechanical 2000|Company: Autodesk"
 90
        0
280
     0
281
     0
  0
CLASS
  1
ACMIDSTANDARDJIS
  2
AcmIdStdJIS
  3
"AcmSymBB|Product Description: AutoCAD Mechanical 2000|Company: Autodesk"
 90
        0
280
     0
281
     0
  0
CLASS
  1
ACMDATUMSTANDARDJIS
  2
AcmDatumStdJIS
  3
"AcmSymBB|Product Description: AutoCAD Mechanical 2000|Company: Autodesk"
 90
        0
280
     0
281
     0
  0
CLASS
  1
ACMBOMSTANDARDJIS
  2
AcmBOMStdJIS
  3
"AcmSymBB|Product Description: AutoCAD Mechanical 2000|Company: Autodesk"
 90
        0
280
     0
281
     0
  0
CLASS
  1
ACMSTANDARDANSI
  2
AcmStandardANSI
  3
"AcmSymBB|Product Description: AutoCAD Mechanical 2000|Company: Autodesk"
 90
        0
280
     0
281
     0
  0
CLASS
  1
ACMSURFSTANDARDANSI
  2
AcmSurfTextStdANSI
  3
"AcmSymBB|Product Description: AutoCAD Mechanical 2000|Company: Autodesk"
 90
        0
280
     0
281
     0
  0
CLASS
  1
ACMFCFSTANDARDANSI
  2
AcmFCFStdANSI
  3
"AcmSymBB|Product Description: AutoCAD Mechanical 2000|Company: Autodesk"
 90
        0
280
     0
281
     0
  0
CLASS
  1
ACMWELDSTANDARDANSI
  2
AcmWeldingStdANSI
  3
"AcmSymBB|Product Description: AutoCAD Mechanical 2000|Company: Autodesk"
 90
        0
280
     0
281
     0
  0
CLASS
  1
ACMIDSTANDARDANSI
  2
AcmIdStdANSI
  3
"AcmSymBB|Product Description: AutoCAD Mechanical 2000|Company: Autodesk"
 90
        0
280
     0
281
     0
  0
CLASS
  1
ACMDATUMSTANDARDANSI
  2
AcmDatumStdANSI
  3
"AcmSymBB|Product Description: AutoCAD Mechanical 2000|Company: Autodesk"
 90
        0
280
     0
281
     0
  0
CLASS
  1
ACMBOMSTANDARDANSI
  2
AcmBOMStdANSI
  3
"AcmSymBB|Product Description: AutoCAD Mechanical 2000|Company: Autodesk"
 90
        0
280
     0
281
     0
  0
CLASS
  1
ACMSTANDARDBSI
  2
AcmStandardBSI
  3
"AcmSymBB|Product Description: AutoCAD Mechanical 2000|Company: Autodesk"
 90
        0
280
     0
281
     0
  0
CLASS
  1
ACMSURFSTANDARDBSI
  2
AcmSurfTextStdBSI
  3
"AcmSymBB|Product Description: AutoCAD Mechanical 2000|Company: Autodesk"
 90
        0
280
     0
281
     0
  0
CLASS
  1
ACMFCFSTANDARDBSI
  2
AcmFCFStdBSI
  3
"AcmSymBB|Product Description: AutoCAD Mechanical 2000|Company: Autodesk"
 90
        0
280
     0
281
     0
  0
CLASS
  1
ACMWELDSTANDARDBSI
  2
AcmWeldingStdBSI
  3
"AcmSymBB|Product Description: AutoCAD Mechanical 2000|Company: Autodesk"
 90
        0
280
     0
281
     0
  0
CLASS
  1
ACMIDSTANDARDBSI
  2
AcmIdStdBSI
  3
"AcmSymBB|Product Description: AutoCAD Mechanical 2000|Company: Autodesk"
 90
        0
280
     0
281
     0
  0
CLASS
  1
ACMDATUMSTANDARDBSI
  2
AcmDatumStdBSI
  3
"AcmSymBB|Product Description: AutoCAD Mechanical 2000|Company: Autodesk"
 90
        0
280
     0
281
     0
  0
CLASS
  1
ACMBOMSTANDARDBSI
  2
AcmBOMStdBSI
  3
"AcmSymBB|Product Description: AutoCAD Mechanical 2000|Company: Autodesk"
 90
        0
280
     0
281
     0
  0
CLASS
  1
LONG_TRANSACTION
  2
AcDbLongTransaction
  3
AutoCAD 2000
 90
        0
280
     0
281
     0
  0
CLASS
  1
LWPOLYLINE
  2
AcDbPolyline
  3
AutoCAD 2000
 90
        0
280
     0
281
     1
  0
CLASS
  1
HATCH
  2
AcDbHatch
  3
AutoCAD 2000
 90
        0
280
     0
281
     1
  0
CLASS
  1
XRECORD
  2
AcDbXrecord
  3
AutoCAD 2000
 90
        0
280
     0
281
     0
  0
ENDSEC
  0
SECTION
  2
TABLES
  0
TABLE
  2
VPORT
  5
8
330
0
100
AcDbSymbolTable
 70
     3
  0
VPORT
  5
2B49
330
8
100
AcDbSymbolTableRecord
100
AcDbViewportTableRecord
  2
*ACTIVE
 70
     0
 10
0.0
 20
0.0
 11
1.0
 21
1.0
 12
-45.89680656456526
 22
-5.604431533193675
 13
0.0
 23
0.0
 14
2.5
 24
2.5
 15
10.0
 25
10.0
 16
0.0
 26
0.0
 36
1.0
 17
0.0
 27
0.0
 37
0.0
 40
84.88736606358877
 41
1.56570841889117
 42
50.0
 43
0.0
 44
0.0
 50
0.0
 51
0.0
 71
     0
 72
   100
 73
     1
 74
     1
 75
     0
 76
     0
 77
     0
 78
     0
  0
ENDTAB
  0
TABLE
  2
LTYPE
  5
5
330
0
100
AcDbSymbolTable
 70
    10
  0
LTYPE
  5
14
330
5
100
AcDbSymbolTableRecord
100
AcDbLinetypeTableRecord
  2
BYBLOCK
 70
     0
  3

 72
    65
 73
     0
 40
0.0
  0
LTYPE
  5
15
330
5
100
AcDbSymbolTableRecord
100
AcDbLinetypeTableRecord
  2
BYLAYER
 70
     0
  3

 72
    65
 73
     0
 40
0.0
  0
LTYPE
  5
16
330
5
100
AcDbSymbolTableRecord
100
AcDbLinetypeTableRecord
  2
CONTINUOUS
 70
     0
  3
Solid line
 72
    65
 73
     0
 40
0.0
  0
LTYPE
  5
4B
330
5
100
AcDbSymbolTableRecord
100
AcDbLinetypeTableRecord
  2
AM_ISO02W050
 70
     0
  3
__ __ __ __ __ __ __ __ __ __ __ __ __ __ __
 72
    65
 73
     2
 40
7.5
 49
6.0
 74
     0
 49
-1.5
 74
     0
  0
LTYPE
  5
4C
330
5
100
AcDbSymbolTableRecord
100
AcDbLinetypeTableRecord
  2
AM_ISO08W050
 70
     0
  3
____ . ____ . ____ . ____ . ____ . ____ . ____
 72
    65
 73
     4
 40
18.0
 49
12.0
 74
     0
 49
-1.5
 74
     0
 49
3.0
 74
     0
 49
-1.5
 74
     0
  0
LTYPE
  5
4D
330
5
100
AcDbSymbolTableRecord
100
AcDbLinetypeTableRecord
  2
AM_ISO09W050
 70
     0
  3
_____ . . _____ . . _____ . . ____ .. ____
 72
    65
 73
     6
 40
22.5
 49
12.0
 74
     0
 49
-1.5
 74
     0
 49
3.0
 74
     0
 49
-1.5
 74
     0
 49
3.0
 74
     0
 49
-1.5
 74
     0
  0
LTYPE
  5
4E
330
5
100
AcDbSymbolTableRecord
100
AcDbLinetypeTableRecord
  2
AMCONSTR
 70
     0
  3
_______________________
 72
    65
 73
     2
 40
9999.0
 49
9999.0
 74
     0
 49
0.0
 74
     0
  0
LTYPE
  5
4F
330
5
100
AcDbSymbolTableRecord
100
AcDbLinetypeTableRecord
  2
AM_ISO02W050X2
 70
     0
  3
 _ _ _ _ _ _ _ _ _ _ _ _
 72
    65
 73
     2
 40
3.75
 49
3.0
 74
     0
 49
-0.75
 74
     0
  0
LTYPE
  5
50
330
5
100
AcDbSymbolTableRecord
100
AcDbLinetypeTableRecord
  2
AM_ISO08W050X2
 70
     0
  3
__ . __ . __ . __ . __ . __
 72
    65
 73
     4
 40
9.0
 49
6.0
 74
     0
 49
-0.75
 74
     0
 49
1.5
 74
     0
 49
-0.75
 74
     0
  0
LTYPE
  5
53
330
5
100
AcDbSymbolTableRecord
100
AcDbLinetypeTableRecord
  2
AMZIGZAG
 70
     0
  3
/\/-/\/-/\/-/\/-/\/-/\/
 72
    65
 73
     2
 40
11.00009999999999
 49
0.0001
 74
     4
 75
   135
340
52
 46
0.04
 50
0.0
 44
0.0
 45
0.0
 49
-11.0
 74
     0
  0
LTYPE
  5
166
330
5
100
AcDbSymbolTableRecord
100
AcDbLinetypeTableRecord
  2
ACJISTGL
 70
     0
  3
_ _ _ _ _
 72
    65
 73
     2
 40
3.0
 49
2.0
 74
     0
 49
-1.0
 74
     0
  0
LTYPE
  5
26A
330
5
100
AcDbSymbolTableRecord
100
AcDbLinetypeTableRecord
  2
ACJISTGB
 70
     0
  3
__ . . __ . .
 72
    65
 73
     6
 40
9.0
 49
4.0
 74
     0
 49
-1.0
 74
     0
 49
1.0
 74
     0
 49
-1.0
 74
     0
 49
1.0
 74
     0
 49
-1.0
 74
     0
  0
ENDTAB
  0
TABLE
  2
LAYER
  5
2
330
0
100
AcDbSymbolTable
 70
     7
  0
LAYER
  5
10
330
2
100
AcDbSymbolTableRecord
100
AcDbLayerTableRecord
  2
0
 70
     0
 62
     7
  6
CONTINUOUS
  0
LAYER
  5
3F9
330
2
100
AcDbSymbolTableRecord
100
AcDbLayerTableRecord
  2
AM_0
 70
     0
 62
     7
  6
CONTINUOUS
  0
LAYER
  5
C7C
330
2
100
AcDbSymbolTableRecord
100
AcDbLayerTableRecord
  2
AM_7
 70
     0
 62
     4
  6
AM_ISO08W050
  0
LAYER
  5
C97
330
2
100
AcDbSymbolTableRecord
100
AcDbLayerTableRecord
  2
AM_11
 70
     0
 62
     3
  6
AM_ISO09W050
  0
LAYER
  5
CC5
330
2
100
AcDbSymbolTableRecord
100
AcDbLayerTableRecord
  2
AM_5
 70
     0
 62
     3
  6
CONTINUOUS
  0
LAYER
  5
CC7
330
2
100
AcDbSymbolTableRecord
100
AcDbLayerTableRecord
  2
DEFPOINTS
 70
     0
 62
     7
  6
CONTINUOUS
  0
LAYER
  5
19BC
330
2
100
AcDbSymbolTableRecord
100
AcDbLayerTableRecord
  2
AM_6
 70
     0
 62
     2
  6
CONTINUOUS
  0
ENDTAB
  0
TABLE
  2
STYLE
  5
3
330
0
100
AcDbSymbolTable
 70
     5
  0
STYLE
  5
11
330
3
100
AcDbSymbolTableRecord
100
AcDbTextStyleTableRecord
  2
STANDARD
 70
     0
 40
0.0
 41
1.0
 50
0.0
 71
     0
 42
2.5
  3
simplex.shx
  4
EXTFONT.SHX
  0
STYLE
  5
52
330
3
100
AcDbSymbolTableRecord
100
AcDbTextStyleTableRecord
  2

 70
     1
 40
0.0
 41
1.0
 50
0.0
 71
     0
 42
2.5
  3
ltypeshp.shx
  4

  0
STYLE
  5
6B
330
3
100
AcDbSymbolTableRecord
100
AcDbTextStyleTableRecord
  2
ASAMI
 70
     0
 40
0.0
 41
1.0
 50
0.0
 71
     0
 42
2.5
  3
simplex.shx
  4
EXTFONT.SHX
  0
STYLE
  5
262
330
3
100
AcDbSymbolTableRecord
100
AcDbTextStyleTableRecord
  2
ACJISTS
 70
     0
 40
1.0
 41
1.0
 50
0.0
 71
     0
 42
2.5
  3
simplex.shx
  4
bigfont.shx
  0
STYLE
  5
269
330
3
100
AcDbSymbolTableRecord
100
AcDbTextStyleTableRecord
  2
ACJISGDT
 70
     0
 40
0.0
 41
1.0
 50
0.0
 71
     0
 42
2.5
  3
amgdtans.shx
  4

  0
ENDTAB
  0
TABLE
  2
VIEW
  5
6
330
0
100
AcDbSymbolTable
 70
     0
  0
ENDTAB
  0
TABLE
  2
UCS
  5
7
330
0
100
AcDbSymbolTable
 70
     0
  0
ENDTAB
  0
TABLE
  2
APPID
  5
9
330
0
100
AcDbSymbolTable
 70
    16
  0
APPID
  5
12
330
9
100
AcDbSymbolTableRecord
100
AcDbRegAppTableRecord
  2
ACAD
 70
     0
  0
APPID
  5
30
330
9
100
AcDbSymbolTableRecord
100
AcDbRegAppTableRecord
  2
MCAD_NO_VIS
 70
     0
  0
APPID
  5
31
330
9
100
AcDbSymbolTableRecord
100
AcDbRegAppTableRecord
  2
ACAD_TEMP_GRAPHIC
 70
     0
  0
APPID
  5
2C2
330
9
100
AcDbSymbolTableRecord
100
AcDbRegAppTableRecord
  2
GENIUS_GENDTOL_13
 70
     0
  0
APPID
  5
339
330
9
100
AcDbSymbolTableRecord
100
AcDbRegAppTableRecord
  2
GENIUS_GENODEF_13
 70
     0
  0
APPID
  5
33A
330
9
100
AcDbSymbolTableRecord
100
AcDbRegAppTableRecord
  2
GENIUS_GENOBJ-N-RSBK_13
 70
     0
  0
APPID
  5
33B
330
9
100
AcDbSymbolTableRecord
100
AcDbRegAppTableRecord
  2
GENIUS_GENOBJ-N-LIB_13
 70
     0
  0
APPID
  5
33C
330
9
100
AcDbSymbolTableRecord
100
AcDbRegAppTableRecord
  2
GENIUS_GENSCALE_13
 70
     0
  0
APPID
  5
378
330
9
100
AcDbSymbolTableRecord
100
AcDbRegAppTableRecord
  2
GENIUS_GENDIMSH_14
 70
     0
  0
APPID
  5
C82
330
9
100
AcDbSymbolTableRecord
100
AcDbRegAppTableRecord
  2
GENIUS_GENOBJ-N-CRS_13
 70
     0
  0
APPID
  5
C83
330
9
100
AcDbSymbolTableRecord
100
AcDbRegAppTableRecord
  2
GENIUS_GENOENT_13
 70
     0
  0
APPID
  5
C84
330
9
100
AcDbSymbolTableRecord
100
AcDbRegAppTableRecord
  2
GENIUS_GENOREF_13
 70
     0
  0
APPID
  5
C85
330
9
100
AcDbSymbolTableRecord
100
AcDbRegAppTableRecord
  2
GENIUS_GENOLIS_13
 70
     0
  0
APPID
  5
CA0
330
9
100
AcDbSymbolTableRecord
100
AcDbRegAppTableRecord
  2
GENIUS_GENOBJ-N-CEN_13
 70
     0
  0
APPID
  5
1CFA
330
9
100
AcDbSymbolTableRecord
100
AcDbRegAppTableRecord
  2
GENIUS_GENFIL_13
 70
     0
  0
APPID
  5
1CFB
330
9
100
AcDbSymbolTableRecord
100
AcDbRegAppTableRecord
  2
GENIUS_GENOBJ-N-CHA_13
 70
     0
  0
ENDTAB
  0
TABLE
  2
DIMSTYLE
  5
A
330
0
100
AcDbSymbolTable
 70
     9
  0
DIMSTYLE
105
58
330
A
100
AcDbSymbolTableRecord
100
AcDbDimStyleTableRecord
  2
AM_JIS
 70
     0
  3

  4
"
  5
OPEN30
  6

  7

 40
0.5
 41
2.5
 42
1.0
 43
12.0
 44
1.0
 45
0.0
 46
0.0
 47
0.1
 48
0.1
140
3.2
141
0.0
142
0.0
143
0.0393701
144
1.0
145
0.0
146
0.71
147
1.5
 71
     0
 72
     0
 73
     0
 74
     0
 75
     0
 76
     0
 77
     3
 78
     8
170
     0
171
     2
172
     1
173
     0
174
     0
175
     0
176
   256
177
   256
178
     2
270
     2
271
     3
272
     3
273
     2
274
     2
340
6B
275
     0
280
     0
281
     0
282
     0
283
     0
284
     0
285
     0
286
     0
287
     3
288
     0
  0
DIMSTYLE
105
5F
330
A
100
AcDbSymbolTableRecord
100
AcDbDimStyleTableRecord
  2
AM_JIS$3
 70
     0
  3

  4
"
  5
OPEN30
  6

  7

 40
0.5
 41
2.5
 42
1.0
 43
10.0
 44
1.0
 45
0.0
 46
0.0
 47
0.1
 48
0.1
140
3.2
141
0.0
142
0.0
143
0.0393701
144
1.0
145
0.0
146
0.71
147
1.5
 71
     0
 72
     0
 73
     0
 74
     1
 75
     0
 76
     0
 77
     3
 78
     8
170
     0
171
     2
172
     0
173
     0
174
     0
175
     0
176
   256
177
   256
178
     2
270
     2
271
     2
272
     3
273
     2
274
     2
340
6B
275
     0
280
     0
281
     0
282
     0
283
     0
284
     0
285
     0
286
     0
287
     0
288
     1
  0
DIMSTYLE
105
60
330
A
100
AcDbSymbolTableRecord
100
AcDbDimStyleTableRecord
  2
AM_JIS$4
 70
     0
  3

  4
"
  5
OPEN30
  6

  7

 40
0.5
 41
2.5
 42
1.0
 43
10.0
 44
1.0
 45
0.0
 46
0.0
 47
0.1
 48
0.1
140
3.2
141
0.0
142
0.0
143
0.0393701
144
1.0
145
0.0
146
0.71
147
1.5
 71
     0
 72
     0
 73
     0
 74
     1
 75
     0
 76
     0
 77
     3
 78
     8
170
     0
171
     2
172
     0
173
     0
174
     0
175
     0
176
   256
177
   256
178
     2
270
     2
271
     2
272
     3
273
     2
274
     2
340
6B
275
     0
280
     0
281
     0
282
     0
283
     0
284
     0
285
     0
286
     0
287
     0
288
     1
  0
DIMSTYLE
105
61
330
A
100
AcDbSymbolTableRecord
100
AcDbDimStyleTableRecord
  2
AM_JIS$6
 70
     0
  3

  4
"
  5
OPEN30
  6

  7

 40
0.5
 41
2.5
 42
1.0
 43
10.0
 44
1.0
 45
0.0
 46
0.0
 47
0.1
 48
0.1
140
3.2
141
0.0
142
0.0
143
0.0393701
144
1.0
145
0.0
146
0.71
147
1.5
 71
     0
 72
     0
 73
     0
 74
     0
 75
     0
 76
     0
 77
     0
 78
     8
170
     0
171
     2
172
     1
173
     0
174
     0
175
     0
176
   256
177
   256
178
     2
270
     2
271
     2
272
     2
273
     2
274
     2
340
6B
275
     0
280
     0
281
     0
282
     0
283
     0
284
     0
285
     0
286
     0
287
     3
288
     0
  0
DIMSTYLE
105
62
330
A
100
AcDbSymbolTableRecord
100
AcDbDimStyleTableRecord
  2
AM_JIS$7
 70
     0
  3

  4
"
  5
OPEN30
  6

  7

 40
0.5
 41
2.5
 42
1.0
 43
10.0
 44
1.0
 45
0.0
 46
0.0
 47
0.1
 48
0.1
140
3.2
141
0.0
142
0.0
143
0.0393701
144
1.0
145
0.0
146
0.71
147
1.5
 71
     0
 72
     0
 73
     0
 74
     0
 75
     0
 76
     0
 77
     3
 78
     8
170
     0
171
     2
172
     1
173
     0
174
     0
175
     0
176
   256
177
   256
178
     2
270
     2
271
     2
272
     3
273
     2
274
     2
340
6B
275
     0
280
     0
281
     0
282
     0
283
     0
284
     0
285
     0
286
     0
287
     3
288
     0
  0
DIMSTYLE
105
63
330
A
100
AcDbSymbolTableRecord
100
AcDbDimStyleTableRecord
  2
AM_JIS$SF
 70
     0
  3

  4
"
  5
OPEN30
  6

  7

 40
0.5
 41
2.5
 42
1.0
 43
10.0
 44
1.0
 45
0.0
 46
0.0
 47
0.1
 48
0.1
140
3.2
141
0.0
142
0.0
143
0.0393701
144
1.0
145
0.0
146
0.71
147
1.5
 71
     0
 72
     0
 73
     0
 74
     0
 75
     1
 76
     1
 77
     3
 78
     8
170
     0
171
     2
172
     1
173
     0
174
     0
175
     0
176
   256
177
   256
178
     2
270
     2
271
     2
272
     2
273
     2
274
     2
340
6B
275
     0
280
     0
281
     0
282
     0
283
     0
284
     0
285
     0
286
     0
287
     3
288
     0
  0
DIMSTYLE
105
68
330
A
100
AcDbSymbolTableRecord
100
AcDbDimStyleTableRecord
  2
AM_JIS$SH
 70
     0
  3

  4
"
  5

  6
GENAXEH
  7
OPEN30
 40
0.5
 41
2.5
 42
1.0
 43
10.0
 44
1.0
 45
0.0
 46
0.0
 47
0.1
 48
0.1
140
3.2
141
0.0
142
0.0
143
0.0393701
144
2.0
145
0.0
146
0.71
147
1.5
 71
     0
 72
     0
 73
     0
 74
     0
 75
     1
 76
     1
 77
     3
 78
     8
170
     0
171
     2
172
     1
173
     1
174
     0
175
     0
176
   256
177
   256
178
     2
270
     2
271
     2
272
     2
273
     2
274
     2
340
6B
275
     0
280
     0
281
     0
282
     0
283
     0
284
     0
285
     0
286
     0
287
     3
288
     0
  0
DIMSTYLE
105
B34
102
{ACAD_REACTORS
330
2736
102
}
330
A
100
AcDbSymbolTableRecord
100
AcDbDimStyleTableRecord
  2
AM_JIS$2
 70
     0
  3

  4
"
  5
OPEN30
  6

  7

 40
0.5
 41
2.5
 42
1.0
 43
12.0
 44
1.0
 45
0.0
 46
0.0
 47
0.1
 48
0.1
140
3.2
141
0.0
142
0.0
143
0.0393701
144
1.0
145
0.0
146
0.71
147
1.5
 71
     0
 72
     0
 73
     0
 74
     0
 75
     0
 76
     0
 77
     3
 78
     8
170
     0
171
     2
172
     1
173
     0
174
     0
175
     0
176
   256
177
   256
178
     2
270
     2
271
     3
272
     3
273
     2
274
     2
340
6B
275
     0
280
     0
281
     0
282
     0
283
     0
284
     0
285
     0
286
     0
287
     3
288
     0
  0
DIMSTYLE
105
BA5
102
{ACAD_REACTORS
330
CC6
330
DF5
330
254C
330
29BB
102
}
330
A
100
AcDbSymbolTableRecord
100
AcDbDimStyleTableRecord
  2
AM_JIS$0
 70
     0
  3

  4
"
  5
OPEN30
  6

  7

 40
0.5
 41
2.5
 42
0.0
 43
10.0
 44
1.0
 45
0.0
 46
0.0
 47
0.1
 48
0.1000000001
140
3.799999999999999
141
0.0
142
0.0
143
0.0393701
144
1.0
145
0.0
146
0.71
147
1.5
 71
     0
 72
     0
 73
     0
 74
     0
 75
     0
 76
     0
 77
     3
 78
     1
170
     0
171
     2
172
     1
173
     0
174
     0
175
     0
176
     3
177
     3
178
     2
270
     2
271
     2
272
     2
273
     2
274
     2
340
11
275
     1
280
     0
281
     0
282
     0
283
     0
284
     8
285
     0
286
     0
287
     0
288
     0
  0
ENDTAB
  0
TABLE
  2
BLOCK_RECORD
  5
1
330
0
100
AcDbSymbolTable
 70
    10
  0
BLOCK_RECORD
  5
1F
102
{ACAD_XDICTIONARY
360
74
102
}
330
1
100
AcDbSymbolTableRecord
100
AcDbBlockTableRecord
  2
*MODEL_SPACE
  0
BLOCK_RECORD
  5
101
102
{ACAD_XDICTIONARY
360
2B72
102
}
330
1
100
AcDbSymbolTableRecord
100
AcDbBlockTableRecord
  2
*PAPER_SPACE
  0
BLOCK_RECORD
  5
59
330
1
100
AcDbSymbolTableRecord
100
AcDbBlockTableRecord
  2
_OPEN30
  0
BLOCK_RECORD
  5
64
330
1
100
AcDbSymbolTableRecord
100
AcDbBlockTableRecord
  2
GENAXEH
  0
BLOCK_RECORD
  5
CC8
330
1
100
AcDbSymbolTableRecord
100
AcDbBlockTableRecord
  2
*D5
  0
BLOCK_RECORD
  5
DF6
330
1
100
AcDbSymbolTableRecord
100
AcDbBlockTableRecord
  2
*D6
  0
BLOCK_RECORD
  5
254D
330
1
100
AcDbSymbolTableRecord
100
AcDbBlockTableRecord
  2
*D7
  0
BLOCK_RECORD
  5
2737
330
1
100
AcDbSymbolTableRecord
100
AcDbBlockTableRecord
  2
*D8
  0
BLOCK_RECORD
  5
29BC
330
1
100
AcDbSymbolTableRecord
100
AcDbBlockTableRecord
  2
*D9
  0
ENDTAB
  0
ENDSEC
  0
SECTION
  2
BLOCKS
  0
BLOCK
  5
20
330
1F
100
AcDbEntity
  8
0
100
AcDbBlockBegin
  2
*MODEL_SPACE
 70
     0
 10
0.0
 20
0.0
 30
0.0
  3
*MODEL_SPACE
  1

  0
ENDBLK
  5
21
330
1F
100
AcDbEntity
  8
0
100
AcDbBlockEnd
  0
BLOCK
  5
103
330
101
100
AcDbEntity
 67
     1
  8
0
100
AcDbBlockBegin
  2
*PAPER_SPACE
 70
     0
 10
0.0
 20
0.0
 30
0.0
  3
*PAPER_SPACE
  1

  0
ENDBLK
  5
104
330
101
100
AcDbEntity
 67
     1
  8
0
100
AcDbBlockEnd
  0
BLOCK
  5
5D
330
59
100
AcDbEntity
  8
0
100
AcDbBlockBegin
  2
_OPEN30
 70
     0
 10
0.0
 20
0.0
 30
0.0
  3
_OPEN30
  1

  0
LINE
  5
5A
330
59
100
AcDbEntity
  8
0
 62
     0
100
AcDbLine
 10
-1.0
 20
0.26794919
 30
0.0
 11
0.0
 21
0.0
 31
0.0
  0
LINE
  5
5B
330
59
100
AcDbEntity
  8
0
 62
     0
100
AcDbLine
 10
0.0
 20
0.0
 30
0.0
 11
-1.0
 21
-0.26794919
 31
0.0
  0
LINE
  5
5C
330
59
100
AcDbEntity
  8
0
 62
     0
100
AcDbLine
 10
0.0
 20
0.0
 30
0.0
 11
-1.0
 21
0.0
 31
0.0
  0
ENDBLK
  5
5E
330
59
100
AcDbEntity
  8
0
100
AcDbBlockEnd
  0
BLOCK
  5
66
330
64
100
AcDbEntity
  8
0
100
AcDbBlockBegin
  2
GENAXEH
 70
     0
 10
0.0
 20
0.0
 30
0.0
  3
GENAXEH
  1

  0
LINE
  5
65
330
64
100
AcDbEntity
  8
0
100
AcDbLine
 10
-1.0
 20
0.0
 30
0.0
 11
1.0
 21
0.0
 31
0.0
  0
ENDBLK
  5
67
330
64
100
AcDbEntity
  8
0
100
AcDbBlockEnd
  0
BLOCK
  5
CD2
330
CC8
100
AcDbEntity
  8
0
100
AcDbBlockBegin
  2
*D5
 70
     1
 10
0.0
 20
0.0
 30
0.0
  3
*D5
  1

  0
LINE
  5
2AF6
330
CC8
100
AcDbEntity
  8
AM_5
 62
     3
100
AcDbLine
 10
-101.0
 20
-2.750000000000297
 30
0.0
 11
-101.0
 21
-15.50000100000008
 31
0.0
  0
LINE
  5
2AF7
330
CC8
100
AcDbEntity
  8
AM_5
 62
     3
100
AcDbLine
 10
-1.000000000000061
 20
-2.749999848094337
 30
0.0
 11
-1.000000000000062
 21
-15.50000100000008
 31
0.0
  0
LINE
  5
2AF8
330
CC8
100
AcDbEntity
  8
AM_5
 62
     3
100
AcDbLine
 10
-99.75000000000003
 20
-15.00000100000008
 30
0.0
 11
-2.250000000000062
 21
-15.00000100000008
 31
0.0
  0
INSERT
  5
2AF9
330
CC8
100
AcDbEntity
  8
AM_5
 62
     3
100
AcDbBlockReference
  2
_OPEN30
 10
-101.0
 20
-15.00000100000008
 30
0.0
 41
1.25
 42
1.25
 43
1.25
 50
180.0
  0
INSERT
  5
2AFA
330
CC8
100
AcDbEntity
  8
AM_5
 62
     3
100
AcDbBlockReference
  2
_OPEN30
 10
-1.000000000000061
 20
-15.00000100000008
 30
0.0
 41
1.25
 42
1.25
 43
1.25
  0
MTEXT
  5
2AFB
330
CC8
100
AcDbEntity
  8
AM_5
 62
     2
100
AcDbMText
 10
-51.00000000000004
 20
-13.30000100000008
 30
0.0
 40
1.9
 41
0.0
 71
     5
 72
     1
  1
100
1001
ACAD
1000
MTEXTBEGIN
1070
    73
1070
     1
1070
    44
1040
1.0
1070
    74
1070
     0
1000
MTEXTEND
  0
POINT
  5
2AFC
330
CC8
100
AcDbEntity
  8
DEFPOINTS
 62
     0
100
AcDbPoint
 10
-101.0
 20
-2.750000000000297
 30
0.0
  0
POINT
  5
2AFD
330
CC8
100
AcDbEntity
  8
DEFPOINTS
 62
     0
100
AcDbPoint
 10
-1.000000000000061
 20
-2.749999848094337
 30
0.0
  0
POINT
  5
2AFE
330
CC8
100
AcDbEntity
  8
DEFPOINTS
 62
     0
100
AcDbPoint
 10
-1.000000000000061
 20
-15.00000100000008
 30
0.0
  0
ENDBLK
  5
CD3
330
CC8
100
AcDbEntity
  8
0
100
AcDbBlockEnd
  0
BLOCK
  5
E00
330
DF6
100
AcDbEntity
  8
0
100
AcDbBlockBegin
  2
*D6
 70
     1
 10
0.0
 20
0.0
 30
0.0
  3
*D6
  1

  0
LINE
  5
2AFF
330
DF6
100
AcDbEntity
  8
AM_5
 62
     3
100
AcDbLine
 10
-49.00000000000004
 20
-3.00000000000018
 30
0.0
 11
-49.00000000000004
 21
-10.50000100000005
 31
0.0
  0
LINE
  5
2B00
330
DF6
100
AcDbEntity
  8
AM_5
 62
     3
100
AcDbLine
 10
-1.000000000000061
 20
-2.749999848094337
 30
0.0
 11
-1.000000000000061
 21
-10.50000100000005
 31
0.0
  0
LINE
  5
2B01
330
DF6
100
AcDbEntity
  8
AM_5
 62
     3
100
AcDbLine
 10
-47.75000000000004
 20
-10.00000100000005
 30
0.0
 11
-2.250000000000061
 21
-10.00000100000005
 31
0.0
  0
INSERT
  5
2B02
330
DF6
100
AcDbEntity
  8
AM_5
 62
     3
100
AcDbBlockReference
  2
_OPEN30
 10
-49.00000000000004
 20
-10.00000100000005
 30
0.0
 41
1.25
 42
1.25
 43
1.25
 50
180.0
  0
INSERT
  5
2B03
330
DF6
100
AcDbEntity
  8
AM_5
 62
     3
100
AcDbBlockReference
  2
_OPEN30
 10
-1.000000000000061
 20
-10.00000100000005
 30
0.0
 41
1.25
 42
1.25
 43
1.25
  0
MTEXT
  5
2B04
330
DF6
100
AcDbEntity
  8
AM_5
 62
     2
100
AcDbMText
 10
-25.00000000000005
 20
-8.300001000000053
 30
0.0
 40
1.9
 41
0.0
 71
     5
 72
     1
  1
48
1001
ACAD
1000
MTEXTBEGIN
1070
    73
1070
     1
1070
    44
1040
1.0
1070
    74
1070
     0
1000
MTEXTEND
  0
POINT
  5
2B05
330
DF6
100
AcDbEntity
  8
DEFPOINTS
 62
     0
100
AcDbPoint
 10
-49.00000000000004
 20
-3.00000000000018
 30
0.0
  0
POINT
  5
2B06
330
DF6
100
AcDbEntity
  8
DEFPOINTS
 62
     0
100
AcDbPoint
 10
-1.000000000000061
 20
-2.749999848094337
 30
0.0
  0
POINT
  5
2B07
330
DF6
100
AcDbEntity
  8
DEFPOINTS
 62
     0
100
AcDbPoint
 10
-1.000000000000061
 20
-10.00000100000005
 30
0.0
  0
ENDBLK
  5
E01
330
DF6
100
AcDbEntity
  8
0
100
AcDbBlockEnd
  0
BLOCK
  5
2557
330
254D
100
AcDbEntity
  8
0
100
AcDbBlockBegin
  2
*D7
 70
     1
 10
0.0
 20
0.0
 30
0.0
  3
*D7
  1

  0
LINE
  5
2855
330
254D
100
AcDbEntity
  8
AM_5
 62
     3
100
AcDbLine
 10
-100.7499999999998
 20
2.999999999999717
 30
0.0
 11
-109.8750219808317
 21
2.999999999999699
 31
0.0
  0
LINE
  5
2856
330
254D
100
AcDbEntity
  8
AM_5
 62
     3
100
AcDbLine
 10
-100.7499999999996
 20
-3.000000000000833
 30
0.0
 11
-109.8750219808317
 21
-3.00000000000085
 31
0.0
  0
LINE
  5
2857
330
254D
100
AcDbEntity
  8
AM_5
 62
     3
100
AcDbLine
 10
-109.3750219808317
 20
1.7499999999997
 30
0.0
 11
-109.3750219808317
 21
-1.750000000000849
 31
0.0
  0
INSERT
  5
2858
330
254D
100
AcDbEntity
  8
AM_5
 62
     3
100
AcDbBlockReference
  2
_OPEN30
 10
-109.3750219808317
 20
2.9999999999997
 30
0.0
 41
1.25
 42
1.25
 43
1.25
 50
90.0000000000001
  0
INSERT
  5
2859
330
254D
100
AcDbEntity
  8
AM_5
 62
     3
100
AcDbBlockReference
  2
_OPEN30
 10
-109.3750219808317
 20
-3.000000000000849
 30
0.0
 41
1.25
 42
1.25
 43
1.25
 50
270.0000000000001
  0
MTEXT
  5
285A
330
254D
100
AcDbEntity
  8
AM_5
 62
     2
100
AcDbMText
 10
-111.0750219808317
 20
-0.0000000000005738
 30
0.0
 40
1.9
 41
0.0
 71
     5
 72
     1
  1
%%c6
 11
-0.000000000000002
 21
1.0
 31
0.0
1001
ACAD
1000
MTEXTBEGIN
1070
    73
1070
     1
1070
    44
1040
1.0
1070
    74
1070
     0
1000
MTEXTEND
  0
POINT
  5
285B
330
254D
100
AcDbEntity
  8
DEFPOINTS
 62
     0
100
AcDbPoint
 10
-100.7499999999998
 20
2.999999999999941
 30
0.0
  0
POINT
  5
285C
330
254D
100
AcDbEntity
  8
DEFPOINTS
 62
     0
100
AcDbPoint
 10
-100.7499999999996
 20
-3.000000000000609
 30
0.0
  0
POINT
  5
285D
330
254D
100
AcDbEntity
  8
DEFPOINTS
 62
     0
100
AcDbPoint
 10
-109.3750219808317
 20
-3.000000000000607
 30
0.0
  0
ENDBLK
  5
2558
330
254D
100
AcDbEntity
  8
0
100
AcDbBlockEnd
  0
BLOCK
  5
2747
330
2737
100
AcDbEntity
  8
0
100
AcDbBlockBegin
  2
*D8
 70
     1
 10
0.0
 20
0.0
 30
0.0
  3
*D8
  1

  0
LINE
  5
2B74
330
2737
100
AcDbEntity
  8
AM_5
100
AcDbLine
 10
0.17101007166283
 20
-0.4698463103929726
 30
0.0
 11
5.474729139433102
 21
-15.04169468822226
 31
0.0
  0
LINE
  5
2B75
330
2737
100
AcDbEntity
  8
AM_5
100
AcDbLine
 10
0.1710100716628072
 20
0.4698463103929407
 30
0.0
 11
5.474729139432372
 21
15.04169468822249
 31
0.0
  0
ARC
  5
2B76
330
2737
100
AcDbEntity
  8
AM_5
100
AcDbCircle
 10
-0.000000000000009
 20
-0.0000000000000201
 30
0.0
 40
15.50703714757516
100
AcDbArc
 50
294.6197818554178
 51
65.38021814458492
  0
INSERT
  5
2B77
330
2737
100
AcDbEntity
  8
AM_5
100
AcDbBlockReference
  2
_OPEN30
 10
5.303719067770263
 20
-14.57184837782931
 30
0.0
 41
1.25
 42
1.25
 43
1.25
 50
202.3098909277092
  0
INSERT
  5
2B78
330
2737
100
AcDbEntity
  8
AM_5
100
AcDbBlockReference
  2
_OPEN30
 10
5.303719067769556
 20
14.57184837782953
 30
0.0
 41
1.25
 42
1.25
 43
1.25
 50
157.6901090722935
  0
MTEXT
  5
2B79
330
2737
100
AcDbEntity
  8
AM_5
 62
     2
100
AcDbMText
 10
13.95703714757515
 20
0.0000000000003488
 30
0.0
 40
1.6
 41
0.0
 71
     5
 72
     1
  1
140°
  7
ASAMI
 11
-0.000000000000002
 21
1.0
 31
0.0
  0
POINT
  5
2B7A
330
2737
100
AcDbEntity
  8
DEFPOINTS
 62
     0
100
AcDbPoint
 10
14.23881127889435
 20
-6.142023645371857
 30
0.0
  0
POINT
  5
2B7B
330
2737
100
AcDbEntity
  8
DEFPOINTS
 62
     0
100
AcDbPoint
 10
-0.289208433385835
 20
-0.7945936402435147
 30
0.0
  0
POINT
  5
2B7C
330
2737
100
AcDbEntity
  8
DEFPOINTS
 62
     0
100
AcDbPoint
 10
-0.2892084333858715
 20
0.7945936402434639
 30
0.0
  0
POINT
  5
2B7D
330
2737
100
AcDbEntity
  8
DEFPOINTS
 62
     0
100
AcDbPoint
 10
-0.0000000000000168
 20
0.0000000000000012
 30
0.0
  0
POINT
  5
2B7E
330
2737
100
AcDbEntity
  8
DEFPOINTS
 62
     0
100
AcDbPoint
 10
-0.0000000000000168
 20
-0.0000000000000414
 30
0.0
  0
ENDBLK
  5
2748
330
2737
100
AcDbEntity
  8
0
100
AcDbBlockEnd
  0
BLOCK
  5
29C8
330
29BC
100
AcDbEntity
  8
0
100
AcDbBlockBegin
  2
*D9
 70
     1
 10
0.0
 20
0.0
 30
0.0
  3
*D9
  1

  0
LINE
  5
2B08
330
29BC
100
AcDbEntity
  8
AM_5
 62
     3
100
AcDbLine
 10
-1.000000000000068
 20
-2.749999848094324
 30
0.0
 11
8.925011198283725
 21
-2.749999848094327
 31
0.0
  0
LINE
  5
2B09
330
29BC
100
AcDbEntity
  8
AM_5
 62
     3
100
AcDbLine
 10
-1.00001398722001
 20
2.750000151905665
 30
0.0
 11
8.925011198283725
 21
2.750000151905663
 31
0.0
  0
LINE
  5
2B0A
330
29BC
100
AcDbEntity
  8
AM_5
 62
     3
100
AcDbLine
 10
8.425011198283725
 20
-3.999999848094327
 30
0.0
 11
8.425011198283723
 21
-5.249999848094327
 31
0.0
  0
LINE
  5
2B0B
330
29BC
100
AcDbEntity
  8
AM_5
 62
     3
100
AcDbLine
 10
8.425011198283726
 20
4.000000151905663
 30
0.0
 11
8.425011198283728
 21
12.46730783868949
 31
0.0
  0
LINE
  5
2B0C
330
29BC
100
AcDbEntity
  8
AM_5
 62
     3
100
AcDbLine
 10
8.425011198283725
 20
-2.749999848094327
 30
0.0
 11
8.425011198283725
 21
2.750000151905663
 31
0.0
  0
INSERT
  5
2B0D
330
29BC
100
AcDbEntity
  8
AM_5
 62
     3
100
AcDbBlockReference
  2
_OPEN30
 10
8.425011198283725
 20
-2.749999848094327
 30
0.0
 41
1.25
 42
1.25
 43
1.25
 50
90.0
  0
INSERT
  5
2B0E
330
29BC
100
AcDbEntity
  8
AM_5
 62
     3
100
AcDbBlockReference
  2
_OPEN30
 10
8.425011198283725
 20
2.750000151905663
 30
0.0
 41
1.25
 42
1.25
 43
1.25
 50
270.0
  0
MTEXT
  5
2B0F
330
29BC
100
AcDbEntity
  8
AM_5
 62
     2
100
AcDbMText
 10
6.725011198283725
 20
8.867307838689493
 30
0.0
 40
1.9
 41
0.0
 71
     5
 72
     1
  1
%%c5.5
 11
0.0000000000000001
 21
1.0
 31
0.0
1001
ACAD
1000
MTEXTBEGIN
1070
    73
1070
     1
1070
    44
1040
1.0
1070
    74
1070
     0
1000
MTEXTEND
  0
POINT
  5
2B10
330
29BC
100
AcDbEntity
  8
DEFPOINTS
 62
     0
100
AcDbPoint
 10
-1.000000000000068
 20
-2.749999848094324
 30
0.0
  0
POINT
  5
2B11
330
29BC
100
AcDbEntity
  8
DEFPOINTS
 62
     0
100
AcDbPoint
 10
-1.00001398722001
 20
2.750000151905665
 30
0.0
  0
POINT
  5
2B12
330
29BC
100
AcDbEntity
  8
DEFPOINTS
 62
     0
100
AcDbPoint
 10
8.425011198283725
 20
2.750000151905663
 30
0.0
  0
ENDBLK
  5
29C9
330
29BC
100
AcDbEntity
  8
0
100
AcDbBlockEnd
  0
ENDSEC
  0
SECTION
  2
ENTITIES
  0
LINE
  5
C9F
330
1F
100
AcDbEntity
  8
AM_7
100
AcDbLine
 10
-102.3750209808316
 20
-0.0000000000000841
 30
0.0
 11
1.425010198283711
 21
0.0000000000000021
 31
0.0
1001
GENIUS_GENODEF_13
1002
{
1000
HIER
1070
     0
1002
}
1002
{
1000
MANEDIT
1070
     0
1002
}
1002
{
1000
NOSEL
1070
     0
1002
}
1002
{
1000
BEHIND
1070
     0
1002
}
1002
{
1000
REACTOR
1002
}
1001
GENIUS_GENOBJ-N-CEN_13
1002
{
1000
OWNER
1000
GEN
1002
}
  0
DIMENSION
  5
CC6
330
1F
100
AcDbEntity
  8
AM_5
100
AcDbDimension
  2
*D5
 10
-1.000000000000061
 20
-15.00000100000008
 30
0.0
 11
-51.00000000000004
 21
-13.30000100000008
 31
0.0
 70
    32
  1
<>
  3
AM_JIS$0
100
AcDbAlignedDimension
 13
-101.0
 23
-2.750000000000297
 33
0.0
 14
-1.000000000000061
 24
-2.749999848094337
 34
0.0
 50
0.0000000000001132
100
AcDbRotatedDimension
1001
GENIUS_GENDTOL_13
1000

1000
h7
1000

1040
0.0
1001
ACAD
1000
DSTYLE
1002
{
1070
   271
1070
     0
1002
}
  0
DIMENSION
  5
DF5
330
1F
100
AcDbEntity
  8
AM_5
100
AcDbDimension
  2
*D6
 10
-1.000000000000061
 20
-10.00000100000005
 30
0.0
 11
-25.00000000000005
 21
-8.300001000000053
 31
0.0
 70
    32
  1
<>
  3
AM_JIS$0
100
AcDbAlignedDimension
 13
-49.00000000000004
 23
-3.00000000000018
 33
0.0
 14
-1.000000000000061
 24
-2.749999848094337
 34
0.0
 50
0.0000000000001527
100
AcDbRotatedDimension
1001
GENIUS_GENDTOL_13
1000

1000
h7
1000

1040
0.0
1001
ACAD
1000
DSTYLE
1002
{
1070
   271
1070
     0
1002
}
  0
ARC
  5
144A
330
1F
100
AcDbEntity
  8
AM_11
 48
0.5
100
AcDbCircle
 10
-44.30277188618329
 20
-12.14665270677935
 30
0.0
 40
13.42998806635521
100
AcDbArc
 50
64.74833051131179
 51
115.2516644797366
  0
ARC
  5
144B
330
1F
100
AcDbEntity
  8
AM_11
 48
0.5
100
AcDbCircle
 10
-44.30277188618328
 20
12.14666095543165
 30
0.0
 40
13.42998806635521
100
AcDbArc
 50
244.7482808787518
 51
295.2516148471758
  0
ARC
  5
144E
330
1F
100
AcDbEntity
  8
AM_11
 48
0.5
100
AcDbCircle
 10
-32.84443855284996
 20
-12.14665270677935
 30
0.0
 40
13.42998806635521
100
AcDbArc
 50
64.74833051131179
 51
115.2516644797366
  0
ARC
  5
144F
330
1F
100
AcDbEntity
  8
AM_11
 48
0.5
100
AcDbCircle
 10
-32.84443855284996
 20
12.14666095543165
 30
0.0
 40
13.42998806635521
100
AcDbArc
 50
244.7482808787518
 51
295.2516148471758
  0
ARC
  5
1450
330
1F
100
AcDbEntity
  8
AM_11
 48
0.5
100
AcDbCircle
 10
-21.38610521951983
 20
12.14666095543165
 30
0.0
 40
13.42998806635521
100
AcDbArc
 50
244.7482808787518
 51
295.2516148471758
  0
ARC
  5
1451
330
1F
100
AcDbEntity
  8
AM_11
 48
0.5
100
AcDbCircle
 10
-21.38610521951983
 20
-12.14665270677935
 30
0.0
 40
13.42998806635521
100
AcDbArc
 50
64.74833051131179
 51
115.2516644797366
  0
ARC
  5
1452
330
1F
100
AcDbEntity
  8
AM_11
 48
0.5
100
AcDbCircle
 10
-9.927771886186496
 20
-12.14665270677935
 30
0.0
 40
13.42998806635521
100
AcDbArc
 50
64.74833051131179
 51
115.2516644797366
  0
ARC
  5
1453
330
1F
100
AcDbEntity
  8
AM_11
 48
0.5
100
AcDbCircle
 10
-9.927771886186496
 20
12.14666095543165
 30
0.0
 40
13.42998806635521
100
AcDbArc
 50
244.7482808787518
 51
295.2516148471758
  0
TEXT
  5
19BD
330
1F
100
AcDbEntity
  8
AM_6
100
AcDbText
 10
-61.83334382374916
 20
-26.25000100000011
 30
0.0
 40
2.5
  1
MDW055LHK
 50
0.0000000000001527
 72
     4
 11
-51.00001049041583
 21
-25.00000100000008
 31
0.0
100
AcDbText
  0
ARC
  5
1DAB
330
1F
100
AcDbEntity
  8
AM_11
 48
0.5
100
AcDbCircle
 10
-55.76108015507438
 20
-12.14665270677938
 30
0.0
 40
13.42998806635521
100
AcDbArc
 50
64.74833051131179
 51
115.2516644797366
  0
ARC
  5
1DAC
330
1F
100
AcDbEntity
  8
AM_11
 48
0.5
100
AcDbCircle
 10
-55.76108015507436
 20
12.14666095543162
 30
0.0
 40
13.42998806635521
100
AcDbArc
 50
244.7482808787518
 51
295.2516148471758
  0
ARC
  5
1DAD
330
1F
100
AcDbEntity
  8
AM_11
 48
0.5
100
AcDbCircle
 10
-67.21938842396546
 20
-12.14665270677942
 30
0.0
 40
13.42998806635521
100
AcDbArc
 50
64.74833051131179
 51
115.2516644797366
  0
ARC
  5
1DAE
330
1F
100
AcDbEntity
  8
AM_11
 48
0.5
100
AcDbCircle
 10
-67.21938842396546
 20
12.14666095543158
 30
0.0
 40
13.42998806635521
100
AcDbArc
 50
244.7482808787518
 51
295.2516148471758
  0
ARC
  5
1DAF
330
1F
100
AcDbEntity
  8
AM_11
 48
0.5
100
AcDbCircle
 10
-78.67769669285656
 20
-12.14665270677945
 30
0.0
 40
13.42998806635521
100
AcDbArc
 50
64.74833051131179
 51
115.2516644797366
  0
ARC
  5
1DB0
330
1F
100
AcDbEntity
  8
AM_11
 48
0.5
100
AcDbCircle
 10
-78.67769669285654
 20
12.14666095543155
 30
0.0
 40
13.42998806635521
100
AcDbArc
 50
244.7482808787518
 51
295.2516148471758
  0
ARC
  5
1F05
330
1F
100
AcDbEntity
  8
AM_11
 48
0.5
100
AcDbCircle
 10
-90.13601784622503
 20
-12.1466548782672
 30
0.0
 40
13.42998806635521
100
AcDbArc
 50
64.74833051131179
 51
115.2516644797366
  0
ARC
  5
1F06
330
1F
100
AcDbEntity
  8
AM_11
 48
0.5
100
AcDbCircle
 10
-90.13601784622501
 20
12.1466587839438
 30
0.0
 40
13.42998806635521
100
AcDbArc
 50
244.7482808787518
 51
295.2516148471758
  0
ARC
  5
1F0B
330
1F
100
AcDbEntity
  8
AM_11
 48
0.5
100
AcDbCircle
 10
-101.594343603469
 20
-12.1466548782672
 30
0.0
 40
13.42998806635521
100
AcDbArc
 50
64.74833051131179
 51
87.46363868627874
  0
ARC
  5
1F0C
330
1F
100
AcDbEntity
  8
AM_11
 48
0.5
100
AcDbCircle
 10
-101.5943436034689
 20
12.1466587839438
 30
0.0
 40
13.42998806635521
100
AcDbArc
 50
272.5363613137212
 51
295.2516148471758
  0
LINE
  5
1F19
330
1F
100
AcDbEntity
  8
AM_0
100
AcDbLine
 10
-100.75
 20
-3.000000000000058
 30
0.0
 11
-100.75
 21
2.999999999999941
 31
0.0
  0
LINE
  5
1F1A
330
1F
100
AcDbEntity
  8
AM_0
 48
0.5
100
AcDbLine
 10
-101.0
 20
-2.750000000000283
 30
0.0
 11
-101.0
 21
2.749999999999716
 31
0.0
  0
LINE
  5
1F1B
330
1F
100
AcDbEntity
  8
AM_0
100
AcDbLine
 10
-101.0
 20
-2.750000000000283
 30
0.0
 11
-100.75
 21
-3.000000000000282
 31
0.0
1001
GENIUS_GENFIL_13
1070
     0
1040
0.25
1040
0.25
1040
20.0
1040
0.0
1002
{
1002
}
1001
GENIUS_GENODEF_13
1002
{
1000
HIER
1070
     0
1002
}
1002
{
1000
MANEDIT
1070
     0
1002
}
1002
{
1000
NOSEL
1070
     0
1002
}
1002
{
1000
BEHIND
1070
     0
1002
}
1002
{
1000
REACTOR
1002
}
1001
GENIUS_GENOBJ-N-CHA_13
1002
{
1000
OWNER
1000
GEN
1002
}
  0
LINE
  5
1F1C
330
1F
100
AcDbEntity
  8
AM_0
100
AcDbLine
 10
-101.0
 20
2.749999999999716
 30
0.0
 11
-100.75
 21
2.999999999999717
 31
0.0
1001
GENIUS_GENFIL_13
1070
     0
1040
0.25
1040
0.25
1040
20.0
1040
0.0
1002
{
1002
}
1001
GENIUS_GENODEF_13
1002
{
1000
HIER
1070
     0
1002
}
1002
{
1000
MANEDIT
1070
     0
1002
}
1002
{
1000
NOSEL
1070
     0
1002
}
1002
{
1000
BEHIND
1070
     0
1002
}
1002
{
1000
REACTOR
1002
}
1001
GENIUS_GENOBJ-N-CHA_13
1002
{
1000
OWNER
1000
GEN
1002
}
  0
LINE
  5
1F2F
330
1F
100
AcDbEntity
  8
AM_0
 48
0.5
100
AcDbLine
 10
-49.00000000000004
 20
-3.00000000000018
 30
0.0
 11
-49.00000000000003
 21
3.000000000000043
 31
0.0
  0
LINE
  5
1F31
330
1F
100
AcDbEntity
  8
AM_0
100
AcDbLine
 10
-100.75
 20
2.999999999999941
 30
0.0
 11
-49.00000000000003
 21
3.000000000000043
 31
0.0
  0
LINE
  5
1F32
330
1F
100
AcDbEntity
  8
AM_0
100
AcDbLine
 10
-100.75
 20
-3.000000000000282
 30
0.0
 11
-49.00000000000004
 21
-3.00000000000018
 31
0.0
  0
LINE
  5
1F5B
330
1F
100
AcDbEntity
  8
AM_0
100
AcDbLine
 10
-49.00000000000003
 20
3.000000000000043
 30
0.0
 11
-48.56698756121743
 21
2.750000151906469
 31
0.0
  0
LINE
  5
1F5C
330
1F
100
AcDbEntity
  8
AM_0
100
AcDbLine
 10
-49.00000000000004
 20
-3.00000000000018
 30
0.0
 11
-48.56698756121752
 21
-2.750000151906634
 31
0.0
  0
LINE
  5
2434
330
1F
100
AcDbEntity
  8
AM_0
 48
0.5
100
AcDbLine
 10
-0.9166134198471972
 20
2.337511489582385
 30
0.0
 11
-1.00001398722001
 21
2.750000151905665
 31
0.0
  0
LINE
  5
2437
330
1F
100
AcDbEntity
  8
AM_0
 48
0.5
100
AcDbLine
 10
-0.9166099230416564
 20
-2.337496616649583
 30
0.0
 11
-1.000000000000068
 21
-2.749999848094324
 31
0.0
  0
LINE
  5
2442
330
1F
100
AcDbEntity
  8
AM_0
100
AcDbLine
 10
-48.56698756121751
 20
-2.750000151906635
 30
0.0
 11
-48.56698756121744
 21
2.750000151906466
 31
0.0
  0
ELLIPSE
  5
245F
330
1F
100
AcDbEntity
  8
AM_0
 48
0.5
100
AcDbEllipse
 10
3.925384326543456
 20
-3.305989277576228
 30
0.0
 11
2.436930427497456
 21
5.205145729177516
 31
0.0
210
0.0
220
0.0
230
1.0
 40
0.8524756746286305
 41
1.485882733847986
 42
1.776854386604848
  0
ELLIPSE
  5
2460
330
1F
100
AcDbEntity
  8
AM_0
 48
0.5
100
AcDbEllipse
 10
3.925384233732741
 20
3.3059878601966
 30
0.0
 11
-2.43693404402829
 21
5.205129135270516
 31
0.0
210
0.0
220
0.0
230
1.0
 40
0.8524775971145565
 41
1.364735592005148
 42
1.655708372890887
  0
DIMENSION
  5
254C
330
1F
100
AcDbEntity
  8
AM_5
100
AcDbDimension
  2
*D7
 10
-109.3750219808317
 20
-3.000000000000607
 30
0.0
 11
-111.0750219808317
 21
-0.0000000000003493
 31
0.0
 70
    32
  1
%%c<>
 51
359.9999999999998
  3
AM_JIS$0
100
AcDbAlignedDimension
 13
-100.7499999999998
 23
2.999999999999941
 33
0.0
 14
-100.7499999999996
 24
-3.000000000000609
 34
0.0
 50
270.0000000000002
100
AcDbRotatedDimension
1001
ACAD
1000
DSTYLE
1002
{
1070
   271
1070
     0
1002
}
1001
GENIUS_GENDTOL_13
1000

1000
h7
1000

1040
0.0
  0
LINE
  5
2651
330
1F
100
AcDbEntity
  8
AM_0
100
AcDbLine
 10
-0.2892084333858715
 20
0.7945936402434639
 30
0.0
 11
-0.0000000000000168
 21
0.0000000000000012
 31
0.0
  0
LINE
  5
2652
330
1F
100
AcDbEntity
  8
AM_0
100
AcDbLine
 10
-0.289208433385835
 20
-0.7945936402435147
 30
0.0
 11
-0.0000000000000168
 21
-0.0000000000000414
 31
0.0
  0
DIMENSION
  5
2736
330
1F
100
AcDbEntity
  8
AM_5
100
AcDbDimension
  2
*D8
 10
-0.0000000000000168
 20
-0.0000000000000414
 30
0.0
 11
13.95703714757515
 21
0.0000000000003184
 31
0.0
 70
    34
  1
<>
 51
359.9999999999998
  3
AM_JIS$2
100
AcDb2LineAngularDimension
 13
-0.2892084333858715
 23
0.7945936402434639
 33
0.0
 14
-0.0000000000000168
 24
0.0000000000000012
 34
0.0
 15
-0.289208433385835
 25
-0.7945936402435147
 35
0.0
 16
14.23881127889435
 26
-6.142023645371857
 36
0.0
1001
GENIUS_GENDTOL_13
1000

1000
h7
1000

1040
0.0
1001
ACAD
1000
DSTYLE
1002
{
1070
   271
1070
     0
1002
}
  0
DIMENSION
  5
29BB
330
1F
100
AcDbEntity
  8
AM_5
100
AcDbDimension
  2
*D9
 10
8.425011198283725
 20
2.750000151905663
 30
0.0
 11
8.425011198283725
 21
8.867307838689493
 31
0.0
 70
   160
  1
%%c<>
  3
AM_JIS$0
100
AcDbAlignedDimension
 13
-1.000000000000068
 23
-2.749999848094324
 33
0.0
 14
-1.00001398722001
 24
2.750000151905665
 34
0.0
 50
89.99999999999944
100
AcDbRotatedDimension
1001
ACAD
1000
DSTYLE
1002
{
1070
   271
1070
     1
1002
}
1001
GENIUS_GENDTOL_13
1000

1000
h7
1000

1040
0.0
  0
LINE
  5
2AC0
330
1F
100
AcDbEntity
  8
AM_0
 48
0.5
100
AcDbLine
 10
0.0000000000000001
 20
0.000000000000003
 30
0.0
 11
-1.350605487820045
 21
1.055916620207887
 31
0.0
  0
LINE
  5
2AC1
330
1F
100
AcDbEntity
  8
AM_0
 48
0.5
100
AcDbLine
 10
-2.484100341793727
 20
-2.74999984809431
 30
0.0
 11
-1.000000000000065
 21
-2.749999848094332
 31
0.0
  0
ELLIPSE
  5
2AC2
330
1F
100
AcDbEntity
  8
AM_11
 48
0.5
100
AcDbEllipse
 10
1.530561447146951
 20
13.09934024605372
 30
0.0
 11
0.0000000000000962
 21
14.4833204637164
 31
0.0
210
0.0
220
0.0
230
1.0
 40
0.9272727272727243
 41
2.700867013135198
 42
2.862597064175889
  0
ELLIPSE
  5
2AC3
330
1F
100
AcDbEntity
  8
AM_0
 48
0.5
100
AcDbEllipse
 10
2.845227559410856
 20
-0.6112869650986218
 30
0.0
 11
4.291746576495379
 21
0.970015486209386
 31
0.0
210
0.0
220
0.0
230
1.0
 40
0.9999507920425374
 41
3.046486544687594
 42
3.426912277401447
  0
ELLIPSE
  5
2AC4
330
1F
100
AcDbEntity
  8
AM_0
 48
0.5
100
AcDbEllipse
 10
-4.929641900828181
 20
5.230802818444046
 30
0.0
 11
-4.482319813245022
 21
5.669069706325953
 31
0.0
210
0.0
220
0.0
230
1.0
 40
0.6373338236356274
 41
3.093610165287991
 42
3.277203771866306
  0
ELLIPSE
  5
2AC5
330
1F
100
AcDbEntity
  8
AM_0
 48
0.5
100
AcDbEllipse
 10
-0.8184388478563128
 20
-0.7166894347339233
 30
0.0
 11
-0.0795872851831265
 21
0.4513694516910986
 31
0.0
210
0.0
220
0.0
230
1.0
 40
0.4999981224495421
 41
1.805862328724625
 42
4.941204218436601
  0
ELLIPSE
  5
2AC6
330
1F
100
AcDbEntity
  8
AM_0
 48
0.5
100
AcDbEllipse
 10
-0.8184388478563128
 20
-0.7166894347339233
 30
0.0
 11
-0.3969294452923782
 21
0.2291666673532871
 31
0.0
210
0.0
220
0.0
230
0.9999999999999998
 40
0.5000000000000345
 41
4.483836531792496
 42
7.627276873122001
  0
SPLINE
  5
2AC7
330
1F
100
AcDbEntity
  8
AM_0
 48
0.5
100
AcDbSpline
210
0.0
220
0.0
230
1.0
 70
     8
 71
     3
 72
    10
 73
     6
 74
     0
 42
0.0000000001
 43
0.0000000001
 40
0.0
 40
0.0
 40
0.0
 40
0.0
 40
2.69986029516136
 40
4.147722969032201
 40
6.285750005020438
 40
6.285750005020438
 40
6.285750005020438
 40
6.285750005020438
 10
-3.0245596567758
 20
0.4977354932956221
 30
0.0
 10
-2.694692144898383
 20
0.2422414899391395
 30
0.0
 10
-2.18792553249126
 20
-0.1502670958091254
 30
0.0
 10
-0.9894905693326888
 20
0.039753186721916
 30
0.0
 10
-1.215190731525519
 20
0.679766641712371
 30
0.0
 10
-1.36431897812823
 20
1.06987455441291
 30
0.0
  0
ELLIPSE
  5
2AC8
330
1F
100
AcDbEntity
  8
AM_0
 48
0.5
100
AcDbEllipse
 10
1.756413141889967
 20
3.301544341358734
 30
0.0
 11
3.919120297837838
 21
3.919120297837837
 31
0.0
210
0.0
220
0.0
230
0.9999999999999998
 40
0.9999999999999939
 41
2.886562043426422
 42
3.29468297362132
  0
ELLIPSE
  5
2AC9
330
1F
100
AcDbEntity
  8
AM_0
 48
0.5
100
AcDbEllipse
 10
-4.759485880530354
 20
4.615497105233973
 30
0.0
 11
-4.688500761670919
 21
4.688500761670919
 31
0.0
210
0.0
220
0.0
230
1.0
 40
0.9999999999998648
 41
2.866777815420697
 42
2.955272593100203
  0
LINE
  5
2ACA
330
1F
100
AcDbEntity
  8
AM_0
 48
0.5
100
AcDbLine
 10
-38.96967093149497
 20
1.393374118123066
 30
0.0
 11
-45.00000000000003
 21
-0.2224071890970466
 31
0.0
  0
LINE
  5
2ACB
330
1F
100
AcDbEntity
  8
AM_0
 48
0.5
100
AcDbLine
 10
-18.98386885388437
 20
-2.749999848094098
 30
0.0
 11
-11.21485519408847
 21
-2.749999848094166
 31
0.0
  0
LINE
  5
2ACC
330
1F
100
AcDbEntity
  8
AM_11
 48
0.5
100
AcDbLine
 10
-44.08317947387398
 20
-2.749999848093651
 30
0.0
 11
-37.51114273070971
 21
-2.749999848093791
 31
0.0
  0
LINE
  5
2ACD
330
1F
100
AcDbEntity
  8
AM_0
 48
0.5
100
AcDbLine
 10
-37.51114622753179
 20
-2.749999848093754
 30
0.0
 11
-27.71462241985189
 21
-2.749999848093889
 31
0.0
  0
LINE
  5
2ACE
330
1F
100
AcDbEntity
  8
AM_11
 48
0.5
100
AcDbLine
 10
-27.71462370617801
 20
-2.749999848093954
 30
0.0
 11
-18.98386885388438
 21
-2.750390535501414
 31
0.0
  0
LINE
  5
2ACF
330
1F
100
AcDbEntity
  8
AM_11
 48
0.5
100
AcDbLine
 10
-11.21485519408847
 20
-2.749999848094166
 30
0.0
 11
-2.484100341793727
 21
-2.74999984809431
 31
0.0
  0
ELLIPSE
  5
2AD0
330
1F
100
AcDbEntity
  8
AM_0
 48
0.5
100
AcDbEllipse
 10
-44.31251398722008
 20
-1.861262169565821
 30
0.0
 11
0.6849461766612545
 21
0.0616540909351154
 31
0.0
210
0.0
220
0.0
230
1.0
 40
0.9995997762411558
 41
1.085830170153056
 42
3.026152238672871
  0
ELLIPSE
  5
2AD1
330
1F
100
AcDbEntity
  8
AM_0
 48
0.5
100
AcDbEllipse
 10
-44.08317947387394
 20
-1.833333181427029
 30
0.0
 11
-0.8481108898852182
 21
0.3485087434553878
 31
0.0
210
0.0
220
0.0
230
1.0
 40
0.9996714264543424
 41
0.4012499436618067
 42
1.960568117656663
  0
SPLINE
  5
2AD2
330
1F
100
AcDbEntity
  8
AM_0
 48
0.5
100
AcDbSpline
210
0.0
220
0.0
230
1.0
 70
     8
 71
     3
 72
    26
 73
    22
 74
     0
 42
0.0000000001
 43
0.0000000001
 40
0.0
 40
0.0
 40
0.0
 40
0.0
 40
0.4632575220609015
 40
0.9271320558815228
 40
1.392223688852627
 40
1.859097508126575
 40
2.328267793346685
 40
2.800187610316366
 40
3.275232272894703
 40
3.753695215510249
 40
4.235780552632416
 40
4.721598429862242
 40
5.211170673809951
 40
5.70440888197023
 40
6.20117450816439
 40
6.701203715991866
 40
7.204183272409761
 40
7.709727705098289
 40
8.217394601127418
 40
8.726694734710479
 40
9.22133928350434
 40
9.22133928350434
 40
9.22133928350434
 40
9.22133928350434
 10
-36.21371936797789
 20
-2.749999848093813
 30
0.0
 10
-36.3681470884233
 20
-2.748363664787931
 30
0.0
 10
-36.67720821128369
 20
-2.745089118946924
 30
0.0
 10
-37.14068742200534
 20
-2.718692601106937
 30
0.0
 10
-37.60414684989243
 20
-2.676729039076716
 30
0.0
 10
-38.06757758911796
 20
-2.61791548978481
 30
0.0
 10
-38.5309750395212
 20
-2.543049082052649
 30
0.0
 10
-38.99432996842728
 20
-2.45246238634832
 30
0.0
 10
-39.45764206758681
 20
-2.346767441535896
 30
0.0
 10
-39.92090817722148
 20
-2.226606185477906
 30
0.0
 10
-40.38412720212534
 20
-2.092724198691519
 30
0.0
 10
-40.84730295460826
 20
-1.945954773798334
 30
0.0
 10
-41.31043351542118
 20
-1.787204164688312
 30
0.0
 10
-41.77352413196385
 20
-1.617446186963685
 30
0.0
 10
-42.23658099607694
 20
-1.43774452455313
 30
0.0
 10
-42.69960510825234
 20
-1.249189294050549
 30
0.0
 10
-43.16259992009148
 20
-1.052951945942024
 30
0.0
 10
-43.62557393394938
 20
-0.8502432222974597
 30
0.0
 10
-44.08851949866647
 20
-0.6422839184653546
 30
0.0
 10
-44.54670960662888
 20
-0.4326397895651939
 30
0.0
 10
-44.85027779205884
 20
-0.2917993932029599
 30
0.0
 10
-45.00000000000004
 20
-0.2224071890970466
 30
0.0
  0
SPLINE
  5
2AD3
330
1F
100
AcDbEntity
  8
AM_0
100
AcDbSpline
210
0.0
220
0.0
230
1.0
 70
     8
 71
     3
 72
    11
 73
     7
 74
     0
 42
0.0000000001
 43
0.0000000001
 40
11.27226913003534
 40
11.27226913003534
 40
11.27226913003534
 40
11.2722691300354
 40
12.28301561507924
 40
13.29510212255852
 40
14.30984805882082
 40
15.18258238371378
 40
15.18258238371378
 40
15.18258238371378
 40
15.18258238371378
 10
-27.7146237061791
 20
-2.749999848093954
 30
0.0
 10
-27.86846421435682
 20
-2.736540548949169
 30
0.0
 10
-28.17585505826004
 20
-2.703956171492265
 30
0.0
 10
-28.63535401510286
 20
-2.638225422435036
 30
0.0
 10
-29.07142662737498
 20
-2.559717249781729
 30
0.0
 10
-29.35345279604378
 20
-2.499365680910026
 30
0.0
 10
-29.48341848525417
 20
-2.469553672857807
 30
0.0
  0
SPLINE
  5
2AD4
330
1F
100
AcDbEntity
  8
AM_0
100
AcDbSpline
210
0.0
220
0.0
230
1.0
 70
     8
 71
     3
 72
    17
 73
    13
 74
     0
 42
0.0000000001
 43
0.0000000001
 40
1.580019955310467
 40
1.580019955310467
 40
1.580019955310467
 40
1.580019955310467
 40
2.030549285115227
 40
3.082371838836284
 40
4.126290986361125
 40
5.162752068350215
 40
6.192395305374981
 40
7.216039564037012
 40
8.234688489606833
 40
9.249433870634691
 40
10.26152376260694
 40
11.27226744710342
 40
11.27226744710342
 40
11.27226744710342
 40
11.27226744710352
 10
-23.34890569590079
 20
-2.029580826217515
 30
0.0
 10
-23.41448026808616
 20
-2.050483824242354
 30
0.0
 10
-23.63352136976257
 20
-2.118996192263244
 30
0.0
 10
-24.00747885024422
 20
-2.226460292919073
 30
0.0
 10
-24.47068051102805
 20
-2.346805829565481
 30
0.0
 10
-24.93400969079543
 20
-2.452453232266129
 30
0.0
 10
-25.39736010014407
 20
-2.54304771329816
 30
0.0
 10
-25.86076099068939
 20
-2.617930284031478
 30
0.0
 10
-26.3241938962725
 20
-2.676673622653556
 30
0.0
 10
-26.78765565889805
 20
-2.71889705267436
 30
0.0
 10
-27.25113486006844
 20
-2.744328776971361
 30
0.0
 10
-27.56019598778959
 20
-2.749999863829598
 30
0.0
 10
-27.71462370617907
 20
-2.749999848093954
 30
0.0
  0
SPLINE
  5
2AD5
330
1F
100
AcDbEntity
  8
AM_0
100
AcDbSpline
210
0.0
220
0.0
230
1.0
 70
     8
 71
     3
 72
    22
 73
    18
 74
     0
 42
0.0000000001
 43
0.0000000001
 40
17.17441611292
 40
17.17441611292
 40
17.17441611292
 40
17.17441611292
 40
17.38177636558528
 40
18.41823744757437
 40
19.46215659509824
 40
20.51397914882054
 40
21.57394542641293
 40
22.64209583141747
 40
23.71826625065247
 40
24.80210429862395
 40
25.8930771157021
 40
26.99048705697709
 40
28.09349309193389
 40
29.20112995599786
 40
30.31233024745139
 40
31.42594771747373
 40
32.5407895042663
 40
32.54078950426994
 40
32.54078950426994
 40
32.54078950426994
 10
-29.48362118068815
 20
-2.469519751628836
 30
0.0
 10
-29.51465640873184
 20
-2.463153771353702
 30
0.0
 10
-29.70069565152853
 20
-2.424377889679069
 30
0.0
 10
-30.0415090610625
 20
-2.346627200128065
 30
0.0
 10
-30.50477520743397
 20
-2.226466457326002
 30
0.0
 10
-30.96799414795756
 20
-2.092584121112075
 30
0.0
 10
-31.43116915293305
 20
-1.94581591822547
 30
0.0
 10
-31.89429961053845
 20
-1.787061754749393
 30
0.0
 10
-32.35739122137264
 20
-1.617309631202601
 30
0.0
 10
-32.82044612968
 20
-1.437602789518545
 30
0.0
 10
-33.28346861981952
 20
-1.249049471943096
 30
0.0
 10
-33.74646384030773
 20
-1.052812933014031
 30
0.0
 10
-34.2094358096638
 20
-0.8500998371435629
 30
0.0
 10
-34.67238918844912
 20
-0.6421573095518865
 30
0.0
 10
-35.13532808034244
 20
-0.4302639614062839
 30
0.0
 10
-35.59825934338084
 20
-0.2157272891948622
 30
0.0
 10
-35.90681960683104
 20
-0.0718420939217395
 30
0.0
 10
-36.06118450228201
 20
0.0001400241396102
 30
0.0
  0
SPLINE
  5
2AD6
330
1F
100
AcDbEntity
  8
AM_0
 48
0.5
100
AcDbSpline
210
0.0
220
0.0
230
1.0
 70
     8
 71
     3
 72
    22
 73
    18
 74
     0
 42
0.0000000001
 43
0.0000000001
 40
0.0
 40
0.0
 40
0.0
 40
0.0
 40
1.010743684496582
 40
2.022833993863546
 40
3.037578683882831
 40
4.056212471389632
 40
5.079857945358201
 40
6.109499720892564
 40
7.145961650132166
 40
8.189873411961459
 40
9.241710626092514
 40
10.30166235592959
 40
11.36982472628033
 40
12.44598212828784
 40
13.52983440361964
 40
14.62080578343036
 40
14.90544694398022
 40
14.90544694398022
 40
14.90544694398022
 40
14.90544694398022
 10
-37.51114622751575
 20
-2.749999848093792
 30
0.0
 10
-37.66557397745112
 20
-2.748364153529711
 30
0.0
 10
-37.9746352231028
 20
-2.745090585147811
 30
0.0
 10
-38.43811394846467
 20
-2.718686715326416
 30
0.0
 10
-38.90157387679782
 20
-2.676730213920839
 30
0.0
 10
-39.36500486645281
 20
-2.617916625789621
 30
0.0
 10
-39.82840103964729
 20
-2.543043175513457
 30
0.0
 10
-40.29175756209371
 20
-2.452464312114504
 30
0.0
 10
-40.75506764397445
 20
-2.346765526456432
 30
0.0
 10
-41.21833447117131
 20
-2.226602530709808
 30
0.0
 10
-41.68155387128468
 20
-2.092725602531547
 30
0.0
 10
-42.14472826505367
 20
-1.945949531986899
 30
0.0
 10
-42.60786063825118
 20
-1.787208322319578
 30
0.0
 10
-43.07095064301061
 20
-1.617445683301031
 30
0.0
 10
-43.53400695477761
 20
-1.437743079802412
 30
0.0
 10
-43.88202613349562
 20
-1.296028133841171
 30
0.0
 10
-44.07595456448365
 20
-1.215028426034121
 30
0.0
 10
-44.11605251540072
 20
-1.198197407733739
 30
0.0
  0
SPLINE
  5
2AD7
330
1F
100
AcDbEntity
  8
AM_0
100
AcDbSpline
210
0.0
220
0.0
230
1.0
 70
     8
 71
     3
 72
    11
 73
     7
 74
     0
 42
0.0000000001
 43
0.0000000001
 40
11.27226913003534
 40
11.27226913003534
 40
11.27226913003534
 40
11.2722691300354
 40
12.28301561507924
 40
13.29510212255852
 40
14.30984805882082
 40
15.18258238371378
 40
15.18258238371378
 40
15.18258238371378
 40
15.18258238371378
 10
-11.21485519408845
 20
-2.749999848094166
 30
0.0
 10
-11.36869570226618
 20
-2.736540548949381
 30
0.0
 10
-11.6760865461694
 20
-2.703956171492478
 30
0.0
 10
-12.13558550301222
 20
-2.63822542243525
 30
0.0
 10
-12.57165811528435
 20
-2.559717249781943
 30
0.0
 10
-12.85368428395315
 20
-2.499365680910242
 30
0.0
 10
-12.98364997316354
 20
-2.469553672858019
 30
0.0
  0
SPLINE
  5
2AD8
330
1F
100
AcDbEntity
  8
AM_0
100
AcDbSpline
210
0.0
220
0.0
230
1.0
 70
     8
 71
     3
 72
    22
 73
    18
 74
     0
 42
0.0000000001
 43
0.0000000001
 40
17.17441611292
 40
17.17441611292
 40
17.17441611292
 40
17.17441611292
 40
17.38177636558528
 40
18.41823744757437
 40
19.46215659509824
 40
20.51397914882054
 40
21.57394542641293
 40
22.64209583141747
 40
23.71826625065247
 40
24.80210429862395
 40
25.8930771157021
 40
26.99048705697709
 40
28.09349309193389
 40
29.20112995599786
 40
30.31233024745139
 40
31.42594771747373
 40
32.5407895042663
 40
32.54078950426994
 40
32.54078950426994
 40
32.54078950426994
 10
-12.98385266859751
 20
-2.469519751629047
 30
0.0
 10
-13.0148878966412
 20
-2.463153771353915
 30
0.0
 10
-13.2009271394379
 20
-2.424377889679282
 30
0.0
 10
-13.54174054897186
 20
-2.346627200128281
 30
0.0
 10
-14.00500669534331
 20
-2.226466457326218
 30
0.0
 10
-14.46822563586691
 20
-2.092584121112291
 30
0.0
 10
-14.93140064084239
 20
-1.945815918225684
 30
0.0
 10
-15.3945310984478
 20
-1.787061754749608
 30
0.0
 10
-15.85762270928201
 20
-1.617309631202815
 30
0.0
 10
-16.32067761758937
 20
-1.43760278951876
 30
0.0
 10
-16.78370010772889
 20
-1.249049471943311
 30
0.0
 10
-17.2466953282171
 20
-1.052812933014244
 30
0.0
 10
-17.70966729757314
 20
-0.8500998371437772
 30
0.0
 10
-18.17262067635846
 20
-0.642157309552101
 30
0.0
 10
-18.63555956825178
 20
-0.4302639614064978
 30
0.0
 10
-19.09849083129019
 20
-0.2157272891950763
 30
0.0
 10
-19.40705109474039
 20
-0.0718420939219535
 30
0.0
 10
-19.56141599019136
 20
0.0001400241393961
 30
0.0
  0
SPLINE
  5
2AD9
330
1F
100
AcDbEntity
  8
AM_0
100
AcDbSpline
210
0.0
220
0.0
230
1.0
 70
     8
 71
     3
 72
    17
 73
    13
 74
     0
 42
0.0000000001
 43
0.0000000001
 40
1.580019955310467
 40
1.580019955310467
 40
1.580019955310467
 40
1.580019955310467
 40
2.030549285115227
 40
3.082371838836284
 40
4.126290986361125
 40
5.162752068350215
 40
6.192395305374981
 40
7.216039564037012
 40
8.234688489606833
 40
9.249433870634691
 40
10.26152376260694
 40
11.27226744710342
 40
11.27226744710342
 40
11.27226744710342
 40
11.27226744710352
 10
-6.849137183810137
 20
-2.029580826217728
 30
0.0
 10
-6.914711755995515
 20
-2.050483824242566
 30
0.0
 10
-7.133752857671932
 20
-2.118996192263457
 30
0.0
 10
-7.507710338153573
 20
-2.226460292919288
 30
0.0
 10
-7.970911998937411
 20
-2.346805829565698
 30
0.0
 10
-8.434241178704791
 20
-2.452453232266344
 30
0.0
 10
-8.897591588053437
 20
-2.543047713298372
 30
0.0
 10
-9.360992478598756
 20
-2.617930284031691
 30
0.0
 10
-9.824425384181864
 20
-2.676673622653768
 30
0.0
 10
-10.28788714680742
 20
-2.718897052674572
 30
0.0
 10
-10.7513663479778
 20
-2.744328776971573
 30
0.0
 10
-11.06042747569894
 20
-2.749999863829815
 30
0.0
 10
-11.21485519408843
 20
-2.749999848094166
 30
0.0
  0
SPLINE
  5
2ADA
330
1F
100
AcDbEntity
  8
AM_0
100
AcDbSpline
210
0.0
220
0.0
230
1.0
 70
     8
 71
     3
 72
    13
 73
     9
 74
     0
 42
0.0000000001
 43
0.0000000001
 40
16.03460056234195
 40
16.03460056234195
 40
16.03460056234195
 40
16.03460056234195
 40
16.35212717791071
 40
17.38177067057215
 40
18.41822498539278
 40
19.46214186516937
 40
20.5139635832251
 40
21.34083983469381
 40
21.34083983469381
 40
21.34083983469381
 40
21.34083983469381
 10
-44.08317976163247
 20
-2.749999848093651
 30
0.0
 10
-43.9521922848916
 20
-2.740966706155731
 30
0.0
 10
-43.75037122560444
 20
-2.700540717260687
 30
0.0
 10
-43.394861744177
 20
-2.621329063713691
 30
0.0
 10
-42.93447572615789
 20
-2.503543902903668
 30
0.0
 10
-42.47451740990172
 20
-2.371290344959108
 30
0.0
 10
-42.04890465520885
 20
-2.236115338632138
 30
0.0
 10
-41.7773712127148
 20
-2.143037726870105
 30
0.0
 10
-41.65825111890675
 20
-2.100965798230314
 30
0.0
  0
LINE
  5
2ADB
330
1F
100
AcDbEntity
  8
AM_0
100
AcDbLine
 10
-48.5669870349978
 20
-2.749999848093535
 30
0.0
 11
-44.08317947387398
 21
-2.749999848093651
 31
0.0
1001
GENIUS_GENODEF_13
1002
{
1000
HIER
1070
     0
1002
}
1002
{
1000
MANEDIT
1070
     0
1002
}
1002
{
1000
NOSEL
1070
     0
1002
}
1002
{
1000
BEHIND
1070
     0
1002
}
1002
{
1000
REACTOR
1002
}
1001
GENIUS_GENOBJ-N-CEN_13
1002
{
1000
OWNER
1000
GEN
1002
}
  0
LINE
  5
2ADC
330
1F
100
AcDbEntity
  8
AM_0
 48
0.5
100
AcDbLine
 10
-2.484100341793642
 20
2.750000151905692
 30
0.0
 11
-1.00001398722001
 21
2.750000151905665
 31
0.0
  0
LINE
  5
2ADD
330
1F
100
AcDbEntity
  8
AM_0
 48
0.5
100
AcDbLine
 10
-21.01131057738907
 20
2.750000151905995
 30
0.0
 11
-11.21485519408838
 21
2.750000151905836
 31
0.0
  0
LINE
  5
2ADE
330
1F
100
AcDbEntity
  8
AM_11
 48
0.5
100
AcDbLine
 10
-43.08276823419543
 20
2.750390839313626
 30
0.0
 11
-37.5111427307096
 21
2.750000151906211
 31
0.0
  0
LINE
  5
2ADF
330
1F
100
AcDbEntity
  8
AM_0
100
AcDbLine
 10
-37.5111427307096
 20
2.750000151906211
 30
0.0
 11
-26.58293608087491
 21
2.750390839313411
 31
0.0
  0
LINE
  5
2AE0
330
1F
100
AcDbEntity
  8
AM_11
 48
0.5
100
AcDbLine
 10
-26.58293608087491
 20
2.750390839313411
 30
0.0
 11
-21.01130305764127
 21
2.750000151905995
 31
0.0
  0
LINE
  5
2AE1
330
1F
100
AcDbEntity
  8
AM_11
 48
0.5
100
AcDbLine
 10
-11.21485519408838
 20
2.750000151905836
 30
0.0
 11
-2.484100341793642
 21
2.750000151905692
 31
0.0
  0
SPLINE
  5
2AE2
330
1F
100
AcDbEntity
  8
AM_0
100
AcDbSpline
210
0.0
220
0.0
230
1.0
 70
     8
 71
     3
 72
    23
 73
    19
 74
     0
 42
0.0000000001
 43
0.0000000001
 40
16.03460024169435
 40
16.03460024169435
 40
16.03460024169435
 40
16.03460024169435
 40
16.35212704903564
 40
17.38177054169784
 40
18.41822485651776
 40
19.46214173629503
 40
20.51396345435107
 40
21.57393551351153
 40
22.64208202342361
 40
23.7182574881101
 40
24.80209208578934
 40
25.89306333925047
 40
26.99048218457928
 40
28.09348763352352
 40
29.20111863782268
 40
30.31232390128032
 40
31.42594612798585
 40
32.5407912310448
 40
32.5407912310486
 40
32.5407912310486
 40
32.5407912310486
 10
-26.58293608087491
 20
2.750390839313411
 30
0.0
 10
-26.53531928788002
 20
2.741107323587353
 30
0.0
 10
-26.33349839559551
 20
2.700680225503079
 30
0.0
 10
-25.97798872037427
 20
2.62146949675993
 30
0.0
 10
-25.51760276029265
 20
2.503684009358956
 30
0.0
 10
-25.05764442834584
 20
2.371430539860745
 30
0.0
 10
-24.59808654522918
 20
2.225474503890455
 30
0.0
 10
-24.138912800419
 20
2.066629609616142
 30
0.0
 10
-23.68009665477334
 20
1.895803881440458
 30
0.0
 10
-23.22160615807969
 20
1.713991482252181
 30
0.0
 10
-22.76341525726131
 20
1.52222200506758
 30
0.0
 10
-22.30548721749224
 20
1.321611311791103
 30
0.0
 10
-21.84778492882569
 20
1.113325438445589
 30
0.0
 10
-21.39027789586364
 20
0.8985619414837437
 30
0.0
 10
-20.93292783954824
 20
0.6785696412297331
 30
0.0
 10
-20.4756923995783
 20
0.4546331313181311
 30
0.0
 10
-20.01853434408185
 20
0.2280500631840063
 30
0.0
 10
-19.71384416874706
 20
0.0761385054341897
 30
0.0
 10
-19.56141599018931
 20
0.000140024138408
 30
0.0
  0
SPLINE
  5
2AE3
330
1F
100
AcDbEntity
  8
AM_0
100
AcDbSpline
210
0.0
220
0.0
230
1.0
 70
     8
 71
     3
 72
    46
 73
    42
 74
     0
 42
0.0000000001
 43
0.0000000001
 40
0.0
 40
0.0
 40
0.0
 40
0.0
 40
0.9269782822765129
 40
1.392069915247614
 40
1.858943734521565
 40
2.328114019741209
 40
2.800033836711347
 40
3.275078499289677
 40
3.753541441904786
 40
4.235633498381826
 40
4.721451375611676
 40
5.211020311238912
 40
5.704265086722058
 40
6.201024192041711
 40
6.701053399869214
 40
7.204032956287514
 40
7.709577388975612
 40
8.217244285004754
 40
8.726544418588229
 40
9.236953160217939
 40
9.747921574214178
 40
10.25888998821083
 40
10.76929872984054
 40
11.2785988634236
 40
11.78626575945273
 40
12.29181019214125
 40
12.79478974855896
 40
13.29481895638662
 40
13.79158132214193
 40
14.28482609762508
 40
14.77439503325231
 40
15.26021291048202
 40
15.74229824760474
 40
16.22076119021984
 40
16.69580585279818
 40
17.16772533483959
 40
17.63689589856451
 40
18.10377665611729
 40
18.56886813072882
 40
19.0327428558558
 40
19.49600034591619
 40
19.49600034591619
 40
19.49600034591619
 40
19.49600034591619
 10
-17.6864419943465
 20
-2.749999848094116
 30
0.0
 10
-17.99551821740347
 20
-2.743735135516597
 30
0.0
 10
-18.45966686021671
 20
-2.734327236676269
 30
0.0
 10
-19.07686555126947
 20
-2.676404531839369
 30
0.0
 10
-19.54030127358461
 20
-2.618003037241264
 30
0.0
 10
-20.00369738317778
 20
-2.543025438598767
 30
0.0
 10
-20.46705265930496
 20
-2.452468740198586
 30
0.0
 10
-20.93036472161923
 20
-2.346765880206193
 30
0.0
 10
-21.39363279414248
 20
-2.226605445654664
 30
0.0
 10
-21.85685481516816
 20
-2.092725239399697
 30
0.0
 10
-22.32003171056604
 20
-1.945955636129099
 30
0.0
 10
-22.78316223453105
 20
-1.787201668751725
 30
0.0
 10
-23.24625382750285
 20
-1.617449492324892
 30
0.0
 10
-23.70930874019918
 20
-1.437742663994169
 30
0.0
 10
-24.1723312308418
 20
-1.24918934645374
 30
0.0
 10
-24.63532644482879
 20
-1.052952793779733
 30
0.0
 10
-25.0982984398736
 20
-0.8502397532656955
 30
0.0
 10
-25.56125172186193
 20
-0.6422970168189864
 30
0.0
 10
-26.02419119941826
 20
-0.4304043501364359
 30
0.0
 10
-26.48712110152502
 20
-0.2158647441706448
 30
0.0
 10
-26.95004711216125
 20
0.0000001518623589
 30
0.0
 10
-27.41297312269578
 20
0.2158650481576807
 30
0.0
 10
-27.87590302510757
 20
0.4304046533368965
 30
0.0
 10
-28.33884250154893
 20
0.6422973228940307
 30
0.0
 10
-28.80179578767169
 20
0.8502400486799629
 30
0.0
 10
-29.26476776738638
 20
1.05295312872307
 30
0.0
 10
-29.72776303814599
 20
1.249189535007038
 30
0.0
 10
-30.19078632537866
 20
1.437743803952426
 30
0.0
 10
-30.65384303728299
 20
1.617448999555516
 30
0.0
 10
-31.11693545633924
 20
1.787202046413371
 30
0.0
 10
-31.58006596952125
 20
1.9459560610285
 30
0.0
 10
-32.04324096224102
 20
2.09272431561187
 30
0.0
 10
-32.50645989691363
 20
2.226606592880219
 30
0.0
 10
-32.9697260784077
 20
2.346767518300278
 30
0.0
 10
-33.43303787258126
 20
2.452463462656635
 30
0.0
 10
-33.89639348841217
 20
2.543046426067842
 30
0.0
 10
-34.35979255543507
 20
2.617916955738061
 30
0.0
 10
-34.82322588978341
 20
2.676729585978431
 30
0.0
 10
-35.28668789652664
 20
2.718689300810022
 30
0.0
 10
-35.75016672659597
 20
2.745092940704096
 30
0.0
 10
-36.05922797885059
 20
2.748365140990832
 30
0.0
 10
-36.21365572674787
 20
2.750000151906189
 30
0.0
  0
SPLINE
  5
2AE4
330
1F
100
AcDbEntity
  8
AM_0
100
AcDbSpline
210
0.0
220
0.0
230
1.0
 70
     8
 71
     3
 72
    55
 73
    51
 74
     0
 42
0.0000000001
 43
0.0000000001
 40
0.0
 40
0.0
 40
0.0
 40
0.0
 40
1.010743684496582
 40
2.022833576467832
 40
3.037578957496688
 40
4.056212745003489
 40
5.079857003664532
 40
6.109500240690281
 40
7.145961322679372
 40
8.189895241603872
 40
9.241717795325891
 40
10.30168407291828
 40
11.36983447792315
 40
12.44600489715814
 40
13.52984294512926
 40
14.62081576220742
 40
15.7182257034828
 40
16.82123173843959
 40
17.92886860250316
 40
19.0400688939571
 40
20.15368796660465
 40
21.26852814259644
 40
22.38336992938901
 40
23.49698739941135
 40
24.6081876908653
 40
25.71582455492886
 40
26.81883757994213
 40
27.91624752121713
 40
29.00722033829659
 40
30.09105838626677
 40
31.16722880550176
 40
32.23537921050758
 40
33.29534548809967
 40
34.347168041821
 40
35.39108718934584
 40
36.42754827133493
 40
37.45720575381954
 40
38.48085062012849
 40
39.49948440763516
 40
40.51422944315121
 40
41.52631975251916
 40
42.53706336719636
 40
43.54780698187354
 40
44.55989729124051
 40
45.57464232675757
 40
46.59327611426424
 40
47.6169209805722
 40
48.64656348684535
 40
49.68302456883444
 40
50.58557219878025
 40
50.58557219878025
 40
50.58557219878025
 40
50.58557219878025
 10
-18.98386885388438
 20
-2.749999848094098
 30
0.0
 10
-19.13829657431123
 20
-2.748363664716916
 30
0.0
 10
-19.44735769713429
 20
-2.745089118733223
 30
0.0
 10
-19.91083690813532
 20
-2.718692601965407
 30
0.0
 10
-20.37429633495637
 20
-2.676729035844068
 30
0.0
 10
-20.837727078189
 20
-2.617915501930424
 30
0.0
 10
-21.30112451352392
 20
-2.543049036369776
 30
0.0
 10
-21.76447949916583
 20
-2.452462558403691
 30
0.0
 10
-22.22779358501658
 20
-2.346766290835501
 30
0.0
 10
-22.6910626624166
 20
-2.226607467036012
 30
0.0
 10
-23.15428357565914
 20
-2.092723854894043
 30
0.0
 10
-23.61745863364439
 20
-1.945955828003283
 30
0.0
 10
-24.0805890768475
 20
-1.787201616750057
 30
0.0
 10
-24.54368069171241
 20
-1.617449506425737
 30
0.0
 10
-25.00673559844502
 20
-1.43774266011873
 30
0.0
 10
-25.46975809083211
 20
-1.249189347723561
 30
0.0
 10
-25.93275330385578
 20
-1.052952792601825
 30
0.0
 10
-26.39572530100918
 20
-0.8502397567211827
 30
0.0
 10
-26.85867857548836
 20
-0.6422970041096157
 30
0.0
 10
-27.32161808109005
 20
-0.4304043977046163
 30
0.0
 10
-27.7845478782344
 20
-0.2158645661701312
 30
0.0
 10
-28.2474745042072
 20
-0.0000004091938381
 30
0.0
 10
-28.71039905202679
 20
0.2158676334718086
 30
0.0
 10
-29.17333040081091
 20
0.4304041240536458
 30
0.0
 10
-29.63626933490758
 20
0.6422973718455014
 30
0.0
 10
-30.09922343482731
 20
0.8502409166262717
 30
0.0
 10
-30.56219735261064
 20
1.052952222518271
 30
0.0
 10
-31.02519329636309
 20
1.249189772832381
 30
0.0
 10
-31.48821585559522
 20
1.437742932330252
 30
0.0
 10
-31.95127074547876
 20
1.617449816428932
 30
0.0
 10
-32.41436236152948
 20
1.787201927001566
 30
0.0
 10
-32.87749281652883
 20
1.945956100294266
 30
0.0
 10
-33.34066782670936
 20
2.092724277048683
 30
0.0
 10
-33.80388674919858
 20
2.226606707000075
 30
0.0
 10
-34.26715296181443
 20
2.346767104580364
 30
0.0
 10
-34.73046687579972
 20
2.452465497567526
 30
0.0
 10
-35.19382516995151
 20
2.543041629300358
 30
0.0
 10
-35.65722413622061
 20
2.617931267614749
 30
0.0
 10
-36.12065501683485
 20
2.676675085675155
 30
0.0
 10
-36.5841147656816
 20
2.718893481246926
 30
0.0
 10
-37.04759358370749
 20
2.744333185399503
 30
0.0
 10
-37.51108258639934
 20
2.75283174878121
 30
0.0
 10
-37.97457158840922
 20
2.744333185386191
 30
0.0
 10
-38.43805040848496
 20
2.718893481300403
 30
0.0
 10
-38.90151014978474
 20
2.67667508547373
 30
0.0
 10
-39.36494105869437
 20
2.61793126837181
 30
0.0
 10
-39.8283376594321
 20
2.543041991552864
 30
0.0
 10
-40.29169412812857
 20
2.452466423659587
 30
0.0
 10
-40.73394216391593
 20
2.351565142441448
 30
0.0
 10
-41.02087772599857
 20
2.277775081598849
 30
0.0
 10
-41.15399910299081
 20
2.241813585254307
 30
0.0
  0
SPLINE
  5
2AE5
330
1F
100
AcDbEntity
  8
AM_0
100
AcDbSpline
210
0.0
220
0.0
230
1.0
 70
     8
 71
     3
 72
    23
 73
    19
 74
     0
 42
0.0000000001
 43
0.0000000001
 40
16.03460024169435
 40
16.03460024169435
 40
16.03460024169435
 40
16.03460024169435
 40
16.35212704903564
 40
17.38177054169784
 40
18.41822485651776
 40
19.46214173629503
 40
20.51396345435107
 40
21.57393551351153
 40
22.64208202342361
 40
23.7182574881101
 40
24.80209208578934
 40
25.89306333925047
 40
26.99048218457928
 40
28.09348763352352
 40
29.20111863782268
 40
30.31232390128032
 40
31.42594612798585
 40
32.5407912310448
 40
32.5407912310486
 40
32.5407912310486
 40
32.5407912310486
 10
-43.08276823419544
 20
2.750390839313626
 30
0.0
 10
-43.03515144120054
 20
2.741107323587564
 30
0.0
 10
-42.83333054891603
 20
2.700680225503292
 30
0.0
 10
-42.47782087369479
 20
2.621469496760141
 30
0.0
 10
-42.01743491361317
 20
2.503684009359169
 30
0.0
 10
-41.55747658166635
 20
2.371430539860959
 30
0.0
 10
-41.09791869854969
 20
2.225474503890669
 30
0.0
 10
-40.63874495373952
 20
2.066629609616355
 30
0.0
 10
-40.1799288080939
 20
1.895803881440669
 30
0.0
 10
-39.72143831140027
 20
1.713991482252392
 30
0.0
 10
-39.26324741058189
 20
1.522222005067793
 30
0.0
 10
-38.80531937081282
 20
1.321611311791315
 30
0.0
 10
-38.34761708214626
 20
1.113325438445802
 30
0.0
 10
-37.8901100491842
 20
0.8985619414839556
 30
0.0
 10
-37.43275999286879
 20
0.6785696412299457
 30
0.0
 10
-36.97552455289884
 20
0.4546331313183435
 30
0.0
 10
-36.5183664974024
 20
0.2280500631842186
 30
0.0
 10
-36.21367632206761
 20
0.0761385054344021
 30
0.0
 10
-36.06124814350986
 20
0.0001400241386204
 30
0.0
  0
SPLINE
  5
2AE6
330
1F
100
AcDbEntity
  8
AM_0
 48
0.5
100
AcDbSpline
210
0.0
220
0.0
230
1.0
 70
     8
 71
     3
 72
    17
 73
    13
 74
     0
 42
0.0000000001
 43
0.0000000001
 40
0.0
 40
0.0
 40
0.0
 40
0.0
 40
1.010743614677189
 40
2.022833924044153
 40
3.037578959561199
 40
4.056212747067873
 40
5.079857613375832
 40
6.109500119648989
 40
7.14596120163808
 40
8.18989512056258
 40
9.241717674284874
 40
9.693948937866434
 40
9.693948937866434
 40
9.693948937866434
 40
9.693948937866434
 10
-2.484100341793642
 20
2.750000151905691
 30
0.0
 10
-2.638528090324498
 20
2.74836514764182
 30
0.0
 10
-2.947589343846996
 20
2.745092960666934
 30
0.0
 10
-3.411068164388091
 20
2.718689220744789
 30
0.0
 10
-3.874527903775171
 20
2.676730096141611
 30
0.0
 10
-4.337958819910639
 20
2.617916446803312
 30
0.0
 10
-4.801355393466554
 20
2.543045920813375
 30
0.0
 10
-5.264711964511843
 20
2.452465644725351
 30
0.0
 10
-5.728022314022576
 20
2.346758713732376
 30
0.0
 10
-6.191304420300093
 20
2.226636774117665
 30
0.0
 10
-6.565277817160044
 20
2.118425064342615
 30
0.0
 10
-6.784896922260255
 20
2.050777184208441
 30
0.0
 10
-6.850814794900687
 20
2.030070620954159
 30
0.0
  0
SPLINE
  5
2AE7
330
1F
100
AcDbEntity
  8
AM_0
 48
0.5
100
AcDbSpline
210
0.0
220
0.0
230
1.0
 70
     8
 71
     3
 72
    25
 73
    21
 74
     0
 42
0.0000000001
 43
0.0000000001
 40
6.846175049578289
 40
6.846175049578289
 40
6.846175049578289
 40
6.846175049578289
 40
7.604337694224321
 40
8.711974558287883
 40
9.814980593243754
 40
10.91239053451967
 40
12.0033633515982
 40
13.08720139956839
 40
14.16337181880432
 40
15.23152222380919
 40
16.29148850140128
 40
17.34331105512262
 40
18.38723020264746
 40
19.42369128463655
 40
20.45333379090873
 40
21.47697865721768
 40
22.49561244472435
 40
23.5103574802404
 40
24.52244778960836
 40
25.53320666051913
 40
25.53320666051913
 40
25.53320666051913
 40
25.53320666051913
 10
-3.024633756897769
 20
0.4977681557455059
 30
0.0
 10
-3.129920368228627
 20
0.5460532648885136
 30
0.0
 10
-3.389246916617735
 20
0.664397273159805
 30
0.0
 10
-3.802998788893611
 20
0.8502399679467515
 30
0.0
 10
-4.265970732947844
 20
1.052953121098275
 30
0.0
 10
-4.728965960161825
 20
1.249189644774332
 30
0.0
 10
-5.191988448527433
 20
1.437742966470907
 30
0.0
 10
-5.65504335725784
 20
1.617449806807086
 30
0.0
 10
-6.118134968156465
 20
1.787201931648841
 30
0.0
 10
-6.581265425093579
 20
1.945956091320729
 30
0.0
 10
-7.044440432648293
 20
2.092724307986837
 30
0.0
 10
-7.507659363626371
 20
2.226606593428274
 30
0.0
 10
-7.9709255452322
 20
2.346767523585665
 30
0.0
 10
-8.4342373425781
 20
2.452463441196781
 30
0.0
 10
-8.897592945734057
 20
2.54304650590855
 30
0.0
 10
-9.360989776343913
 20
2.617916291152259
 30
0.0
 10
-9.824420624139051
 20
2.676730137936894
 30
0.0
 10
-10.28788038164119
 20
2.718689208303063
 30
0.0
 10
-10.75136152550192
 20
2.745093101414682
 30
0.0
 10
-11.06042511306621
 20
2.748365186303743
 30
0.0
 10
-11.21485519408838
 20
2.750000151905835
 30
0.0
  0
SPLINE
  5
2AE8
330
1F
100
AcDbEntity
  8
AM_0
100
AcDbSpline
210
0.0
220
0.0
230
1.0
 70
     8
 71
     3
 72
    46
 73
    42
 74
     0
 42
0.0000000001
 43
0.0000000001
 40
0.0
 40
0.0
 40
0.0
 40
0.0
 40
0.9269782822765142
 40
1.392069915247616
 40
1.858943734521566
 40
2.32811401974121
 40
2.800033836711342
 40
3.275078499289676
 40
3.753541441904785
 40
4.23563349838183
 40
4.721451375611675
 40
5.211020311238911
 40
5.704265086722057
 40
6.201024192041715
 40
6.701053399869211
 40
7.204032956287519
 40
7.709577388975613
 40
8.217244285004758
 40
8.726544418588229
 40
9.236953160217939
 40
9.747921574214178
 40
10.25888998821083
 40
10.76929872984054
 40
11.27859886342359
 40
11.78626575945272
 40
12.29181019214125
 40
12.79478974855896
 40
13.29481895638662
 40
13.79158132214193
 40
14.28482609762507
 40
14.77439503325231
 40
15.26021291048201
 40
15.74229824760473
 40
16.22076119021984
 40
16.69580585279817
 40
17.16772533483958
 40
17.63689589856451
 40
18.10377665611729
 40
18.56886813072882
 40
19.03274285585579
 40
19.49600034591619
 40
19.49600034591619
 40
19.49600034591619
 40
19.49600034591619
 10
-1.186673482255849
 20
-2.749999848094332
 30
0.0
 10
-1.495749705312836
 20
-2.743735135516811
 30
0.0
 10
-1.959898348126076
 20
-2.734327236676483
 30
0.0
 10
-2.577097039178837
 20
-2.676404531839584
 30
0.0
 10
-3.040532761493977
 20
-2.61800303724148
 30
0.0
 10
-3.503928871087146
 20
-2.543025438598979
 30
0.0
 10
-3.967284147214322
 20
-2.4524687401988
 30
0.0
 10
-4.430596209528584
 20
-2.346765880206405
 30
0.0
 10
-4.893864282051838
 20
-2.226605445654875
 30
0.0
 10
-5.35708630307753
 20
-2.092725239399911
 30
0.0
 10
-5.820263198475389
 20
-1.945955636129311
 30
0.0
 10
-6.283393722440394
 20
-1.78720166875194
 30
0.0
 10
-6.746485315412199
 20
-1.617449492325106
 30
0.0
 10
-7.209540228108521
 20
-1.437742663994387
 30
0.0
 10
-7.672562718751151
 20
-1.24918934645395
 30
0.0
 10
-8.135557932738128
 20
-1.05295279377995
 30
0.0
 10
-8.598529927782971
 20
-0.850239753265907
 30
0.0
 10
-9.061483209771298
 20
-0.642297016819203
 30
0.0
 10
-9.524422687327625
 20
-0.4304043501366486
 30
0.0
 10
-9.987352589434365
 20
-0.2158647441708588
 30
0.0
 10
-10.4502786000706
 20
0.0000001518621443
 30
0.0
 10
-10.91320461060513
 20
0.2158650481574673
 30
0.0
 10
-11.37613451301691
 20
0.4304046533366824
 30
0.0
 10
-11.83907398945825
 20
0.6422973228938166
 30
0.0
 10
-12.30202727558102
 20
0.850240048679751
 30
0.0
 10
-12.76499925529575
 20
1.052953128722853
 30
0.0
 10
-13.22799452605536
 20
1.249189535006826
 30
0.0
 10
-13.69101781328802
 20
1.437743803952212
 30
0.0
 10
-14.15407452519234
 20
1.617448999555298
 30
0.0
 10
-14.61716694424858
 20
1.787202046413161
 30
0.0
 10
-15.08029745743059
 20
1.945956061028284
 30
0.0
 10
-15.54347245015039
 20
2.092724315611657
 30
0.0
 10
-16.006691384823
 20
2.226606592880004
 30
0.0
 10
-16.46995756631706
 20
2.34676751830006
 30
0.0
 10
-16.93326936049063
 20
2.45246346265642
 30
0.0
 10
-17.39662497632154
 20
2.543046426067626
 30
0.0
 10
-17.86002404334444
 20
2.617916955737844
 30
0.0
 10
-18.3234573776928
 20
2.676729585978216
 30
0.0
 10
-18.78691938443602
 20
2.718689300809808
 30
0.0
 10
-19.25039821450534
 20
2.745092940703885
 30
0.0
 10
-19.55945946675996
 20
2.74836514099062
 30
0.0
 10
-19.71388721465724
 20
2.750000151905975
 30
0.0
  0
SPLINE
  5
2AE9
330
1F
100
AcDbEntity
  8
AM_0
100
AcDbSpline
210
0.0
220
0.0
230
1.0
 70
     8
 71
     3
 72
    55
 73
    51
 74
     0
 42
0.0000000001
 43
0.0000000001
 40
0.0
 40
0.0
 40
0.0
 40
0.0
 40
1.010743684496582
 40
2.022833576467832
 40
3.037578957496688
 40
4.056212745003489
 40
5.079857003664532
 40
6.109500240690281
 40
7.145961322679372
 40
8.189895241603872
 40
9.241717795325891
 40
10.30168407291828
 40
11.36983447792315
 40
12.44600489715814
 40
13.52984294512926
 40
14.62081576220742
 40
15.7182257034828
 40
16.82123173843959
 40
17.92886860250316
 40
19.0400688939571
 40
20.15368796660465
 40
21.26852814259644
 40
22.38336992938901
 40
23.49698739941135
 40
24.6081876908653
 40
25.71582455492886
 40
26.81883757994213
 40
27.91624752121713
 40
29.00722033829659
 40
30.09105838626677
 40
31.16722880550176
 40
32.23537921050758
 40
33.29534548809967
 40
34.347168041821
 40
35.39108718934584
 40
36.42754827133493
 40
37.45720575381954
 40
38.48085062012849
 40
39.49948440763516
 40
40.51422944315121
 40
41.52631975251916
 40
42.53706336719636
 40
43.54780698187354
 40
44.55989729124051
 40
45.57464232675757
 40
46.59327611426424
 40
47.6169209805722
 40
48.64656348684535
 40
49.68302456883444
 40
50.58557219878025
 40
50.58557219878025
 40
50.58557219878025
 40
50.58557219878025
 10
-2.484100341793727
 20
-2.74999984809431
 30
0.0
 10
-2.638528062220582
 20
-2.748363664717129
 30
0.0
 10
-2.947589185043646
 20
-2.745089118733439
 30
0.0
 10
-3.41106839604468
 20
-2.718692601965624
 30
0.0
 10
-3.874527822865725
 20
-2.676729035844285
 30
0.0
 10
-4.337958566098361
 20
-2.617915501930641
 30
0.0
 10
-4.801356001433283
 20
-2.543049036369994
 30
0.0
 10
-5.264710987075182
 20
-2.452462558403907
 30
0.0
 10
-5.72802507292594
 20
-2.346766290835717
 30
0.0
 10
-6.191294150325957
 20
-2.226607467036226
 30
0.0
 10
-6.654515063568501
 20
-2.092723854894255
 30
0.0
 10
-7.117690121553741
 20
-1.945955828003496
 30
0.0
 10
-7.580820564756856
 20
-1.787201616750272
 30
0.0
 10
-8.043912179621763
 20
-1.617449506425951
 30
0.0
 10
-8.506967086354372
 20
-1.437742660118944
 30
0.0
 10
-8.969989578741451
 20
-1.249189347723776
 30
0.0
 10
-9.432984791765116
 20
-1.052952792602039
 30
0.0
 10
-9.89595678891855
 20
-0.8502397567213966
 30
0.0
 10
-10.35891006339773
 20
-0.64229700410983
 30
0.0
 10
-10.8218495689994
 20
-0.4304043977048303
 30
0.0
 10
-11.28477936614375
 20
-0.2158645661703454
 30
0.0
 10
-11.74770599211654
 20
-0.0000004091940522
 30
0.0
 10
-12.21063053993613
 20
0.2158676334715945
 30
0.0
 10
-12.67356188872026
 20
0.4304041240534318
 30
0.0
 10
-13.13650082281691
 20
0.6422973718452877
 30
0.0
 10
-13.59945492273665
 20
0.8502409166260578
 30
0.0
 10
-14.06242884052001
 20
1.052952222518057
 30
0.0
 10
-14.52542478427245
 20
1.249189772832167
 30
0.0
 10
-14.98844734350457
 20
1.437742932330038
 30
0.0
 10
-15.45150223338809
 20
1.617449816428717
 30
0.0
 10
-15.91459384943879
 20
1.787201927001353
 30
0.0
 10
-16.3777243044382
 20
1.945956100294053
 30
0.0
 10
-16.84089931461873
 20
2.09272427704847
 30
0.0
 10
-17.30411823710795
 20
2.226606706999862
 30
0.0
 10
-17.76738444972381
 20
2.346767104580151
 30
0.0
 10
-18.23069836370908
 20
2.452465497567313
 30
0.0
 10
-18.69405665786088
 20
2.543041629300141
 30
0.0
 10
-19.15745562412998
 20
2.617931267614532
 30
0.0
 10
-19.62088650474422
 20
2.676675085674939
 30
0.0
 10
-20.08434625359096
 20
2.718893481246709
 30
0.0
 10
-20.54782507161685
 20
2.744333185399287
 30
0.0
 10
-21.0113140743087
 20
2.752831748780993
 30
0.0
 10
-21.47480307631858
 20
2.744333185385978
 30
0.0
 10
-21.93828189639432
 20
2.71889348130019
 30
0.0
 10
-22.40174163769411
 20
2.676675085473517
 30
0.0
 10
-22.86517254660374
 20
2.617931268371597
 30
0.0
 10
-23.32856914734146
 20
2.543041991552651
 30
0.0
 10
-23.79192561603794
 20
2.452466423659375
 30
0.0
 10
-24.23417365182531
 20
2.351565142441234
 30
0.0
 10
-24.52110921390795
 20
2.277775081598635
 30
0.0
 10
-24.65423059090019
 20
2.241813585254095
 30
0.0
  0
LINE
  5
2AEA
330
1F
100
AcDbEntity
  8
AM_0
100
AcDbLine
 10
-48.56698756121744
 20
2.750000151906466
 30
0.0
 11
-43.08076509923838
 21
2.750000151906335
 31
0.0
1001
GENIUS_GENODEF_13
1002
{
1000
HIER
1070
     0
1002
}
1002
{
1000
MANEDIT
1070
     0
1002
}
1002
{
1000
NOSEL
1070
     0
1002
}
1002
{
1000
BEHIND
1070
     0
1002
}
1002
{
1000
REACTOR
1002
}
1001
GENIUS_GENOBJ-N-CEN_13
1002
{
1000
OWNER
1000
GEN
1002
}
  0
VIEWPORT
  5
110
330
101
100
AcDbEntity
 67
     1
  8
0
100
AcDbViewport
 10
420.5
 20
297.0
 30
0.0
 40
948.9782706766916
 41
628.452
 68
     1
 69
     1
1001
ACAD
1000
MVIEW
1002
{
1070
    16
1010
0.0
1020
0.0
1030
0.0
1010
0.0
1020
0.0
1030
1.0
1040
0.0
1040
628.452
1040
420.5
1040
297.0
1040
50.0
1040
0.0
1040
0.0
1070
     0
1070
   100
1070
     1
1070
     1
1070
     0
1070
     0
1070
     0
1070
     0
1040
0.0
1040
0.0
1040
0.0
1040
10.0
1040
10.0
1040
10.0
1040
10.0
1070
     0
1002
{
1002
}
1002
}
  0
ENDSEC
  0
SECTION
  2
OBJECTS
  0
DICTIONARY
  5
C
330
0
100
AcDbDictionary
  3
ACAD_GROUP
350
D
  3
ACAD_LAYOUT
350
1A
  3
ACAD_MLINESTYLE
350
17
  3
ACAD_PLOTSETTINGS
350
19
  3
ACAD_PLOTSTYLENAME
350
E
  3
ACDBVARIABLEDICTIONARY
350
34
  3
ACMDICTIONARY
350
43
  3
AMG
350
2B
  3
AMGSNAPSETTINGS
350
6E
  3
DWGPROPS
350
2B3E
  3
ACDBHEADERROUNDTRIPXREC
350
2B4A
  0
DICTIONARY
  5
74
330
1F
100
AcDbDictionary
280
     1
  3
ACAD_INDEX
360
2B40
  3
ACAD_LAYOUTSELFREF
360
2B6D
  0
DICTIONARY
  5
2B72
330
101
100
AcDbDictionary
280
     1
  3
ACAD_LAYOUTSELFREF
360
2B73
  0
DICTIONARY
  5
D
102
{ACAD_REACTORS
330
C
102
}
330
C
100
AcDbDictionary
  0
DICTIONARY
  5
1A
102
{ACAD_REACTORS
330
C
102
}
330
C
100
AcDbDictionary
  0
DICTIONARY
  5
17
102
{ACAD_REACTORS
330
C
102
}
330
C
100
AcDbDictionary
  3
STANDARD
350
18
  0
DICTIONARY
  5
19
102
{ACAD_REACTORS
330
C
102
}
330
C
100
AcDbDictionary
  0
ACDBDICTIONARYWDFLT
  5
E
102
{ACAD_REACTORS
330
C
102
}
330
C
100
AcDbDictionary
281
     1
  3
Normal
350
F
100
AcDbDictionaryWithDefault
340
F
  0
DICTIONARY
  5
34
102
{ACAD_REACTORS
330
C
102
}
330
C
100
AcDbDictionary
  3
INDEXCTL
350
35
  3
SORTENTS
350
B5E
  0
DICTIONARY
  5
43
102
{ACAD_REACTORS
330
C
102
}
330
C
100
AcDbDictionary
  3
ACMSTDDICTIONARY
350
260
  0
DICTIONARY
  5
2B
102
{ACAD_REACTORS
330
C
102
}
330
C
100
AcDbDictionary
  3
ACMGSETTINGS
350
2C
  0
DICTIONARY
  5
6E
102
{ACAD_REACTORS
330
C
102
}
330
C
100
AcDbDictionary
  0
XRECORD
  5
2B3E
102
{ACAD_REACTORS
330
C
102
}
330
C
100
AcDbXrecord
  1
DWGPROPS COOKIE
  2

  3

  4

  6

  7

  8

  9

300
AmdtFileType=82
301
=
302
=
303
=
304
=
305
=
306
=
307
=
308
=
309
=
 40
0.0788239583333333
 41
2452800.443498622
 42
2452948.688623217
  1

 90
        1
  0
DICTIONARY
  5
2B4A
102
{ACAD_REACTORS
330
C
102
}
330
C
100
AcDbDictionary
  3
TSTACKALIGN
350
2B4B
  3
TSTACKSIZE
350
2B4C
  3
HYPERLINKBASE
350
2B4D
  3
STYLESHEET
350
2B4E
  3
LAYOUTDICT
350
2B4F
  3
PLOTSETDICT
350
2B50
  3
PLOTSTYLNAMDICT
350
2B51
  3
LWETCUNION
350
2B52
  3
INSUNITS
350
2B53
  3
CEPSNTYPE
350
2B54
  3
FINGERPRINTGUID
350
2B55
  3
VERSIONGUID
350
2B56
  3
PSVPSCALE
350
2B57
  3
DIMSTYLEDATA
350
2B58
  3
PUCSORTHOREF
350
2B59
  3
PUCSORTHOVIEW
350
2B5A
  3
PUCSBASE
350
2B5B
  3
PUCSORGTOP
350
2B5C
  3
PUCSORGBOTTOM
350
2B5D
  3
PUCSORGLEFT
350
2B5E
  3
PUCSORGRIGHT
350
2B5F
  3
PUCSORGFRONT
350
2B60
  3
PUCSORGBACK
350
2B61
  3
UCSORTHOREF
350
2B62
  3
UCSORTHOVIEW
350
2B63
  3
UCSBASE
350
2B64
  3
UCSORGTOP
350
2B65
  3
UCSORGBOTTOM
350
2B66
  3
UCSORGLEFT
350
2B67
  3
UCSORGRIGHT
350
2B68
  3
UCSORGFRONT
350
2B69
  3
UCSORGBACK
350
2B6A
  0
DICTIONARY
  5
2B40
102
{ACAD_REACTORS
330
74
102
}
330
74
100
AcDbDictionary
  3
*A1
350
2B41
  0
XRECORD
  5
2B6D
102
{ACAD_REACTORS
330
74
102
}
330
74
100
AcDbXrecord
340
1F
  0
XRECORD
  5
2B73
102
{ACAD_REACTORS
330
2B72
102
}
330
2B72
100
AcDbXrecord
340
101
  0
MLINESTYLE
  5
18
102
{ACAD_REACTORS
330
17
102
}
330
17
100
AcDbMlineStyle
  2
STANDARD
 70
     0
  3

 62
   256
 51
90.0
 52
90.0
 71
     2
 49
0.5
 62
   256
  6
BYLAYER
 49
-0.5
 62
   256
  6
BYLAYER
  0
ACDBPLACEHOLDER
  5
F
102
{ACAD_REACTORS
330
E
102
}
330
E
100
AcDbPlaceHolder
280
     0
  0
DICTIONARYVAR
  5
35
102
{ACAD_REACTORS
330
34
102
}
330
34
100
DictionaryVariables
280
     0
  1
1
  0
DICTIONARYVAR
  5
B5E
102
{ACAD_REACTORS
330
34
102
}
330
34
100
DictionaryVariables
280
     0
  1
96
  0
DICTIONARY
  5
260
102
{ACAD_REACTORS
330
43
102
}
330
43
100
AcDbDictionary
  0
DICTIONARY
  5
2C
102
{ACAD_REACTORS
330
2B
102
}
330
2B
100
AcDbDictionary
  3
DWGSETTINGS
350
2D
  0
XRECORD
  5
2B4B
102
{ACAD_REACTORS
330
2B4A
102
}
330
2B4A
100
AcDbXrecord
 90
        1
  0
XRECORD
  5
2B4C
102
{ACAD_REACTORS
330
2B4A
102
}
330
2B4A
100
AcDbXrecord
 90
       70
  0
XRECORD
  5
2B4D
102
{ACAD_REACTORS
330
2B4A
102
}
330
2B4A
100
AcDbXrecord
  1

  0
XRECORD
  5
2B4E
102
{ACAD_REACTORS
330
2B4A
102
}
330
2B4A
100
AcDbXrecord
  1
ASAMI.ctb
  0
XRECORD
  5
2B4F
102
{ACAD_REACTORS
330
2B4A
102
}
330
2B4A
100
AcDbXrecord
340
1A
  0
XRECORD
  5
2B50
102
{ACAD_REACTORS
330
2B4A
102
}
330
2B4A
100
AcDbXrecord
340
19
  0
XRECORD
  5
2B51
102
{ACAD_REACTORS
330
2B4A
102
}
330
2B4A
100
AcDbXrecord
340
E
  0
XRECORD
  5
2B52
102
{ACAD_REACTORS
330
2B4A
102
}
330
2B4A
100
AcDbXrecord
 90
    10781
  0
XRECORD
  5
2B53
102
{ACAD_REACTORS
330
2B4A
102
}
330
2B4A
100
AcDbXrecord
 90
        4
  0
XRECORD
  5
2B54
102
{ACAD_REACTORS
330
2B4A
102
}
330
2B4A
100
AcDbXrecord
 90
        0
  0
XRECORD
  5
2B55
102
{ACAD_REACTORS
330
2B4A
102
}
330
2B4A
100
AcDbXrecord
  1
{AFB28963-8C59-40AE-9337-C84526B81ACE}
  0
XRECORD
  5
2B56
102
{ACAD_REACTORS
330
2B4A
102
}
330
2B4A
100
AcDbXrecord
  1
{2B9CA759-6C63-4FA7-B650-A759E5232F04}
  0
XRECORD
  5
2B57
102
{ACAD_REACTORS
330
2B4A
102
}
330
2B4A
100
AcDbXrecord
 40
0.0
  0
XRECORD
  5
2B58
102
{ACAD_REACTORS
330
2B4A
102
}
330
2B4A
100
AcDbXrecord
1000
DSTYLE
1002
{
1070
    79
 70
     2
1070
   341
340
59
1070
   342
340
59
1070
   371
 70
    -1
1070
   372
 70
    -1
1002
}
  0
XRECORD
  5
2B59
102
{ACAD_REACTORS
330
2B4A
102
}
330
2B4A
100
AcDbXrecord
340
0
  0
XRECORD
  5
2B5A
102
{ACAD_REACTORS
330
2B4A
102
}
330
2B4A
100
AcDbXrecord
 70
     0
  0
XRECORD
  5
2B5B
102
{ACAD_REACTORS
330
2B4A
102
}
330
2B4A
100
AcDbXrecord
340
0
  0
XRECORD
  5
2B5C
102
{ACAD_REACTORS
330
2B4A
102
}
330
2B4A
100
AcDbXrecord
 10
0.0
 20
0.0
 30
0.0
  0
XRECORD
  5
2B5D
102
{ACAD_REACTORS
330
2B4A
102
}
330
2B4A
100
AcDbXrecord
 10
0.0
 20
0.0
 30
0.0
  0
XRECORD
  5
2B5E
102
{ACAD_REACTORS
330
2B4A
102
}
330
2B4A
100
AcDbXrecord
 10
0.0
 20
0.0
 30
0.0
  0
XRECORD
  5
2B5F
102
{ACAD_REACTORS
330
2B4A
102
}
330
2B4A
100
AcDbXrecord
 10
0.0
 20
0.0
 30
0.0
  0
XRECORD
  5
2B60
102
{ACAD_REACTORS
330
2B4A
102
}
330
2B4A
100
AcDbXrecord
 10
0.0
 20
0.0
 30
0.0
  0
XRECORD
  5
2B61
102
{ACAD_REACTORS
330
2B4A
102
}
330
2B4A
100
AcDbXrecord
 10
0.0
 20
0.0
 30
0.0
  0
XRECORD
  5
2B62
102
{ACAD_REACTORS
330
2B4A
102
}
330
2B4A
100
AcDbXrecord
340
0
  0
XRECORD
  5
2B63
102
{ACAD_REACTORS
330
2B4A
102
}
330
2B4A
100
AcDbXrecord
 70
     0
  0
XRECORD
  5
2B64
102
{ACAD_REACTORS
330
2B4A
102
}
330
2B4A
100
AcDbXrecord
340
0
  0
XRECORD
  5
2B65
102
{ACAD_REACTORS
330
2B4A
102
}
330
2B4A
100
AcDbXrecord
 10
0.0
 20
0.0
 30
0.0
  0
XRECORD
  5
2B66
102
{ACAD_REACTORS
330
2B4A
102
}
330
2B4A
100
AcDbXrecord
 10
0.0
 20
0.0
 30
0.0
  0
XRECORD
  5
2B67
102
{ACAD_REACTORS
330
2B4A
102
}
330
2B4A
100
AcDbXrecord
 10
0.0
 20
0.0
 30
0.0
  0
XRECORD
  5
2B68
102
{ACAD_REACTORS
330
2B4A
102
}
330
2B4A
100
AcDbXrecord
 10
0.0
 20
0.0
 30
0.0
  0
XRECORD
  5
2B69
102
{ACAD_REACTORS
330
2B4A
102
}
330
2B4A
100
AcDbXrecord
 10
0.0
 20
0.0
 30
0.0
  0
XRECORD
  5
2B6A
102
{ACAD_REACTORS
330
2B4A
102
}
330
2B4A
100
AcDbXrecord
 10
0.0
 20
0.0
 30
0.0
  0
LAYER_INDEX
  5
2B41
102
{ACAD_REACTORS
330
2B40
102
}
330
2B40
100
AcDbIndex
 40
2453151.693363159
100
AcDbLayerIndex
  8
0
360
2B42
 90
        0
  8
AM_0
360
2B43
 90
       52
  8
AM_7
360
2B44
 90
        1
  8
AM_11
360
2B45
 90
       25
  8
AM_5
360
2B46
 90
        5
  8
Defpoints
360
2B47
 90
        0
  8
AM_6
360
2B48
 90
        1
  0
XRECORD
  5
2D
102
{ACAD_REACTORS
330
2C
102
}
330
2C
100
AcDbXrecord
  1
VERSION
140
15.0
  1
PRODUCT
  2
AutoCAD Mechanical 2000
  0
IDBUFFER
  5
2B42
330
0
100
AcDbIdBuffer
  0
IDBUFFER
  5
2B43
330
0
100
AcDbIdBuffer
330
2AE7
330
2AE8
330
2AE9
330
2AEA
330
1F19
330
1F1A
330
1F1B
330
1F1C
330
1F2F
330
1F31
330
1F32
330
1F5B
330
1F5C
330
2434
330
2437
330
2442
330
245F
330
2460
330
2651
330
2652
330
2AC0
330
2AC1
330
2AC3
330
2AC4
330
2AC5
330
2AC6
330
2AC7
330
2AC8
330
2AC9
330
2ACA
330
2ACB
330
2ACD
330
2AD0
330
2AD1
330
2AD2
330
2AD3
330
2AD4
330
2AD5
330
2AD6
330
2AD7
330
2AD8
330
2AD9
330
2ADA
330
2ADB
330
2ADC
330
2ADD
330
2ADF
330
2AE2
330
2AE3
330
2AE4
330
2AE5
330
2AE6
  0
IDBUFFER
  5
2B44
330
0
100
AcDbIdBuffer
330
C9F
  0
IDBUFFER
  5
2B45
330
0
100
AcDbIdBuffer
330
1F0B
330
1F0C
330
2AC2
330
2ACC
330
2ACE
330
2ACF
330
2ADE
330
2AE0
330
2AE1
330
144A
330
144B
330
144E
330
144F
330
1450
330
1451
330
1452
330
1453
330
1DAB
330
1DAC
330
1DAD
330
1DAE
330
1DAF
330
1DB0
330
1F05
330
1F06
  0
IDBUFFER
  5
2B46
330
0
100
AcDbIdBuffer
330
CC6
330
DF5
330
254C
330
2736
330
29BB
  0
IDBUFFER
  5
2B47
330
0
100
AcDbIdBuffer
  0
IDBUFFER
  5
2B48
330
0
100
AcDbIdBuffer
330
19BD
  0
ENDSEC
  0
EOF
