  0
SECTION
  2
HEADER
  9
$ACADVER
  1
AC1014
  9
$ACADMAINTVER
 70
     9
  9
$DWGCODEPAGE
  3
ANSI_932
  9
$INSBASE
 10
0.0
 20
0.0
 30
0.0
  9
$EXTMIN
 10
-112.4954967444331
 20
-26.25000831713253
 30
-0.00000001
  9
$EXTMAX
 10
16.42632448718272
 20
16.23019470205775
 30
0.00000001
  9
$LIMMIN
 10
-116.67759818173
 20
-39.10821448707546
  9
$LIMMAX
 10
21.5671852593818
 20
26.6417098386006
  9
$ORTHOMODE
 70
     0
  9
$REGENMODE
 70
     1
  9
$FILLMODE
 70
     1
  9
$QTEXTMODE
 70
     0
  9
$MIRRTEXT
 70
     0
  9
$DRAGMODE
 70
     2
  9
$LTSCALE
 40
1.0
  9
$OSMODE
 70
    55
  9
$ATTMODE
 70
     1
  9
$TEXTSIZE
 40
2.5
  9
$TRACEWID
 40
1.0
  9
$TEXTSTYLE
  7
STANDARD
  9
$CLAYER
  8
AM_0
  9
$CELTYPE
  6
BYLAYER
  9
$CECOLOR
 62
   256
  9
$CELTSCALE
 40
1.0
  9
$DELOBJ
 70
     1
  9
$DISPSILH
 70
     0
  9
$DIMSCALE
 40
0.5
  9
$DIMASZ
 40
2.5
  9
$DIMEXO
 40
1.0
  9
$DIMDLI
 40
12.0
  9
$DIMRND
 40
0.0
  9
$DIMDLE
 40
0.0
  9
$DIMEXE
 40
1.0
  9
$DIMTP
 40
0.1
  9
$DIMTM
 40
0.1
  9
$DIMTXT
 40
3.2
  9
$DIMCEN
 40
0.0
  9
$DIMTSZ
 40
0.0
  9
$DIMTOL
 70
     0
  9
$DIMLIM
 70
     0
  9
$DIMTIH
 70
     0
  9
$DIMTOH
 70
     0
  9
$DIMSE1
 70
     0
  9
$DIMSE2
 70
     0
  9
$DIMTAD
 70
     3
  9
$DIMZIN
 70
     8
  9
$DIMBLK
  1
OPEN30
  9
$DIMASO
 70
     1
  9
$DIMSHO
 70
     1
  9
$DIMPOST
  1

  9
$DIMAPOST
  1
"
  9
$DIMALT
 70
     0
  9
$DIMALTD
 70
     2
  9
$DIMALTF
 40
0.0393701
  9
$DIMLFAC
 40
1.0
  9
$DIMTOFL
 70
     1
  9
$DIMTVP
 40
0.0
  9
$DIMTIX
 70
     0
  9
$DIMSOXD
 70
     0
  9
$DIMSAH
 70
     0
  9
$DIMBLK1
  1

  9
$DIMBLK2
  1

  9
$DIMSTYLE
  2
AM_JIS
  9
$DIMCLRD
 70
   256
  9
$DIMCLRE
 70
   256
  9
$DIMCLRT
 70
     2
  9
$DIMTFAC
 40
0.71
  9
$DIMGAP
 40
1.5
  9
$DIMJUST
 70
     0
  9
$DIMSD1
 70
     0
  9
$DIMSD2
 70
     0
  9
$DIMTOLJ
 70
     0
  9
$DIMTZIN
 70
     0
  9
$DIMALTZ
 70
     0
  9
$DIMALTTZ
 70
     0
  9
$DIMFIT
 70
     3
  9
$DIMUPT
 70
     0
  9
$DIMUNIT
 70
     2
  9
$DIMDEC
 70
     3
  9
$DIMTDEC
 70
     3
  9
$DIMALTU
 70
     2
  9
$DIMALTTD
 70
     2
  9
$DIMTXSTY
  7
ASAMI
  9
$DIMAUNIT
 70
     0
  9
$LUNITS
 70
     2
  9
$LUPREC
 70
     2
  9
$SKETCHINC
 40
1.0
  9
$FILLETRAD
 40
2.5
  9
$AUNITS
 70
     0
  9
$AUPREC
 70
     0
  9
$MENU
  1
.
  9
$ELEVATION
 40
0.0
  9
$PELEVATION
 40
0.0
  9
$THICKNESS
 40
0.0
  9
$LIMCHECK
 70
     0
  9
$BLIPMODE
 70
     0
  9
$CHAMFERA
 40
0.25
  9
$CHAMFERB
 40
0.25
  9
$CHAMFERC
 40
20.0
  9
$CHAMFERD
 40
0.0
  9
$SKPOLY
 70
     0
  9
$TDCREATE
 40
2452800.443498622
  9
$TDUPDATE
 40
2453151.693760115
  9
$TDINDWG
 40
0.0675759606
  9
$TDUSRTIMER
 40
0.0675759606
  9
$USRTIMER
 70
     1
  9
$ANGBASE
 50
0.0
  9
$ANGDIR
 70
     0
  9
$PDMODE
 70
     3
  9
$PDSIZE
 40
0.0
  9
$PLINEWID
 40
0.0
  9
$COORDS
 70
     1
  9
$SPLFRAME
 70
     0
  9
$SPLINETYPE
 70
     6
  9
$SPLINESEGS
 70
     8
  9
$ATTDIA
 70
     1
  9
$ATTREQ
 70
     1
  9
$HANDLING
 70
 12289
  9
$HANDSEED
  5
26DD
  9
$SURFTAB1
 70
     6
  9
$SURFTAB2
 70
     6
  9
$SURFTYPE
 70
     6
  9
$SURFU
 70
     6
  9
$SURFV
 70
     6
  9
$UCSNAME
  2

  9
$UCSORG
 10
0.0
 20
0.0
 30
0.0
  9
$UCSXDIR
 10
1.0
 20
0.000000000000002
 30
0.0
  9
$UCSYDIR
 10
-0.000000000000002
 20
1.0
 30
0.0
  9
$PUCSNAME
  2

  9
$PUCSORG
 10
0.0
 20
0.0
 30
0.0
  9
$PUCSXDIR
 10
1.0
 20
0.0
 30
0.0
  9
$PUCSYDIR
 10
0.0
 20
1.0
 30
0.0
  9
$USERI1
 70
     0
  9
$USERI2
 70
     0
  9
$USERI3
 70
     0
  9
$USERI4
 70
     0
  9
$USERI5
 70
     0
  9
$USERR1
 40
0.0
  9
$USERR2
 40
0.0
  9
$USERR3
 40
0.0
  9
$USERR4
 40
0.0
  9
$USERR5
 40
0.0
  9
$WORLDVIEW
 70
     1
  9
$SHADEDGE
 70
     3
  9
$SHADEDIF
 70
    70
  9
$TILEMODE
 70
     1
  9
$MAXACTVP
 70
    64
  9
$PINSBASE
 10
0.0
 20
0.0
 30
0.0
  9
$PLIMCHECK
 70
     0
  9
$PEXTMIN
 10
1.000000000000000E+20
 20
1.000000000000000E+20
 30
1.000000000000000E+20
  9
$PEXTMAX
 10
-1.000000000000000E+20
 20
-1.000000000000000E+20
 30
-1.000000000000000E+20
  9
$PLIMMIN
 10
0.0
 20
0.0
  9
$PLIMMAX
 10
841.0
 20
594.0
  9
$UNITMODE
 70
     0
  9
$VISRETAIN
 70
     1
  9
$PLINEGEN
 70
     0
  9
$PSLTSCALE
 70
     0
  9
$TREEDEPTH
 70
  3020
  9
$PICKSTYLE
 70
     0
  9
$CMLSTYLE
  2
STANDARD
  9
$CMLJUST
 70
     0
  9
$CMLSCALE
 40
20.0
  9
$PROXYGRAPHICS
 70
     1
  9
$MEASUREMENT
 70
     1
  0
ENDSEC
  0
SECTION
  2
CLASSES
  0
CLASS
  1
ACDBDICTIONARYWDFLT
  2
AcDbDictionaryWithDefault
  3
AutoCAD 2000
 90
        0
280
     0
281
     0
  0
CLASS
  1
ACDBPLACEHOLDER
  2
AcDbPlaceHolder
  3
AutoCAD 2000
 90
        0
280
     0
281
     0
  0
CLASS
  1
LAYOUT
  2
AcDbLayout
  3
AutoCAD 2000
 90
        0
280
     0
281
     0
  0
CLASS
  1
AMGSETTINGSOBJ
  2
AmgSettingsObj
  3
"AcadM|Product Description: AutoCAD Mechanical 2000|Company: Autodesk"
 90
        0
280
     0
281
     0
  0
CLASS
  1
ACME_DOCUMENT
  2
AcMeDbDoc
  3
AcMeServices
 90
        0
280
     0
281
     0
  0
CLASS
  1
ACMESCOPE
  2
AcMeScope
  3
AcMeServices
 90
        0
280
     0
281
     0
  0
CLASS
  1
ACMECOMMANDHISTORY
  2
AcMeCommandHistory
  3
AcMeServices
 90
        0
280
     0
281
     0
  0
CLASS
  1
DICTIONARYVAR
  2
AcDbDictionaryVar
  3
AutoCAD 2000
 90
        0
280
     0
281
     0
  0
CLASS
  1
ACIMSYSVARMAN
  2
AcImSysVarManager
  3
AcMeServices
 90
        0
280
     0
281
     0
  0
CLASS
  1
ACIMREALSYSVAR
  2
AcImRealSysVar
  3
AcMeServices
 90
        0
280
     0
281
     0
  0
CLASS
  1
ACIMINTSYSVAR
  2
AcImIntSysVar
  3
AcMeServices
 90
        0
280
     0
281
     0
  0
CLASS
  1
ACMEDRAWINGMAN
  2
AcMeDrawingMan
  3
AcMeServices
 90
        0
280
     0
281
     0
  0
CLASS
  1
ACMEVIEW
  2
AcMeView
  3
AcMeServices
 90
        0
280
     0
281
     0
  0
CLASS
  1
ACDBENTITYCACHE
  2
AcMeEntityCache
  3
AcMeServices
 90
        0
280
     0
281
     0
  0
CLASS
  1
GSMANAGER
  2
AcMeGSManager
  3
AcMeServices
 90
        0
280
     0
281
     0
  0
CLASS
  1
AmdtInternalReactor
  2
AmdtInternalReactor
  3
AcMeServices
 90
        0
280
     0
281
     0
  0
CLASS
  1
ACMESTATEMGR
  2
AcMeStateMgr
  3
AcMeServices
 90
        0
280
     0
281
     0
  0
CLASS
  1
ACME_DATABASE
  2
AcMeDbDatabase
  3
AcMeServices
 90
        0
280
     0
281
     0
  0
CLASS
  1
ACRFINSADJUSTERMGR
  2
AcRfInsAdjusterMgr
  3
AcMeServices
 90
        0
280
     0
281
     0
  0
CLASS
  1
ACMDATADICTIONARY
  2
AcmDataDictionary
  3
"AcmSymBB|Product Description: AutoCAD Mechanical 2000|Company: Autodesk"
 90
        0
280
     0
281
     0
  0
CLASS
  1
ACMDATAENTRYBLOCK
  2
AcmDataEntryBlock
  3
"AcmSymBB|Product Description: AutoCAD Mechanical 2000|Company: Autodesk"
 90
        0
280
     0
281
     0
  0
CLASS
  1
AMGOBJPROPCFG
  2
AmgObjPropCfg
  3
"AmgLay|Product Description: AutoCAD Mechanical 2000|Company: Autodesk"
 90
        1
280
     0
281
     0
  0
CLASS
  1
ACAMGFILTERDAT
  2
AcAmgFilterDat
  3
"AcadM|Product Description: AutoCAD Mechanical 2000|Company: Autodesk"
 90
        0
280
     0
281
     0
  0
CLASS
  1
LAYER_INDEX
  2
AcDbLayerIndex
  3
AutoCAD 2000
 90
        0
280
     0
281
     0
  0
CLASS
  1
IDBUFFER
  2
AcDbIdBuffer
  3
AutoCAD 2000
 90
        0
280
     0
281
     0
  0
CLASS
  1
ACIMSTRSYSVAR
  2
AcImStrSysVar
  3
AcMeServices
 90
        0
280
     0
281
     0
  0
CLASS
  1
ACMSTANDARDJIS
  2
AcmStandardJIS
  3
"AcmSymBB|Product Description: AutoCAD Mechanical 2000|Company: Autodesk"
 90
        0
280
     0
281
     0
  0
CLASS
  1
ACMSURFSTANDARDJIS
  2
AcmSurfTextStdJIS
  3
"AcmSymBB|Product Description: AutoCAD Mechanical 2000|Company: Autodesk"
 90
        0
280
     0
281
     0
  0
CLASS
  1
ACMFCFSTANDARDJIS
  2
AcmFCFStdJIS
  3
"AcmSymBB|Product Description: AutoCAD Mechanical 2000|Company: Autodesk"
 90
        0
280
     0
281
     0
  0
CLASS
  1
ACMWELDSTANDARDJIS
  2
AcmWeldingStdJIS
  3
"AcmSymBB|Product Description: AutoCAD Mechanical 2000|Company: Autodesk"
 90
        0
280
     0
281
     0
  0
CLASS
  1
ACMIDSTANDARDJIS
  2
AcmIdStdJIS
  3
"AcmSymBB|Product Description: AutoCAD Mechanical 2000|Company: Autodesk"
 90
        0
280
     0
281
     0
  0
CLASS
  1
ACMDATUMSTANDARDJIS
  2
AcmDatumStdJIS
  3
"AcmSymBB|Product Description: AutoCAD Mechanical 2000|Company: Autodesk"
 90
        0
280
     0
281
     0
  0
CLASS
  1
ACMBOMSTANDARDJIS
  2
AcmBOMStdJIS
  3
"AcmSymBB|Product Description: AutoCAD Mechanical 2000|Company: Autodesk"
 90
        0
280
     0
281
     0
  0
CLASS
  1
ACMSTANDARDANSI
  2
AcmStandardANSI
  3
"AcmSymBB|Product Description: AutoCAD Mechanical 2000|Company: Autodesk"
 90
        0
280
     0
281
     0
  0
CLASS
  1
ACMSURFSTANDARDANSI
  2
AcmSurfTextStdANSI
  3
"AcmSymBB|Product Description: AutoCAD Mechanical 2000|Company: Autodesk"
 90
        0
280
     0
281
     0
  0
CLASS
  1
ACMFCFSTANDARDANSI
  2
AcmFCFStdANSI
  3
"AcmSymBB|Product Description: AutoCAD Mechanical 2000|Company: Autodesk"
 90
        0
280
     0
281
     0
  0
CLASS
  1
ACMWELDSTANDARDANSI
  2
AcmWeldingStdANSI
  3
"AcmSymBB|Product Description: AutoCAD Mechanical 2000|Company: Autodesk"
 90
        0
280
     0
281
     0
  0
CLASS
  1
ACMIDSTANDARDANSI
  2
AcmIdStdANSI
  3
"AcmSymBB|Product Description: AutoCAD Mechanical 2000|Company: Autodesk"
 90
        0
280
     0
281
     0
  0
CLASS
  1
ACMDATUMSTANDARDANSI
  2
AcmDatumStdANSI
  3
"AcmSymBB|Product Description: AutoCAD Mechanical 2000|Company: Autodesk"
 90
        0
280
     0
281
     0
  0
CLASS
  1
ACMBOMSTANDARDANSI
  2
AcmBOMStdANSI
  3
"AcmSymBB|Product Description: AutoCAD Mechanical 2000|Company: Autodesk"
 90
        0
280
     0
281
     0
  0
CLASS
  1
ACMSTANDARDBSI
  2
AcmStandardBSI
  3
"AcmSymBB|Product Description: AutoCAD Mechanical 2000|Company: Autodesk"
 90
        0
280
     0
281
     0
  0
CLASS
  1
ACMSURFSTANDARDBSI
  2
AcmSurfTextStdBSI
  3
"AcmSymBB|Product Description: AutoCAD Mechanical 2000|Company: Autodesk"
 90
        0
280
     0
281
     0
  0
CLASS
  1
ACMFCFSTANDARDBSI
  2
AcmFCFStdBSI
  3
"AcmSymBB|Product Description: AutoCAD Mechanical 2000|Company: Autodesk"
 90
        0
280
     0
281
     0
  0
CLASS
  1
ACMWELDSTANDARDBSI
  2
AcmWeldingStdBSI
  3
"AcmSymBB|Product Description: AutoCAD Mechanical 2000|Company: Autodesk"
 90
        0
280
     0
281
     0
  0
CLASS
  1
ACMIDSTANDARDBSI
  2
AcmIdStdBSI
  3
"AcmSymBB|Product Description: AutoCAD Mechanical 2000|Company: Autodesk"
 90
        0
280
     0
281
     0
  0
CLASS
  1
ACMDATUMSTANDARDBSI
  2
AcmDatumStdBSI
  3
"AcmSymBB|Product Description: AutoCAD Mechanical 2000|Company: Autodesk"
 90
        0
280
     0
281
     0
  0
CLASS
  1
ACMBOMSTANDARDBSI
  2
AcmBOMStdBSI
  3
"AcmSymBB|Product Description: AutoCAD Mechanical 2000|Company: Autodesk"
 90
        0
280
     0
281
     0
  0
CLASS
  1
LONG_TRANSACTION
  2
AcDbLongTransaction
  3
AutoCAD 2000
 90
        0
280
     0
281
     0
  0
CLASS
  1
LWPOLYLINE
  2
AcDbPolyline
  3
AutoCAD 2000
 90
        0
280
     0
281
     1
  0
CLASS
  1
HATCH
  2
AcDbHatch
  3
AutoCAD 2000
 90
        0
280
     0
281
     1
  0
CLASS
  1
XRECORD
  2
AcDbXrecord
  3
AutoCAD 2000
 90
        0
280
     0
281
     0
  0
ENDSEC
  0
SECTION
  2
TABLES
  0
TABLE
  2
VPORT
  5
8
330
0
100
AcDbSymbolTable
 70
     3
  0
VPORT
  5
26A7
330
8
100
AcDbSymbolTableRecord
100
AcDbViewportTableRecord
  2
*ACTIVE
 70
     0
 10
0.0
 20
0.0
 11
1.0
 21
1.0
 12
-45.64590091578721
 22
-5.009269813810348
 13
0.0
 23
0.0
 14
2.5
 24
2.5
 15
10.0
 25
10.0
 16
0.0
 26
0.0
 36
1.0
 17
0.0
 27
0.0
 37
0.0
 40
85.81395961917211
 41
1.56570841889117
 42
50.0
 43
0.0
 44
0.0
 50
0.0
 51
0.0
 71
     0
 72
   100
 73
     1
 74
     1
 75
     0
 76
     0
 77
     0
 78
     0
  0
ENDTAB
  0
TABLE
  2
LTYPE
  5
5
330
0
100
AcDbSymbolTable
 70
    10
  0
LTYPE
  5
14
330
5
100
AcDbSymbolTableRecord
100
AcDbLinetypeTableRecord
  2
BYBLOCK
 70
     0
  3

 72
    65
 73
     0
 40
0.0
  0
LTYPE
  5
15
330
5
100
AcDbSymbolTableRecord
100
AcDbLinetypeTableRecord
  2
BYLAYER
 70
     0
  3

 72
    65
 73
     0
 40
0.0
  0
LTYPE
  5
16
330
5
100
AcDbSymbolTableRecord
100
AcDbLinetypeTableRecord
  2
CONTINUOUS
 70
     0
  3
Solid line
 72
    65
 73
     0
 40
0.0
  0
LTYPE
  5
4B
330
5
100
AcDbSymbolTableRecord
100
AcDbLinetypeTableRecord
  2
AM_ISO02W050
 70
     0
  3
__ __ __ __ __ __ __ __ __ __ __ __ __ __ __
 72
    65
 73
     2
 40
7.5
 49
6.0
 74
     0
 49
-1.5
 74
     0
  0
LTYPE
  5
4C
330
5
100
AcDbSymbolTableRecord
100
AcDbLinetypeTableRecord
  2
AM_ISO08W050
 70
     0
  3
____ . ____ . ____ . ____ . ____ . ____ . ____
 72
    65
 73
     4
 40
18.0
 49
12.0
 74
     0
 49
-1.5
 74
     0
 49
3.0
 74
     0
 49
-1.5
 74
     0
  0
LTYPE
  5
4D
330
5
100
AcDbSymbolTableRecord
100
AcDbLinetypeTableRecord
  2
AM_ISO09W050
 70
     0
  3
_____ . . _____ . . _____ . . ____ .. ____
 72
    65
 73
     6
 40
22.5
 49
12.0
 74
     0
 49
-1.5
 74
     0
 49
3.0
 74
     0
 49
-1.5
 74
     0
 49
3.0
 74
     0
 49
-1.5
 74
     0
  0
LTYPE
  5
4E
330
5
100
AcDbSymbolTableRecord
100
AcDbLinetypeTableRecord
  2
AMCONSTR
 70
     0
  3
_______________________
 72
    65
 73
     2
 40
9999.0
 49
9999.0
 74
     0
 49
0.0
 74
     0
  0
LTYPE
  5
4F
330
5
100
AcDbSymbolTableRecord
100
AcDbLinetypeTableRecord
  2
AM_ISO02W050X2
 70
     0
  3
 _ _ _ _ _ _ _ _ _ _ _ _
 72
    65
 73
     2
 40
3.75
 49
3.0
 74
     0
 49
-0.75
 74
     0
  0
LTYPE
  5
50
330
5
100
AcDbSymbolTableRecord
100
AcDbLinetypeTableRecord
  2
AM_ISO08W050X2
 70
     0
  3
__ . __ . __ . __ . __ . __
 72
    65
 73
     4
 40
9.0
 49
6.0
 74
     0
 49
-0.75
 74
     0
 49
1.5
 74
     0
 49
-0.75
 74
     0
  0
LTYPE
  5
53
330
5
100
AcDbSymbolTableRecord
100
AcDbLinetypeTableRecord
  2
AMZIGZAG
 70
     0
  3
/\/-/\/-/\/-/\/-/\/-/\/
 72
    65
 73
     2
 40
11.00009999999999
 49
0.0001
 74
     4
 75
   135
340
52
 46
0.04
 50
0.0
 44
0.0
 45
0.0
 49
-11.0
 74
     0
  0
LTYPE
  5
166
330
5
100
AcDbSymbolTableRecord
100
AcDbLinetypeTableRecord
  2
ACJISTGL
 70
     0
  3
_ _ _ _ _
 72
    65
 73
     2
 40
3.0
 49
2.0
 74
     0
 49
-1.0
 74
     0
  0
LTYPE
  5
26A
330
5
100
AcDbSymbolTableRecord
100
AcDbLinetypeTableRecord
  2
ACJISTGB
 70
     0
  3
__ . . __ . .
 72
    65
 73
     6
 40
9.0
 49
4.0
 74
     0
 49
-1.0
 74
     0
 49
1.0
 74
     0
 49
-1.0
 74
     0
 49
1.0
 74
     0
 49
-1.0
 74
     0
  0
ENDTAB
  0
TABLE
  2
LAYER
  5
2
330
0
100
AcDbSymbolTable
 70
     7
  0
LAYER
  5
10
330
2
100
AcDbSymbolTableRecord
100
AcDbLayerTableRecord
  2
0
 70
     0
 62
     7
  6
CONTINUOUS
  0
LAYER
  5
3F9
330
2
100
AcDbSymbolTableRecord
100
AcDbLayerTableRecord
  2
AM_0
 70
     0
 62
     7
  6
CONTINUOUS
  0
LAYER
  5
C7C
330
2
100
AcDbSymbolTableRecord
100
AcDbLayerTableRecord
  2
AM_7
 70
     0
 62
     4
  6
AM_ISO08W050
  0
LAYER
  5
C97
330
2
100
AcDbSymbolTableRecord
100
AcDbLayerTableRecord
  2
AM_11
 70
     0
 62
     3
  6
AM_ISO09W050
  0
LAYER
  5
CC5
330
2
100
AcDbSymbolTableRecord
100
AcDbLayerTableRecord
  2
AM_5
 70
     0
 62
     3
  6
CONTINUOUS
  0
LAYER
  5
CC7
330
2
100
AcDbSymbolTableRecord
100
AcDbLayerTableRecord
  2
DEFPOINTS
 70
     0
 62
     7
  6
CONTINUOUS
  0
LAYER
  5
19BC
330
2
100
AcDbSymbolTableRecord
100
AcDbLayerTableRecord
  2
AM_6
 70
     0
 62
     2
  6
CONTINUOUS
  0
ENDTAB
  0
TABLE
  2
STYLE
  5
3
330
0
100
AcDbSymbolTable
 70
     5
  0
STYLE
  5
11
330
3
100
AcDbSymbolTableRecord
100
AcDbTextStyleTableRecord
  2
STANDARD
 70
     0
 40
0.0
 41
1.0
 50
0.0
 71
     0
 42
2.5
  3
simplex.shx
  4
EXTFONT.SHX
  0
STYLE
  5
52
330
3
100
AcDbSymbolTableRecord
100
AcDbTextStyleTableRecord
  2

 70
     1
 40
0.0
 41
1.0
 50
0.0
 71
     0
 42
2.5
  3
ltypeshp.shx
  4

  0
STYLE
  5
6B
330
3
100
AcDbSymbolTableRecord
100
AcDbTextStyleTableRecord
  2
ASAMI
 70
     0
 40
0.0
 41
1.0
 50
0.0
 71
     0
 42
2.5
  3
simplex.shx
  4
EXTFONT.SHX
  0
STYLE
  5
262
330
3
100
AcDbSymbolTableRecord
100
AcDbTextStyleTableRecord
  2
ACJISTS
 70
     0
 40
1.0
 41
1.0
 50
0.0
 71
     0
 42
2.5
  3
simplex.shx
  4
bigfont.shx
  0
STYLE
  5
269
330
3
100
AcDbSymbolTableRecord
100
AcDbTextStyleTableRecord
  2
ACJISGDT
 70
     0
 40
0.0
 41
1.0
 50
0.0
 71
     0
 42
2.5
  3
amgdtans.shx
  4

  0
ENDTAB
  0
TABLE
  2
VIEW
  5
6
330
0
100
AcDbSymbolTable
 70
     0
  0
ENDTAB
  0
TABLE
  2
UCS
  5
7
330
0
100
AcDbSymbolTable
 70
     0
  0
ENDTAB
  0
TABLE
  2
APPID
  5
9
330
0
100
AcDbSymbolTable
 70
    16
  0
APPID
  5
12
330
9
100
AcDbSymbolTableRecord
100
AcDbRegAppTableRecord
  2
ACAD
 70
     0
  0
APPID
  5
30
330
9
100
AcDbSymbolTableRecord
100
AcDbRegAppTableRecord
  2
MCAD_NO_VIS
 70
     0
  0
APPID
  5
31
330
9
100
AcDbSymbolTableRecord
100
AcDbRegAppTableRecord
  2
ACAD_TEMP_GRAPHIC
 70
     0
  0
APPID
  5
2C2
330
9
100
AcDbSymbolTableRecord
100
AcDbRegAppTableRecord
  2
GENIUS_GENDTOL_13
 70
     0
  0
APPID
  5
339
330
9
100
AcDbSymbolTableRecord
100
AcDbRegAppTableRecord
  2
GENIUS_GENODEF_13
 70
     0
  0
APPID
  5
33A
330
9
100
AcDbSymbolTableRecord
100
AcDbRegAppTableRecord
  2
GENIUS_GENOBJ-N-RSBK_13
 70
     0
  0
APPID
  5
33B
330
9
100
AcDbSymbolTableRecord
100
AcDbRegAppTableRecord
  2
GENIUS_GENOBJ-N-LIB_13
 70
     0
  0
APPID
  5
33C
330
9
100
AcDbSymbolTableRecord
100
AcDbRegAppTableRecord
  2
GENIUS_GENSCALE_13
 70
     0
  0
APPID
  5
378
330
9
100
AcDbSymbolTableRecord
100
AcDbRegAppTableRecord
  2
GENIUS_GENDIMSH_14
 70
     0
  0
APPID
  5
C82
330
9
100
AcDbSymbolTableRecord
100
AcDbRegAppTableRecord
  2
GENIUS_GENOBJ-N-CRS_13
 70
     0
  0
APPID
  5
C83
330
9
100
AcDbSymbolTableRecord
100
AcDbRegAppTableRecord
  2
GENIUS_GENOENT_13
 70
     0
  0
APPID
  5
C84
330
9
100
AcDbSymbolTableRecord
100
AcDbRegAppTableRecord
  2
GENIUS_GENOREF_13
 70
     0
  0
APPID
  5
C85
330
9
100
AcDbSymbolTableRecord
100
AcDbRegAppTableRecord
  2
GENIUS_GENOLIS_13
 70
     0
  0
APPID
  5
CA0
330
9
100
AcDbSymbolTableRecord
100
AcDbRegAppTableRecord
  2
GENIUS_GENOBJ-N-CEN_13
 70
     0
  0
APPID
  5
1CFA
330
9
100
AcDbSymbolTableRecord
100
AcDbRegAppTableRecord
  2
GENIUS_GENFIL_13
 70
     0
  0
APPID
  5
1CFB
330
9
100
AcDbSymbolTableRecord
100
AcDbRegAppTableRecord
  2
GENIUS_GENOBJ-N-CHA_13
 70
     0
  0
ENDTAB
  0
TABLE
  2
DIMSTYLE
  5
A
330
0
100
AcDbSymbolTable
 70
     9
  0
DIMSTYLE
105
58
330
A
100
AcDbSymbolTableRecord
100
AcDbDimStyleTableRecord
  2
AM_JIS
 70
     0
  3

  4
"
  5
OPEN30
  6

  7

 40
0.5
 41
2.5
 42
1.0
 43
12.0
 44
1.0
 45
0.0
 46
0.0
 47
0.1
 48
0.1
140
3.2
141
0.0
142
0.0
143
0.0393701
144
1.0
145
0.0
146
0.71
147
1.5
 71
     0
 72
     0
 73
     0
 74
     0
 75
     0
 76
     0
 77
     3
 78
     8
170
     0
171
     2
172
     1
173
     0
174
     0
175
     0
176
   256
177
   256
178
     2
270
     2
271
     3
272
     3
273
     2
274
     2
340
6B
275
     0
280
     0
281
     0
282
     0
283
     0
284
     0
285
     0
286
     0
287
     3
288
     0
  0
DIMSTYLE
105
5F
330
A
100
AcDbSymbolTableRecord
100
AcDbDimStyleTableRecord
  2
AM_JIS$3
 70
     0
  3

  4
"
  5
OPEN30
  6

  7

 40
0.5
 41
2.5
 42
1.0
 43
10.0
 44
1.0
 45
0.0
 46
0.0
 47
0.1
 48
0.1
140
3.2
141
0.0
142
0.0
143
0.0393701
144
1.0
145
0.0
146
0.71
147
1.5
 71
     0
 72
     0
 73
     0
 74
     1
 75
     0
 76
     0
 77
     3
 78
     8
170
     0
171
     2
172
     0
173
     0
174
     0
175
     0
176
   256
177
   256
178
     2
270
     2
271
     2
272
     3
273
     2
274
     2
340
6B
275
     0
280
     0
281
     0
282
     0
283
     0
284
     0
285
     0
286
     0
287
     0
288
     1
  0
DIMSTYLE
105
60
330
A
100
AcDbSymbolTableRecord
100
AcDbDimStyleTableRecord
  2
AM_JIS$4
 70
     0
  3

  4
"
  5
OPEN30
  6

  7

 40
0.5
 41
2.5
 42
1.0
 43
10.0
 44
1.0
 45
0.0
 46
0.0
 47
0.1
 48
0.1
140
3.2
141
0.0
142
0.0
143
0.0393701
144
1.0
145
0.0
146
0.71
147
1.5
 71
     0
 72
     0
 73
     0
 74
     1
 75
     0
 76
     0
 77
     3
 78
     8
170
     0
171
     2
172
     0
173
     0
174
     0
175
     0
176
   256
177
   256
178
     2
270
     2
271
     2
272
     3
273
     2
274
     2
340
6B
275
     0
280
     0
281
     0
282
     0
283
     0
284
     0
285
     0
286
     0
287
     0
288
     1
  0
DIMSTYLE
105
61
330
A
100
AcDbSymbolTableRecord
100
AcDbDimStyleTableRecord
  2
AM_JIS$6
 70
     0
  3

  4
"
  5
OPEN30
  6

  7

 40
0.5
 41
2.5
 42
1.0
 43
10.0
 44
1.0
 45
0.0
 46
0.0
 47
0.1
 48
0.1
140
3.2
141
0.0
142
0.0
143
0.0393701
144
1.0
145
0.0
146
0.71
147
1.5
 71
     0
 72
     0
 73
     0
 74
     0
 75
     0
 76
     0
 77
     0
 78
     8
170
     0
171
     2
172
     1
173
     0
174
     0
175
     0
176
   256
177
   256
178
     2
270
     2
271
     2
272
     2
273
     2
274
     2
340
6B
275
     0
280
     0
281
     0
282
     0
283
     0
284
     0
285
     0
286
     0
287
     3
288
     0
  0
DIMSTYLE
105
62
330
A
100
AcDbSymbolTableRecord
100
AcDbDimStyleTableRecord
  2
AM_JIS$7
 70
     0
  3

  4
"
  5
OPEN30
  6

  7

 40
0.5
 41
2.5
 42
1.0
 43
10.0
 44
1.0
 45
0.0
 46
0.0
 47
0.1
 48
0.1
140
3.2
141
0.0
142
0.0
143
0.0393701
144
1.0
145
0.0
146
0.71
147
1.5
 71
     0
 72
     0
 73
     0
 74
     0
 75
     0
 76
     0
 77
     3
 78
     8
170
     0
171
     2
172
     1
173
     0
174
     0
175
     0
176
   256
177
   256
178
     2
270
     2
271
     2
272
     3
273
     2
274
     2
340
6B
275
     0
280
     0
281
     0
282
     0
283
     0
284
     0
285
     0
286
     0
287
     3
288
     0
  0
DIMSTYLE
105
63
330
A
100
AcDbSymbolTableRecord
100
AcDbDimStyleTableRecord
  2
AM_JIS$SF
 70
     0
  3

  4
"
  5
OPEN30
  6

  7

 40
0.5
 41
2.5
 42
1.0
 43
10.0
 44
1.0
 45
0.0
 46
0.0
 47
0.1
 48
0.1
140
3.2
141
0.0
142
0.0
143
0.0393701
144
1.0
145
0.0
146
0.71
147
1.5
 71
     0
 72
     0
 73
     0
 74
     0
 75
     1
 76
     1
 77
     3
 78
     8
170
     0
171
     2
172
     1
173
     0
174
     0
175
     0
176
   256
177
   256
178
     2
270
     2
271
     2
272
     2
273
     2
274
     2
340
6B
275
     0
280
     0
281
     0
282
     0
283
     0
284
     0
285
     0
286
     0
287
     3
288
     0
  0
DIMSTYLE
105
68
330
A
100
AcDbSymbolTableRecord
100
AcDbDimStyleTableRecord
  2
AM_JIS$SH
 70
     0
  3

  4
"
  5

  6
GENAXEH
  7
OPEN30
 40
0.5
 41
2.5
 42
1.0
 43
10.0
 44
1.0
 45
0.0
 46
0.0
 47
0.1
 48
0.1
140
3.2
141
0.0
142
0.0
143
0.0393701
144
2.0
145
0.0
146
0.71
147
1.5
 71
     0
 72
     0
 73
     0
 74
     0
 75
     1
 76
     1
 77
     3
 78
     8
170
     0
171
     2
172
     1
173
     1
174
     0
175
     0
176
   256
177
   256
178
     2
270
     2
271
     2
272
     2
273
     2
274
     2
340
6B
275
     0
280
     0
281
     0
282
     0
283
     0
284
     0
285
     0
286
     0
287
     3
288
     0
  0
DIMSTYLE
105
B34
102
{ACAD_REACTORS
330
24C0
102
}
330
A
100
AcDbSymbolTableRecord
100
AcDbDimStyleTableRecord
  2
AM_JIS$2
 70
     0
  3

  4
"
  5
OPEN30
  6

  7

 40
0.5
 41
2.5
 42
1.0
 43
12.0
 44
1.0
 45
0.0
 46
0.0
 47
0.1
 48
0.1
140
3.2
141
0.0
142
0.0
143
0.0393701
144
1.0
145
0.0
146
0.71
147
1.5
 71
     0
 72
     0
 73
     0
 74
     0
 75
     0
 76
     0
 77
     3
 78
     8
170
     0
171
     2
172
     1
173
     0
174
     0
175
     0
176
   256
177
   256
178
     2
270
     2
271
     3
272
     3
273
     2
274
     2
340
6B
275
     0
280
     0
281
     0
282
     0
283
     0
284
     0
285
     0
286
     0
287
     3
288
     0
  0
DIMSTYLE
105
BA5
102
{ACAD_REACTORS
330
CC6
330
DF5
330
215F
330
2358
102
}
330
A
100
AcDbSymbolTableRecord
100
AcDbDimStyleTableRecord
  2
AM_JIS$0
 70
     0
  3

  4
"
  5
OPEN30
  6

  7

 40
0.5
 41
2.5
 42
0.0
 43
10.0
 44
1.0
 45
0.0
 46
0.0
 47
0.1
 48
0.1000000001
140
3.799999999999999
141
0.0
142
0.0
143
0.0393701
144
1.0
145
0.0
146
0.71
147
1.5
 71
     0
 72
     0
 73
     0
 74
     0
 75
     0
 76
     0
 77
     3
 78
     1
170
     0
171
     2
172
     1
173
     0
174
     0
175
     0
176
     3
177
     3
178
     2
270
     2
271
     2
272
     2
273
     2
274
     2
340
11
275
     1
280
     0
281
     0
282
     0
283
     0
284
     8
285
     0
286
     0
287
     0
288
     0
  0
ENDTAB
  0
TABLE
  2
BLOCK_RECORD
  5
1
330
0
100
AcDbSymbolTable
 70
    10
  0
BLOCK_RECORD
  5
1F
102
{ACAD_XDICTIONARY
360
74
102
}
330
1
100
AcDbSymbolTableRecord
100
AcDbBlockTableRecord
  2
*MODEL_SPACE
  0
BLOCK_RECORD
  5
101
102
{ACAD_XDICTIONARY
360
26D0
102
}
330
1
100
AcDbSymbolTableRecord
100
AcDbBlockTableRecord
  2
*PAPER_SPACE
  0
BLOCK_RECORD
  5
59
330
1
100
AcDbSymbolTableRecord
100
AcDbBlockTableRecord
  2
_OPEN30
  0
BLOCK_RECORD
  5
64
330
1
100
AcDbSymbolTableRecord
100
AcDbBlockTableRecord
  2
GENAXEH
  0
BLOCK_RECORD
  5
CC8
330
1
100
AcDbSymbolTableRecord
100
AcDbBlockTableRecord
  2
*D5
  0
BLOCK_RECORD
  5
DF6
330
1
100
AcDbSymbolTableRecord
100
AcDbBlockTableRecord
  2
*D6
  0
BLOCK_RECORD
  5
2160
330
1
100
AcDbSymbolTableRecord
100
AcDbBlockTableRecord
  2
*D7
  0
BLOCK_RECORD
  5
2359
330
1
100
AcDbSymbolTableRecord
100
AcDbBlockTableRecord
  2
*D8
  0
BLOCK_RECORD
  5
24C1
330
1
100
AcDbSymbolTableRecord
100
AcDbBlockTableRecord
  2
*D9
  0
ENDTAB
  0
ENDSEC
  0
SECTION
  2
BLOCKS
  0
BLOCK
  5
20
330
1F
100
AcDbEntity
  8
0
100
AcDbBlockBegin
  2
*MODEL_SPACE
 70
     0
 10
0.0
 20
0.0
 30
0.0
  3
*MODEL_SPACE
  1

  0
ENDBLK
  5
21
330
1F
100
AcDbEntity
  8
0
100
AcDbBlockEnd
  0
BLOCK
  5
103
330
101
100
AcDbEntity
 67
     1
  8
0
100
AcDbBlockBegin
  2
*PAPER_SPACE
 70
     0
 10
0.0
 20
0.0
 30
0.0
  3
*PAPER_SPACE
  1

  0
ENDBLK
  5
104
330
101
100
AcDbEntity
 67
     1
  8
0
100
AcDbBlockEnd
  0
BLOCK
  5
5D
330
59
100
AcDbEntity
  8
0
100
AcDbBlockBegin
  2
_OPEN30
 70
     0
 10
0.0
 20
0.0
 30
0.0
  3
_OPEN30
  1

  0
LINE
  5
5A
330
59
100
AcDbEntity
  8
0
 62
     0
100
AcDbLine
 10
-1.0
 20
0.26794919
 30
0.0
 11
0.0
 21
0.0
 31
0.0
  0
LINE
  5
5B
330
59
100
AcDbEntity
  8
0
 62
     0
100
AcDbLine
 10
0.0
 20
0.0
 30
0.0
 11
-1.0
 21
-0.26794919
 31
0.0
  0
LINE
  5
5C
330
59
100
AcDbEntity
  8
0
 62
     0
100
AcDbLine
 10
0.0
 20
0.0
 30
0.0
 11
-1.0
 21
0.0
 31
0.0
  0
ENDBLK
  5
5E
330
59
100
AcDbEntity
  8
0
100
AcDbBlockEnd
  0
BLOCK
  5
66
330
64
100
AcDbEntity
  8
0
100
AcDbBlockBegin
  2
GENAXEH
 70
     0
 10
0.0
 20
0.0
 30
0.0
  3
GENAXEH
  1

  0
LINE
  5
65
330
64
100
AcDbEntity
  8
0
100
AcDbLine
 10
-1.0
 20
0.0
 30
0.0
 11
1.0
 21
0.0
 31
0.0
  0
ENDBLK
  5
67
330
64
100
AcDbEntity
  8
0
100
AcDbBlockEnd
  0
BLOCK
  5
CD2
330
CC8
100
AcDbEntity
  8
0
100
AcDbBlockBegin
  2
*D5
 70
     1
 10
0.0
 20
0.0
 30
0.0
  3
*D5
  1

  0
LINE
  5
265F
330
CC8
100
AcDbEntity
  8
AM_5
 62
     3
100
AcDbLine
 10
-101.3454957444331
 20
-2.750007317132646
 30
0.0
 11
-101.3454957444331
 21
-15.5000083171325
 31
0.0
  0
LINE
  5
2660
330
CC8
100
AcDbEntity
  8
AM_5
 62
     3
100
AcDbLine
 10
-1.345495744433122
 20
-2.850006950277016
 30
0.0
 11
-1.345495744433123
 21
-15.5000083171325
 31
0.0
  0
LINE
  5
2661
330
CC8
100
AcDbEntity
  8
AM_5
 62
     3
100
AcDbLine
 10
-100.0954957444331
 20
-15.0000083171325
 30
0.0
 11
-2.595495744433123
 21
-15.0000083171325
 31
0.0
  0
INSERT
  5
2662
330
CC8
100
AcDbEntity
  8
AM_5
 62
     3
100
AcDbBlockReference
  2
_OPEN30
 10
-101.3454957444331
 20
-15.0000083171325
 30
0.0
 41
1.25
 42
1.25
 43
1.25
 50
180.0
  0
INSERT
  5
2663
330
CC8
100
AcDbEntity
  8
AM_5
 62
     3
100
AcDbBlockReference
  2
_OPEN30
 10
-1.345495744433123
 20
-15.0000083171325
 30
0.0
 41
1.25
 42
1.25
 43
1.25
  0
MTEXT
  5
2664
330
CC8
100
AcDbEntity
  8
AM_5
 62
     2
100
AcDbMText
 10
-51.34549574443313
 20
-13.3000083171325
 30
0.0
 40
1.9
 41
0.0
 71
     5
 72
     1
  1
100
1001
ACAD
1000
MTEXTBEGIN
1070
    73
1070
     1
1070
    44
1040
1.0
1070
    74
1070
     0
1000
MTEXTEND
  0
POINT
  5
2665
330
CC8
100
AcDbEntity
  8
DEFPOINTS
 62
     0
100
AcDbPoint
 10
-101.3454957444331
 20
-2.750007317132646
 30
0.0
  0
POINT
  5
2666
330
CC8
100
AcDbEntity
  8
DEFPOINTS
 62
     0
100
AcDbPoint
 10
-1.345495744433122
 20
-2.850006950277016
 30
0.0
  0
POINT
  5
2667
330
CC8
100
AcDbEntity
  8
DEFPOINTS
 62
     0
100
AcDbPoint
 10
-1.345495744433123
 20
-15.0000083171325
 30
0.0
  0
ENDBLK
  5
CD3
330
CC8
100
AcDbEntity
  8
0
100
AcDbBlockEnd
  0
BLOCK
  5
E00
330
DF6
100
AcDbEntity
  8
0
100
AcDbBlockBegin
  2
*D6
 70
     1
 10
0.0
 20
0.0
 30
0.0
  3
*D6
  1

  0
LINE
  5
2668
330
DF6
100
AcDbEntity
  8
AM_5
 62
     3
100
AcDbLine
 10
-49.34549574443312
 20
-3.000007317132607
 30
0.0
 11
-49.34549574443312
 21
-10.50000831713247
 31
0.0
  0
LINE
  5
2669
330
DF6
100
AcDbEntity
  8
AM_5
 62
     3
100
AcDbLine
 10
-1.345495744433122
 20
-2.850006950277016
 30
0.0
 11
-1.345495744433123
 21
-10.50000831713247
 31
0.0
  0
LINE
  5
266A
330
DF6
100
AcDbEntity
  8
AM_5
 62
     3
100
AcDbLine
 10
-48.09549574443312
 20
-10.00000831713247
 30
0.0
 11
-2.595495744433123
 21
-10.00000831713247
 31
0.0
  0
INSERT
  5
266B
330
DF6
100
AcDbEntity
  8
AM_5
 62
     3
100
AcDbBlockReference
  2
_OPEN30
 10
-49.34549574443312
 20
-10.00000831713247
 30
0.0
 41
1.25
 42
1.25
 43
1.25
 50
180.0
  0
INSERT
  5
266C
330
DF6
100
AcDbEntity
  8
AM_5
 62
     3
100
AcDbBlockReference
  2
_OPEN30
 10
-1.345495744433123
 20
-10.00000831713247
 30
0.0
 41
1.25
 42
1.25
 43
1.25
  0
MTEXT
  5
266D
330
DF6
100
AcDbEntity
  8
AM_5
 62
     2
100
AcDbMText
 10
-25.34549574443312
 20
-8.300008317132473
 30
0.0
 40
1.9
 41
0.0
 71
     5
 72
     1
  1
48
1001
ACAD
1000
MTEXTBEGIN
1070
    73
1070
     1
1070
    44
1040
1.0
1070
    74
1070
     0
1000
MTEXTEND
  0
POINT
  5
266E
330
DF6
100
AcDbEntity
  8
DEFPOINTS
 62
     0
100
AcDbPoint
 10
-49.34549574443312
 20
-3.000007317132607
 30
0.0
  0
POINT
  5
266F
330
DF6
100
AcDbEntity
  8
DEFPOINTS
 62
     0
100
AcDbPoint
 10
-1.345495744433122
 20
-2.850006950277016
 30
0.0
  0
POINT
  5
2670
330
DF6
100
AcDbEntity
  8
DEFPOINTS
 62
     0
100
AcDbPoint
 10
-1.345495744433123
 20
-10.00000831713247
 30
0.0
  0
ENDBLK
  5
E01
330
DF6
100
AcDbEntity
  8
0
100
AcDbBlockEnd
  0
BLOCK
  5
216C
330
2160
100
AcDbEntity
  8
0
100
AcDbBlockBegin
  2
*D7
 70
     1
 10
0.0
 20
0.0
 30
0.0
  3
*D7
  1

  0
LINE
  5
2654
330
2160
100
AcDbEntity
  8
AM_5
 62
     3
100
AcDbLine
 10
-1.345495744433122
 20
-2.850006950277016
 30
0.0
 11
8.800009073387325
 21
-2.850006950277019
 31
0.0
  0
LINE
  5
2655
330
2160
100
AcDbEntity
  8
AM_5
 62
     3
100
AcDbLine
 10
-1.345495744433117
 20
2.849993049722991
 30
0.0
 11
8.800009073387325
 21
2.849993049722988
 31
0.0
  0
LINE
  5
2656
330
2160
100
AcDbEntity
  8
AM_5
 62
     3
100
AcDbLine
 10
8.300009073387323
 20
-4.100006950277019
 30
0.0
 11
8.300009073387323
 21
-5.350006950277019
 31
0.0
  0
LINE
  5
2657
330
2160
100
AcDbEntity
  8
AM_5
 62
     3
100
AcDbLine
 10
8.300009073387327
 20
4.099993049722988
 30
0.0
 11
8.300009073387329
 21
12.54999304972298
 31
0.0
  0
LINE
  5
2658
330
2160
100
AcDbEntity
  8
AM_5
 62
     3
100
AcDbLine
 10
8.300009073387325
 20
-2.850006950277019
 30
0.0
 11
8.300009073387325
 21
2.849993049722988
 31
0.0
  0
INSERT
  5
2659
330
2160
100
AcDbEntity
  8
AM_5
 62
     3
100
AcDbBlockReference
  2
_OPEN30
 10
8.300009073387325
 20
-2.850006950277019
 30
0.0
 41
1.25
 42
1.25
 43
1.25
 50
90.0
  0
INSERT
  5
265A
330
2160
100
AcDbEntity
  8
AM_5
 62
     3
100
AcDbBlockReference
  2
_OPEN30
 10
8.300009073387325
 20
2.849993049722988
 30
0.0
 41
1.25
 42
1.25
 43
1.25
 50
270.0
  0
MTEXT
  5
265B
330
2160
100
AcDbEntity
  8
AM_5
 62
     2
100
AcDbMText
 10
6.600009073387326
 20
8.949993049722991
 30
0.0
 40
1.9
 41
0.0
 71
     5
 72
     1
  1
%%c5.7
 11
0.0000000000000001
 21
1.0
 31
0.0
1001
ACAD
1000
MTEXTBEGIN
1070
    73
1070
     1
1070
    44
1040
1.0
1070
    74
1070
     0
1000
MTEXTEND
  0
POINT
  5
265C
330
2160
100
AcDbEntity
  8
DEFPOINTS
 62
     0
100
AcDbPoint
 10
-1.345495744433122
 20
-2.850006950277016
 30
0.0
  0
POINT
  5
265D
330
2160
100
AcDbEntity
  8
DEFPOINTS
 62
     0
100
AcDbPoint
 10
-1.345495744433117
 20
2.849993049722991
 30
0.0
  0
POINT
  5
265E
330
2160
100
AcDbEntity
  8
DEFPOINTS
 62
     0
100
AcDbPoint
 10
8.300009073387325
 20
2.849993049722988
 30
0.0
  0
ENDBLK
  5
216D
330
2160
100
AcDbEntity
  8
0
100
AcDbBlockEnd
  0
BLOCK
  5
2363
330
2359
100
AcDbEntity
  8
0
100
AcDbBlockBegin
  2
*D8
 70
     1
 10
0.0
 20
0.0
 30
0.0
  3
*D8
  1

  0
LINE
  5
2404
330
2359
100
AcDbEntity
  8
AM_5
 62
     3
100
AcDbLine
 10
-101.0954957444331
 20
-3.000007317132646
 30
0.0
 11
-110.3454967444331
 21
-3.000007317132664
 31
0.0
  0
LINE
  5
2405
330
2359
100
AcDbEntity
  8
AM_5
 62
     3
100
AcDbLine
 10
-101.0954957444331
 20
2.999992682867353
 30
0.0
 11
-110.3454967444331
 21
2.999992682867334
 31
0.0
  0
LINE
  5
2406
330
2359
100
AcDbEntity
  8
AM_5
 62
     3
100
AcDbLine
 10
-109.8454967444331
 20
-1.750007317132663
 30
0.0
 11
-109.8454967444331
 21
1.749992682867335
 31
0.0
  0
INSERT
  5
2407
330
2359
100
AcDbEntity
  8
AM_5
 62
     3
100
AcDbBlockReference
  2
_OPEN30
 10
-109.8454967444331
 20
-3.000007317132662
 30
0.0
 41
1.25
 42
1.25
 43
1.25
 50
270.0000000000001
  0
INSERT
  5
2408
330
2359
100
AcDbEntity
  8
AM_5
 62
     3
100
AcDbBlockReference
  2
_OPEN30
 10
-109.8454967444331
 20
2.999992682867336
 30
0.0
 41
1.25
 42
1.25
 43
1.25
 50
90.0000000000001
  0
MTEXT
  5
2409
330
2359
100
AcDbEntity
  8
AM_5
 62
     2
100
AcDbMText
 10
-111.5454967444331
 20
-0.0000073171326625
 30
0.0
 40
1.9
 41
0.0
 71
     5
 72
     1
  1
%%c6
 11
-0.000000000000002
 21
1.0
 31
0.0
1001
ACAD
1000
MTEXTBEGIN
1070
    73
1070
     1
1070
    44
1040
1.0
1070
    74
1070
     0
1000
MTEXTEND
  0
POINT
  5
240A
330
2359
100
AcDbEntity
  8
DEFPOINTS
 62
     0
100
AcDbPoint
 10
-101.0954957444331
 20
-3.000007317132421
 30
0.0
  0
POINT
  5
240B
330
2359
100
AcDbEntity
  8
DEFPOINTS
 62
     0
100
AcDbPoint
 10
-101.0954957444331
 20
2.999992682867577
 30
0.0
  0
POINT
  5
240C
330
2359
100
AcDbEntity
  8
DEFPOINTS
 62
     0
100
AcDbPoint
 10
-109.8454967444331
 20
2.99999268286758
 30
0.0
  0
ENDBLK
  5
2364
330
2359
100
AcDbEntity
  8
0
100
AcDbBlockEnd
  0
BLOCK
  5
24D1
330
24C1
100
AcDbEntity
  8
0
100
AcDbBlockBegin
  2
*D9
 70
     1
 10
0.0
 20
0.0
 30
0.0
  3
*D9
  1

  0
LINE
  5
26D2
330
24C1
100
AcDbEntity
  8
AM_5
100
AcDbLine
 10
-0.1744856727702535
 20
-0.469853627525538
 30
0.0
 11
5.561814686679505
 21
-16.23020933632265
 31
0.0
  0
LINE
  5
26D3
330
24C1
100
AcDbEntity
  8
AM_5
100
AcDbLine
 10
-0.1744856727702755
 20
0.4698389932603747
 30
0.0
 11
5.561814686678746
 21
16.23019470205775
 31
0.0
  0
ARC
  5
26D4
330
24C1
100
AcDbEntity
  8
AM_5
100
AcDbCircle
 10
-0.345495744433093
 20
-0.0000073171325856
 30
0.0
 40
16.7718202316158
100
AcDbArc
 50
294.2712305413755
 51
65.72876945862709
  0
INSERT
  5
26D5
330
24C1
100
AcDbEntity
  8
AM_5
100
AcDbBlockReference
  2
_OPEN30
 10
5.390804615016665
 20
-15.7603630259297
 30
0.0
 41
1.25
 42
1.25
 43
1.25
 50
202.135615270688
  0
INSERT
  5
26D6
330
24C1
100
AcDbEntity
  8
AM_5
100
AcDbBlockReference
  2
_OPEN30
 10
5.390804615015929
 20
15.76034839166479
 30
0.0
 41
1.25
 42
1.25
 43
1.25
 50
157.8643847293145
  0
MTEXT
  5
26D7
330
24C1
100
AcDbEntity
  8
AM_5
 62
     2
100
AcDbMText
 10
14.87632448718271
 20
-0.0000073171322013
 30
0.0
 40
1.6
 41
0.0
 71
     5
 72
     1
  1
140°
  7
ASAMI
 11
-0.000000000000002
 21
1.0
 31
0.0
  0
POINT
  5
26D8
330
24C1
100
AcDbEntity
  8
DEFPOINTS
 62
     0
100
AcDbPoint
 10
15.05465973393709
 20
-6.642985950521514
 30
0.0
  0
POINT
  5
26D9
330
24C1
100
AcDbEntity
  8
DEFPOINTS
 62
     0
100
AcDbPoint
 10
-0.6630579457979238
 20
-0.8725022946548524
 30
0.0
  0
POINT
  5
26DA
330
24C1
100
AcDbEntity
  8
DEFPOINTS
 62
     0
100
AcDbPoint
 10
-0.6630579457979629
 20
0.8724876603896731
 30
0.0
  0
POINT
  5
26DB
330
24C1
100
AcDbEntity
  8
DEFPOINTS
 62
     0
100
AcDbPoint
 10
-0.3454957444331015
 20
-0.0000073171325612
 30
0.0
  0
POINT
  5
26DC
330
24C1
100
AcDbEntity
  8
DEFPOINTS
 62
     0
100
AcDbPoint
 10
-0.3454957444331015
 20
-0.0000073171326083
 30
0.0
  0
ENDBLK
  5
24D2
330
24C1
100
AcDbEntity
  8
0
100
AcDbBlockEnd
  0
ENDSEC
  0
SECTION
  2
ENTITIES
  0
LINE
  5
C30
330
1F
100
AcDbEntity
  8
AM_0
 48
0.5
100
AcDbLine
 10
-101.3454957444331
 20
-2.750007317132646
 30
0.0
 11
-101.3454957444331
 21
2.749992682867353
 31
0.0
  0
LINE
  5
C9F
330
1F
100
AcDbEntity
  8
AM_7
100
AcDbLine
 10
-102.8454957444331
 20
-0.0000073171326473
 30
0.0
 11
1.300008073387331
 21
-0.0000073171325576
 31
0.0
1001
GENIUS_GENODEF_13
1002
{
1000
HIER
1070
     0
1002
}
1002
{
1000
MANEDIT
1070
     0
1002
}
1002
{
1000
NOSEL
1070
     0
1002
}
1002
{
1000
BEHIND
1070
     0
1002
}
1002
{
1000
REACTOR
1002
}
1001
GENIUS_GENOBJ-N-CEN_13
1002
{
1000
OWNER
1000
GEN
1002
}
  0
DIMENSION
  5
CC6
330
1F
100
AcDbEntity
  8
AM_5
100
AcDbDimension
  2
*D5
 10
-1.345495744433123
 20
-15.0000083171325
 30
0.0
 11
-51.34549574443313
 21
-13.3000083171325
 31
0.0
 70
    32
  1
<>
  3
AM_JIS$0
100
AcDbAlignedDimension
 13
-101.3454957444331
 23
-2.750007317132646
 33
0.0
 14
-1.345495744433122
 24
-2.850006950277016
 34
0.0
 50
0.0000000000001132
100
AcDbRotatedDimension
1001
GENIUS_GENDTOL_13
1000

1000
h7
1000

1040
0.0
1001
ACAD
1000
DSTYLE
1002
{
1070
   271
1070
     0
1002
}
  0
DIMENSION
  5
DF5
330
1F
100
AcDbEntity
  8
AM_5
100
AcDbDimension
  2
*D6
 10
-1.345495744433123
 20
-10.00000831713247
 30
0.0
 11
-25.34549574443312
 21
-8.300008317132473
 31
0.0
 70
    32
  1
<>
  3
AM_JIS$0
100
AcDbAlignedDimension
 13
-49.34549574443312
 23
-3.000007317132607
 33
0.0
 14
-1.345495744433122
 24
-2.850006950277016
 34
0.0
 50
0.0000000000001527
100
AcDbRotatedDimension
1001
GENIUS_GENDTOL_13
1000

1000
h7
1000

1040
0.0
1001
ACAD
1000
DSTYLE
1002
{
1070
   271
1070
     0
1002
}
  0
ARC
  5
144A
330
1F
100
AcDbEntity
  8
AM_11
 48
0.5
100
AcDbCircle
 10
-48.58484510966757
 20
-13.25090117907367
 30
0.0
 40
14.65089607238749
100
AcDbArc
 50
64.74833051131179
 51
115.2516644797366
  0
ARC
  5
144B
330
1F
100
AcDbEntity
  8
AM_11
 48
0.5
100
AcDbCircle
 10
-48.58484510966755
 20
13.25089554333832
 30
0.0
 40
14.65089607238749
100
AcDbArc
 50
244.7482808787518
 51
295.2516148471758
  0
ARC
  5
144E
330
1F
100
AcDbEntity
  8
AM_11
 48
0.5
100
AcDbCircle
 10
-36.08484510966757
 20
-13.25090117907367
 30
0.0
 40
14.65089607238749
100
AcDbArc
 50
64.74833051131179
 51
115.2516644797366
  0
ARC
  5
144F
330
1F
100
AcDbEntity
  8
AM_11
 48
0.5
100
AcDbCircle
 10
-36.08484510966757
 20
13.25089554333832
 30
0.0
 40
14.65089607238749
100
AcDbArc
 50
244.7482808787518
 51
295.2516148471758
  0
ARC
  5
1450
330
1F
100
AcDbEntity
  8
AM_11
 48
0.5
100
AcDbCircle
 10
-23.58484510967107
 20
13.25089554333832
 30
0.0
 40
14.65089607238749
100
AcDbArc
 50
244.7482808787518
 51
295.2516148471758
  0
ARC
  5
1451
330
1F
100
AcDbEntity
  8
AM_11
 48
0.5
100
AcDbCircle
 10
-23.58484510967107
 20
-13.25090117907367
 30
0.0
 40
14.65089607238749
100
AcDbArc
 50
64.74833051131179
 51
115.2516644797366
  0
ARC
  5
1452
330
1F
100
AcDbEntity
  8
AM_11
 48
0.5
100
AcDbCircle
 10
-11.08484510967107
 20
-13.25090117907367
 30
0.0
 40
14.65089607238749
100
AcDbArc
 50
64.74833051131179
 51
115.2516644797366
  0
ARC
  5
1453
330
1F
100
AcDbEntity
  8
AM_11
 48
0.5
100
AcDbCircle
 10
-11.08484510967107
 20
13.25089554333832
 30
0.0
 40
14.65089607238749
100
AcDbArc
 50
244.7482808787518
 51
295.2516148471758
  0
TEXT
  5
19BD
330
1F
100
AcDbEntity
  8
AM_6
100
AcDbText
 10
-62.1788214483737
 20
-26.25000831713253
 30
0.0
 40
2.5
  1
MDW057LHK
 50
0.0000000000001527
 72
     4
 11
-51.34548811504036
 21
-25.0000083171325
 31
0.0
100
AcDbText
  0
LINE
  5
1CF0
330
1F
100
AcDbEntity
  8
AM_0
100
AcDbLine
 10
-101.0954957444331
 20
2.999992682867354
 30
0.0
 11
-49.34549574443312
 21
2.999992682867398
 31
0.0
1001
GENIUS_GENODEF_13
1002
{
1000
HIER
1070
     0
1002
}
1002
{
1000
MANEDIT
1070
     0
1002
}
1002
{
1000
NOSEL
1070
     0
1002
}
1002
{
1000
BEHIND
1070
     0
1002
}
1002
{
1000
REACTOR
1002
}
1001
GENIUS_GENOBJ-N-CEN_13
1002
{
1000
OWNER
1000
GEN
1002
}
  0
LINE
  5
1CF4
330
1F
100
AcDbEntity
  8
AM_0
100
AcDbLine
 10
-101.0954957444331
 20
-3.000007317132646
 30
0.0
 11
-49.34549574443312
 21
-3.000007317132607
 31
0.0
1001
GENIUS_GENODEF_13
1002
{
1000
HIER
1070
     0
1002
}
1002
{
1000
MANEDIT
1070
     0
1002
}
1002
{
1000
NOSEL
1070
     0
1002
}
1002
{
1000
BEHIND
1070
     0
1002
}
1002
{
1000
REACTOR
1002
}
1001
GENIUS_GENOBJ-N-CEN_13
1002
{
1000
OWNER
1000
GEN
1002
}
  0
LINE
  5
1CFE
330
1F
100
AcDbEntity
  8
AM_0
100
AcDbLine
 10
-101.0954957444331
 20
-3.000007317132421
 30
0.0
 11
-101.0954957444331
 21
2.999992682867577
 31
0.0
  0
ARC
  5
1DAB
330
1F
100
AcDbEntity
  8
AM_11
 48
0.5
100
AcDbCircle
 10
-61.08481776663966
 20
-13.2509011790737
 30
0.0
 40
14.65089607238749
100
AcDbArc
 50
64.74833051131179
 51
115.2516644797366
  0
ARC
  5
1DAC
330
1F
100
AcDbEntity
  8
AM_11
 48
0.5
100
AcDbCircle
 10
-61.08481776663964
 20
13.25089554333829
 30
0.0
 40
14.65089607238749
100
AcDbArc
 50
244.7482808787518
 51
295.2516148471758
  0
ARC
  5
1DAD
330
1F
100
AcDbEntity
  8
AM_11
 48
0.5
100
AcDbCircle
 10
-73.58479042361175
 20
-13.25090117907374
 30
0.0
 40
14.65089607238749
100
AcDbArc
 50
64.74833051131179
 51
115.2516644797366
  0
ARC
  5
1DAE
330
1F
100
AcDbEntity
  8
AM_11
 48
0.5
100
AcDbCircle
 10
-73.58479042361174
 20
13.25089554333825
 30
0.0
 40
14.65089607238749
100
AcDbArc
 50
244.7482808787518
 51
295.2516148471758
  0
ARC
  5
1DAF
330
1F
100
AcDbEntity
  8
AM_11
 48
0.5
100
AcDbCircle
 10
-86.08476308058383
 20
-13.25090117907377
 30
0.0
 40
14.65089607238749
100
AcDbArc
 50
64.74833051131179
 51
115.2516644797366
  0
ARC
  5
1DB0
330
1F
100
AcDbEntity
  8
AM_11
 48
0.5
100
AcDbCircle
 10
-86.08476308058383
 20
13.25089554333822
 30
0.0
 40
14.65089607238749
100
AcDbArc
 50
244.7482808787518
 51
295.2516148471758
  0
ARC
  5
1DB1
330
1F
100
AcDbEntity
  8
AM_11
 48
0.5
100
AcDbCircle
 10
-98.58473573755594
 20
-13.25090117907381
 30
0.0
 40
14.65089607238749
100
AcDbArc
 50
64.74833051131179
 51
100.8615399523048
  0
ARC
  5
1DB2
330
1F
100
AcDbEntity
  8
AM_11
 48
0.5
100
AcDbCircle
 10
-98.58473573755592
 20
13.25089554333819
 30
0.0
 40
14.65089607238749
100
AcDbArc
 50
259.1384600476949
 51
295.2516148471758
  0
LINE
  5
1E4D
330
1F
100
AcDbEntity
  8
AM_0
100
AcDbLine
 10
-49.34549574443311
 20
-3.0000073171326
 30
0.0
 11
-49.34549574443312
 21
2.999992682867398
 31
0.0
  0
LINE
  5
1E4F
330
1F
100
AcDbEntity
  8
AM_0
100
AcDbLine
 10
-49.34549574443312
 20
2.999992682867398
 30
0.0
 11
-49.08639005607541
 21
2.850397943945516
 31
0.0
  0
LINE
  5
1E50
330
1F
100
AcDbEntity
  8
AM_0
100
AcDbLine
 10
-49.34549574443311
 20
-3.000007317132599
 30
0.0
 11
-49.08568748788489
 21
-2.850006950276799
 31
0.0
  0
LINE
  5
1FC4
330
1F
100
AcDbEntity
  8
AM_0
100
AcDbLine
 10
-101.3454957444331
 20
2.749992682867353
 30
0.0
 11
-101.0954957444331
 21
2.999992682867354
 31
0.0
1001
GENIUS_GENFIL_13
1070
     0
1040
0.25
1040
0.25
1040
20.0
1040
0.0
1002
{
1002
}
1001
GENIUS_GENODEF_13
1002
{
1000
HIER
1070
     0
1002
}
1002
{
1000
MANEDIT
1070
     0
1002
}
1002
{
1000
NOSEL
1070
     0
1002
}
1002
{
1000
BEHIND
1070
     0
1002
}
1002
{
1000
REACTOR
1002
}
1001
GENIUS_GENOBJ-N-CHA_13
1002
{
1000
OWNER
1000
GEN
1002
}
  0
LINE
  5
1FC7
330
1F
100
AcDbEntity
  8
AM_0
100
AcDbLine
 10
-101.3454957444331
 20
-2.750007317132646
 30
0.0
 11
-101.0954957444331
 21
-3.000007317132646
 31
0.0
1001
GENIUS_GENFIL_13
1070
     0
1040
0.25
1040
0.25
1040
20.0
1040
0.0
1002
{
1002
}
1001
GENIUS_GENODEF_13
1002
{
1000
HIER
1070
     0
1002
}
1002
{
1000
MANEDIT
1070
     0
1002
}
1002
{
1000
NOSEL
1070
     0
1002
}
1002
{
1000
BEHIND
1070
     0
1002
}
1002
{
1000
REACTOR
1002
}
1001
GENIUS_GENOBJ-N-CHA_13
1002
{
1000
OWNER
1000
GEN
1002
}
  0
DIMENSION
  5
215F
330
1F
100
AcDbEntity
  8
AM_5
100
AcDbDimension
  2
*D7
 10
8.300009073387325
 20
2.849993049722988
 30
0.0
 11
8.300009073387325
 21
8.949993049722991
 31
0.0
 70
   160
  1
%%c<>
  3
AM_JIS$0
100
AcDbAlignedDimension
 13
-1.345495744433122
 23
-2.850006950277016
 33
0.0
 14
-1.345495744433117
 24
2.849993049722991
 34
0.0
 50
89.99999999999969
100
AcDbRotatedDimension
1001
ACAD
1000
DSTYLE
1002
{
1070
   271
1070
     1
1002
}
1001
GENIUS_GENDTOL_13
1000

1000
h7
1000

1040
0.0
  0
LINE
  5
216E
330
1F
100
AcDbEntity
  8
AM_0
 48
0.5
100
AcDbLine
 10
-1.153537932518779
 20
2.54885010977467
 30
0.0
 11
-1.345495744433117
 21
2.849993049722991
 31
0.0
  0
ELLIPSE
  5
2196
330
1F
100
AcDbEntity
  8
AM_0
 48
0.5
100
AcDbEllipse
 10
4.027688839331727
 20
3.630097205697969
 30
0.0
 11
0.8512848445242394
 21
5.756478471581338
 31
0.0
210
0.0
220
0.0
230
0.9999999999999998
 40
0.8991184301885631
 41
1.890270824098471
 42
2.197796108596753
  0
LINE
  5
21A5
330
1F
100
AcDbEntity
  8
AM_0
100
AcDbLine
 10
-49.08568748788489
 20
-2.850006950276797
 30
0.0
 11
-49.08572587423773
 21
-2.538552835760615
 31
0.0
  0
LINE
  5
21A6
330
1F
100
AcDbEntity
  8
AM_0
100
AcDbLine
 10
-49.08586744895421
 20
-1.389862619564092
 30
0.0
 11
-49.08599626238786
 21
-0.3447132126866681
 31
0.0
  0
LINE
  5
21A7
330
1F
100
AcDbEntity
  8
AM_0
100
AcDbLine
 10
-49.08601847307938
 20
-0.164503040338977
 30
0.0
 11
-49.08639005607542
 21
2.850397943945523
 31
0.0
  0
DIMENSION
  5
2358
330
1F
100
AcDbEntity
  8
AM_5
100
AcDbDimension
  2
*D8
 10
-109.8454967444331
 20
2.99999268286758
 30
0.0
 11
-111.5454967444331
 21
-0.000007317132437
 31
0.0
 70
    32
  1
%%c<>
 51
359.9999999999998
  3
AM_JIS$0
100
AcDbAlignedDimension
 13
-101.0954957444331
 23
-3.000007317132421
 33
0.0
 14
-101.0954957444331
 24
2.999992682867577
 34
0.0
 50
270.0000000000001
100
AcDbRotatedDimension
1001
ACAD
1000
DSTYLE
1002
{
1070
   271
1070
     0
1002
}
1001
GENIUS_GENDTOL_13
1000

1000
h7
1000

1040
0.0
  0
LINE
  5
249D
330
1F
100
AcDbEntity
  8
AM_0
100
AcDbLine
 10
-0.6630579457979629
 20
0.8724876603896731
 30
0.0
 11
-0.3454957444331015
 21
-0.0000073171325612
 31
0.0
  0
LINE
  5
249E
330
1F
100
AcDbEntity
  8
AM_0
100
AcDbLine
 10
-0.6630579457979238
 20
-0.8725022946548524
 30
0.0
 11
-0.3454957444331015
 21
-0.0000073171326083
 31
0.0
  0
LINE
  5
24A6
330
1F
100
AcDbEntity
  8
AM_0
 48
0.5
100
AcDbLine
 10
-1.153537932518774
 20
-2.548864744039789
 30
0.0
 11
-1.345495744433122
 21
-2.850006950277016
 31
0.0
  0
ELLIPSE
  5
24A7
330
1F
100
AcDbEntity
  8
AM_0
 48
0.5
100
AcDbEllipse
 10
4.027688839331733
 20
-3.630111839963079
 30
0.0
 11
0.8512848445242491
 21
-5.756478471581337
 31
0.0
210
0.0
220
0.0
230
-1.0
 40
0.8991184301885631
 41
1.890270824098471
 42
2.197796108596753
  0
DIMENSION
  5
24C0
330
1F
100
AcDbEntity
  8
AM_5
100
AcDbDimension
  2
*D9
 10
-0.3454957444331015
 20
-0.0000073171326083
 30
0.0
 11
14.87632448718271
 21
-0.0000073171322337
 31
0.0
 70
    34
  1
<>
 51
359.9999999999998
  3
AM_JIS$2
100
AcDb2LineAngularDimension
 13
-0.6630579457979629
 23
0.8724876603896731
 33
0.0
 14
-0.3454957444331015
 24
-0.0000073171325612
 34
0.0
 15
-0.6630579457979238
 25
-0.8725022946548524
 35
0.0
 16
15.05465973393709
 26
-6.642985950521514
 36
0.0
1001
GENIUS_GENDTOL_13
1000

1000
h7
1000

1040
0.0
1001
ACAD
1000
DSTYLE
1002
{
1070
   271
1070
     0
1002
}
  0
LINE
  5
261D
330
1F
100
AcDbEntity
  8
AM_0
 48
0.5
100
AcDbLine
 10
-2.964476152151616
 20
2.849993049723005
 30
0.0
 11
-1.345495744433117
 21
2.849993049722991
 31
0.0
  0
LINE
  5
261E
330
1F
100
AcDbEntity
  8
AM_0
 48
0.5
100
AcDbLine
 10
-0.345495744433093
 20
-0.0000073171325851
 30
0.0
 11
-1.727936311453136
 21
1.094306480508924
 31
0.0
  0
LINE
  5
261F
330
1F
100
AcDbEntity
  8
AM_0
 48
0.5
100
AcDbLine
 10
-2.964476152151673
 20
-2.850006950276993
 30
0.0
 11
-1.345472856253165
 21
-2.850006950277007
 31
0.0
  0
ELLIPSE
  5
2620
330
1F
100
AcDbEntity
  8
AM_11
 48
0.5
100
AcDbEllipse
 10
1.415154890328966
 20
13.48751880870387
 30
0.0
 11
-0.000000000002784
 21
14.91251921653728
 31
0.0
210
0.0
220
0.0
230
1.0
 40
0.9824561403508843
 41
2.700867013135015
 42
2.862597064175703
  0
ELLIPSE
  5
2621
330
1F
100
AcDbEntity
  8
AM_0
 48
0.5
100
AcDbEllipse
 10
-5.446714921682586
 20
4.783326255899572
 30
0.0
 11
7.233317852020404
 21
0.0000000000048654
 31
0.0
210
0.0
220
0.0
230
1.0
 40
0.9499999999999658
 41
-1.060213001567174
 42
-0.9717182238876842
  0
ELLIPSE
  5
2622
330
1F
100
AcDbEntity
  8
AM_0
 48
0.5
100
AcDbEllipse
 10
1.661538557321407
 20
3.421593391519824
 30
0.0
 11
-6.046334266662508
 21
0.0000000000003226
 31
0.0
210
0.0
220
0.0
230
1.0
 40
0.9500000000000001
 41
0.5303675532341408
 42
0.9384884834290318
  0
ELLIPSE
  5
2623
330
1F
100
AcDbEntity
  8
AM_0
 48
0.5
100
AcDbEllipse
 10
-1.147390886038144
 20
-0.7427579764307641
 30
0.0
 11
-0.0899426555927927
 21
0.4672213253921494
 31
0.0
210
0.0
220
0.0
230
1.0
 40
0.5245435660926435
 41
1.793160285001069
 42
4.928502174713044
  0
ELLIPSE
  5
2624
330
1F
100
AcDbEntity
  8
AM_0
 48
0.5
100
AcDbEllipse
 10
-1.147390886038144
 20
-0.7427579764307641
 30
0.0
 11
-0.4363827573574338
 21
0.2315751360131568
 31
0.0
210
0.0
220
0.0
230
1.0
 40
0.4865688414617069
 41
4.455490600292131
 42
7.59893094162164
  0
SPLINE
  5
2625
330
1F
100
AcDbEntity
  8
AM_0
 48
0.5
100
AcDbSpline
210
0.0
220
0.0
230
1.0
 70
     8
 71
     3
 72
    10
 73
     6
 74
     0
 42
0.0000000001
 43
0.0000000001
 40
0.0
 40
0.0
 40
0.0
 40
0.0
 40
2.69986029516136
 40
4.147722969032201
 40
6.285750005020438
 40
6.285750005020438
 40
6.285750005020438
 40
6.285750005020438
 10
-3.554068132132137
 20
0.5158278580725683
 30
0.0
 10
-3.194212664629499
 20
0.251043163684943
 30
0.0
 10
-2.641376360185362
 20
-0.1557384615450736
 30
0.0
 10
-1.333992764012377
 20
0.0411916494416497
 30
0.0
 10
-1.580211122768196
 20
0.7044783209772103
 30
0.0
 10
-1.742896482698428
 20
1.108771975957769
 30
0.0
  0
ELLIPSE
  5
2626
330
1F
100
AcDbEntity
  8
AM_0
 48
0.5
100
AcDbEllipse
 10
-5.632339671098399
 20
5.421006722317285
 30
0.0
 11
-4.826680675572949
 21
5.909966963262621
 31
0.0
210
0.0
220
0.0
230
0.9999999999999998
 40
0.5773176147885618
 41
3.104023761451942
 42
3.293288189872338
  0
ELLIPSE
  5
2627
330
1F
100
AcDbEntity
  8
AM_0
 48
0.5
100
AcDbEllipse
 10
2.849336103707857
 20
-0.6335226897177917
 30
0.0
 11
-4.800009546381428
 21
0.0010011669461003
 31
0.0
210
0.0
220
0.0
230
0.9999999999999998
 40
0.9500426489045048
 41
0.1273960497231035
 42
0.5077818457576906
  0
LINE
  5
2628
330
1F
100
AcDbEntity
  8
AM_0
100
AcDbLine
 10
-48.25456862041367
 20
-2.85000695027661
 30
0.0
 11
-49.08568748788454
 21
-2.850006950276597
 31
0.0
  0
ELLIPSE
  5
2629
330
1F
100
AcDbEntity
  8
AM_0
 48
0.5
100
AcDbEllipse
 10
-48.59547285625318
 20
-1.9289515379841
 30
0.0
 11
0.7485812718907379
 21
0.0535763143062749
 31
0.0
210
0.0
220
0.0
230
1.0
 40
0.9532764117321661
 41
1.213001588618454
 42
3.045257429883108
  0
ELLIPSE
  5
262A
330
1F
100
AcDbEntity
  8
AM_0
 48
0.5
100
AcDbEllipse
 10
-48.34528975078465
 20
-1.900006950276624
 30
0.0
 11
-1.000309451608316
 21
0.0029932322450547
 31
0.0
210
0.0
220
0.0
230
0.9999999999999998
 40
0.9497014432965762
 41
0.0175023045216671
 42
1.573637802911271
  0
LINE
  5
262B
330
1F
100
AcDbEntity
  8
AM_0
 48
0.5
100
AcDbLine
 10
-42.76691679546212
 20
1.444035160166233
 30
0.0
 11
-49.34528593608712
 21
-0.2305000189717501
 31
0.0
  0
LINE
  5
262C
330
1F
100
AcDbEntity
  8
AM_0
 48
0.5
100
AcDbLine
 10
-20.96422361988693
 20
-2.850006950276877
 30
0.0
 11
-12.48893599101866
 21
-2.850006950276899
 31
0.0
  0
LINE
  5
262D
330
1F
100
AcDbEntity
  8
AM_0
 48
0.5
100
AcDbLine
 10
-41.17579893659318
 20
-2.850006950276642
 30
0.0
 11
-30.48868346036893
 21
-2.850006950276714
 31
0.0
  0
LINE
  5
262E
330
1F
100
AcDbEntity
  8
AM_11
 48
0.5
100
AcDbLine
 10
-30.48868345875271
 20
-2.850006950276783
 30
0.0
 11
-20.96422361988694
 21
-2.850411844499005
 31
0.0
  0
LINE
  5
262F
330
1F
100
AcDbEntity
  8
AM_11
 48
0.5
100
AcDbLine
 10
-12.48893599101866
 20
-2.850006950276899
 30
0.0
 11
-2.964476152151673
 21
-2.850006950276993
 31
0.0
  0
SPLINE
  5
2630
330
1F
100
AcDbEntity
  8
AM_0
100
AcDbSpline
210
0.0
220
0.0
230
1.0
 70
     8
 71
     3
 72
    11
 73
     7
 74
     0
 42
0.0000000001
 43
0.0000000001
 40
11.27226913003534
 40
11.27226913003534
 40
11.27226913003534
 40
11.2722691300354
 40
12.28301561507924
 40
13.29510212255852
 40
14.30984805882082
 40
15.18258238371378
 40
15.18258238371378
 40
15.18258238371378
 40
15.18258238371378
 10
-30.48868345875391
 20
-2.850006950276783
 30
0.0
 10
-30.65650946767506
 20
-2.836058222072192
 30
0.0
 10
-30.9918449337513
 20
-2.80228895816231
 30
0.0
 10
-31.49311652303438
 20
-2.734168000048457
 30
0.0
 10
-31.9688321000585
 20
-2.652804984753216
 30
0.0
 10
-32.27649701133357
 20
-2.59025881337709
 30
0.0
 10
-32.41827776319945
 20
-2.559362732304789
 30
0.0
  0
SPLINE
  5
2631
330
1F
100
AcDbEntity
  8
AM_0
100
AcDbSpline
210
0.0
220
0.0
230
1.0
 70
     8
 71
     3
 72
    17
 73
    13
 74
     0
 42
0.0000000001
 43
0.0000000001
 40
1.580019955310467
 40
1.580019955310467
 40
1.580019955310467
 40
1.580019955310467
 40
2.030549285115227
 40
3.082371838836284
 40
4.126290986361125
 40
5.162752068350215
 40
6.192395305374981
 40
7.216039564037012
 40
8.234688489606833
 40
9.249433870634691
 40
10.26152376260694
 40
11.27226744710342
 40
11.27226744710342
 40
11.27226744710342
 40
11.27226744710352
 10
-25.72608199299574
 20
-2.103390873059358
 30
0.0
 10
-25.79761788992524
 20
-2.12505398010328
 30
0.0
 10
-26.03657181902677
 20
-2.196057706961296
 30
0.0
 10
-26.44452543409766
 20
-2.307429593095521
 30
0.0
 10
-26.94983633677093
 20
-2.432151331074531
 30
0.0
 10
-27.45528635106261
 20
-2.54164045750975
 30
0.0
 10
-27.96075952489751
 20
-2.635529283306585
 30
0.0
 10
-28.46628776912877
 20
-2.713134856612025
 30
0.0
 10
-28.9718509388558
 20
-2.774014316638545
 30
0.0
 10
-29.47744558899277
 20
-2.817773144114655
 30
0.0
 10
-29.98305926299682
 20
-2.844129658386095
 30
0.0
 10
-30.32021685687443
 20
-2.850006966584635
 30
0.0
 10
-30.48868345875387
 20
-2.850006950276783
 30
0.0
  0
SPLINE
  5
2632
330
1F
100
AcDbEntity
  8
AM_0
100
AcDbSpline
210
0.0
220
0.0
230
1.0
 70
     8
 71
     3
 72
    22
 73
    18
 74
     0
 42
0.0000000001
 43
0.0000000001
 40
17.17441611292
 40
17.17441611292
 40
17.17441611292
 40
17.17441611292
 40
17.38177636558528
 40
18.41823744757437
 40
19.46215659509824
 40
20.51397914882054
 40
21.57394542641293
 40
22.64209583141747
 40
23.71826625065247
 40
24.80210429862395
 40
25.8930771157021
 40
26.99048705697709
 40
28.09349309193389
 40
29.20112995599786
 40
30.31233024745139
 40
31.42594771747373
 40
32.5407895042663
 40
32.54078950426994
 40
32.54078950426994
 40
32.54078950426994
 10
-32.41849888549106
 20
-2.559327577576583
 30
0.0
 10
-32.45235549790236
 20
-2.552730107109626
 30
0.0
 10
-32.65530739913511
 20
-2.5125441933741
 30
0.0
 10
-33.02710384589944
 20
-2.431966206021244
 30
0.0
 10
-33.53248509648649
 20
-2.307435981662746
 30
0.0
 10
-34.03781484978496
 20
-2.168685196859224
 30
0.0
 10
-34.54309667339458
 20
-2.016579968413108
 30
0.0
 10
-35.0483298998732
 20
-1.852052926265177
 30
0.0
 10
-35.55352074805595
 20
-1.676127998225778
 30
0.0
 10
-36.05867155711852
 20
-1.489886362298668
 30
0.0
 10
-36.56378700090709
 20
-1.294476560447751
 30
0.0
 10
-37.06887269598514
 20
-1.091104147375813
 30
0.0
 10
-37.57393302619176
 20
-0.8810196662009682
 30
0.0
 10
-38.07897307577574
 20
-0.6655155921514157
 30
0.0
 10
-38.58399732147754
 20
-0.4459170313459761
 30
0.0
 10
-39.08901324479217
 20
-0.2235790255995967
 30
0.0
 10
-39.42562444128329
 20
-0.0744616414074534
 30
0.0
 10
-39.59402250904799
 20
0.0001380082197624
 30
0.0
  0
SPLINE
  5
2633
330
1F
100
AcDbEntity
  8
AM_0
100
AcDbSpline
210
0.0
220
0.0
230
1.0
 70
     8
 71
     3
 72
    11
 73
     7
 74
     0
 42
0.0000000001
 43
0.0000000001
 40
11.27226913003534
 40
11.27226913003534
 40
11.27226913003534
 40
11.2722691300354
 40
12.28301561507924
 40
13.29510212255852
 40
14.30984805882082
 40
15.18258238371378
 40
15.18258238371378
 40
15.18258238371378
 40
15.18258238371378
 10
-12.48893599101864
 20
-2.850006950276899
 30
0.0
 10
-12.6567619999398
 20
-2.836058222072308
 30
0.0
 10
-12.99209746601604
 20
-2.802288958162425
 30
0.0
 10
-13.49336905529912
 20
-2.734168000048573
 30
0.0
 10
-13.96908463232325
 20
-2.652804984753332
 30
0.0
 10
-14.27674954359831
 20
-2.590258813377205
 30
0.0
 10
-14.41853029546419
 20
-2.559362732304906
 30
0.0
  0
SPLINE
  5
2634
330
1F
100
AcDbEntity
  8
AM_0
100
AcDbSpline
210
0.0
220
0.0
230
1.0
 70
     8
 71
     3
 72
    22
 73
    18
 74
     0
 42
0.0000000001
 43
0.0000000001
 40
17.17441611292
 40
17.17441611292
 40
17.17441611292
 40
17.17441611292
 40
17.38177636558528
 40
18.41823744757437
 40
19.46215659509824
 40
20.51397914882054
 40
21.57394542641293
 40
22.64209583141747
 40
23.71826625065247
 40
24.80210429862395
 40
25.8930771157021
 40
26.99048705697709
 40
28.09349309193389
 40
29.20112995599786
 40
30.31233024745139
 40
31.42594771747373
 40
32.5407895042663
 40
32.54078950426994
 40
32.54078950426994
 40
32.54078950426994
 10
-14.41875141775579
 20
-2.559327577576699
 30
0.0
 10
-14.45260803016709
 20
-2.552730107109743
 30
0.0
 10
-14.65555993139986
 20
-2.512544193374216
 30
0.0
 10
-15.02735637816418
 20
-2.43196620602136
 30
0.0
 10
-15.53273762875123
 20
-2.307435981662862
 30
0.0
 10
-16.03806738204969
 20
-2.16868519685934
 30
0.0
 10
-16.54334920565931
 20
-2.016579968413223
 30
0.0
 10
-17.04858243213793
 20
-1.852052926265294
 30
0.0
 10
-17.55377328032071
 20
-1.676127998225894
 30
0.0
 10
-18.05892408938328
 20
-1.489886362298784
 30
0.0
 10
-18.56403953317185
 20
-1.294476560447867
 30
0.0
 10
-19.0691252282499
 20
-1.091104147375929
 30
0.0
 10
-19.57418555845651
 20
-0.8810196662010849
 30
0.0
 10
-20.07922560804048
 20
-0.6655155921515319
 30
0.0
 10
-20.58424985374229
 20
-0.445917031346092
 30
0.0
 10
-21.08926577705692
 20
-0.2235790255997128
 30
0.0
 10
-21.42587697354805
 20
-0.0744616414075695
 30
0.0
 10
-21.59427504131274
 20
0.0001380082196463
 30
0.0
  0
SPLINE
  5
2635
330
1F
100
AcDbEntity
  8
AM_0
100
AcDbSpline
210
0.0
220
0.0
230
1.0
 70
     8
 71
     3
 72
    17
 73
    13
 74
     0
 42
0.0000000001
 43
0.0000000001
 40
1.580019955310467
 40
1.580019955310467
 40
1.580019955310467
 40
1.580019955310467
 40
2.030549285115227
 40
3.082371838836284
 40
4.126290986361125
 40
5.162752068350215
 40
6.192395305374981
 40
7.216039564037012
 40
8.234688489606833
 40
9.249433870634691
 40
10.26152376260694
 40
11.27226744710342
 40
11.27226744710342
 40
11.27226744710342
 40
11.27226744710352
 10
-7.726334525260493
 20
-2.103390873059473
 30
0.0
 10
-7.797870422189995
 20
-2.125053980103396
 30
0.0
 10
-8.036824351291535
 20
-2.196057706961411
 30
0.0
 10
-8.444777966362419
 20
-2.307429593095637
 30
0.0
 10
-8.950088869035694
 20
-2.432151331074646
 30
0.0
 10
-9.455538883327374
 20
-2.541640457509867
 30
0.0
 10
-9.96101205716226
 20
-2.635529283306701
 30
0.0
 10
-10.46654030139351
 20
-2.713134856612141
 30
0.0
 10
-10.97210347112054
 20
-2.774014316638661
 30
0.0
 10
-11.47769812125751
 20
-2.817773144114771
 30
0.0
 10
-11.98331179526156
 20
-2.844129658386211
 30
0.0
 10
-12.32046938913917
 20
-2.850006966584752
 30
0.0
 10
-12.48893599101862
 20
-2.850006950276899
 30
0.0
  0
SPLINE
  5
2636
330
1F
100
AcDbEntity
  8
AM_0
 48
0.5
100
AcDbSpline
210
0.0
220
0.0
230
1.0
 70
     8
 71
     3
 72
    26
 73
    22
 74
     0
 42
0.0000000001
 43
0.0000000001
 40
0.0
 40
0.0
 40
0.0
 40
0.0
 40
0.5053718422482555
 40
1.011416788234384
 40
1.51878947874832
 40
2.028106372501714
 40
2.53992850183274
 40
3.054750120345123
 40
3.572980661339668
 40
4.094940235102087
 40
4.620851511962628
 40
5.150834650758807
 40
5.684913462338119
 40
6.22299150760388
 40
6.764917645270235
 40
7.310404053809304
 40
7.859109024447004
 40
8.410612041925402
 40
8.964430473957175
 40
9.520030619684154
 40
10.059642854732
 40
10.059642854732
 40
10.059642854732
 40
10.059642854732
 10
-39.76042418071619
 20
-2.850006950276694
 30
0.0
 10
-39.92889078483848
 20
-2.848311269396054
 30
0.0
 10
-40.26604837341344
 20
-2.844917649160831
 30
0.0
 10
-40.77166205783706
 20
-2.817561257944847
 30
0.0
 10
-41.2772541609866
 20
-2.774071748204436
 30
0.0
 10
-41.78281496741446
 20
-2.713119524392829
 30
0.0
 10
-42.28833945876344
 20
-2.635530701834044
 30
0.0
 10
-42.79381756302463
 20
-2.541649944467748
 30
0.0
 10
-43.29924894392592
 20
-2.432111547116689
 30
0.0
 10
-43.80463015443647
 20
-2.307580790838418
 30
0.0
 10
-44.30995999978613
 20
-2.168830368168887
 30
0.0
 10
-44.81524263885842
 20
-2.016723873279593
 30
0.0
 10
-45.32047597792712
 20
-1.852200514747388
 30
0.0
 10
-45.82566574142815
 20
-1.676269519650962
 30
0.0
 10
-46.33081868409703
 20
-1.490033251334571
 30
0.0
 10
-46.83593589737924
 20
-1.294621466995538
 30
0.0
 10
-47.34102114665832
 20
-1.091248215319429
 30
0.0
 10
-47.84608370723058
 20
-0.8811682653605245
 30
0.0
 10
-48.35111523237647
 20
-0.6656468050254313
 30
0.0
 10
-48.85095898651731
 20
-0.4483792532561813
 30
0.0
 10
-49.18212427971361
 20
-0.3024173879353214
 30
0.0
 10
-49.34528975078462
 20
-0.2305018309528299
 30
0.0
  0
LINE
  5
2637
330
1F
100
AcDbEntity
  8
AM_11
 48
0.5
100
AcDbLine
 10
-48.25456862041367
 20
-2.85000695027661
 30
0.0
 11
-41.17579512187818
 21
-2.85000695027668
 31
0.0
  0
SPLINE
  5
2638
330
1F
100
AcDbEntity
  8
AM_0
 48
0.5
100
AcDbSpline
210
0.0
220
0.0
230
1.0
 70
     8
 71
     3
 72
    22
 73
    18
 74
     0
 42
0.0000000001
 43
0.0000000001
 40
0.0
 40
0.0
 40
0.0
 40
0.0
 40
1.010743684496582
 40
2.022833993863546
 40
3.037578683882831
 40
4.056212471389632
 40
5.079857945358201
 40
6.109499720892564
 40
7.145961650132166
 40
8.189873411961459
 40
9.241710626092514
 40
10.30166235592959
 40
11.36982472628033
 40
12.44598212828784
 40
13.52983440361964
 40
14.62080578343036
 40
14.90544694398022
 40
14.90544694398022
 40
14.90544694398022
 40
14.90544694398022
 10
-41.17579893657568
 20
-2.85000695027668
 30
0.0
 10
-41.3442655728688
 20
-2.848311775910272
 30
0.0
 10
-41.68142329539791
 20
-2.844919168678123
 30
0.0
 10
-42.18703645033812
 20
-2.817555158135951
 30
0.0
 10
-42.69262909942884
 20
-2.774072965770174
 30
0.0
 10
-43.19819017905246
 20
-2.713120701706915
 30
0.0
 10
-43.70371327708281
 20
-2.635524580511622
 30
0.0
 10
-44.20919311975163
 20
-2.541651940261799
 30
0.0
 10
-44.71462229998517
 20
-2.432109562397981
 30
0.0
 10
-45.22000429329082
 20
-2.307577003169666
 30
0.0
 10
-45.72533454795997
 20
-2.168831823057654
 30
0.0
 10
-46.23061570479885
 20
-2.016718440856839
 30
0.0
 10
-46.73585102101439
 20
-1.852204823565255
 30
0.0
 10
-47.24104011711555
 20
-1.67626899767331
 30
0.0
 10
-47.746192457225
 20
-1.49003175404747
 30
0.0
 10
-48.1258497430992
 20
-1.343163537324005
 30
0.0
 10
-48.33740803144977
 20
-1.2592183855967
 30
0.0
 10
-48.38115125063204
 20
-1.241775330267214
 30
0.0
  0
SPLINE
  5
2639
330
1F
100
AcDbEntity
  8
AM_0
100
AcDbSpline
210
0.0
220
0.0
230
1.0
 70
     8
 71
     3
 72
    13
 73
     9
 74
     0
 42
0.0000000001
 43
0.0000000001
 40
16.03460056234195
 40
16.03460056234195
 40
16.03460056234195
 40
16.03460056234195
 40
16.35212717791071
 40
17.38177067057215
 40
18.41822498539278
 40
19.46214186516937
 40
20.5139635832251
 40
21.34083983469381
 40
21.34083983469381
 40
21.34083983469381
 40
21.34083983469381
 10
-48.25434024893977
 20
-2.850266145215988
 30
0.0
 10
-48.20239463553114
 20
-2.840645330450006
 30
0.0
 10
-47.98222620721787
 20
-2.798749305595141
 30
0.0
 10
-47.59439768202431
 20
-2.716657228282794
 30
0.0
 10
-47.09215838963983
 20
-2.594588970716042
 30
0.0
 10
-46.59038568099673
 20
-2.457526192482587
 30
0.0
 10
-46.12608085769543
 20
-2.317435731380086
 30
0.0
 10
-45.82986255679283
 20
-2.220973479190342
 30
0.0
 10
-45.69991336354767
 20
-2.177371662236374
 30
0.0
  0
LINE
  5
263A
330
1F
100
AcDbEntity
  8
AM_0
 48
0.5
100
AcDbLine
 10
-23.17597822734661
 20
2.849993049723202
 30
0.0
 11
-12.48893599101861
 21
2.849993049723099
 31
0.0
  0
LINE
  5
263B
330
1F
100
AcDbEntity
  8
AM_11
 48
0.5
100
AcDbLine
 10
-47.25393203477175
 20
2.850397943945512
 30
0.0
 11
-41.17579512187811
 21
2.849993049723319
 31
0.0
  0
LINE
  5
263C
330
1F
100
AcDbEntity
  8
AM_0
100
AcDbLine
 10
-41.17579512187811
 20
2.849993049723319
 30
0.0
 11
-29.25411514024025
 21
2.850397943945397
 31
0.0
  0
LINE
  5
263D
330
1F
100
AcDbEntity
  8
AM_11
 48
0.5
100
AcDbLine
 10
-29.25411514024025
 20
2.850397943945397
 30
0.0
 11
-23.17597002398537
 21
2.849993049723202
 31
0.0
  0
LINE
  5
263E
330
1F
100
AcDbEntity
  8
AM_11
 48
0.5
100
AcDbLine
 10
-12.48893599101861
 20
2.849993049723099
 30
0.0
 11
-2.964476152151616
 21
2.849993049723005
 31
0.0
  0
SPLINE
  5
263F
330
1F
100
AcDbEntity
  8
AM_0
100
AcDbSpline
210
0.0
220
0.0
230
1.0
 70
     8
 71
     3
 72
    23
 73
    19
 74
     0
 42
0.0000000001
 43
0.0000000001
 40
16.03460024169435
 40
16.03460024169435
 40
16.03460024169435
 40
16.03460024169435
 40
16.35212704903564
 40
17.38177054169784
 40
18.41822485651776
 40
19.46214173629503
 40
20.51396345435107
 40
21.57393551351153
 40
22.64208202342361
 40
23.7182574881101
 40
24.80209208578934
 40
25.89306333925047
 40
26.99048218457928
 40
28.09348763352352
 40
29.20111863782268
 40
30.31232390128032
 40
31.42594612798585
 40
32.5407912310448
 40
32.5407912310486
 40
32.5407912310486
 40
32.5407912310486
 10
-29.25411514024025
 20
2.850397943945398
 30
0.0
 10
-29.20216954788219
 20
2.840776845829302
 30
0.0
 10
-28.98200130175363
 20
2.798879671451056
 30
0.0
 10
-28.59417256514864
 20
2.716788552571792
 30
0.0
 10
-28.0919333359687
 20
2.594719956538059
 30
0.0
 10
-27.59016061020854
 20
2.457657269967191
 30
0.0
 10
-27.08882473771764
 20
2.306393741779804
 30
0.0
 10
-26.58790792519746
 20
2.14177266953188
 30
0.0
 10
-26.08738122085673
 20
1.964735096695264
 30
0.0
 10
-25.58720976991821
 20
1.776311337536508
 30
0.0
 10
-25.08736515084361
 20
1.577568424817925
 30
0.0
 10
-24.58780728927735
 20
1.369662797240488
 30
0.0
 10
-24.08849570164111
 20
1.153802892136958
 30
0.0
 10
-23.58939712022794
 20
0.9312298134674128
 30
0.0
 10
-23.0904697860657
 20
0.7032377932041689
 30
0.0
 10
-22.59166748791667
 20
0.471158137477602
 30
0.0
 10
-22.09294960919328
 20
0.2363356850476938
 30
0.0
 10
-21.76056032700987
 20
0.0789000706524315
 30
0.0
 10
-21.5942750413105
 20
0.0001380082186223
 30
0.0
  0
SPLINE
  5
2640
330
1F
100
AcDbEntity
  8
AM_0
100
AcDbSpline
210
0.0
220
0.0
230
1.0
 70
     8
 71
     3
 72
    46
 73
    42
 74
     0
 42
0.0000000001
 43
0.0000000001
 40
0.0
 40
0.0
 40
0.0
 40
0.0
 40
1.011249035210742
 40
1.518621725724671
 40
2.027938619478073
 40
2.539760748808594
 40
3.054582367321468
 40
3.57281290831601
 40
4.094772482077948
 40
4.620691089143811
 40
5.15067422794001
 40
5.684749430442449
 40
6.222834640060426
 40
6.764753664045501
 40
7.310240072584596
 40
7.858945043222741
 40
8.410448060700666
 40
8.964266492732456
 40
9.519866638459884
 40
10.0766761747832
 40
10.6340962627791
 40
11.19151635077544
 40
11.74832588709876
 40
12.30392603282573
 40
12.85774446485751
 40
13.4092474823359
 40
13.9579524529734
 40
14.50343886151267
 40
15.04536144233665
 40
15.58344665195462
 40
16.11752185445706
 40
16.6475049932531
 40
17.17341627011425
 40
17.69537584387618
 40
18.21360638487073
 40
18.72842763800682
 40
19.24025007116128
 40
19.74957453394613
 40
20.25694705170416
 40
20.76299220638815
 40
21.26836401372675
 40
21.26836401372675
 40
21.26836401372675
 40
21.26836401372675
 10
-19.54884886402743
 20
-2.85000695027689
 30
0.0
 10
-19.88602292554414
 20
-2.843514429969281
 30
0.0
 10
-20.39236689952222
 20
-2.833764425716579
 30
0.0
 10
-21.06567456248887
 20
-2.773735440703796
 30
0.0
 10
-21.57124080501448
 20
-2.713210255393037
 30
0.0
 10
-22.07676383366157
 20
-2.635506198618088
 30
0.0
 10
-22.58224231670939
 20
-2.541656529366996
 30
0.0
 10
-23.08767365741585
 20
-2.432109929011243
 30
0.0
 10
-23.59305700925939
 20
-2.307580024112389
 30
0.0
 10
-24.09839012310562
 20
-2.16883144672088
 30
0.0
 10
-24.60367400899419
 20
-2.01672476696772
 30
0.0
 10
-25.10890730786511
 20
-1.852197928049355
 30
0.0
 10
-25.61409813656163
 20
-1.676272945207003
 30
0.0
 10
-26.11924895041216
 20
-1.490031323118801
 30
0.0
 10
-26.62436439474959
 20
-1.29462152130418
 30
0.0
 10
-27.12945008273539
 20
-1.091249093987483
 30
0.0
 10
-27.6345104409661
 20
-0.8811646701820299
 30
0.0
 10
-28.13955038495336
 20
-0.6656603796827142
 30
0.0
 10
-28.64457526956028
 20
-0.4460625251208036
 30
0.0
 10
-29.14958970822217
 20
-0.2237214789380761
 30
0.0
 10
-29.65459990164353
 20
-0.0000069503220585
 30
0.0
 10
-30.15961009495392
 20
0.2237075785658189
 30
0.0
 10
-30.6646245339486
 20
0.446048623933366
 30
0.0
 10
-31.16964941733917
 20
0.6656464814743933
 30
0.0
 10
-31.67468936583673
 20
0.8811507609252661
 30
0.0
 10
-32.1797497073437
 20
1.091235225697207
 30
0.0
 10
-32.68483545726329
 20
1.294607501300594
 30
0.0
 10
-33.189951770608
 20
1.490018289116715
 30
0.0
 10
-33.69510454723092
 20
1.67625821910537
 30
0.0
 10
-34.20029627711041
 20
1.852184104030783
 30
0.0
 10
-34.70552956421805
 20
2.016710991904637
 30
0.0
 10
-35.21081137445785
 20
2.168816273927404
 30
0.0
 10
-35.71614112137342
 20
2.30756699764187
 30
0.0
 10
-36.22152241027603
 20
2.432097411259014
 30
0.0
 10
-36.72695345846539
 20
2.541636844501058
 30
0.0
 10
-37.2324323120991
 20
2.635513733854487
 30
0.0
 10
-37.73795856703317
 20
2.713106828239985
 30
0.0
 10
-38.24352220450409
 20
2.774058099579999
 30
0.0
 10
-38.74911712095126
 20
2.817543622223647
 30
0.0
 10
-39.25473039011778
 20
2.844907394477504
 30
0.0
 10
-39.59188811985011
 20
2.848298583865574
 30
0.0
 10
-39.76035475391986
 20
2.849993049723305
 30
0.0
  0
SPLINE
  5
2641
330
1F
100
AcDbEntity
  8
AM_0
100
AcDbSpline
210
0.0
220
0.0
230
1.0
 70
     8
 71
     3
 72
    55
 73
    51
 74
     0
 42
0.0000000001
 43
0.0000000001
 40
0.0
 40
0.0
 40
0.0
 40
0.0
 40
1.010743684496582
 40
2.022833576467832
 40
3.037578957496688
 40
4.056212745003489
 40
5.079857003664532
 40
6.109500240690281
 40
7.145961322679372
 40
8.189895241603872
 40
9.241717795325891
 40
10.30168407291828
 40
11.36983447792315
 40
12.44600489715814
 40
13.52984294512926
 40
14.62081576220742
 40
15.7182257034828
 40
16.82123173843959
 40
17.92886860250316
 40
19.0400688939571
 40
20.15368796660465
 40
21.26852814259644
 40
22.38336992938901
 40
23.49698739941135
 40
24.6081876908653
 40
25.71582455492886
 40
26.81883757994213
 40
27.91624752121713
 40
29.00722033829659
 40
30.09105838626677
 40
31.16722880550176
 40
32.23537921050758
 40
33.29534548809967
 40
34.347168041821
 40
35.39108718934584
 40
36.42754827133493
 40
37.45720575381954
 40
38.48085062012849
 40
39.49948440763516
 40
40.51422944315121
 40
41.52631975251916
 40
42.53706336719636
 40
43.54780698187354
 40
44.55989729124051
 40
45.57464232675757
 40
46.59327611426424
 40
47.6169209805722
 40
48.64656348684535
 40
49.68302456883444
 40
50.58557219878025
 40
50.58557219878025
 40
50.58557219878025
 40
50.58557219878025
 10
-20.96422361988693
 20
-2.850006950276877
 30
0.0
 10
-21.13269022398895
 20
-2.848311269322345
 30
0.0
 10
-21.46984781252321
 20
-2.844917648939247
 30
0.0
 10
-21.97546149725161
 20
-2.817561258834425
 30
0.0
 10
-22.4810535992382
 20
-2.774071744854132
 30
0.0
 10
-22.98661441003744
 20
-2.713119536979994
 30
0.0
 10
-23.49213888494826
 20
-2.63553065448987
 30
0.0
 10
-23.99761705110305
 20
-2.541650122779566
 30
0.0
 10
-24.50305059930387
 20
-2.432110354572536
 30
0.0
 10
-25.00843504737662
 20
-2.307582118998523
 30
0.0
 10
-25.51376695273213
 20
-2.168830011869577
 30
0.0
 10
-26.01904883417057
 20
-2.016724965819154
 30
0.0
 10
-26.52428204493761
 20
-1.852197874156724
 30
0.0
 10
-27.02947289751751
 20
-1.676272959820613
 30
0.0
 10
-27.53462370486218
 20
-1.490031319102445
 30
0.0
 10
-28.03973915110264
 20
-1.294621522620185
 30
0.0
 10
-28.54482483803755
 20
-1.091249092766751
 30
0.0
 10
-29.04988519856855
 20
-0.8811646737631784
 30
0.0
 10
-29.55492513436401
 20
-0.6656603665111939
 30
0.0
 10
-30.05995004956585
 20
-0.4460625744187431
 30
0.0
 10
-30.56496437372333
 20
-0.2237212944648256
 30
0.0
 10
-31.06997523842093
 20
-0.0000075317803066
 30
0.0
 10
-31.57498383604229
 20
0.2237102578913606
 30
0.0
 10
-32.0799998528977
 20
0.4460480754034433
 30
0.0
 10
-32.58502414463952
 20
0.6656465322059093
 30
0.0
 10
-33.0900649809156
 20
0.8811516604332496
 30
0.0
 10
-33.59512743667926
 20
1.091234286539499
 30
0.0
 10
-34.10021392077283
 20
1.29460774777412
 30
0.0
 10
-34.60532943993516
 20
1.490017385799183
 30
0.0
 10
-35.110480228899
 20
1.676259065683267
 30
0.0
 10
-35.61567108277246
 20
1.852183980276722
 30
0.0
 10
-36.12090430640818
 20
2.016711032598244
 30
0.0
 10
-36.62618613569603
 20
2.16881623396191
 30
0.0
 10
-37.13151586932063
 20
2.30756711591153
 30
0.0
 10
-37.6368971921743
 20
2.432096982494737
 30
0.0
 10
-38.14233055288551
 20
2.541638953408703
 30
0.0
 10
-38.64781232832383
 20
2.635508762659085
 30
0.0
 10
-39.15333847334467
 20
2.71312166054854
 30
0.0
 10
-39.65889943401474
 20
2.774001617447505
 30
0.0
 10
-40.1644918873021
 20
2.817755227403702
 30
0.0
 10
-40.67010514333035
 20
2.84412001170728
 30
0.0
 10
-41.17572950990328
 20
2.852927613757409
 30
0.0
 10
-41.68135387573224
 20
2.844120011693478
 30
0.0
 10
-42.18696713399668
 20
2.817755227459114
 30
0.0
 10
-42.69255957905099
 20
2.77400161723874
 30
0.0
 10
-43.19812057058877
 20
2.71312166133311
 30
0.0
 10
-43.70364413502993
 20
2.635509138084381
 30
0.0
 10
-44.20912391906243
 20
2.541639913176802
 30
0.0
 10
-44.69157632173957
 20
2.437069494459818
 30
0.0
 10
-45.00459693492063
 20
2.360596158677488
 30
0.0
 10
-45.14982025527579
 20
2.323326971556778
 30
0.0
  0
SPLINE
  5
2642
330
1F
100
AcDbEntity
  8
AM_0
100
AcDbSpline
210
0.0
220
0.0
230
1.0
 70
     8
 71
     3
 72
    23
 73
    19
 74
     0
 42
0.0000000001
 43
0.0000000001
 40
16.03460024169435
 40
16.03460024169435
 40
16.03460024169435
 40
16.03460024169435
 40
16.35212704903564
 40
17.38177054169784
 40
18.41822485651776
 40
19.46214173629503
 40
20.51396345435107
 40
21.57393551351153
 40
22.64208202342361
 40
23.7182574881101
 40
24.80209208578934
 40
25.89306333925047
 40
26.99048218457928
 40
28.09348763352352
 40
29.20111863782268
 40
30.31232390128032
 40
31.42594612798585
 40
32.5407912310448
 40
32.5407912310486
 40
32.5407912310486
 40
32.5407912310486
 10
-47.25393203477175
 20
2.850397943945512
 30
0.0
 10
-47.20198644241368
 20
2.840776845829415
 30
0.0
 10
-46.98181819628512
 20
2.79887967145117
 30
0.0
 10
-46.59398945968013
 20
2.716788552571906
 30
0.0
 10
-46.09175023050019
 20
2.594719956538173
 30
0.0
 10
-45.58997750474002
 20
2.457657269967305
 30
0.0
 10
-45.08864163224912
 20
2.306393741779917
 30
0.0
 10
-44.58772481972893
 20
2.141772669531994
 30
0.0
 10
-44.08719811538822
 20
1.964735096695378
 30
0.0
 10
-43.5870266644497
 20
1.776311337536622
 30
0.0
 10
-43.08718204537512
 20
1.57756842481804
 30
0.0
 10
-42.58762418380887
 20
1.369662797240602
 30
0.0
 10
-42.08831259617262
 20
1.153802892137073
 30
0.0
 10
-41.58921401475946
 20
0.9312298134675268
 30
0.0
 10
-41.0902866805972
 20
0.7032377932042831
 30
0.0
 10
-40.59148438244817
 20
0.4711581374777165
 30
0.0
 10
-40.09276650372478
 20
0.2363356850478083
 30
0.0
 10
-39.76037722154137
 20
0.0789000706525458
 30
0.0
 10
-39.594091935842
 20
0.0001380082187367
 30
0.0
  0
SPLINE
  5
2643
330
1F
100
AcDbEntity
  8
AM_0
 48
0.5
100
AcDbSpline
210
0.0
220
0.0
230
1.0
 70
     8
 71
     3
 72
    17
 73
    13
 74
     0
 42
0.0000000001
 43
0.0000000001
 40
0.0
 40
0.0
 40
0.0
 40
0.0
 40
1.010743614677189
 40
2.022833924044153
 40
3.037578959561199
 40
4.056212747067873
 40
5.079857613375832
 40
6.109500119648989
 40
7.14596120163808
 40
8.18989512056258
 40
9.241717674284874
 40
9.693948937866434
 40
9.693948937866434
 40
9.693948937866434
 40
9.693948937866434
 10
-2.964476152151616
 20
2.849993049723005
 30
0.0
 10
-3.13294278691255
 20
2.848298590758627
 30
0.0
 10
-3.470100518028002
 20
2.844907415166472
 30
0.0
 10
-3.975713776800104
 20
2.817543539247156
 30
0.0
 10
-4.48130621976783
 20
2.774058628294769
 30
0.0
 10
-4.986867219188342
 20
2.71310630079871
 30
0.0
 10
-5.492390753976609
 20
2.635513210227318
 30
0.0
 10
-5.997870649662376
 20
2.54163910591791
 30
0.0
 10
-6.503300121855905
 20
2.432088286525187
 30
0.0
 10
-7.008698783249562
 20
2.307598276379028
 30
0.0
 10
-7.416669761642233
 20
2.195451595339429
 30
0.0
 10
-7.656254239933368
 20
2.125343792291285
 30
0.0
 10
-7.728164646450202
 20
2.10388426310048
 30
0.0
  0
SPLINE
  5
2644
330
1F
100
AcDbEntity
  8
AM_0
 48
0.5
100
AcDbSpline
210
0.0
220
0.0
230
1.0
 70
     8
 71
     3
 72
    16
 73
    12
 74
     0
 42
0.0000000001
 43
0.0000000001
 40
0.0
 40
0.0
 40
0.0
 40
0.0
 40
1.010743614677189
 40
2.022833924044153
 40
3.037578959561199
 40
4.056212747067873
 40
5.079857613375832
 40
6.109500119648989
 40
7.14596120163808
 40
8.18989512056258
 40
8.545190612624931
 40
8.545190612624931
 40
8.545190612624931
 40
8.545190612624931
 10
-2.964476152151616
 20
2.849993049723005
 30
0.0
 10
-3.132933421264466
 20
2.849975923647603
 30
0.0
 10
-3.4701048714614
 20
2.844127973031953
 30
0.0
 10
-3.975712602258169
 20
2.817753077482695
 30
0.0
 10
-4.481306551649495
 20
2.774002232336807
 30
0.0
 10
-4.986867071334145
 20
2.713121360114998
 30
0.0
 10
-5.49239101326316
 20
2.635509728252908
 30
0.0
 10
-5.997869753429357
 20
2.541637837297806
 30
0.0
 10
-6.50330347913442
 20
2.432096964514037
 30
0.0
 10
-6.896301626978364
 20
2.33525739657441
 30
0.0
 10
-7.12093133306731
 20
2.27569866455355
 30
0.0
 10
-7.177896171998489
 20
2.260329101478137
 30
0.0
  0
SPLINE
  5
2645
330
1F
100
AcDbEntity
  8
AM_0
 48
0.5
100
AcDbSpline
210
0.0
220
0.0
230
1.0
 70
     8
 71
     3
 72
    25
 73
    21
 74
     0
 42
0.0000000001
 43
0.0000000001
 40
6.846175049578289
 40
6.846175049578289
 40
6.846175049578289
 40
6.846175049578289
 40
7.604337694224321
 40
8.711974558287883
 40
9.814980593243754
 40
10.91239053451967
 40
12.0033633515982
 40
13.08720139956839
 40
14.16337181880432
 40
15.23152222380919
 40
16.29148850140128
 40
17.34331105512262
 40
18.38723020264746
 40
19.42369128463655
 40
20.45333379090873
 40
21.47697865721768
 40
22.49561244472435
 40
23.5103574802404
 40
24.52244778960836
 40
25.53320666051913
 40
25.53320666051913
 40
25.53320666051913
 40
25.53320666051913
 10
-3.554148968628831
 20
0.5158617082479021
 30
0.0
 10
-3.669007090080674
 20
0.5659026395415637
 30
0.0
 10
-3.951908779232432
 20
0.688550066295446
 30
0.0
 10
-4.403274458078843
 20
0.8811506772564607
 30
0.0
 10
-4.908334760683461
 20
1.091235217795309
 30
0.0
 10
-5.413420463098717
 20
1.294607615059583
 30
0.0
 10
-5.918535904952109
 20
1.490017421181486
 30
0.0
 10
-6.423686714476186
 20
1.676259055711704
 30
0.0
 10
-6.928877562729237
 20
1.852183985093157
 30
0.0
 10
-7.434110788478811
 20
2.016711023298563
 30
0.0
 10
-7.939392614902138
 20
2.168816266025255
 30
0.0
 10
-8.444722357787314
 20
2.307566998210016
 30
0.0
 10
-8.950103646811854
 20
2.432097416736764
 30
0.0
 10
-9.455534698461933
 20
2.541636822261006
 30
0.0
 10
-9.961013538268431
 20
2.635513816598653
 30
0.0
 10
-10.46653735347918
 20
2.713106139487587
 30
0.0
 10
-10.9720982783466
 20
2.77405867160984
 30
0.0
 10
-11.47769074107621
 20
2.817543526352959
 30
0.0
 10
-11.98330653437882
 20
2.844907561032269
 30
0.0
 10
-12.32046681172168
 20
2.848298630826387
 30
0.0
 10
-12.48893599101861
 20
2.849993049723099
 30
0.0
  0
SPLINE
  5
2646
330
1F
100
AcDbEntity
  8
AM_0
100
AcDbSpline
210
0.0
220
0.0
230
1.0
 70
     8
 71
     3
 72
    46
 73
    42
 74
     0
 42
0.0000000001
 43
0.0000000001
 40
0.0
 40
0.0
 40
0.0
 40
0.0
 40
1.011249035210742
 40
1.518621725724671
 40
2.027938619478072
 40
2.539760748808593
 40
3.054582367321464
 40
3.57281290831601
 40
4.094772482077948
 40
4.620691089143816
 40
5.150674227940008
 40
5.684749430442447
 40
6.222834640060424
 40
6.764753664045506
 40
7.310240072584592
 40
7.858945043222745
 40
8.410448060700666
 40
8.964266492732461
 40
9.519866638459884
 40
10.0766761747832
 40
10.6340962627791
 40
11.19151635077544
 40
11.74832588709876
 40
12.30392603282573
 40
12.85774446485751
 40
13.40924748233591
 40
13.95795245297341
 40
14.50343886151267
 40
15.04536144233665
 40
15.58344665195462
 40
16.11752185445706
 40
16.6475049932531
 40
17.17341627011425
 40
17.69537584387618
 40
18.21360638487073
 40
18.72842763800681
 40
19.24025007116129
 40
19.74957453394614
 40
20.25694705170417
 40
20.76299220638814
 40
21.26836401372675
 40
21.26836401372675
 40
21.26836401372675
 40
21.26836401372675
 10
-1.549101396292171
 20
-2.850006950277006
 30
0.0
 10
-1.886275457808883
 20
-2.843514429969398
 30
0.0
 10
-2.392619431786963
 20
-2.833764425716696
 30
0.0
 10
-3.065927094753613
 20
-2.773735440703912
 30
0.0
 10
-3.571493337279218
 20
-2.713210255393153
 30
0.0
 10
-4.077016365926315
 20
-2.635506198618205
 30
0.0
 10
-4.582494848974144
 20
-2.54165652936711
 30
0.0
 10
-5.087926189680612
 20
-2.432109929011361
 30
0.0
 10
-5.593309541524161
 20
-2.307580024112504
 30
0.0
 10
-6.098642655370375
 20
-2.168831446720998
 30
0.0
 10
-6.603926541258946
 20
-2.016724766967834
 30
0.0
 10
-7.10915984012986
 20
-1.852197928049472
 30
0.0
 10
-7.614350668826377
 20
-1.676272945207117
 30
0.0
 10
-8.119501482676916
 20
-1.490031323118921
 30
0.0
 10
-8.624616927014322
 20
-1.294621521304291
 30
0.0
 10
-9.12970261500012
 20
-1.091249093987603
 30
0.0
 10
-9.634762973230856
 20
-0.8811646701821427
 30
0.0
 10
-10.13980291721812
 20
-0.6656603796828341
 30
0.0
 10
-10.64482780182503
 20
-0.4460625251209177
 30
0.0
 10
-11.14984224048692
 20
-0.2237214789381924
 30
0.0
 10
-11.65485243390827
 20
-0.0000069503221745
 30
0.0
 10
-12.15986262721867
 20
0.2237075785657026
 30
0.0
 10
-12.66487706621334
 20
0.4460486239332501
 30
0.0
 10
-13.16990194960391
 20
0.6656464814742764
 30
0.0
 10
-13.67494189810147
 20
0.8811507609251506
 30
0.0
 10
-14.18000223960844
 20
1.09123522569709
 30
0.0
 10
-14.68508798952803
 20
1.294607501300478
 30
0.0
 10
-15.19020430287274
 20
1.4900182891166
 30
0.0
 10
-15.69535707949565
 20
1.676258219105252
 30
0.0
 10
-16.20054880937517
 20
1.852184104030668
 30
0.0
 10
-16.70578209648283
 20
2.016710991904522
 30
0.0
 10
-17.2110639067226
 20
2.168816273927288
 30
0.0
 10
-17.71639365363818
 20
2.307566997641754
 30
0.0
 10
-18.2217749425408
 20
2.432097411258899
 30
0.0
 10
-18.72720599073014
 20
2.541636844500942
 30
0.0
 10
-19.23268484436386
 20
2.635513733854372
 30
0.0
 10
-19.73821109929793
 20
2.713106828239867
 30
0.0
 10
-20.24377473676885
 20
2.774058099579884
 30
0.0
 10
-20.749369653216
 20
2.81754362222353
 30
0.0
 10
-21.25498292238253
 20
2.84490739447739
 30
0.0
 10
-21.59214065211485
 20
2.848298583865458
 30
0.0
 10
-21.76060728618462
 20
2.849993049723189
 30
0.0
  0
SPLINE
  5
2647
330
1F
100
AcDbEntity
  8
AM_0
100
AcDbSpline
210
0.0
220
0.0
230
1.0
 70
     8
 71
     3
 72
    55
 73
    51
 74
     0
 42
0.0000000001
 43
0.0000000001
 40
0.0
 40
0.0
 40
0.0
 40
0.0
 40
1.010743684496582
 40
2.022833576467832
 40
3.037578957496688
 40
4.056212745003489
 40
5.079857003664532
 40
6.109500240690281
 40
7.145961322679372
 40
8.189895241603872
 40
9.241717795325891
 40
10.30168407291828
 40
11.36983447792315
 40
12.44600489715814
 40
13.52984294512926
 40
14.62081576220742
 40
15.7182257034828
 40
16.82123173843959
 40
17.92886860250316
 40
19.0400688939571
 40
20.15368796660465
 40
21.26852814259644
 40
22.38336992938901
 40
23.49698739941135
 40
24.6081876908653
 40
25.71582455492886
 40
26.81883757994213
 40
27.91624752121713
 40
29.00722033829659
 40
30.09105838626677
 40
31.16722880550176
 40
32.23537921050758
 40
33.29534548809967
 40
34.347168041821
 40
35.39108718934584
 40
36.42754827133493
 40
37.45720575381954
 40
38.48085062012849
 40
39.49948440763516
 40
40.51422944315121
 40
41.52631975251916
 40
42.53706336719636
 40
43.54780698187354
 40
44.55989729124051
 40
45.57464232675757
 40
46.59327611426424
 40
47.6169209805722
 40
48.64656348684535
 40
49.68302456883444
 40
50.58557219878025
 40
50.58557219878025
 40
50.58557219878025
 40
50.58557219878025
 10
-2.964476152151673
 20
-2.850006950276993
 30
0.0
 10
-3.132942756253697
 20
-2.848311269322461
 30
0.0
 10
-3.470100344787949
 20
-2.844917648939365
 30
0.0
 10
-3.975714029516351
 20
-2.817561258834541
 30
0.0
 10
-4.481306131502943
 20
-2.774071744854248
 30
0.0
 10
-4.986866942302182
 20
-2.713119536980111
 30
0.0
 10
-5.49239141721301
 20
-2.635530654489989
 30
0.0
 10
-5.997869583367812
 20
-2.541650122779682
 30
0.0
 10
-6.503303131568638
 20
-2.432110354572651
 30
0.0
 10
-7.008687579641381
 20
-2.30758211899864
 30
0.0
 10
-7.514019484996887
 20
-2.168830011869692
 30
0.0
 10
-8.019301366435328
 20
-2.01672496581927
 30
0.0
 10
-8.524534577202363
 20
-1.85219787415684
 30
0.0
 10
-9.02972542978226
 20
-1.67627295982073
 30
0.0
 10
-9.534876237126926
 20
-1.490031319102562
 30
0.0
 10
-10.03999168336738
 20
-1.294621522620301
 30
0.0
 10
-10.54507737030228
 20
-1.091249092766867
 30
0.0
 10
-11.0501377308333
 20
-0.8811646737632942
 30
0.0
 10
-11.55517766662877
 20
-0.66566036651131
 30
0.0
 10
-12.06020258183061
 20
-0.4460625744188595
 30
0.0
 10
-12.56521690598807
 20
-0.2237212944649416
 30
0.0
 10
-13.07022777068567
 20
-0.0000075317804227
 30
0.0
 10
-13.57523636830704
 20
0.2237102578912445
 30
0.0
 10
-14.08025238516244
 20
0.4460480754033271
 30
0.0
 10
-14.58527667690426
 20
0.6656465322057932
 30
0.0
 10
-15.09031751318034
 20
0.8811516604331336
 30
0.0
 10
-15.595379968944
 20
1.091234286539383
 30
0.0
 10
-16.10046645303756
 20
1.294607747774004
 30
0.0
 10
-16.60558197219989
 20
1.490017385799068
 30
0.0
 10
-17.11073276116374
 20
1.676259065683152
 30
0.0
 10
-17.61592361503723
 20
1.852183980276606
 30
0.0
 10
-18.12115683867295
 20
2.016711032598128
 30
0.0
 10
-18.62643866796079
 20
2.168816233961795
 30
0.0
 10
-19.1317684015854
 20
2.307567115911415
 30
0.0
 10
-19.63714972443906
 20
2.43209698249462
 30
0.0
 10
-20.14258308515027
 20
2.541638953408587
 30
0.0
 10
-20.64806486058859
 20
2.635508762658969
 30
0.0
 10
-21.15359100560942
 20
2.713121660548425
 30
0.0
 10
-21.65915196627949
 20
2.77400161744739
 30
0.0
 10
-22.16474441956685
 20
2.817755227403586
 30
0.0
 10
-22.6703576755951
 20
2.844120011707164
 30
0.0
 10
-23.17598204216802
 20
2.852927613757293
 30
0.0
 10
-23.68160640799698
 20
2.844120011693361
 30
0.0
 10
-24.18721966626143
 20
2.817755227458997
 30
0.0
 10
-24.69281211131574
 20
2.774001617238623
 30
0.0
 10
-25.19837310285351
 20
2.713121661332994
 30
0.0
 10
-25.70389666729468
 20
2.635509138084265
 30
0.0
 10
-26.2093764513272
 20
2.541639913176687
 30
0.0
 10
-26.69182885400434
 20
2.437069494459702
 30
0.0
 10
-27.0048494671854
 20
2.360596158677372
 30
0.0
 10
-27.15007278754056
 20
2.323326971556662
 30
0.0
  0
LINE
  5
2648
330
1F
100
AcDbEntity
  8
AM_0
100
AcDbLine
 10
-47.25393203477175
 20
2.850397943945512
 30
0.0
 11
-49.08639005607543
 21
2.850397943945523
 31
0.0
  0
VIEWPORT
  5
110
330
101
100
AcDbEntity
 67
     1
  8
0
100
AcDbViewport
 10
420.5
 20
297.0
 30
0.0
 40
948.9782706766916
 41
628.452
 68
     1
 69
     1
1001
ACAD
1000
MVIEW
1002
{
1070
    16
1010
0.0
1020
0.0
1030
0.0
1010
0.0
1020
0.0
1030
1.0
1040
0.0
1040
628.452
1040
420.5
1040
297.0
1040
50.0
1040
0.0
1040
0.0
1070
     0
1070
   100
1070
     1
1070
     1
1070
     0
1070
     0
1070
     0
1070
     0
1040
0.0
1040
0.0
1040
0.0
1040
10.0
1040
10.0
1040
10.0
1040
10.0
1070
     0
1002
{
1002
}
1002
}
  0
ENDSEC
  0
SECTION
  2
OBJECTS
  0
DICTIONARY
  5
C
330
0
100
AcDbDictionary
  3
ACAD_GROUP
350
D
  3
ACAD_LAYOUT
350
1A
  3
ACAD_MLINESTYLE
350
17
  3
ACAD_PLOTSETTINGS
350
19
  3
ACAD_PLOTSTYLENAME
350
E
  3
ACDBVARIABLEDICTIONARY
350
34
  3
ACMDICTIONARY
350
43
  3
AMG
350
2B
  3
AMGSNAPSETTINGS
350
6E
  3
DWGPROPS
350
269C
  3
ACDBHEADERROUNDTRIPXREC
350
26A8
  0
DICTIONARY
  5
74
330
1F
100
AcDbDictionary
280
     1
  3
ACAD_INDEX
360
269E
  3
ACAD_LAYOUTSELFREF
360
26CB
  0
DICTIONARY
  5
26D0
330
101
100
AcDbDictionary
280
     1
  3
ACAD_LAYOUTSELFREF
360
26D1
  0
DICTIONARY
  5
D
102
{ACAD_REACTORS
330
C
102
}
330
C
100
AcDbDictionary
  0
DICTIONARY
  5
1A
102
{ACAD_REACTORS
330
C
102
}
330
C
100
AcDbDictionary
  0
DICTIONARY
  5
17
102
{ACAD_REACTORS
330
C
102
}
330
C
100
AcDbDictionary
  3
STANDARD
350
18
  0
DICTIONARY
  5
19
102
{ACAD_REACTORS
330
C
102
}
330
C
100
AcDbDictionary
  0
ACDBDICTIONARYWDFLT
  5
E
102
{ACAD_REACTORS
330
C
102
}
330
C
100
AcDbDictionary
281
     1
  3
Normal
350
F
100
AcDbDictionaryWithDefault
340
F
  0
DICTIONARY
  5
34
102
{ACAD_REACTORS
330
C
102
}
330
C
100
AcDbDictionary
  3
INDEXCTL
350
35
  3
SORTENTS
350
B5E
  0
DICTIONARY
  5
43
102
{ACAD_REACTORS
330
C
102
}
330
C
100
AcDbDictionary
  3
ACMSTDDICTIONARY
350
260
  0
DICTIONARY
  5
2B
102
{ACAD_REACTORS
330
C
102
}
330
C
100
AcDbDictionary
  3
ACMGSETTINGS
350
2C
  0
DICTIONARY
  5
6E
102
{ACAD_REACTORS
330
C
102
}
330
C
100
AcDbDictionary
  0
XRECORD
  5
269C
102
{ACAD_REACTORS
330
C
102
}
330
C
100
AcDbXrecord
  1
DWGPROPS COOKIE
  2

  3

  4

  6

  7

  8

  9

300
AmdtFileType=82
301
=
302
=
303
=
304
=
305
=
306
=
307
=
308
=
309
=
 40
0.0674104861111111
 41
2452800.443498622
 42
2452948.694669224
  1

 90
        1
  0
DICTIONARY
  5
26A8
102
{ACAD_REACTORS
330
C
102
}
330
C
100
AcDbDictionary
  3
TSTACKALIGN
350
26A9
  3
TSTACKSIZE
350
26AA
  3
HYPERLINKBASE
350
26AB
  3
STYLESHEET
350
26AC
  3
LAYOUTDICT
350
26AD
  3
PLOTSETDICT
350
26AE
  3
PLOTSTYLNAMDICT
350
26AF
  3
LWETCUNION
350
26B0
  3
INSUNITS
350
26B1
  3
CEPSNTYPE
350
26B2
  3
FINGERPRINTGUID
350
26B3
  3
VERSIONGUID
350
26B4
  3
PSVPSCALE
350
26B5
  3
DIMSTYLEDATA
350
26B6
  3
PUCSORTHOREF
350
26B7
  3
PUCSORTHOVIEW
350
26B8
  3
PUCSBASE
350
26B9
  3
PUCSORGTOP
350
26BA
  3
PUCSORGBOTTOM
350
26BB
  3
PUCSORGLEFT
350
26BC
  3
PUCSORGRIGHT
350
26BD
  3
PUCSORGFRONT
350
26BE
  3
PUCSORGBACK
350
26BF
  3
UCSORTHOREF
350
26C0
  3
UCSORTHOVIEW
350
26C1
  3
UCSBASE
350
26C2
  3
UCSORGTOP
350
26C3
  3
UCSORGBOTTOM
350
26C4
  3
UCSORGLEFT
350
26C5
  3
UCSORGRIGHT
350
26C6
  3
UCSORGFRONT
350
26C7
  3
UCSORGBACK
350
26C8
  0
DICTIONARY
  5
269E
102
{ACAD_REACTORS
330
74
102
}
330
74
100
AcDbDictionary
  3
*A1
350
269F
  0
XRECORD
  5
26CB
102
{ACAD_REACTORS
330
74
102
}
330
74
100
AcDbXrecord
340
1F
  0
XRECORD
  5
26D1
102
{ACAD_REACTORS
330
26D0
102
}
330
26D0
100
AcDbXrecord
340
101
  0
MLINESTYLE
  5
18
102
{ACAD_REACTORS
330
17
102
}
330
17
100
AcDbMlineStyle
  2
STANDARD
 70
     0
  3

 62
   256
 51
90.0
 52
90.0
 71
     2
 49
0.5
 62
   256
  6
BYLAYER
 49
-0.5
 62
   256
  6
BYLAYER
  0
ACDBPLACEHOLDER
  5
F
102
{ACAD_REACTORS
330
E
102
}
330
E
100
AcDbPlaceHolder
280
     0
  0
DICTIONARYVAR
  5
35
102
{ACAD_REACTORS
330
34
102
}
330
34
100
DictionaryVariables
280
     0
  1
1
  0
DICTIONARYVAR
  5
B5E
102
{ACAD_REACTORS
330
34
102
}
330
34
100
DictionaryVariables
280
     0
  1
96
  0
DICTIONARY
  5
260
102
{ACAD_REACTORS
330
43
102
}
330
43
100
AcDbDictionary
  0
DICTIONARY
  5
2C
102
{ACAD_REACTORS
330
2B
102
}
330
2B
100
AcDbDictionary
  3
DWGSETTINGS
350
2D
  0
XRECORD
  5
26A9
102
{ACAD_REACTORS
330
26A8
102
}
330
26A8
100
AcDbXrecord
 90
        1
  0
XRECORD
  5
26AA
102
{ACAD_REACTORS
330
26A8
102
}
330
26A8
100
AcDbXrecord
 90
       70
  0
XRECORD
  5
26AB
102
{ACAD_REACTORS
330
26A8
102
}
330
26A8
100
AcDbXrecord
  1

  0
XRECORD
  5
26AC
102
{ACAD_REACTORS
330
26A8
102
}
330
26A8
100
AcDbXrecord
  1
ASAMI.ctb
  0
XRECORD
  5
26AD
102
{ACAD_REACTORS
330
26A8
102
}
330
26A8
100
AcDbXrecord
340
1A
  0
XRECORD
  5
26AE
102
{ACAD_REACTORS
330
26A8
102
}
330
26A8
100
AcDbXrecord
340
19
  0
XRECORD
  5
26AF
102
{ACAD_REACTORS
330
26A8
102
}
330
26A8
100
AcDbXrecord
340
E
  0
XRECORD
  5
26B0
102
{ACAD_REACTORS
330
26A8
102
}
330
26A8
100
AcDbXrecord
 90
    10781
  0
XRECORD
  5
26B1
102
{ACAD_REACTORS
330
26A8
102
}
330
26A8
100
AcDbXrecord
 90
        4
  0
XRECORD
  5
26B2
102
{ACAD_REACTORS
330
26A8
102
}
330
26A8
100
AcDbXrecord
 90
        0
  0
XRECORD
  5
26B3
102
{ACAD_REACTORS
330
26A8
102
}
330
26A8
100
AcDbXrecord
  1
{AFB28963-8C59-40AE-9337-C84526B81ACE}
  0
XRECORD
  5
26B4
102
{ACAD_REACTORS
330
26A8
102
}
330
26A8
100
AcDbXrecord
  1
{3955437A-55A6-469B-9176-3F2E74F05680}
  0
XRECORD
  5
26B5
102
{ACAD_REACTORS
330
26A8
102
}
330
26A8
100
AcDbXrecord
 40
0.0
  0
XRECORD
  5
26B6
102
{ACAD_REACTORS
330
26A8
102
}
330
26A8
100
AcDbXrecord
1000
DSTYLE
1002
{
1070
    79
 70
     2
1070
   341
340
59
1070
   342
340
59
1070
   371
 70
    -1
1070
   372
 70
    -1
1002
}
  0
XRECORD
  5
26B7
102
{ACAD_REACTORS
330
26A8
102
}
330
26A8
100
AcDbXrecord
340
0
  0
XRECORD
  5
26B8
102
{ACAD_REACTORS
330
26A8
102
}
330
26A8
100
AcDbXrecord
 70
     0
  0
XRECORD
  5
26B9
102
{ACAD_REACTORS
330
26A8
102
}
330
26A8
100
AcDbXrecord
340
0
  0
XRECORD
  5
26BA
102
{ACAD_REACTORS
330
26A8
102
}
330
26A8
100
AcDbXrecord
 10
0.0
 20
0.0
 30
0.0
  0
XRECORD
  5
26BB
102
{ACAD_REACTORS
330
26A8
102
}
330
26A8
100
AcDbXrecord
 10
0.0
 20
0.0
 30
0.0
  0
XRECORD
  5
26BC
102
{ACAD_REACTORS
330
26A8
102
}
330
26A8
100
AcDbXrecord
 10
0.0
 20
0.0
 30
0.0
  0
XRECORD
  5
26BD
102
{ACAD_REACTORS
330
26A8
102
}
330
26A8
100
AcDbXrecord
 10
0.0
 20
0.0
 30
0.0
  0
XRECORD
  5
26BE
102
{ACAD_REACTORS
330
26A8
102
}
330
26A8
100
AcDbXrecord
 10
0.0
 20
0.0
 30
0.0
  0
XRECORD
  5
26BF
102
{ACAD_REACTORS
330
26A8
102
}
330
26A8
100
AcDbXrecord
 10
0.0
 20
0.0
 30
0.0
  0
XRECORD
  5
26C0
102
{ACAD_REACTORS
330
26A8
102
}
330
26A8
100
AcDbXrecord
340
0
  0
XRECORD
  5
26C1
102
{ACAD_REACTORS
330
26A8
102
}
330
26A8
100
AcDbXrecord
 70
     0
  0
XRECORD
  5
26C2
102
{ACAD_REACTORS
330
26A8
102
}
330
26A8
100
AcDbXrecord
340
0
  0
XRECORD
  5
26C3
102
{ACAD_REACTORS
330
26A8
102
}
330
26A8
100
AcDbXrecord
 10
0.0
 20
0.0
 30
0.0
  0
XRECORD
  5
26C4
102
{ACAD_REACTORS
330
26A8
102
}
330
26A8
100
AcDbXrecord
 10
0.0
 20
0.0
 30
0.0
  0
XRECORD
  5
26C5
102
{ACAD_REACTORS
330
26A8
102
}
330
26A8
100
AcDbXrecord
 10
0.0
 20
0.0
 30
0.0
  0
XRECORD
  5
26C6
102
{ACAD_REACTORS
330
26A8
102
}
330
26A8
100
AcDbXrecord
 10
0.0
 20
0.0
 30
0.0
  0
XRECORD
  5
26C7
102
{ACAD_REACTORS
330
26A8
102
}
330
26A8
100
AcDbXrecord
 10
0.0
 20
0.0
 30
0.0
  0
XRECORD
  5
26C8
102
{ACAD_REACTORS
330
26A8
102
}
330
26A8
100
AcDbXrecord
 10
0.0
 20
0.0
 30
0.0
  0
LAYER_INDEX
  5
269F
102
{ACAD_REACTORS
330
269E
102
}
330
269E
100
AcDbIndex
 40
2453151.693760115
100
AcDbLayerIndex
  8
0
360
26A0
 90
        0
  8
AM_0
360
26A1
 90
       55
  8
AM_7
360
26A2
 90
        1
  8
AM_11
360
26A3
 90
       23
  8
AM_5
360
26A4
 90
        5
  8
Defpoints
360
26A5
 90
        0
  8
AM_6
360
26A6
 90
        1
  0
XRECORD
  5
2D
102
{ACAD_REACTORS
330
2C
102
}
330
2C
100
AcDbXrecord
  1
VERSION
140
15.0
  1
PRODUCT
  2
AutoCAD Mechanical 2000
  0
IDBUFFER
  5
26A0
330
0
100
AcDbIdBuffer
  0
IDBUFFER
  5
26A1
330
0
100
AcDbIdBuffer
330
2642
330
2643
330
2644
330
2645
330
2646
330
2647
330
2648
330
C30
330
1CF0
330
1CF4
330
1CFE
330
1E4D
330
1E4F
330
1E50
330
1FC4
330
1FC7
330
216E
330
2196
330
21A5
330
21A6
330
21A7
330
249D
330
249E
330
24A6
330
24A7
330
261D
330
261E
330
261F
330
2621
330
2622
330
2623
330
2624
330
2625
330
2626
330
2627
330
2628
330
2629
330
262A
330
262B
330
262C
330
262D
330
2630
330
2631
330
2632
330
2633
330
2634
330
2635
330
2636
330
2638
330
2639
330
263A
330
263C
330
263F
330
2640
330
2641
  0
IDBUFFER
  5
26A2
330
0
100
AcDbIdBuffer
330
C9F
  0
IDBUFFER
  5
26A3
330
0
100
AcDbIdBuffer
330
2620
330
262E
330
262F
330
2637
330
263B
330
263D
330
263E
330
144A
330
144B
330
144E
330
144F
330
1450
330
1451
330
1452
330
1453
330
1DAB
330
1DAC
330
1DAD
330
1DAE
330
1DAF
330
1DB0
330
1DB1
330
1DB2
  0
IDBUFFER
  5
26A4
330
0
100
AcDbIdBuffer
330
CC6
330
DF5
330
215F
330
2358
330
24C0
  0
IDBUFFER
  5
26A5
330
0
100
AcDbIdBuffer
  0
IDBUFFER
  5
26A6
330
0
100
AcDbIdBuffer
330
19BD
  0
ENDSEC
  0
EOF
