  0
SECTION
  2
HEADER
  9
$ACADVER
  1
AC1014
  9
$ACADMAINTVER
 70
     9
  9
$DWGCODEPAGE
  3
ANSI_932
  9
$INSBASE
 10
0.0
 20
0.0
 30
0.0
  9
$EXTMIN
 10
-129.4000010003525
 20
-26.25484466859882
 30
-0.00000001
  9
$EXTMAX
 10
12.14051722052948
 20
11.93751305043108
 30
0.00000001
  9
$LIMMIN
 10
-134.5188211354939
 20
-43.44390055541984
  9
$LIMMAX
 10
20.75697681319303
 20
32.35264306048782
  9
$ORTHOMODE
 70
     0
  9
$REGENMODE
 70
     1
  9
$FILLMODE
 70
     1
  9
$QTEXTMODE
 70
     0
  9
$MIRRTEXT
 70
     0
  9
$DRAGMODE
 70
     2
  9
$LTSCALE
 40
1.0
  9
$OSMODE
 70
    55
  9
$ATTMODE
 70
     1
  9
$TEXTSIZE
 40
2.5
  9
$TRACEWID
 40
1.0
  9
$TEXTSTYLE
  7
STANDARD
  9
$CLAYER
  8
AM_0
  9
$CELTYPE
  6
BYLAYER
  9
$CECOLOR
 62
   256
  9
$CELTSCALE
 40
1.0
  9
$DELOBJ
 70
     1
  9
$DISPSILH
 70
     0
  9
$DIMSCALE
 40
0.5
  9
$DIMASZ
 40
2.5
  9
$DIMEXO
 40
1.0
  9
$DIMDLI
 40
12.0
  9
$DIMRND
 40
0.0
  9
$DIMDLE
 40
0.0
  9
$DIMEXE
 40
1.0
  9
$DIMTP
 40
0.1
  9
$DIMTM
 40
0.1
  9
$DIMTXT
 40
3.2
  9
$DIMCEN
 40
0.0
  9
$DIMTSZ
 40
0.0
  9
$DIMTOL
 70
     0
  9
$DIMLIM
 70
     0
  9
$DIMTIH
 70
     0
  9
$DIMTOH
 70
     0
  9
$DIMSE1
 70
     0
  9
$DIMSE2
 70
     0
  9
$DIMTAD
 70
     3
  9
$DIMZIN
 70
     8
  9
$DIMBLK
  1
OPEN30
  9
$DIMASO
 70
     1
  9
$DIMSHO
 70
     1
  9
$DIMPOST
  1

  9
$DIMAPOST
  1
"
  9
$DIMALT
 70
     0
  9
$DIMALTD
 70
     2
  9
$DIMALTF
 40
0.0393701
  9
$DIMLFAC
 40
1.0
  9
$DIMTOFL
 70
     1
  9
$DIMTVP
 40
0.0
  9
$DIMTIX
 70
     0
  9
$DIMSOXD
 70
     0
  9
$DIMSAH
 70
     0
  9
$DIMBLK1
  1

  9
$DIMBLK2
  1

  9
$DIMSTYLE
  2
AM_JIS
  9
$DIMCLRD
 70
   256
  9
$DIMCLRE
 70
   256
  9
$DIMCLRT
 70
     2
  9
$DIMTFAC
 40
0.71
  9
$DIMGAP
 40
1.5
  9
$DIMJUST
 70
     0
  9
$DIMSD1
 70
     0
  9
$DIMSD2
 70
     0
  9
$DIMTOLJ
 70
     0
  9
$DIMTZIN
 70
     0
  9
$DIMALTZ
 70
     0
  9
$DIMALTTZ
 70
     0
  9
$DIMFIT
 70
     3
  9
$DIMUPT
 70
     0
  9
$DIMUNIT
 70
     2
  9
$DIMDEC
 70
     3
  9
$DIMTDEC
 70
     3
  9
$DIMALTU
 70
     2
  9
$DIMALTTD
 70
     2
  9
$DIMTXSTY
  7
ASAMI
  9
$DIMAUNIT
 70
     0
  9
$LUNITS
 70
     2
  9
$LUPREC
 70
     2
  9
$SKETCHINC
 40
1.0
  9
$FILLETRAD
 40
2.5
  9
$AUNITS
 70
     0
  9
$AUPREC
 70
     0
  9
$MENU
  1
.
  9
$ELEVATION
 40
0.0
  9
$PELEVATION
 40
0.0
  9
$THICKNESS
 40
0.0
  9
$LIMCHECK
 70
     0
  9
$BLIPMODE
 70
     0
  9
$CHAMFERA
 40
0.5
  9
$CHAMFERB
 40
0.5
  9
$CHAMFERC
 40
20.0
  9
$CHAMFERD
 40
0.0
  9
$SKPOLY
 70
     0
  9
$TDCREATE
 40
2452800.443498622
  9
$TDUPDATE
 40
2453151.722210810
  9
$TDINDWG
 40
0.1377826620
  9
$TDUSRTIMER
 40
0.1377826620
  9
$USRTIMER
 70
     1
  9
$ANGBASE
 50
0.0
  9
$ANGDIR
 70
     0
  9
$PDMODE
 70
     0
  9
$PDSIZE
 40
0.0
  9
$PLINEWID
 40
0.0
  9
$COORDS
 70
     1
  9
$SPLFRAME
 70
     0
  9
$SPLINETYPE
 70
     6
  9
$SPLINESEGS
 70
     8
  9
$ATTDIA
 70
     1
  9
$ATTREQ
 70
     1
  9
$HANDLING
 70
 12289
  9
$HANDSEED
  5
5126
  9
$SURFTAB1
 70
     6
  9
$SURFTAB2
 70
     6
  9
$SURFTYPE
 70
     6
  9
$SURFU
 70
     6
  9
$SURFV
 70
     6
  9
$UCSNAME
  2

  9
$UCSORG
 10
0.0
 20
0.0
 30
0.0
  9
$UCSXDIR
 10
1.0
 20
0.000000000000002
 30
0.0
  9
$UCSYDIR
 10
-0.000000000000002
 20
1.0
 30
0.0
  9
$PUCSNAME
  2

  9
$PUCSORG
 10
0.0
 20
0.0
 30
0.0
  9
$PUCSXDIR
 10
1.0
 20
0.0
 30
0.0
  9
$PUCSYDIR
 10
0.0
 20
1.0
 30
0.0
  9
$USERI1
 70
     0
  9
$USERI2
 70
     0
  9
$USERI3
 70
     0
  9
$USERI4
 70
     0
  9
$USERI5
 70
     0
  9
$USERR1
 40
0.0
  9
$USERR2
 40
0.0
  9
$USERR3
 40
0.0
  9
$USERR4
 40
0.0
  9
$USERR5
 40
0.0
  9
$WORLDVIEW
 70
     1
  9
$SHADEDGE
 70
     3
  9
$SHADEDIF
 70
    70
  9
$TILEMODE
 70
     1
  9
$MAXACTVP
 70
    64
  9
$PINSBASE
 10
0.0
 20
0.0
 30
0.0
  9
$PLIMCHECK
 70
     0
  9
$PEXTMIN
 10
1.000000000000000E+20
 20
1.000000000000000E+20
 30
1.000000000000000E+20
  9
$PEXTMAX
 10
-1.000000000000000E+20
 20
-1.000000000000000E+20
 30
-1.000000000000000E+20
  9
$PLIMMIN
 10
0.0
 20
0.0
  9
$PLIMMAX
 10
841.0
 20
594.0
  9
$UNITMODE
 70
     0
  9
$VISRETAIN
 70
     1
  9
$PLINEGEN
 70
     0
  9
$PSLTSCALE
 70
     0
  9
$TREEDEPTH
 70
  3020
  9
$PICKSTYLE
 70
     0
  9
$CMLSTYLE
  2
STANDARD
  9
$CMLJUST
 70
     0
  9
$CMLSCALE
 40
20.0
  9
$PROXYGRAPHICS
 70
     1
  9
$MEASUREMENT
 70
     1
  0
ENDSEC
  0
SECTION
  2
CLASSES
  0
CLASS
  1
ACDBDICTIONARYWDFLT
  2
AcDbDictionaryWithDefault
  3
AutoCAD 2000
 90
        0
280
     0
281
     0
  0
CLASS
  1
ACDBPLACEHOLDER
  2
AcDbPlaceHolder
  3
AutoCAD 2000
 90
        0
280
     0
281
     0
  0
CLASS
  1
LAYOUT
  2
AcDbLayout
  3
AutoCAD 2000
 90
        0
280
     0
281
     0
  0
CLASS
  1
AMGSETTINGSOBJ
  2
AmgSettingsObj
  3
"AcadM|Product Description: AutoCAD Mechanical 2000|Company: Autodesk"
 90
        0
280
     0
281
     0
  0
CLASS
  1
ACME_DOCUMENT
  2
AcMeDbDoc
  3
AcMeServices
 90
        0
280
     0
281
     0
  0
CLASS
  1
ACMESCOPE
  2
AcMeScope
  3
AcMeServices
 90
        0
280
     0
281
     0
  0
CLASS
  1
ACMECOMMANDHISTORY
  2
AcMeCommandHistory
  3
AcMeServices
 90
        0
280
     0
281
     0
  0
CLASS
  1
DICTIONARYVAR
  2
AcDbDictionaryVar
  3
AutoCAD 2000
 90
        0
280
     0
281
     0
  0
CLASS
  1
ACIMSYSVARMAN
  2
AcImSysVarManager
  3
AcMeServices
 90
        0
280
     0
281
     0
  0
CLASS
  1
ACIMREALSYSVAR
  2
AcImRealSysVar
  3
AcMeServices
 90
        0
280
     0
281
     0
  0
CLASS
  1
ACIMINTSYSVAR
  2
AcImIntSysVar
  3
AcMeServices
 90
        0
280
     0
281
     0
  0
CLASS
  1
ACMEDRAWINGMAN
  2
AcMeDrawingMan
  3
AcMeServices
 90
        0
280
     0
281
     0
  0
CLASS
  1
ACMEVIEW
  2
AcMeView
  3
AcMeServices
 90
        0
280
     0
281
     0
  0
CLASS
  1
ACDBENTITYCACHE
  2
AcMeEntityCache
  3
AcMeServices
 90
        0
280
     0
281
     0
  0
CLASS
  1
GSMANAGER
  2
AcMeGSManager
  3
AcMeServices
 90
        0
280
     0
281
     0
  0
CLASS
  1
AmdtInternalReactor
  2
AmdtInternalReactor
  3
AcMeServices
 90
        0
280
     0
281
     0
  0
CLASS
  1
ACMESTATEMGR
  2
AcMeStateMgr
  3
AcMeServices
 90
        0
280
     0
281
     0
  0
CLASS
  1
ACME_DATABASE
  2
AcMeDbDatabase
  3
AcMeServices
 90
        0
280
     0
281
     0
  0
CLASS
  1
ACRFINSADJUSTERMGR
  2
AcRfInsAdjusterMgr
  3
AcMeServices
 90
        0
280
     0
281
     0
  0
CLASS
  1
ACMDATADICTIONARY
  2
AcmDataDictionary
  3
"AcmSymBB|Product Description: AutoCAD Mechanical 2000|Company: Autodesk"
 90
        0
280
     0
281
     0
  0
CLASS
  1
ACMDATAENTRYBLOCK
  2
AcmDataEntryBlock
  3
"AcmSymBB|Product Description: AutoCAD Mechanical 2000|Company: Autodesk"
 90
        0
280
     0
281
     0
  0
CLASS
  1
AMGOBJPROPCFG
  2
AmgObjPropCfg
  3
"AmgLay|Product Description: AutoCAD Mechanical 2000|Company: Autodesk"
 90
        1
280
     0
281
     0
  0
CLASS
  1
ACAMGFILTERDAT
  2
AcAmgFilterDat
  3
"AcadM|Product Description: AutoCAD Mechanical 2000|Company: Autodesk"
 90
        0
280
     0
281
     0
  0
CLASS
  1
LAYER_INDEX
  2
AcDbLayerIndex
  3
AutoCAD 2000
 90
        0
280
     0
281
     0
  0
CLASS
  1
IDBUFFER
  2
AcDbIdBuffer
  3
AutoCAD 2000
 90
        0
280
     0
281
     0
  0
CLASS
  1
ACIMSTRSYSVAR
  2
AcImStrSysVar
  3
AcMeServices
 90
        0
280
     0
281
     0
  0
CLASS
  1
ACMSTANDARDJIS
  2
AcmStandardJIS
  3
"AcmSymBB|Product Description: AutoCAD Mechanical 2000|Company: Autodesk"
 90
        0
280
     0
281
     0
  0
CLASS
  1
ACMSURFSTANDARDJIS
  2
AcmSurfTextStdJIS
  3
"AcmSymBB|Product Description: AutoCAD Mechanical 2000|Company: Autodesk"
 90
        0
280
     0
281
     0
  0
CLASS
  1
ACMFCFSTANDARDJIS
  2
AcmFCFStdJIS
  3
"AcmSymBB|Product Description: AutoCAD Mechanical 2000|Company: Autodesk"
 90
        0
280
     0
281
     0
  0
CLASS
  1
ACMWELDSTANDARDJIS
  2
AcmWeldingStdJIS
  3
"AcmSymBB|Product Description: AutoCAD Mechanical 2000|Company: Autodesk"
 90
        0
280
     0
281
     0
  0
CLASS
  1
ACMIDSTANDARDJIS
  2
AcmIdStdJIS
  3
"AcmSymBB|Product Description: AutoCAD Mechanical 2000|Company: Autodesk"
 90
        0
280
     0
281
     0
  0
CLASS
  1
ACMDATUMSTANDARDJIS
  2
AcmDatumStdJIS
  3
"AcmSymBB|Product Description: AutoCAD Mechanical 2000|Company: Autodesk"
 90
        0
280
     0
281
     0
  0
CLASS
  1
ACMBOMSTANDARDJIS
  2
AcmBOMStdJIS
  3
"AcmSymBB|Product Description: AutoCAD Mechanical 2000|Company: Autodesk"
 90
        0
280
     0
281
     0
  0
CLASS
  1
ACMSTANDARDANSI
  2
AcmStandardANSI
  3
"AcmSymBB|Product Description: AutoCAD Mechanical 2000|Company: Autodesk"
 90
        0
280
     0
281
     0
  0
CLASS
  1
ACMSURFSTANDARDANSI
  2
AcmSurfTextStdANSI
  3
"AcmSymBB|Product Description: AutoCAD Mechanical 2000|Company: Autodesk"
 90
        0
280
     0
281
     0
  0
CLASS
  1
ACMFCFSTANDARDANSI
  2
AcmFCFStdANSI
  3
"AcmSymBB|Product Description: AutoCAD Mechanical 2000|Company: Autodesk"
 90
        0
280
     0
281
     0
  0
CLASS
  1
ACMWELDSTANDARDANSI
  2
AcmWeldingStdANSI
  3
"AcmSymBB|Product Description: AutoCAD Mechanical 2000|Company: Autodesk"
 90
        0
280
     0
281
     0
  0
CLASS
  1
ACMIDSTANDARDANSI
  2
AcmIdStdANSI
  3
"AcmSymBB|Product Description: AutoCAD Mechanical 2000|Company: Autodesk"
 90
        0
280
     0
281
     0
  0
CLASS
  1
ACMDATUMSTANDARDANSI
  2
AcmDatumStdANSI
  3
"AcmSymBB|Product Description: AutoCAD Mechanical 2000|Company: Autodesk"
 90
        0
280
     0
281
     0
  0
CLASS
  1
ACMBOMSTANDARDANSI
  2
AcmBOMStdANSI
  3
"AcmSymBB|Product Description: AutoCAD Mechanical 2000|Company: Autodesk"
 90
        0
280
     0
281
     0
  0
CLASS
  1
ACMSTANDARDBSI
  2
AcmStandardBSI
  3
"AcmSymBB|Product Description: AutoCAD Mechanical 2000|Company: Autodesk"
 90
        0
280
     0
281
     0
  0
CLASS
  1
ACMSURFSTANDARDBSI
  2
AcmSurfTextStdBSI
  3
"AcmSymBB|Product Description: AutoCAD Mechanical 2000|Company: Autodesk"
 90
        0
280
     0
281
     0
  0
CLASS
  1
ACMFCFSTANDARDBSI
  2
AcmFCFStdBSI
  3
"AcmSymBB|Product Description: AutoCAD Mechanical 2000|Company: Autodesk"
 90
        0
280
     0
281
     0
  0
CLASS
  1
ACMWELDSTANDARDBSI
  2
AcmWeldingStdBSI
  3
"AcmSymBB|Product Description: AutoCAD Mechanical 2000|Company: Autodesk"
 90
        0
280
     0
281
     0
  0
CLASS
  1
ACMIDSTANDARDBSI
  2
AcmIdStdBSI
  3
"AcmSymBB|Product Description: AutoCAD Mechanical 2000|Company: Autodesk"
 90
        0
280
     0
281
     0
  0
CLASS
  1
ACMDATUMSTANDARDBSI
  2
AcmDatumStdBSI
  3
"AcmSymBB|Product Description: AutoCAD Mechanical 2000|Company: Autodesk"
 90
        0
280
     0
281
     0
  0
CLASS
  1
ACMBOMSTANDARDBSI
  2
AcmBOMStdBSI
  3
"AcmSymBB|Product Description: AutoCAD Mechanical 2000|Company: Autodesk"
 90
        0
280
     0
281
     0
  0
CLASS
  1
LONG_TRANSACTION
  2
AcDbLongTransaction
  3
AutoCAD 2000
 90
        0
280
     0
281
     0
  0
CLASS
  1
LWPOLYLINE
  2
AcDbPolyline
  3
AutoCAD 2000
 90
        0
280
     0
281
     1
  0
CLASS
  1
HATCH
  2
AcDbHatch
  3
AutoCAD 2000
 90
        0
280
     0
281
     1
  0
CLASS
  1
XRECORD
  2
AcDbXrecord
  3
AutoCAD 2000
 90
        0
280
     0
281
     0
  0
ENDSEC
  0
SECTION
  2
TABLES
  0
TABLE
  2
VPORT
  5
8
330
0
100
AcDbSymbolTable
 70
     3
  0
VPORT
  5
50FB
330
8
100
AcDbSymbolTableRecord
100
AcDbViewportTableRecord
  2
*ACTIVE
 70
     0
 10
0.0
 20
0.0
 11
1.0
 21
1.0
 12
-54.47347463688815
 22
-9.346143954906295
 13
0.0
 23
0.0
 14
2.5
 24
2.5
 15
10.0
 25
10.0
 16
0.0
 26
0.0
 36
1.0
 17
0.0
 27
0.0
 37
0.0
 40
126.6962203913421
 41
1.56570841889117
 42
50.0
 43
0.0
 44
0.0
 50
0.0
 51
0.0
 71
     0
 72
   100
 73
     1
 74
     1
 75
     0
 76
     0
 77
     0
 78
     0
  0
ENDTAB
  0
TABLE
  2
LTYPE
  5
5
330
0
100
AcDbSymbolTable
 70
    10
  0
LTYPE
  5
14
330
5
100
AcDbSymbolTableRecord
100
AcDbLinetypeTableRecord
  2
BYBLOCK
 70
     0
  3

 72
    65
 73
     0
 40
0.0
  0
LTYPE
  5
15
330
5
100
AcDbSymbolTableRecord
100
AcDbLinetypeTableRecord
  2
BYLAYER
 70
     0
  3

 72
    65
 73
     0
 40
0.0
  0
LTYPE
  5
16
330
5
100
AcDbSymbolTableRecord
100
AcDbLinetypeTableRecord
  2
CONTINUOUS
 70
     0
  3
Solid line
 72
    65
 73
     0
 40
0.0
  0
LTYPE
  5
4B
330
5
100
AcDbSymbolTableRecord
100
AcDbLinetypeTableRecord
  2
AM_ISO02W050
 70
     0
  3
__ __ __ __ __ __ __ __ __ __ __ __ __ __ __
 72
    65
 73
     2
 40
7.5
 49
6.0
 74
     0
 49
-1.5
 74
     0
  0
LTYPE
  5
4C
330
5
100
AcDbSymbolTableRecord
100
AcDbLinetypeTableRecord
  2
AM_ISO08W050
 70
     0
  3
____ . ____ . ____ . ____ . ____ . ____ . ____
 72
    65
 73
     4
 40
18.0
 49
12.0
 74
     0
 49
-1.5
 74
     0
 49
3.0
 74
     0
 49
-1.5
 74
     0
  0
LTYPE
  5
4D
330
5
100
AcDbSymbolTableRecord
100
AcDbLinetypeTableRecord
  2
AM_ISO09W050
 70
     0
  3
_____ . . _____ . . _____ . . ____ .. ____
 72
    65
 73
     6
 40
22.5
 49
12.0
 74
     0
 49
-1.5
 74
     0
 49
3.0
 74
     0
 49
-1.5
 74
     0
 49
3.0
 74
     0
 49
-1.5
 74
     0
  0
LTYPE
  5
4E
330
5
100
AcDbSymbolTableRecord
100
AcDbLinetypeTableRecord
  2
AMCONSTR
 70
     0
  3
_______________________
 72
    65
 73
     2
 40
9999.0
 49
9999.0
 74
     0
 49
0.0
 74
     0
  0
LTYPE
  5
4F
330
5
100
AcDbSymbolTableRecord
100
AcDbLinetypeTableRecord
  2
AM_ISO02W050X2
 70
     0
  3
 _ _ _ _ _ _ _ _ _ _ _ _
 72
    65
 73
     2
 40
3.75
 49
3.0
 74
     0
 49
-0.75
 74
     0
  0
LTYPE
  5
50
330
5
100
AcDbSymbolTableRecord
100
AcDbLinetypeTableRecord
  2
AM_ISO08W050X2
 70
     0
  3
__ . __ . __ . __ . __ . __
 72
    65
 73
     4
 40
9.0
 49
6.0
 74
     0
 49
-0.75
 74
     0
 49
1.5
 74
     0
 49
-0.75
 74
     0
  0
LTYPE
  5
53
330
5
100
AcDbSymbolTableRecord
100
AcDbLinetypeTableRecord
  2
AMZIGZAG
 70
     0
  3
/\/-/\/-/\/-/\/-/\/-/\/
 72
    65
 73
     2
 40
11.00009999999999
 49
0.0001
 74
     4
 75
   135
340
52
 46
0.04
 50
0.0
 44
0.0
 45
0.0
 49
-11.0
 74
     0
  0
LTYPE
  5
166
330
5
100
AcDbSymbolTableRecord
100
AcDbLinetypeTableRecord
  2
ACJISTGL
 70
     0
  3
_ _ _ _ _
 72
    65
 73
     2
 40
3.0
 49
2.0
 74
     0
 49
-1.0
 74
     0
  0
LTYPE
  5
26A
330
5
100
AcDbSymbolTableRecord
100
AcDbLinetypeTableRecord
  2
ACJISTGB
 70
     0
  3
__ . . __ . .
 72
    65
 73
     6
 40
9.0
 49
4.0
 74
     0
 49
-1.0
 74
     0
 49
1.0
 74
     0
 49
-1.0
 74
     0
 49
1.0
 74
     0
 49
-1.0
 74
     0
  0
ENDTAB
  0
TABLE
  2
LAYER
  5
2
330
0
100
AcDbSymbolTable
 70
     7
  0
LAYER
  5
10
330
2
100
AcDbSymbolTableRecord
100
AcDbLayerTableRecord
  2
0
 70
     0
 62
     7
  6
CONTINUOUS
  0
LAYER
  5
3F9
330
2
100
AcDbSymbolTableRecord
100
AcDbLayerTableRecord
  2
AM_0
 70
     0
 62
     7
  6
CONTINUOUS
  0
LAYER
  5
C7C
330
2
100
AcDbSymbolTableRecord
100
AcDbLayerTableRecord
  2
AM_7
 70
     0
 62
     4
  6
AM_ISO08W050
  0
LAYER
  5
C97
330
2
100
AcDbSymbolTableRecord
100
AcDbLayerTableRecord
  2
AM_11
 70
     0
 62
     3
  6
AM_ISO09W050
  0
LAYER
  5
CC5
330
2
100
AcDbSymbolTableRecord
100
AcDbLayerTableRecord
  2
AM_5
 70
     0
 62
     3
  6
CONTINUOUS
  0
LAYER
  5
CC7
330
2
100
AcDbSymbolTableRecord
100
AcDbLayerTableRecord
  2
DEFPOINTS
 70
     0
 62
     7
  6
CONTINUOUS
  0
LAYER
  5
19BC
330
2
100
AcDbSymbolTableRecord
100
AcDbLayerTableRecord
  2
AM_6
 70
     0
 62
     2
  6
CONTINUOUS
  0
ENDTAB
  0
TABLE
  2
STYLE
  5
3
330
0
100
AcDbSymbolTable
 70
     5
  0
STYLE
  5
11
330
3
100
AcDbSymbolTableRecord
100
AcDbTextStyleTableRecord
  2
STANDARD
 70
     0
 40
0.0
 41
1.0
 50
0.0
 71
     0
 42
2.5
  3
simplex.shx
  4
EXTFONT.SHX
  0
STYLE
  5
52
330
3
100
AcDbSymbolTableRecord
100
AcDbTextStyleTableRecord
  2

 70
     1
 40
0.0
 41
1.0
 50
0.0
 71
     0
 42
2.5
  3
ltypeshp.shx
  4

  0
STYLE
  5
6B
330
3
100
AcDbSymbolTableRecord
100
AcDbTextStyleTableRecord
  2
ASAMI
 70
     0
 40
0.0
 41
1.0
 50
0.0
 71
     0
 42
2.5
  3
simplex.shx
  4
EXTFONT.SHX
  0
STYLE
  5
262
330
3
100
AcDbSymbolTableRecord
100
AcDbTextStyleTableRecord
  2
ACJISTS
 70
     0
 40
1.0
 41
1.0
 50
0.0
 71
     0
 42
2.5
  3
simplex.shx
  4
bigfont.shx
  0
STYLE
  5
269
330
3
100
AcDbSymbolTableRecord
100
AcDbTextStyleTableRecord
  2
ACJISGDT
 70
     0
 40
0.0
 41
1.0
 50
0.0
 71
     0
 42
2.5
  3
amgdtans.shx
  4

  0
ENDTAB
  0
TABLE
  2
VIEW
  5
6
330
0
100
AcDbSymbolTable
 70
     0
  0
ENDTAB
  0
TABLE
  2
UCS
  5
7
330
0
100
AcDbSymbolTable
 70
     0
  0
ENDTAB
  0
TABLE
  2
APPID
  5
9
330
0
100
AcDbSymbolTable
 70
    18
  0
APPID
  5
12
330
9
100
AcDbSymbolTableRecord
100
AcDbRegAppTableRecord
  2
ACAD
 70
     0
  0
APPID
  5
30
330
9
100
AcDbSymbolTableRecord
100
AcDbRegAppTableRecord
  2
MCAD_NO_VIS
 70
     0
  0
APPID
  5
31
330
9
100
AcDbSymbolTableRecord
100
AcDbRegAppTableRecord
  2
ACAD_TEMP_GRAPHIC
 70
     0
  0
APPID
  5
2C2
330
9
100
AcDbSymbolTableRecord
100
AcDbRegAppTableRecord
  2
GENIUS_GENDTOL_13
 70
     0
  0
APPID
  5
339
330
9
100
AcDbSymbolTableRecord
100
AcDbRegAppTableRecord
  2
GENIUS_GENODEF_13
 70
     0
  0
APPID
  5
33A
330
9
100
AcDbSymbolTableRecord
100
AcDbRegAppTableRecord
  2
GENIUS_GENOBJ-N-RSBK_13
 70
     0
  0
APPID
  5
33B
330
9
100
AcDbSymbolTableRecord
100
AcDbRegAppTableRecord
  2
GENIUS_GENOBJ-N-LIB_13
 70
     0
  0
APPID
  5
33C
330
9
100
AcDbSymbolTableRecord
100
AcDbRegAppTableRecord
  2
GENIUS_GENSCALE_13
 70
     0
  0
APPID
  5
378
330
9
100
AcDbSymbolTableRecord
100
AcDbRegAppTableRecord
  2
GENIUS_GENDIMSH_14
 70
     0
  0
APPID
  5
C82
330
9
100
AcDbSymbolTableRecord
100
AcDbRegAppTableRecord
  2
GENIUS_GENOBJ-N-CRS_13
 70
     0
  0
APPID
  5
C83
330
9
100
AcDbSymbolTableRecord
100
AcDbRegAppTableRecord
  2
GENIUS_GENOENT_13
 70
     0
  0
APPID
  5
C84
330
9
100
AcDbSymbolTableRecord
100
AcDbRegAppTableRecord
  2
GENIUS_GENOREF_13
 70
     0
  0
APPID
  5
C85
330
9
100
AcDbSymbolTableRecord
100
AcDbRegAppTableRecord
  2
GENIUS_GENOLIS_13
 70
     0
  0
APPID
  5
CA0
330
9
100
AcDbSymbolTableRecord
100
AcDbRegAppTableRecord
  2
GENIUS_GENOBJ-N-CEN_13
 70
     0
  0
APPID
  5
1B5D
330
9
100
AcDbSymbolTableRecord
100
AcDbRegAppTableRecord
  2
GENIUS_GENFIL_13
 70
     0
  0
APPID
  5
1B5E
330
9
100
AcDbSymbolTableRecord
100
AcDbRegAppTableRecord
  2
GENIUS_GENOBJ-N-CHA_13
 70
     0
  0
APPID
  5
1FBC
330
9
100
AcDbSymbolTableRecord
100
AcDbRegAppTableRecord
  2
GENIUS_GENREC_14
 70
     0
  0
APPID
  5
1FBD
330
9
100
AcDbSymbolTableRecord
100
AcDbRegAppTableRecord
  2
GENIUS_GENOBJ-N-REC_13
 70
     0
  0
ENDTAB
  0
TABLE
  2
DIMSTYLE
  5
A
330
0
100
AcDbSymbolTable
 70
     9
  0
DIMSTYLE
105
58
330
A
100
AcDbSymbolTableRecord
100
AcDbDimStyleTableRecord
  2
AM_JIS
 70
     0
  3

  4
"
  5
OPEN30
  6

  7

 40
0.5
 41
2.5
 42
1.0
 43
12.0
 44
1.0
 45
0.0
 46
0.0
 47
0.1
 48
0.1
140
3.2
141
0.0
142
0.0
143
0.0393701
144
1.0
145
0.0
146
0.71
147
1.5
 71
     0
 72
     0
 73
     0
 74
     0
 75
     0
 76
     0
 77
     3
 78
     8
170
     0
171
     2
172
     1
173
     0
174
     0
175
     0
176
   256
177
   256
178
     2
270
     2
271
     3
272
     3
273
     2
274
     2
340
6B
275
     0
280
     0
281
     0
282
     0
283
     0
284
     0
285
     0
286
     0
287
     3
288
     0
  0
DIMSTYLE
105
5F
330
A
100
AcDbSymbolTableRecord
100
AcDbDimStyleTableRecord
  2
AM_JIS$3
 70
     0
  3

  4
"
  5
OPEN30
  6

  7

 40
0.5
 41
2.5
 42
1.0
 43
10.0
 44
1.0
 45
0.0
 46
0.0
 47
0.1
 48
0.1
140
3.2
141
0.0
142
0.0
143
0.0393701
144
1.0
145
0.0
146
0.71
147
1.5
 71
     0
 72
     0
 73
     0
 74
     1
 75
     0
 76
     0
 77
     3
 78
     8
170
     0
171
     2
172
     0
173
     0
174
     0
175
     0
176
   256
177
   256
178
     2
270
     2
271
     2
272
     3
273
     2
274
     2
340
6B
275
     0
280
     0
281
     0
282
     0
283
     0
284
     0
285
     0
286
     0
287
     0
288
     1
  0
DIMSTYLE
105
60
330
A
100
AcDbSymbolTableRecord
100
AcDbDimStyleTableRecord
  2
AM_JIS$4
 70
     0
  3

  4
"
  5
OPEN30
  6

  7

 40
0.5
 41
2.5
 42
1.0
 43
10.0
 44
1.0
 45
0.0
 46
0.0
 47
0.1
 48
0.1
140
3.2
141
0.0
142
0.0
143
0.0393701
144
1.0
145
0.0
146
0.71
147
1.5
 71
     0
 72
     0
 73
     0
 74
     1
 75
     0
 76
     0
 77
     3
 78
     8
170
     0
171
     2
172
     0
173
     0
174
     0
175
     0
176
   256
177
   256
178
     2
270
     2
271
     2
272
     3
273
     2
274
     2
340
6B
275
     0
280
     0
281
     0
282
     0
283
     0
284
     0
285
     0
286
     0
287
     0
288
     1
  0
DIMSTYLE
105
61
330
A
100
AcDbSymbolTableRecord
100
AcDbDimStyleTableRecord
  2
AM_JIS$6
 70
     0
  3

  4
"
  5
OPEN30
  6

  7

 40
0.5
 41
2.5
 42
1.0
 43
10.0
 44
1.0
 45
0.0
 46
0.0
 47
0.1
 48
0.1
140
3.2
141
0.0
142
0.0
143
0.0393701
144
1.0
145
0.0
146
0.71
147
1.5
 71
     0
 72
     0
 73
     0
 74
     0
 75
     0
 76
     0
 77
     0
 78
     8
170
     0
171
     2
172
     1
173
     0
174
     0
175
     0
176
   256
177
   256
178
     2
270
     2
271
     2
272
     2
273
     2
274
     2
340
6B
275
     0
280
     0
281
     0
282
     0
283
     0
284
     0
285
     0
286
     0
287
     3
288
     0
  0
DIMSTYLE
105
62
330
A
100
AcDbSymbolTableRecord
100
AcDbDimStyleTableRecord
  2
AM_JIS$7
 70
     0
  3

  4
"
  5
OPEN30
  6

  7

 40
0.5
 41
2.5
 42
1.0
 43
10.0
 44
1.0
 45
0.0
 46
0.0
 47
0.1
 48
0.1
140
3.2
141
0.0
142
0.0
143
0.0393701
144
1.0
145
0.0
146
0.71
147
1.5
 71
     0
 72
     0
 73
     0
 74
     0
 75
     0
 76
     0
 77
     3
 78
     8
170
     0
171
     2
172
     1
173
     0
174
     0
175
     0
176
   256
177
   256
178
     2
270
     2
271
     2
272
     3
273
     2
274
     2
340
6B
275
     0
280
     0
281
     0
282
     0
283
     0
284
     0
285
     0
286
     0
287
     3
288
     0
  0
DIMSTYLE
105
63
330
A
100
AcDbSymbolTableRecord
100
AcDbDimStyleTableRecord
  2
AM_JIS$SF
 70
     0
  3

  4
"
  5
OPEN30
  6

  7

 40
0.5
 41
2.5
 42
1.0
 43
10.0
 44
1.0
 45
0.0
 46
0.0
 47
0.1
 48
0.1
140
3.2
141
0.0
142
0.0
143
0.0393701
144
1.0
145
0.0
146
0.71
147
1.5
 71
     0
 72
     0
 73
     0
 74
     0
 75
     1
 76
     1
 77
     3
 78
     8
170
     0
171
     2
172
     1
173
     0
174
     0
175
     0
176
   256
177
   256
178
     2
270
     2
271
     2
272
     2
273
     2
274
     2
340
6B
275
     0
280
     0
281
     0
282
     0
283
     0
284
     0
285
     0
286
     0
287
     3
288
     0
  0
DIMSTYLE
105
68
330
A
100
AcDbSymbolTableRecord
100
AcDbDimStyleTableRecord
  2
AM_JIS$SH
 70
     0
  3

  4
"
  5

  6
GENAXEH
  7
OPEN30
 40
0.5
 41
2.5
 42
1.0
 43
10.0
 44
1.0
 45
0.0
 46
0.0
 47
0.1
 48
0.1
140
3.2
141
0.0
142
0.0
143
0.0393701
144
2.0
145
0.0
146
0.71
147
1.5
 71
     0
 72
     0
 73
     0
 74
     0
 75
     1
 76
     1
 77
     3
 78
     8
170
     0
171
     2
172
     1
173
     1
174
     0
175
     0
176
   256
177
   256
178
     2
270
     2
271
     2
272
     2
273
     2
274
     2
340
6B
275
     0
280
     0
281
     0
282
     0
283
     0
284
     0
285
     0
286
     0
287
     3
288
     0
  0
DIMSTYLE
105
B34
102
{ACAD_REACTORS
330
48D2
102
}
330
A
100
AcDbSymbolTableRecord
100
AcDbDimStyleTableRecord
  2
AM_JIS$2
 70
     0
  3

  4
"
  5
OPEN30
  6

  7

 40
0.5
 41
2.5
 42
1.0
 43
12.0
 44
1.0
 45
0.0
 46
0.0
 47
0.1
 48
0.1
140
3.2
141
0.0
142
0.0
143
0.0393701
144
1.0
145
0.0
146
0.71
147
1.5
 71
     0
 72
     0
 73
     0
 74
     0
 75
     0
 76
     0
 77
     3
 78
     8
170
     0
171
     2
172
     1
173
     0
174
     0
175
     0
176
   256
177
   256
178
     2
270
     2
271
     3
272
     3
273
     2
274
     2
340
6B
275
     0
280
     0
281
     0
282
     0
283
     0
284
     0
285
     0
286
     0
287
     3
288
     0
  0
DIMSTYLE
105
BA5
102
{ACAD_REACTORS
330
CC6
330
DF5
330
4A9C
330
4DEE
102
}
330
A
100
AcDbSymbolTableRecord
100
AcDbDimStyleTableRecord
  2
AM_JIS$0
 70
     0
  3

  4
"
  5
OPEN30
  6

  7

 40
0.5
 41
2.5
 42
0.0
 43
10.0
 44
1.0
 45
0.0
 46
0.0
 47
0.1
 48
0.1000000001
140
3.799999999999999
141
0.0
142
0.0
143
0.0393701
144
1.0
145
0.0
146
0.71
147
1.5
 71
     0
 72
     0
 73
     0
 74
     0
 75
     0
 76
     0
 77
     3
 78
     1
170
     0
171
     2
172
     1
173
     0
174
     0
175
     0
176
     3
177
     3
178
     2
270
     2
271
     2
272
     2
273
     2
274
     2
340
11
275
     1
280
     0
281
     0
282
     0
283
     0
284
     8
285
     0
286
     0
287
     0
288
     0
  0
ENDTAB
  0
TABLE
  2
BLOCK_RECORD
  5
1
330
0
100
AcDbSymbolTable
 70
    10
  0
BLOCK_RECORD
  5
1F
102
{ACAD_XDICTIONARY
360
74
102
}
330
1
100
AcDbSymbolTableRecord
100
AcDbBlockTableRecord
  2
*MODEL_SPACE
  0
BLOCK_RECORD
  5
101
102
{ACAD_XDICTIONARY
360
5124
102
}
330
1
100
AcDbSymbolTableRecord
100
AcDbBlockTableRecord
  2
*PAPER_SPACE
  0
BLOCK_RECORD
  5
59
330
1
100
AcDbSymbolTableRecord
100
AcDbBlockTableRecord
  2
_OPEN30
  0
BLOCK_RECORD
  5
64
330
1
100
AcDbSymbolTableRecord
100
AcDbBlockTableRecord
  2
GENAXEH
  0
BLOCK_RECORD
  5
CC8
330
1
100
AcDbSymbolTableRecord
100
AcDbBlockTableRecord
  2
*D5
  0
BLOCK_RECORD
  5
DF6
330
1
100
AcDbSymbolTableRecord
100
AcDbBlockTableRecord
  2
*D6
  0
BLOCK_RECORD
  5
48D3
330
1
100
AcDbSymbolTableRecord
100
AcDbBlockTableRecord
  2
*D7
  0
BLOCK_RECORD
  5
4A9D
330
1
100
AcDbSymbolTableRecord
100
AcDbBlockTableRecord
  2
*D8
  0
BLOCK_RECORD
  5
4DEF
330
1
100
AcDbSymbolTableRecord
100
AcDbBlockTableRecord
  2
*D9
  0
ENDTAB
  0
ENDSEC
  0
SECTION
  2
BLOCKS
  0
BLOCK
  5
20
330
1F
100
AcDbEntity
  8
0
100
AcDbBlockBegin
  2
*MODEL_SPACE
 70
     0
 10
0.0
 20
0.0
 30
0.0
  3
*MODEL_SPACE
  1

  0
ENDBLK
  5
21
330
1F
100
AcDbEntity
  8
0
100
AcDbBlockEnd
  0
BLOCK
  5
103
330
101
100
AcDbEntity
 67
     1
  8
0
100
AcDbBlockBegin
  2
*PAPER_SPACE
 70
     0
 10
0.0
 20
0.0
 30
0.0
  3
*PAPER_SPACE
  1

  0
ENDBLK
  5
104
330
101
100
AcDbEntity
 67
     1
  8
0
100
AcDbBlockEnd
  0
BLOCK
  5
5D
330
59
100
AcDbEntity
  8
0
100
AcDbBlockBegin
  2
_OPEN30
 70
     0
 10
0.0
 20
0.0
 30
0.0
  3
_OPEN30
  1

  0
LINE
  5
5A
330
59
100
AcDbEntity
  8
0
 62
     0
100
AcDbLine
 10
-1.0
 20
0.26794919
 30
0.0
 11
0.0
 21
0.0
 31
0.0
  0
LINE
  5
5B
330
59
100
AcDbEntity
  8
0
 62
     0
100
AcDbLine
 10
0.0
 20
0.0
 30
0.0
 11
-1.0
 21
-0.26794919
 31
0.0
  0
LINE
  5
5C
330
59
100
AcDbEntity
  8
0
 62
     0
100
AcDbLine
 10
0.0
 20
0.0
 30
0.0
 11
-1.0
 21
0.0
 31
0.0
  0
ENDBLK
  5
5E
330
59
100
AcDbEntity
  8
0
100
AcDbBlockEnd
  0
BLOCK
  5
66
330
64
100
AcDbEntity
  8
0
100
AcDbBlockBegin
  2
GENAXEH
 70
     0
 10
0.0
 20
0.0
 30
0.0
  3
GENAXEH
  1

  0
LINE
  5
65
330
64
100
AcDbEntity
  8
0
100
AcDbLine
 10
-1.0
 20
0.0
 30
0.0
 11
1.0
 21
0.0
 31
0.0
  0
ENDBLK
  5
67
330
64
100
AcDbEntity
  8
0
100
AcDbBlockEnd
  0
BLOCK
  5
CD2
330
CC8
100
AcDbEntity
  8
0
100
AcDbBlockBegin
  2
*D5
 70
     1
 10
0.0
 20
0.0
 30
0.0
  3
*D5
  1

  0
LINE
  5
50B1
330
CC8
100
AcDbEntity
  8
AM_5
 62
     3
100
AcDbLine
 10
-119.0000000000002
 20
-2.500000517103885
 30
0.0
 11
-119.0000000000002
 21
-15.50484466859878
 31
0.0
  0
LINE
  5
50B2
330
CC8
100
AcDbEntity
  8
AM_5
 62
     3
100
AcDbLine
 10
-0.999999999999961
 20
-2.999999999999991
 30
0.0
 11
-0.9999999999999619
 21
-15.50484466859878
 31
0.0
  0
LINE
  5
50B3
330
CC8
100
AcDbEntity
  8
AM_5
 62
     3
100
AcDbLine
 10
-117.7500000000002
 20
-15.00484466859878
 30
0.0
 11
-2.249999999999961
 21
-15.00484466859878
 31
0.0
  0
INSERT
  5
50B4
330
CC8
100
AcDbEntity
  8
AM_5
 62
     3
100
AcDbBlockReference
  2
_OPEN30
 10
-119.0000000000002
 20
-15.00484466859878
 30
0.0
 41
1.25
 42
1.25
 43
1.25
 50
180.0
  0
INSERT
  5
50B5
330
CC8
100
AcDbEntity
  8
AM_5
 62
     3
100
AcDbBlockReference
  2
_OPEN30
 10
-0.9999999999999619
 20
-15.00484466859878
 30
0.0
 41
1.25
 42
1.25
 43
1.25
  0
MTEXT
  5
50B6
330
CC8
100
AcDbEntity
  8
AM_5
 62
     2
100
AcDbMText
 10
-60.0000000000001
 20
-13.30484466859878
 30
0.0
 40
1.9
 41
0.0
 71
     5
 72
     1
  1
118
1001
ACAD
1000
MTEXTBEGIN
1070
    73
1070
     1
1070
    44
1040
1.0
1070
    74
1070
     0
1000
MTEXTEND
  0
POINT
  5
50B7
330
CC8
100
AcDbEntity
  8
DEFPOINTS
 62
     0
100
AcDbPoint
 10
-119.0000000000002
 20
-2.500000517103885
 30
0.0
  0
POINT
  5
50B8
330
CC8
100
AcDbEntity
  8
DEFPOINTS
 62
     0
100
AcDbPoint
 10
-0.999999999999961
 20
-2.999999999999991
 30
0.0
  0
POINT
  5
50B9
330
CC8
100
AcDbEntity
  8
DEFPOINTS
 62
     0
100
AcDbPoint
 10
-0.9999999999999619
 20
-15.00484466859878
 30
0.0
  0
ENDBLK
  5
CD3
330
CC8
100
AcDbEntity
  8
0
100
AcDbBlockEnd
  0
BLOCK
  5
E00
330
DF6
100
AcDbEntity
  8
0
100
AcDbBlockBegin
  2
*D6
 70
     1
 10
0.0
 20
0.0
 30
0.0
  3
*D6
  1

  0
LINE
  5
50A8
330
DF6
100
AcDbEntity
  8
AM_5
 62
     3
100
AcDbLine
 10
-67.00000000000025
 20
-3.000000473195758
 30
0.0
 11
-67.00000000000025
 21
-10.5048446685987
 31
0.0
  0
LINE
  5
50A9
330
DF6
100
AcDbEntity
  8
AM_5
 62
     3
100
AcDbLine
 10
-0.999999999999961
 20
-2.999999999999991
 30
0.0
 11
-0.9999999999999616
 21
-10.5048446685987
 31
0.0
  0
LINE
  5
50AA
330
DF6
100
AcDbEntity
  8
AM_5
 62
     3
100
AcDbLine
 10
-65.75000000000025
 20
-10.0048446685987
 30
0.0
 11
-2.249999999999961
 21
-10.0048446685987
 31
0.0
  0
INSERT
  5
50AB
330
DF6
100
AcDbEntity
  8
AM_5
 62
     3
100
AcDbBlockReference
  2
_OPEN30
 10
-67.00000000000025
 20
-10.0048446685987
 30
0.0
 41
1.25
 42
1.25
 43
1.25
 50
180.0
  0
INSERT
  5
50AC
330
DF6
100
AcDbEntity
  8
AM_5
 62
     3
100
AcDbBlockReference
  2
_OPEN30
 10
-0.9999999999999616
 20
-10.0048446685987
 30
0.0
 41
1.25
 42
1.25
 43
1.25
  0
MTEXT
  5
50AD
330
DF6
100
AcDbEntity
  8
AM_5
 62
     2
100
AcDbMText
 10
-34.00000000000011
 20
-8.304844668598708
 30
0.0
 40
1.9
 41
0.0
 71
     5
 72
     1
  1
66
1001
ACAD
1000
MTEXTBEGIN
1070
    73
1070
     1
1070
    44
1040
1.0
1070
    74
1070
     0
1000
MTEXTEND
  0
POINT
  5
50AE
330
DF6
100
AcDbEntity
  8
DEFPOINTS
 62
     0
100
AcDbPoint
 10
-67.00000000000025
 20
-3.000000473195758
 30
0.0
  0
POINT
  5
50AF
330
DF6
100
AcDbEntity
  8
DEFPOINTS
 62
     0
100
AcDbPoint
 10
-0.999999999999961
 20
-2.999999999999991
 30
0.0
  0
POINT
  5
50B0
330
DF6
100
AcDbEntity
  8
DEFPOINTS
 62
     0
100
AcDbPoint
 10
-0.9999999999999616
 20
-10.0048446685987
 30
0.0
  0
ENDBLK
  5
E01
330
DF6
100
AcDbEntity
  8
0
100
AcDbBlockEnd
  0
BLOCK
  5
48E1
330
48D3
100
AcDbEntity
  8
0
100
AcDbBlockBegin
  2
*D7
 70
     1
 10
0.0
 20
0.0
 30
0.0
  3
*D7
  1

  0
LINE
  5
50C3
330
48D3
100
AcDbEntity
  8
AM_5
100
AcDbLine
 10
0.1710100716628467
 20
-0.469846310392949
 30
0.0
 11
4.344899421521295
 21
-11.93751305043104
 31
0.0
  0
LINE
  5
50C4
330
48D3
100
AcDbEntity
  8
AM_5
100
AcDbLine
 10
0.1710100716628431
 20
0.4698463103929626
 30
0.0
 11
4.344899421521204
 21
11.93751305043108
 31
0.0
  0
ARC
  5
50C5
330
48D3
100
AcDbEntity
  8
AM_5
100
AcDbCircle
 10
0.00000000000001
 20
0.0000000000000062
 30
0.0
 40
12.20363604690986
100
AcDbArc
 50
295.8712886615095
 51
64.12871133849091
  0
INSERT
  5
50C6
330
48D3
100
AcDbEntity
  8
AM_5
100
AcDbBlockReference
  2
_OPEN30
 10
4.173889349858459
 20
-11.46766674003808
 30
0.0
 41
1.25
 42
1.25
 43
1.25
 50
202.9356443307548
  0
INSERT
  5
50C7
330
48D3
100
AcDbEntity
  8
AM_5
100
AcDbBlockReference
  2
_OPEN30
 10
4.173889349858371
 20
11.46766674003812
 30
0.0
 41
1.25
 42
1.25
 43
1.25
 50
157.0643556692455
  0
MTEXT
  5
50C8
330
48D3
100
AcDbEntity
  8
AM_5
 62
     2
100
AcDbMText
 10
10.65363604690986
 20
0.0000000000000466
 30
0.0
 40
1.6
 41
0.0
 71
     5
 72
     1
  1
140°
  7
ASAMI
 11
-0.000000000000002
 21
1.0
 31
0.0
1001
ACAD
1000
MTEXTBEGIN
1070
    73
1070
     1
1070
    44
1040
1.0
1070
    74
1070
     0
1000
MTEXTEND
  0
POINT
  5
50C9
330
48D3
100
AcDbEntity
  8
DEFPOINTS
 62
     0
100
AcDbPoint
 10
11.20557518077736
 20
-4.833613310287054
 30
0.0
  0
POINT
  5
50CA
330
48D3
100
AcDbEntity
  8
DEFPOINTS
 62
     0
100
AcDbPoint
 10
0.0000000000000106
 20
0.0000000000000078
 30
0.0
  0
POINT
  5
50CB
330
48D3
100
AcDbEntity
  8
DEFPOINTS
 62
     0
100
AcDbPoint
 10
0.0000000000000106
 20
0.0000000000000046
 30
0.0
  0
POINT
  5
50CC
330
48D3
100
AcDbEntity
  8
DEFPOINTS
 62
     0
100
AcDbPoint
 10
-0.2431446527750166
 20
0.6680344431605231
 30
0.0
  0
POINT
  5
50CD
330
48D3
100
AcDbEntity
  8
DEFPOINTS
 62
     0
100
AcDbPoint
 10
-0.243144652775014
 20
-0.6680344431605116
 30
0.0
  0
ENDBLK
  5
48E2
330
48D3
100
AcDbEntity
  8
0
100
AcDbBlockEnd
  0
BLOCK
  5
4AA7
330
4A9D
100
AcDbEntity
  8
0
100
AcDbBlockBegin
  2
*D8
 70
     1
 10
0.0
 20
0.0
 30
0.0
  3
*D8
  1

  0
LINE
  5
50BA
330
4A9D
100
AcDbEntity
  8
AM_5
 62
     3
100
AcDbLine
 10
-118.4999999999997
 20
2.99999999999983
 30
0.0
 11
-127.2500010003525
 21
2.999999999999813
 31
0.0
  0
LINE
  5
50BB
330
4A9D
100
AcDbEntity
  8
AM_5
 62
     3
100
AcDbLine
 10
-118.4999999999987
 20
-3.000000000000893
 30
0.0
 11
-127.2500010003525
 21
-3.00000000000091
 31
0.0
  0
LINE
  5
50BC
330
4A9D
100
AcDbEntity
  8
AM_5
 62
     3
100
AcDbLine
 10
-126.7500010003525
 20
1.749999999999814
 30
0.0
 11
-126.7500010003525
 21
-1.750000000000909
 31
0.0
  0
INSERT
  5
50BD
330
4A9D
100
AcDbEntity
  8
AM_5
 62
     3
100
AcDbBlockReference
  2
_OPEN30
 10
-126.7500010003525
 20
2.999999999999814
 30
0.0
 41
1.25
 42
1.25
 43
1.25
 50
90.0000000000001
  0
INSERT
  5
50BE
330
4A9D
100
AcDbEntity
  8
AM_5
 62
     3
100
AcDbBlockReference
  2
_OPEN30
 10
-126.7500010003525
 20
-3.000000000000909
 30
0.0
 41
1.25
 42
1.25
 43
1.25
 50
270.0000000000001
  0
MTEXT
  5
50BF
330
4A9D
100
AcDbEntity
  8
AM_5
 62
     2
100
AcDbMText
 10
-128.4500010003525
 20
-0.0000000000005459
 30
0.0
 40
1.9
 41
0.0
 71
     5
 72
     1
  1
%%c6
 11
-0.000000000000002
 21
1.0
 31
0.0
1001
ACAD
1000
MTEXTBEGIN
1070
    73
1070
     1
1070
    44
1040
1.0
1070
    74
1070
     0
1000
MTEXTEND
  0
POINT
  5
50C0
330
4A9D
100
AcDbEntity
  8
DEFPOINTS
 62
     0
100
AcDbPoint
 10
-118.4999999999997
 20
3.000000000000093
 30
0.0
  0
POINT
  5
50C1
330
4A9D
100
AcDbEntity
  8
DEFPOINTS
 62
     0
100
AcDbPoint
 10
-118.4999999999987
 20
-3.00000000000063
 30
0.0
  0
POINT
  5
50C2
330
4A9D
100
AcDbEntity
  8
DEFPOINTS
 62
     0
100
AcDbPoint
 10
-126.7500010003525
 20
-3.000000000000628
 30
0.0
  0
ENDBLK
  5
4AA8
330
4A9D
100
AcDbEntity
  8
0
100
AcDbBlockEnd
  0
BLOCK
  5
4DF9
330
4DEF
100
AcDbEntity
  8
0
100
AcDbBlockBegin
  2
*D9
 70
     1
 10
0.0
 20
0.0
 30
0.0
  3
*D9
  1

  0
LINE
  5
50CE
330
4DEF
100
AcDbEntity
  8
AM_5
 62
     3
100
AcDbLine
 10
-0.9999999999999728
 20
3.000000000000025
 30
0.0
 11
8.225244760535595
 21
3.000000000000043
 31
0.0
  0
LINE
  5
50CF
330
4DEF
100
AcDbEntity
  8
AM_5
 62
     3
100
AcDbLine
 10
-0.9999999999999593
 20
-2.999999999999974
 30
0.0
 11
8.225244760535604
 21
-2.999999999999957
 31
0.0
  0
LINE
  5
50D0
330
4DEF
100
AcDbEntity
  8
AM_5
 62
     3
100
AcDbLine
 10
7.725244760535596
 20
1.750000000000042
 30
0.0
 11
7.725244760535603
 21
-1.749999999999957
 31
0.0
  0
INSERT
  5
50D1
330
4DEF
100
AcDbEntity
  8
AM_5
 62
     3
100
AcDbBlockReference
  2
_OPEN30
 10
7.725244760535593
 20
3.000000000000042
 30
0.0
 41
1.25
 42
1.25
 43
1.25
 50
90.0000000000001
  0
INSERT
  5
50D2
330
4DEF
100
AcDbEntity
  8
AM_5
 62
     3
100
AcDbBlockReference
  2
_OPEN30
 10
7.725244760535606
 20
-2.999999999999957
 30
0.0
 41
1.25
 42
1.25
 43
1.25
 50
270.0000000000001
  0
MTEXT
  5
50D3
330
4DEF
100
AcDbEntity
  8
AM_5
 62
     2
100
AcDbMText
 10
6.025244760535599
 20
0.0000000000000388
 30
0.0
 40
1.9
 41
0.0
 71
     5
 72
     1
  1
%%c6
 11
-0.000000000000002
 21
1.0
 31
0.0
1001
ACAD
1000
MTEXTBEGIN
1070
    73
1070
     1
1070
    44
1040
1.0
1070
    74
1070
     0
1000
MTEXTEND
  0
POINT
  5
50D4
330
4DEF
100
AcDbEntity
  8
DEFPOINTS
 62
     0
100
AcDbPoint
 10
-0.999999999999966
 20
3.000000000000027
 30
0.0
  0
POINT
  5
50D5
330
4DEF
100
AcDbEntity
  8
DEFPOINTS
 62
     0
100
AcDbPoint
 10
-0.999999999999966
 20
-2.999999999999972
 30
0.0
  0
POINT
  5
50D6
330
4DEF
100
AcDbEntity
  8
DEFPOINTS
 62
     0
100
AcDbPoint
 10
7.725244760535598
 20
-2.999999999999975
 30
0.0
  0
ENDBLK
  5
4DFA
330
4DEF
100
AcDbEntity
  8
0
100
AcDbBlockEnd
  0
ENDSEC
  0
SECTION
  2
ENTITIES
  0
LINE
  5
C1D
330
1F
100
AcDbEntity
  8
AM_0
 48
0.5
100
AcDbLine
 10
0.0000000000000162
 20
0.0000000000000023
 30
0.0
 11
-0.2652487121181953
 21
0.7287648470842042
 31
0.0
  0
LINE
  5
C9F
330
1F
100
AcDbEntity
  8
AM_7
100
AcDbLine
 10
-119.7499999999999
 20
-0.0000000000002068
 30
0.0
 11
0.7252484813720115
 21
0.0000000000000071
 31
0.0
1001
GENIUS_GENODEF_13
1002
{
1000
HIER
1070
     0
1002
}
1002
{
1000
MANEDIT
1070
     0
1002
}
1002
{
1000
NOSEL
1070
     0
1002
}
1002
{
1000
BEHIND
1070
     0
1002
}
1002
{
1000
REACTOR
1002
}
1001
GENIUS_GENOBJ-N-CEN_13
1002
{
1000
OWNER
1000
GEN
1002
}
  0
DIMENSION
  5
CC6
330
1F
100
AcDbEntity
  8
AM_5
100
AcDbDimension
  2
*D5
 10
-0.9999999999999619
 20
-15.00484466859878
 30
0.0
 11
-60.0000000000001
 21
-13.30484466859878
 31
0.0
 70
    32
  1
<>
  3
AM_JIS$0
100
AcDbAlignedDimension
 13
-119.0000000000002
 23
-2.500000517103885
 33
0.0
 14
-0.999999999999961
 24
-2.999999999999991
 34
0.0
 50
0.0000000000001132
100
AcDbRotatedDimension
1001
GENIUS_GENDTOL_13
1000

1000
h7
1000

1040
0.0
1001
ACAD
1000
DSTYLE
1002
{
1070
   271
1070
     0
1002
}
  0
DIMENSION
  5
DF5
330
1F
100
AcDbEntity
  8
AM_5
100
AcDbDimension
  2
*D6
 10
-0.9999999999999616
 20
-10.0048446685987
 30
0.0
 11
-34.00000000000011
 21
-8.304844668598708
 31
0.0
 70
    32
  1
<>
  3
AM_JIS$0
100
AcDbAlignedDimension
 13
-67.00000000000025
 23
-3.000000473195758
 33
0.0
 14
-0.999999999999961
 24
-2.999999999999991
 34
0.0
 50
0.0000000000001527
100
AcDbRotatedDimension
1001
GENIUS_GENDTOL_13
1000

1000
h7
1000

1040
0.0
1001
ACAD
1000
DSTYLE
1002
{
1070
   271
1070
     0
1002
}
  0
TEXT
  5
19BD
330
1F
100
AcDbEntity
  8
AM_6
100
AcDbText
 10
-71.07142857142864
 20
-26.25484466859882
 30
0.0
 40
2.5
  1
MDW060DHK
 50
0.0000000000001527
 72
     4
 11
-60.00000000000007
 21
-25.00484466859879
 31
0.0
100
AcDbText
  0
LINE
  5
4522
330
1F
100
AcDbEntity
  8
AM_0
 48
0.5
100
AcDbLine
 10
-67.00000000000025
 20
-3.000000473195758
 30
0.0
 11
-118.4999999999991
 21
-3.000000000000204
 31
0.0
  0
LINE
  5
4525
330
1F
100
AcDbEntity
  8
AM_0
 48
0.5
100
AcDbLine
 10
-118.4999999999991
 20
-3.000000000000204
 30
0.0
 11
-118.5
 21
2.999999999999795
 31
0.0
  0
LINE
  5
4526
330
1F
100
AcDbEntity
  8
AM_0
 48
0.5
100
AcDbLine
 10
-119.0000000000002
 20
-2.500000517103885
 30
0.0
 11
-119.0
 21
2.499999480851466
 31
0.0
  0
LINE
  5
4536
330
1F
100
AcDbEntity
  8
AM_0
 48
0.5
100
AcDbLine
 10
-67.00000000000025
 20
2.999999526804242
 30
0.0
 11
-118.5
 21
2.999999999999795
 31
0.0
  0
LINE
  5
4544
330
1F
100
AcDbEntity
  8
AM_0
 48
0.5
100
AcDbLine
 10
-118.5
 20
2.999999999999795
 30
0.0
 11
-118.9999999999997
 21
2.49999948085178
 31
0.0
1001
GENIUS_GENFIL_13
1070
     0
1040
0.5
1040
0.5
1040
20.0
1040
0.0
1002
{
1002
}
1001
GENIUS_GENODEF_13
1002
{
1000
HIER
1070
     0
1002
}
1002
{
1000
MANEDIT
1070
     0
1002
}
1002
{
1000
NOSEL
1070
     0
1002
}
1002
{
1000
BEHIND
1070
     0
1002
}
1002
{
1000
REACTOR
1002
}
1001
GENIUS_GENOBJ-N-CHA_13
1002
{
1000
OWNER
1000
GEN
1002
}
  0
LINE
  5
4547
330
1F
100
AcDbEntity
  8
AM_0
 48
0.5
100
AcDbLine
 10
-119.0000000000002
 20
-2.500000517103885
 30
0.0
 11
-118.4999999999991
 21
-3.000000000000204
 31
0.0
1001
GENIUS_GENFIL_13
1070
     0
1040
0.5
1040
0.5
1040
20.0
1040
0.0
1002
{
1002
}
1001
GENIUS_GENODEF_13
1002
{
1000
HIER
1070
     0
1002
}
1002
{
1000
MANEDIT
1070
     0
1002
}
1002
{
1000
NOSEL
1070
     0
1002
}
1002
{
1000
BEHIND
1070
     0
1002
}
1002
{
1000
REACTOR
1002
}
1001
GENIUS_GENOBJ-N-CHA_13
1002
{
1000
OWNER
1000
GEN
1002
}
  0
LINE
  5
4658
330
1F
100
AcDbEntity
  8
AM_0
 48
0.5
100
AcDbLine
 10
0.0000000000000162
 20
0.0000000000000058
 30
0.0
 11
-0.2652487121181924
 21
-0.7287648470841973
 31
0.0
  0
ELLIPSE
  5
46D0
330
1F
100
AcDbEntity
  8
AM_0
 48
0.5
100
AcDbEllipse
 10
1.406679920088685
 20
5.980145302200275
 30
0.0
 11
1.330893700299272
 21
5.453556247657531
 31
0.0
210
0.0
220
0.0
230
0.9999999999999998
 40
0.3346803120500795
 41
2.356271970796474
 42
2.938337493167769
  0
LINE
  5
46E1
330
1F
100
AcDbEntity
  8
AM_0
 48
0.5
100
AcDbLine
 10
-0.82498676912769
 20
2.438537794317666
 30
0.0
 11
-0.9999999999999786
 21
3.000000000000027
 31
0.0
  0
SPLINE
  5
4831
330
1F
100
AcDbEntity
  8
AM_0
100
AcDbSpline
210
0.0
220
0.0
230
1.0
 70
     8
 71
     3
 72
    15
 73
    11
 74
     0
 42
0.0000000001
 43
0.0000000001
 40
10.10481218631959
 40
10.10481218631959
 40
10.10481218631959
 40
10.10481218631959
 40
10.37139106676736
 40
11.27458944007584
 40
12.18373345430765
 40
13.09824173870457
 40
14.01741343450111
 40
14.9404441545541
 40
15.86644439743314
 40
16.55140071192301
 40
16.55140071192301
 40
16.55140071192301
 40
16.55140071192301
 10
-63.16351566318987
 20
1.380774738533628
 30
0.0
 10
-63.4774688823632
 20
1.278566047842321
 30
0.0
 10
-63.70316580318157
 20
1.203427493880489
 30
0.0
 10
-64.10241799450023
 20
1.065525864280067
 30
0.0
 10
-64.62266798398634
 20
0.8769725467396284
 30
0.0
 10
-65.14288732554473
 20
0.6807359940656401
 30
0.0
 10
-65.66308057840412
 20
0.4780229535516017
 30
0.0
 10
-66.18325280535728
 20
0.2700802171049015
 30
0.0
 10
-66.6578830761
 20
0.0767333456839179
 30
0.0
 10
-66.83808141970742
 20
-0.01024222263334
 30
0.0
 10
-67.00000000000024
 20
-0.099198912278197
 30
0.0
  0
LINE
  5
4874
330
1F
100
AcDbEntity
  8
AM_0
100
AcDbLine
 10
-67.63636363636388
 20
-2.999957294632984
 30
0.0
 11
-72.61853070382819
 21
-3.000000000000135
 31
0.0
  0
LINE
  5
4877
330
1F
100
AcDbEntity
  8
AM_0
100
AcDbLine
 10
-67.6363636363639
 20
3.000345055668292
 30
0.0
 11
-72.61853249204389
 21
2.999999999999863
 31
0.0
  0
DIMENSION
  5
48D2
330
1F
100
AcDbEntity
  8
AM_5
100
AcDbDimension
  2
*D7
 10
-0.243144652775014
 20
-0.6680344431605116
 30
0.0
 11
10.65363604690986
 21
0.0000000000000233
 31
0.0
 70
    34
  1
<>
 51
359.9999999999998
  3
AM_JIS$2
100
AcDb2LineAngularDimension
 13
0.0000000000000106
 23
0.0000000000000046
 33
0.0
 14
-0.2431446527750166
 24
0.6680344431605231
 34
0.0
 15
0.0000000000000106
 25
0.0000000000000078
 35
0.0
 16
11.20557518077736
 26
-4.833613310287054
 36
0.0
1001
ACAD
1000
DSTYLE
1002
{
1070
   179
1070
     3
1002
}
1001
GENIUS_GENDTOL_13
1000

1000
h7
1000

1040
0.0
  0
DIMENSION
  5
4A9C
330
1F
100
AcDbEntity
  8
AM_5
100
AcDbDimension
  2
*D8
 10
-126.7500010003525
 20
-3.000000000000628
 30
0.0
 11
-128.4500010003525
 21
-0.0000000000002862
 31
0.0
 70
    32
  1
%%c<>
 51
359.9999999999998
  3
AM_JIS$0
100
AcDbAlignedDimension
 13
-118.4999999999997
 23
3.000000000000093
 33
0.0
 14
-118.4999999999987
 24
-3.00000000000063
 34
0.0
 50
270.000004170476
100
AcDbRotatedDimension
1001
ACAD
1000
DSTYLE
1002
{
1070
   271
1070
     0
1002
}
1001
GENIUS_GENDTOL_13
1000

1000
h7
1000

1040
0.0
  0
ELLIPSE
  5
4BB1
330
1F
100
AcDbEntity
  8
AM_0
 48
0.5
100
AcDbEllipse
 10
1.406679920088706
 20
-5.980145302200263
 30
0.0
 11
1.330893700299292
 21
-5.453556247657525
 31
0.0
210
0.0
220
0.0
230
-1.0
 40
0.3346803120500795
 41
2.356271970796474
 42
2.938337493167769
  0
LINE
  5
4BB2
330
1F
100
AcDbEntity
  8
AM_0
 48
0.5
100
AcDbLine
 10
-0.8249867691276811
 20
-2.438537794317661
 30
0.0
 11
-0.9999999999999673
 21
-2.999999999999997
 31
0.0
  0
ELLIPSE
  5
4D1E
330
1F
100
AcDbEntity
  8
AM_11
 48
0.5
100
AcDbEllipse
 10
1.522856796680001
 20
12.14666120520348
 30
0.0
 11
-13.8137020111086
 21
0.0000000000055866
 31
0.0
210
0.0
220
0.0
230
1.0
 40
0.9722222222221985
 41
1.130070686340713
 42
1.291800737381399
  0
ELLIPSE
  5
4D1F
330
1F
100
AcDbEntity
  8
AM_11
 48
0.5
100
AcDbEllipse
 10
-10.2628574890343
 20
-12.1466524570075
 30
0.0
 11
13.8137020111082
 21
0.0000000000000619
 31
0.0
210
0.0
220
0.0
230
1.0
 40
0.9722222222222226
 41
1.130071552591889
 42
2.011521013575197
  0
ELLIPSE
  5
4D20
330
1F
100
AcDbEntity
  8
AM_11
 48
0.5
100
AcDbEllipse
 10
-10.2628574890343
 20
12.14666120520348
 30
0.0
 11
-13.81370201110821
 21
0.0000000000000073
 31
0.0
210
0.0
220
0.0
230
1.0
 40
0.9722222222222221
 41
1.130070686340307
 42
2.011520147323599
  0
ELLIPSE
  5
4D21
330
1F
100
AcDbEntity
  8
AM_11
 48
0.5
100
AcDbEllipse
 10
-22.04857177474857
 20
-12.1466524570075
 30
0.0
 11
-13.81370201110821
 21
-0.000000000000005
 31
0.0
210
0.0
220
0.0
230
1.0
 40
0.9722222222222221
 41
4.271664206181687
 42
5.153113667164993
  0
ELLIPSE
  5
4D22
330
1F
100
AcDbEntity
  8
AM_11
 48
0.5
100
AcDbEllipse
 10
-22.04857177474857
 20
12.14666120520348
 30
0.0
 11
13.8137020111082
 21
0.0000000000001324
 31
0.0
210
0.0
220
0.0
230
1.0
 40
0.9722222222222224
 41
4.271663339930089
 42
5.153112800913382
  0
ELLIPSE
  5
4D23
330
1F
100
AcDbEntity
  8
AM_11
 48
0.5
100
AcDbEllipse
 10
-33.83428606045956
 20
-12.14665245700751
 30
0.0
 11
-13.8137020111082
 21
-0.0000000000000203
 31
0.0
210
0.0
220
0.0
230
1.0
 40
0.9722222222222226
 41
4.271664206181685
 42
5.153113667164992
  0
ELLIPSE
  5
4D24
330
1F
100
AcDbEntity
  8
AM_11
 48
0.5
100
AcDbEllipse
 10
-33.83428606045955
 20
12.14666120520348
 30
0.0
 11
-13.8137020111082
 21
-0.0000000000000264
 31
0.0
210
0.0
220
0.0
230
1.0
 40
0.9722222222222224
 41
1.130070686340304
 42
2.011520147323597
  0
ELLIPSE
  5
4D29
330
1F
100
AcDbEntity
  8
AM_11
 48
0.5
100
AcDbEllipse
 10
-45.61997535860078
 20
-12.14665332019011
 30
0.0
 11
-13.81370201110821
 21
-0.000000000000005
 31
0.0
210
0.0
220
0.0
230
1.0
 40
0.9722222222222221
 41
4.271664206181687
 42
5.153113667164993
  0
ELLIPSE
  5
4D2A
330
1F
100
AcDbEntity
  8
AM_11
 48
0.5
100
AcDbEllipse
 10
-45.61997535860078
 20
12.14666034202088
 30
0.0
 11
13.8137020111082
 21
0.0000000000001324
 31
0.0
210
0.0
220
0.0
230
1.0
 40
0.9722222222222224
 41
4.271663339930089
 42
5.153112800913382
  0
ELLIPSE
  5
4D2B
330
1F
100
AcDbEntity
  8
AM_11
 48
0.5
100
AcDbEllipse
 10
-57.40568964431177
 20
-12.14665332019011
 30
0.0
 11
-13.8137020111082
 21
-0.0000000000000203
 31
0.0
210
0.0
220
0.0
230
1.0
 40
0.9722222222222226
 41
4.271664206181685
 42
5.153113667164992
  0
ELLIPSE
  5
4D2C
330
1F
100
AcDbEntity
  8
AM_11
 48
0.5
100
AcDbEllipse
 10
-57.40568964431176
 20
12.14666034202088
 30
0.0
 11
-13.8137020111082
 21
-0.0000000000000264
 31
0.0
210
0.0
220
0.0
230
1.0
 40
0.9722222222222224
 41
1.130070686340304
 42
2.011520147323597
  0
ELLIPSE
  5
4D2D
330
1F
100
AcDbEntity
  8
AM_11
 48
0.5
100
AcDbEllipse
 10
-69.19139164750871
 20
-12.14665245700763
 30
0.0
 11
-13.81370201110821
 21
-0.000000000000005
 31
0.0
210
0.0
220
0.0
230
1.0
 40
0.9722222222222221
 41
4.271664206181687
 42
5.153113667164993
  0
ELLIPSE
  5
4D2E
330
1F
100
AcDbEntity
  8
AM_11
 48
0.5
100
AcDbEllipse
 10
-69.19139164750871
 20
12.14666120520335
 30
0.0
 11
13.8137020111082
 21
0.0000000000001324
 31
0.0
210
0.0
220
0.0
230
1.0
 40
0.9722222222222224
 41
4.271663339930089
 42
5.153112800913382
  0
ELLIPSE
  5
4D2F
330
1F
100
AcDbEntity
  8
AM_11
 48
0.5
100
AcDbEllipse
 10
-80.9771059332197
 20
-12.14665245700764
 30
0.0
 11
-13.8137020111082
 21
-0.0000000000000203
 31
0.0
210
0.0
220
0.0
230
1.0
 40
0.9722222222222226
 41
4.271664206181685
 42
5.153113667164992
  0
ELLIPSE
  5
4D30
330
1F
100
AcDbEntity
  8
AM_11
 48
0.5
100
AcDbEllipse
 10
-80.97710593321968
 20
12.14666120520335
 30
0.0
 11
-13.8137020111082
 21
-0.0000000000000264
 31
0.0
210
0.0
220
0.0
230
1.0
 40
0.9722222222222224
 41
1.130070686340304
 42
2.011520147323597
  0
ELLIPSE
  5
4D31
330
1F
100
AcDbEntity
  8
AM_11
 48
0.5
100
AcDbEllipse
 10
-92.76281985133691
 20
-12.14664203034923
 30
0.0
 11
-13.81370201110821
 21
-0.000000000000005
 31
0.0
210
0.0
220
0.0
230
1.0
 40
0.9722222222222221
 41
4.271664206181687
 42
5.153113667164993
  0
ELLIPSE
  5
4D32
330
1F
100
AcDbEntity
  8
AM_11
 48
0.5
100
AcDbEllipse
 10
-92.76281985133691
 20
12.14667163186176
 30
0.0
 11
13.8137020111082
 21
0.0000000000001324
 31
0.0
210
0.0
220
0.0
230
1.0
 40
0.9722222222222224
 41
4.271663339930089
 42
5.153112800913382
  0
ELLIPSE
  5
4D33
330
1F
100
AcDbEntity
  8
AM_11
 48
0.5
100
AcDbEllipse
 10
-104.5485341370479
 20
-12.14664203034923
 30
0.0
 11
-13.8137020111082
 21
-0.0000000000000203
 31
0.0
210
0.0
220
0.0
230
1.0
 40
0.9722222222222226
 41
4.271664206181685
 42
5.153113667164992
  0
ELLIPSE
  5
4D34
330
1F
100
AcDbEntity
  8
AM_11
 48
0.5
100
AcDbEllipse
 10
-104.5485341370478
 20
12.14667163186176
 30
0.0
 11
-13.8137020111082
 21
-0.0000000000000264
 31
0.0
210
0.0
220
0.0
230
1.0
 40
0.9722222222222224
 41
1.130070686340304
 42
2.011520147323597
  0
ELLIPSE
  5
4D35
330
1F
100
AcDbEntity
  8
AM_11
 48
0.5
100
AcDbEllipse
 10
-116.3342006974605
 20
-12.14665332019023
 30
0.0
 11
-13.81370201110821
 21
-0.000000000000005
 31
0.0
210
0.0
220
0.0
230
1.0
 40
0.9722222222222221
 41
4.271664206181687
 42
4.906589607824539
  0
ELLIPSE
  5
4D36
330
1F
100
AcDbEntity
  8
AM_11
 48
0.5
100
AcDbEllipse
 10
-116.3342006974605
 20
12.14666034202075
 30
0.0
 11
13.8137020111082
 21
0.0000000000001324
 31
0.0
210
0.0
220
0.0
230
1.0
 40
0.9722222222222224
 41
4.518188352944823
 42
5.153112800913382
  0
DIMENSION
  5
4DEE
330
1F
100
AcDbEntity
  8
AM_5
100
AcDbDimension
  2
*D9
 10
7.725244760535598
 20
-2.999999999999975
 30
0.0
 11
6.025244760535599
 21
0.0000000000000266
 31
0.0
 70
    32
  1
%%c<>
 51
359.9999999999998
  3
AM_JIS$0
100
AcDbAlignedDimension
 13
-0.999999999999966
 23
3.000000000000027
 33
0.0
 14
-0.999999999999966
 24
-2.999999999999972
 34
0.0
 50
89.99995491719882
100
AcDbRotatedDimension
1001
ACAD
1000
DSTYLE
1002
{
1070
   271
1070
     0
1002
}
1001
GENIUS_GENDTOL_13
1000

1000
h7
1000

1040
0.0
  0
ELLIPSE
  5
4FBD
330
1F
100
AcDbEntity
  8
AM_0
 48
0.5
100
AcDbEllipse
 10
-8.168659477763814
 20
5.035089816810863
 30
0.0
 11
-10.30547404947661
 21
2.660838904359095
 31
0.0
210
0.0
220
0.0
230
1.0
 40
0.5240123904430823
 41
2.453386414589456
 42
2.608774466095051
  0
ELLIPSE
  5
4FBE
330
1F
100
AcDbEntity
  8
AM_0
 48
0.5
100
AcDbEllipse
 10
-1.440278635568142
 20
-0.6042905203134583
 30
0.0
 11
-0.7048462433381962
 21
0.2088317572564728
 31
0.0
210
0.0
220
0.0
230
1.0
 40
0.3638325821797605
 41
4.310184018666104
 42
7.453624359995616
  0
ELLIPSE
  5
4FBF
330
1F
100
AcDbEntity
  8
AM_0
 48
0.5
100
AcDbEllipse
 10
-1.440278635568142
 20
-0.6042905203134583
 30
0.0
 11
-0.2320878537928566
 21
0.4644189910092156
 31
0.0
210
0.0
220
0.0
230
1.0
 40
0.7294369586551168
 41
1.544238892420297
 42
4.67958078213227
  0
ELLIPSE
  5
4FC0
330
1F
100
AcDbEntity
  8
AM_0
 48
0.5
100
AcDbEllipse
 10
-24.90685857316219
 20
87.92585136755983
 30
0.0
 11
-20.88777918979175
 21
89.44172891713911
 31
0.0
210
0.0
220
0.0
230
1.0
 40
0.3622682613872881
 41
3.17100241556433
 42
3.212208134919373
  0
ELLIPSE
  5
4FC1
330
1F
100
AcDbEntity
  8
AM_0
 48
0.5
100
AcDbEllipse
 10
1.462163405905283
 20
3.601686932274064
 30
0.0
 11
7.830015154692494
 21
1.730490087906219
 31
0.0
210
0.0
220
0.0
230
1.0
 40
0.6425830570667801
 41
3.24176440283088
 42
3.960250092759475
  0
ELLIPSE
  5
4FC2
330
1F
100
AcDbEntity
  8
AM_0
 48
0.5
100
AcDbEllipse
 10
-0.6854899986192001
 20
-0.9634653577774193
 30
0.0
 11
-2.643106829130877
 21
1.830849344098743
 31
0.0
210
0.0
220
0.0
230
0.9999999999999998
 40
0.600439670783493
 41
0.9771004338710236
 42
1.854858281341393
  0
LINE
  5
4FC3
330
1F
100
AcDbEntity
  8
AM_0
 48
0.5
100
AcDbLine
 10
0.0000000000000138
 20
0.0000000000000084
 30
0.0
 11
-2.837128113038389
 21
0.9126151619247741
 31
0.0
  0
SPLINE
  5
4FC4
330
1F
100
AcDbEntity
  8
AM_0
 48
0.5
100
AcDbSpline
210
0.0
220
0.0
230
1.0
 70
     8
 71
     3
 72
    10
 73
     6
 74
     0
 42
0.0000000001
 43
0.0000000001
 40
0.0
 40
0.0
 40
0.0
 40
0.0
 40
2.69986029516136
 40
4.147722969032201
 40
6.201687855798567
 40
6.201687855798567
 40
6.201687855798567
 40
6.201687855798567
 10
-6.217396766683104
 20
1.376706608967052
 30
0.0
 10
-4.972123690872701
 20
0.0598851796547661
 30
0.0
 10
-4.169421009454538
 20
-0.368306004797899
 30
0.0
 10
-2.296523598937135
 20
-0.1637833980207919
 30
0.0
 10
-2.612669209923302
 20
0.5047691353326225
 30
0.0
 10
-2.837128113038388
 20
0.9126151619247728
 30
0.0
  0
LINE
  5
4FC5
330
1F
100
AcDbEntity
  8
AM_0
 48
0.5
100
AcDbLine
 10
-5.257972456152526
 20
-2.999997638038158
 30
0.0
 11
-0.9999999984420131
 21
-2.999999995001904
 31
0.0
  0
LINE
  5
4FC6
330
1F
100
AcDbEntity
  8
AM_0
 48
0.5
100
AcDbLine
 10
-23.00804716240212
 20
-2.999997638037324
 30
0.0
 11
-13.98810443849777
 21
-2.999997638037699
 31
0.0
  0
LINE
  5
4FC7
330
1F
100
AcDbEntity
  8
AM_0
 48
0.5
100
AcDbLine
 10
-42.18015759677289
 20
-2.999842688183303
 30
0.0
 11
-33.14458600151947
 21
-2.99999763803677
 31
0.0
  0
LINE
  5
4FC8
330
1F
100
AcDbEntity
  8
AM_11
 48
0.5
100
AcDbLine
 10
-49.90864045351174
 20
-3.000273553040381
 30
0.0
 11
-42.18015759677289
 21
-2.999842688183303
 31
0.0
  0
LINE
  5
4FC9
330
1F
100
AcDbEntity
  8
AM_11
 48
0.5
100
AcDbLine
 10
-33.14458600151744
 20
-2.99999763803683
 30
0.0
 11
-23.00804716240212
 21
-3.00042384248167
 31
0.0
  0
LINE
  5
4FCA
330
1F
100
AcDbEntity
  8
AM_11
 48
0.5
100
AcDbLine
 10
-13.98810294505173
 20
-2.99999763803769
 30
0.0
 11
-5.257972456152437
 21
-2.999997638038179
 31
0.0
  0
SPLINE
  5
4FCB
330
1F
100
AcDbEntity
  8
AM_0
100
AcDbSpline
210
0.0
220
0.0
230
1.0
 70
     8
 71
     3
 72
    15
 73
    11
 74
     0
 42
0.0000000001
 43
0.0000000001
 40
4.116313036328508
 40
4.116313036328508
 40
4.116313036328508
 40
4.116313036328508
 40
4.126290986361125
 40
5.162752068350215
 40
6.192395305374981
 40
7.216039564037012
 40
8.234688489606833
 40
9.249433870634691
 40
10.26152376260694
 40
11.27226744710342
 40
11.27226744710342
 40
11.27226744710342
 40
11.27226744710352
 10
-45.84799137892355
 20
-2.576264575932306
 30
0.0
 10
-45.84979025716464
 20
-2.576658948259169
 30
0.0
 10
-46.03845456170976
 20
-2.617994466808527
 30
0.0
 10
-46.41414480291648
 20
-2.694930232217308
 30
0.0
 10
-46.97696402239266
 20
-2.793760575161344
 30
0.0
 10
-47.53984456001413
 20
-2.875450652324971
 30
0.0
 10
-48.10276398543673
 20
-2.93953429445815
 30
0.0
 10
-48.66571846272888
 20
-2.985596218117215
 30
0.0
 10
-49.2030545373951
 20
-2.987466715717642
 30
0.0
 10
-49.52778800792402
 20
-2.990363172016552
 30
0.0
 10
-49.78066206462671
 20
-3.000266418213111
 30
0.0
  0
SPLINE
  5
4FCC
330
1F
100
AcDbEntity
  8
AM_0
100
AcDbSpline
210
0.0
220
0.0
230
1.0
 70
     8
 71
     3
 72
    11
 73
     7
 74
     0
 42
0.0000000001
 43
0.0000000001
 40
11.27226913003534
 40
11.27226913003534
 40
11.27226913003534
 40
11.2722691300354
 40
12.28301561507924
 40
13.29510212255852
 40
14.30984805882082
 40
15.18258238371378
 40
15.18258238371378
 40
15.18258238371378
 40
15.18258238371378
 10
-49.78066206462673
 20
-3.000266418213111
 30
0.0
 10
-49.97854740452609
 20
-3.004843668598836
 30
0.0
 10
-50.35192675490359
 20
-2.96929707500949
 30
0.0
 10
-50.91006771911239
 20
-2.897590803310698
 30
0.0
 10
-51.43975333570426
 20
-2.811945524052551
 30
0.0
 10
-51.78232290059399
 20
-2.746107448919789
 30
0.0
 10
-51.9401887107546
 20
-2.713585258317366
 30
0.0
  0
SPLINE
  5
4FCD
330
1F
100
AcDbEntity
  8
AM_0
100
AcDbSpline
210
0.0
220
0.0
230
1.0
 70
     8
 71
     3
 72
    11
 73
     7
 74
     0
 42
0.0000000001
 43
0.0000000001
 40
11.27226913003534
 40
11.27226913003534
 40
11.27226913003534
 40
11.2722691300354
 40
12.28301561507924
 40
13.29510212255852
 40
14.30984805882082
 40
15.18258238371378
 40
15.18258238371378
 40
15.18258238371378
 40
15.18258238371378
 10
-33.14458600151871
 20
-2.99999763803683
 30
0.0
 10
-33.32319716545068
 20
-2.985314766242516
 30
0.0
 10
-33.6800825986953
 20
-2.949768172653154
 30
0.0
 10
-34.213567858718
 20
-2.878061900954341
 30
0.0
 10
-34.71985477728948
 20
-2.792416621696172
 30
0.0
 10
-35.04729143777564
 20
-2.726578546563396
 30
0.0
 10
-35.19818357467801
 20
-2.69405635596097
 30
0.0
  0
SPLINE
  5
4FCE
330
1F
100
AcDbEntity
  8
AM_0
100
AcDbSpline
210
0.0
220
0.0
230
1.0
 70
     8
 71
     3
 72
    17
 73
    13
 74
     0
 42
0.0000000001
 43
0.0000000001
 40
1.580019955310467
 40
1.580019955310467
 40
1.580019955310467
 40
1.580019955310467
 40
2.030549285115227
 40
3.082371838836284
 40
4.126290986361125
 40
5.162752068350215
 40
6.192395305374981
 40
7.216039564037012
 40
8.234688489606833
 40
9.249433870634691
 40
10.26152376260694
 40
11.27226744710342
 40
11.27226744710342
 40
11.27226744710342
 40
11.27226744710352
 10
-28.07592115861732
 20
-2.214085977808157
 30
0.0
 10
-28.1520542317663
 20
-2.236889248380707
 30
0.0
 10
-28.4063642739183
 20
-2.311630013494398
 30
0.0
 10
-28.84053458212298
 20
-2.428863577846197
 30
0.0
 10
-29.37831873759547
 20
-2.560149617824078
 30
0.0
 10
-29.91625094454246
 20
-2.675401329861133
 30
0.0
 10
-30.4542077993554
 20
-2.774231672805147
 30
0.0
 10
-30.99222326360351
 20
-2.855921749968748
 30
0.0
 10
-31.5302758977962
 20
-2.920005392101907
 30
0.0
 10
-32.06836203545297
 20
-2.966067315760948
 30
0.0
 10
-32.60646841952484
 20
-2.993811014994021
 30
0.0
 10
-32.9652930776222
 20
-2.999997655202998
 30
0.0
 10
-33.14458600151868
 20
-2.99999763803683
 30
0.0
  0
SPLINE
  5
4FCF
330
1F
100
AcDbEntity
  8
AM_0
100
AcDbSpline
210
0.0
220
0.0
230
1.0
 70
     8
 71
     3
 72
    11
 73
     7
 74
     0
 42
0.0000000001
 43
0.0000000001
 40
11.27226913003534
 40
11.27226913003534
 40
11.27226913003534
 40
11.2722691300354
 40
12.28301561507924
 40
13.29510212255852
 40
14.30984805882082
 40
15.18258238371378
 40
15.18258238371378
 40
15.18258238371378
 40
15.18258238371378
 10
-13.98810443849776
 20
-2.9999976380377
 30
0.0
 10
-14.16671560242972
 20
-2.985314766243383
 30
0.0
 10
-14.52360103567434
 20
-2.949768172654021
 30
0.0
 10
-15.05708629569703
 20
-2.878061900955208
 30
0.0
 10
-15.56337321426852
 20
-2.792416621697039
 30
0.0
 10
-15.89080987475465
 20
-2.726578546564265
 30
0.0
 10
-16.04170201165703
 20
-2.694056355961835
 30
0.0
  0
SPLINE
  5
4FD0
330
1F
100
AcDbEntity
  8
AM_0
100
AcDbSpline
210
0.0
220
0.0
230
1.0
 70
     8
 71
     3
 72
    17
 73
    13
 74
     0
 42
0.0000000001
 43
0.0000000001
 40
1.580019955310467
 40
1.580019955310467
 40
1.580019955310467
 40
1.580019955310467
 40
2.030549285115227
 40
3.082371838836284
 40
4.126290986361125
 40
5.162752068350215
 40
6.192395305374981
 40
7.216039564037012
 40
8.234688489606833
 40
9.249433870634691
 40
10.26152376260694
 40
11.27226744710342
 40
11.27226744710342
 40
11.27226744710342
 40
11.27226744710352
 10
-8.919439595596353
 20
-2.214085977809026
 30
0.0
 10
-8.99557266874533
 20
-2.236889248381573
 30
0.0
 10
-9.249882710897335
 20
-2.311630013495265
 30
0.0
 10
-9.68405301910203
 20
-2.428863577847065
 30
0.0
 10
-10.22183717457451
 20
-2.560149617824945
 30
0.0
 10
-10.7597693815215
 20
-2.675401329861999
 30
0.0
 10
-11.29772623633443
 20
-2.774231672806015
 30
0.0
 10
-11.83574170058255
 20
-2.855921749969617
 30
0.0
 10
-12.37379433477525
 20
-2.920005392102775
 30
0.0
 10
-12.91188047243202
 20
-2.966067315761813
 30
0.0
 10
-13.4499868565039
 20
-2.993811014994889
 30
0.0
 10
-13.80881151460126
 20
-2.999997655203864
 30
0.0
 10
-13.98810443849773
 20
-2.9999976380377
 30
0.0
  0
SPLINE
  5
4FD1
330
1F
100
AcDbEntity
  8
AM_0
100
AcDbSpline
210
0.0
220
0.0
230
1.0
 70
     8
 71
     3
 72
    22
 73
    18
 74
     0
 42
0.0000000001
 43
0.0000000001
 40
17.17441611292
 40
17.17441611292
 40
17.17441611292
 40
17.17441611292
 40
17.38177636558528
 40
18.41823744757437
 40
19.46215659509824
 40
20.51397914882054
 40
21.57394542641293
 40
22.64209583141747
 40
23.71826625065247
 40
24.80210429862395
 40
25.8930771157021
 40
26.99048705697709
 40
28.09349309193389
 40
29.20112995599786
 40
30.31233024745139
 40
31.42594771747373
 40
32.5407895042663
 40
32.54078950426994
 40
32.54078950426994
 40
32.54078950426994
 10
-16.041937344131
 20
-2.694019350984774
 30
0.0
 10
-16.07796971472985
 20
-2.687074645230081
 30
0.0
 10
-16.29396409804632
 20
-2.644773683403205
 30
0.0
 10
-16.68965363704703
 20
-2.55995474934755
 30
0.0
 10
-17.22751266126507
 20
-2.428870302654373
 30
0.0
 10
-17.76531687877758
 20
-2.282816844966436
 30
0.0
 10
-18.30307008645217
 20
-2.12270607818103
 30
0.0
 10
-18.84077157395426
 20
-1.949519718025293
 30
0.0
 10
-19.37842795976565
 20
-1.764335583246956
 30
0.0
 10
-19.91604173338656
 20
-1.568291755955241
 30
0.0
 10
-20.45361786902276
 20
-1.362597227691097
 30
0.0
 10
-20.99116234418008
 20
-1.148521003404826
 30
0.0
 10
-21.52867982442022
 20
-0.9273794442733894
 30
0.0
 10
-22.06617572072568
 20
-0.7005330505369969
 30
0.0
 10
-22.60365479752977
 20
-0.4693766707417765
 30
0.0
 10
-23.14112501711758
 20
-0.2353366646929359
 30
0.0
 10
-23.49936816419769
 20
-0.0783709971222445
 30
0.0
 10
-23.67858814970944
 20
0.0001549498537789
 30
0.0
  0
SPLINE
  5
4FD2
330
1F
100
AcDbEntity
  8
AM_0
100
AcDbSpline
210
0.0
220
0.0
230
1.0
 70
     8
 71
     3
 72
    22
 73
    18
 74
     0
 42
0.0000000001
 43
0.0000000001
 40
17.17441611292
 40
17.17441611292
 40
17.17441611292
 40
17.17441611292
 40
17.38177636558528
 40
18.41823744757437
 40
19.46215659509824
 40
20.51397914882054
 40
21.57394542641293
 40
22.64209583141747
 40
23.71826625065247
 40
24.80210429862395
 40
25.8930771157021
 40
26.99048705697709
 40
28.09349309193389
 40
29.20112995599786
 40
30.31233024745139
 40
31.42594771747373
 40
32.5407895042663
 40
32.54078950426994
 40
32.54078950426994
 40
32.54078950426994
 10
-35.198418907152
 20
-2.694019350983908
 30
0.0
 10
-35.23445127775084
 20
-2.687074645229216
 30
0.0
 10
-35.4504456610673
 20
-2.644773683402338
 30
0.0
 10
-35.84613520006803
 20
-2.559954749346684
 30
0.0
 10
-36.38399422428606
 20
-2.428870302653507
 30
0.0
 10
-36.92179844179855
 20
-2.282816844965567
 30
0.0
 10
-37.45955164947311
 20
-2.122706078180164
 30
0.0
 10
-37.99725313697521
 20
-1.949519718024425
 30
0.0
 10
-38.53490952278655
 20
-1.764335583246088
 30
0.0
 10
-39.07252329640745
 20
-1.568291755954373
 30
0.0
 10
-39.61009943204365
 20
-1.362597227690231
 30
0.0
 10
-40.14764390720098
 20
-1.148521003403959
 30
0.0
 10
-40.68516138744114
 20
-0.9273794442725222
 30
0.0
 10
-41.22265728374662
 20
-0.7005330505361301
 30
0.0
 10
-41.76013636055073
 20
-0.4693766707409102
 30
0.0
 10
-42.29760658013852
 20
-0.2353366646920693
 30
0.0
 10
-42.65584972721863
 20
-0.0783709971213778
 30
0.0
 10
-42.83506971273037
 20
0.0001549498546457
 30
0.0
  0
SPLINE
  5
4FD3
330
1F
100
AcDbEntity
  8
AM_0
100
AcDbSpline
210
0.0
220
0.0
230
1.0
 70
     8
 71
     3
 72
    25
 73
    21
 74
     0
 42
0.0000000001
 43
0.0000000001
 40
1.163660092745933
 40
1.163660092745933
 40
1.163660092745933
 40
1.163660092745933
 40
1.685415058684573
 40
2.531036209541122
 40
3.379897699130124
 40
4.232934581347659
 40
5.09097061220244
 40
5.954688180526682
 40
6.824620803463244
 40
7.701151815239697
 40
8.58445704656667
 40
9.47458238407075
 40
10.37139106676736
 40
11.27458944007584
 40
12.18373345430765
 40
13.09824173870457
 40
14.01741343450111
 40
14.9404441545541
 40
15.86644439743314
 40
16.55140071192301
 40
16.55140071192301
 40
16.55140071192301
 40
16.55140071192301
 10
-57.15456834910176
 20
-3.000054924217112
 30
0.0
 10
-57.26096152149324
 20
-2.995892862443128
 30
0.0
 10
-57.53962097789406
 20
-2.982373438408683
 30
0.0
 10
-57.99023901187888
 20
-2.944392857885178
 30
0.0
 10
-58.50625162147386
 20
-2.885991363287077
 30
0.0
 10
-59.0222201242746
 20
-2.811013764644582
 30
0.0
 10
-59.53814316104343
 20
-2.720457066244408
 30
0.0
 10
-60.05401808138252
 20
-2.614754206252017
 30
0.0
 10
-60.56984402127889
 20
-2.494593771700492
 30
0.0
 10
-61.08561868512488
 20
-2.360713565445534
 30
0.0
 10
-61.60134310383039
 20
-2.213943962174933
 30
0.0
 10
-62.11701589025352
 20
-2.055189994797574
 30
0.0
 10
-62.63264532895349
 20
-1.885437818370735
 30
0.0
 10
-63.14823392599246
 20
-1.70573099004003
 30
0.0
 10
-63.66378642268841
 20
-1.517177672499594
 30
0.0
 10
-64.17930854818599
 20
-1.320941119825603
 30
0.0
 10
-64.6948048205472
 20
-1.118228079311558
 30
0.0
 10
-65.2102802568514
 20
-0.9102853428648607
 30
0.0
 10
-65.68062494889187
 20
-0.7169384714438754
 30
0.0
 10
-65.9327697013157
 20
-0.5929192320445989
 30
0.0
 10
-67.00000000000025
 20
-0.0991989122781969
 30
0.0
  0
SPLINE
  5
4FD4
330
1F
100
AcDbEntity
  8
AM_0
100
AcDbSpline
210
0.0
220
0.0
230
1.0
 70
     8
 71
     3
 72
    22
 73
    18
 74
     0
 42
0.0000000001
 43
0.0000000001
 40
17.17441611292
 40
17.17441611292
 40
17.17441611292
 40
17.17441611292
 40
17.38177636558528
 40
18.41823744757437
 40
19.46215659509824
 40
20.51397914882054
 40
21.57394542641293
 40
22.64209583141747
 40
23.71826625065247
 40
24.80210429862395
 40
25.8930771157021
 40
26.99048705697709
 40
28.09349309193389
 40
29.20112995599786
 40
30.31233024745139
 40
31.42594771747373
 40
32.5407895042663
 40
32.54078950426994
 40
32.54078950426994
 40
32.54078950426994
 10
-51.9401887107546
 20
-2.713585258317366
 30
0.0
 10
-51.97788636348434
 20
-2.706640552562675
 30
0.0
 10
-52.20386320371197
 20
-2.664339590735802
 30
0.0
 10
-52.61784004126472
 20
-2.579520656680171
 30
0.0
 10
-53.18055690877985
 20
-2.448436209987013
 30
0.0
 10
-53.74321643662741
 20
-2.302382752299098
 30
0.0
 10
-54.30582259715208
 20
-2.142271985513716
 30
0.0
 10
-54.86837464719029
 20
-1.969085625358003
 30
0.0
 10
-55.43087951110541
 20
-1.783901490579685
 30
0.0
 10
-55.99333979345312
 20
-1.587857663287994
 30
0.0
 10
-56.5557606983285
 20
-1.382163135023874
 30
0.0
 10
-57.11814847949544
 20
-1.168086910737622
 30
0.0
 10
-57.68050801814057
 20
-0.9469453516062092
 30
0.0
 10
-58.24284497532186
 20
-0.7200989578698409
 30
0.0
 10
-58.80516433566697
 20
-0.4889425780746486
 30
0.0
 10
-59.36747442944818
 20
-0.2549025720258313
 30
0.0
 10
-59.74227424214402
 20
-0.0979369044551512
 30
0.0
 10
-59.92977710869887
 20
-0.0194109574791356
 30
0.0
  0
LINE
  5
4FD5
330
1F
100
AcDbEntity
  8
AM_0
100
AcDbLine
 10
-49.90864045351174
 20
-3.000273553040381
 30
0.0
 11
-58.94924510027045
 21
-2.999999999999885
 31
0.0
  0
ELLIPSE
  5
4FD6
330
1F
100
AcDbEntity
  8
AM_0
100
AcDbEllipse
 10
-65.99086597827835
 20
-1.165024153994118
 30
0.0
 11
0.0000000000049733
 21
1.356629770899079
 31
0.0
210
0.0
220
0.0
230
1.0
 40
0.9909707008455514
 41
2.542031073038129
 42
2.823851770172483
  0
ELLIPSE
  5
4FD7
330
1F
100
AcDbEntity
  8
AM_0
100
AcDbEllipse
 10
-66.27411368561421
 20
-1.567355163032652
 30
0.0
 11
0.0000000000181355
 21
0.8632309761043639
 31
0.0
210
0.0
220
0.0
230
1.0
 40
0.9909707008455386
 41
2.222165445314816
 42
2.552396541836509
  0
ELLIPSE
  5
4FD8
330
1F
100
AcDbEntity
  8
AM_0
100
AcDbEllipse
 10
-66.75963354952745
 20
-1.948544799044636
 30
0.0
 11
-0.0000000000006657
 21
0.2425717585000779
 31
0.0
210
0.0
220
0.0
230
1.0
 40
0.9909707008455439
 41
1.581988331601996
 42
2.197008321687116
  0
ELLIPSE
  5
4FD9
330
1F
100
AcDbEntity
  8
AM_0
100
AcDbEllipse
 10
-66.78515719639161
 20
-1.964551286981271
 30
0.0
 11
-0.0000000000037487
 21
0.2172074224966865
 31
0.0
210
0.0
220
0.0
230
1.0
 40
0.9909707008457708
 41
0.8505161907281507
 42
1.509564580566588
  0
ELLIPSE
  5
4FDA
330
1F
100
AcDbEntity
  8
AM_0
100
AcDbEllipse
 10
-66.4782288750451
 20
-2.25101104005482
 30
0.0
 11
-0.0000000000056403
 21
0.6390456212626498
 31
0.0
210
0.0
220
0.0
230
1.0
 40
0.990970700845504
 41
0.4426332494708381
 42
0.8332770159518458
  0
ELLIPSE
  5
4FDB
330
1F
100
AcDbEntity
  8
AM_0
100
AcDbEllipse
 10
-66.35159981921892
 20
-2.47107905428842
 30
0.0
 11
-0.0000000000027192
 21
0.8928889184229227
 31
0.0
210
0.0
220
0.0
230
1.0
 40
0.9909707008454844
 41
0.100011345293044
 42
0.4663880400673169
  0
LINE
  5
4FDC
330
1F
100
AcDbEntity
  8
AM_11
100
AcDbLine
 10
-58.94924510027045
 20
-2.999999999999885
 30
0.0
 11
-67.00000000000028
 21
-2.999957294632717
 31
0.0
  0
ELLIPSE
  5
4FDD
330
1F
100
AcDbEntity
  8
AM_0
100
AcDbEllipse
 10
-65.3602874728403
 20
0.3683081710124974
 30
0.0
 11
-0.0000000000002827
 21
3.03104419429027
 31
0.0
210
0.0
220
0.0
230
1.0
 40
0.9909707008456543
 41
3.119508111767867
 42
3.205549794956104
  0
ELLIPSE
  5
4FDE
330
1F
100
AcDbEntity
  8
AM_0
100
AcDbEllipse
 10
-65.42040237124966
 20
-0.9676409276276835
 30
0.0
 11
0.0000000000017358
 21
1.694367569983652
 31
0.0
210
0.0
220
0.0
230
1.0
 40
0.9909707008455301
 41
2.945609816912713
 42
3.13789147566413
  0
ELLIPSE
  5
4FDF
330
1F
100
AcDbEntity
  8
AM_0
100
AcDbEllipse
 10
-64.97431056256219
 20
1.703851282043194
 30
0.0
 11
-0.0000000000203534
 21
4.403081077981399
 31
0.0
210
0.0
220
0.0
230
1.0
 40
0.990970700845745
 41
2.806097075223817
 42
2.963480633377594
  0
ELLIPSE
  5
4FE0
330
1F
100
AcDbEntity
  8
AM_0
100
AcDbEllipse
 10
-65.924216491427
 20
-5.637151084711504
 30
0.0
 11
-0.0000000000000602
 21
4.087763305604408
 31
0.0
210
0.0
220
0.0
230
1.0
 40
0.9909707008455759
 41
-0.043670849338193
 42
0.127660023489802
  0
ELLIPSE
  5
4FE1
330
1F
100
AcDbEntity
  8
AM_0
100
AcDbEllipse
 10
-65.87657587309817
 20
-3.322021029982479
 30
0.0
 11
0.0000000000018288
 21
1.773535121625091
 31
0.0
210
0.0
220
0.0
230
1.0
 40
0.9909707008455342
 41
-0.2681948460321206
 42
-0.0735832027598835
  0
ELLIPSE
  5
4FE2
330
1F
100
AcDbEntity
  8
AM_0
100
AcDbEllipse
 10
-65.71199147289735
 20
-3.211545169908523
 30
0.0
 11
0.000000000008447
 21
1.628265777774349
 31
0.0
210
0.0
220
0.0
230
1.0
 40
0.9909707008454297
 41
-0.3424012338140328
 42
-0.187733266165927
  0
SPLINE
  5
4FE3
330
1F
100
AcDbEntity
  8
AM_0
100
AcDbSpline
210
0.0
220
0.0
230
1.0
 70
     8
 71
     3
 72
    19
 73
    15
 74
     0
 42
0.0000000001
 43
0.0000000001
 40
1.479671614733745
 40
1.479671614733745
 40
1.479671614733745
 40
1.479671614733745
 40
2.022833576467832
 40
3.037578957496688
 40
4.056212745003489
 40
5.079857003664532
 40
6.109500240690281
 40
7.145961322679372
 40
8.189895241603872
 40
9.241717795325891
 40
10.30168407291828
 40
11.36983447792315
 40
12.44600489715814
 40
13.01371853178965
 40
13.01371853178965
 40
13.01371853178965
 40
13.01371853178965
 10
-58.94924510027045
 20
-2.999999999999885
 30
0.0
 10
-59.04990411248909
 20
-2.995131387211636
 30
0.0
 10
-59.33846602108935
 20
-2.978361423776953
 30
0.0
 10
-59.81473684378794
 20
-2.939631750188377
 30
0.0
 10
-60.37765364266188
 20
-2.875471531373494
 30
0.0
 10
-60.94052998333267
 20
-2.793799023489162
 30
0.0
 10
-61.50335476150861
 20
-2.694977411162523
 30
0.0
 10
-62.0661298598136
 20
-2.579672391997235
 30
0.0
 10
-62.62885028756991
 20
-2.448590038761431
 30
0.0
 10
-63.19151221162583
 20
-2.302535189152016
 30
0.0
 10
-63.75411843654004
 20
-2.142424614362097
 30
0.0
 10
-64.31667046908414
 20
-1.969238202085857
 30
0.0
 10
-64.78924094900413
 20
-1.813661684474348
 30
0.0
 10
-65.05964309625811
 20
-1.707238904369777
 30
0.0
 10
-65.17023762432785
 20
-1.677798318899504
 30
0.0
  0
SPLINE
  5
4FE4
330
1F
100
AcDbEntity
  8
AM_0
100
AcDbSpline
210
0.0
220
0.0
230
1.0
 70
     8
 71
     3
 72
    14
 73
    10
 74
     0
 42
0.0000000001
 43
0.0000000001
 40
1.580019955310467
 40
1.580019955310467
 40
1.580019955310467
 40
1.580019955310467
 40
2.030549285115227
 40
3.082371838836284
 40
4.126290986361125
 40
5.162752068350215
 40
6.192395305374981
 40
7.216039564037012
 40
8.092146932806128
 40
8.092146932806128
 40
8.092146932806128
 40
8.092146932806128
 10
-63.42816221225281
 20
-2.234078089585669
 30
0.0
 10
-63.50781387283242
 20
-2.256881360158222
 30
0.0
 10
-63.7738771791151
 20
-2.331622125271928
 30
0.0
 10
-64.22811322387831
 20
-2.448855689623743
 30
0.0
 10
-64.790751762493
 20
-2.580141729601648
 30
0.0
 10
-65.35354519497058
 20
-2.695393441638725
 30
0.0
 10
-65.91636441444677
 20
-2.794223784582758
 30
0.0
 10
-66.45312661590406
 20
-2.872123343591939
 30
0.0
 10
-66.8317716210867
 20
-2.962726156183426
 30
0.0
 10
-67.00000000000028
 20
-2.999957294632717
 30
0.0
  0
LINE
  5
4FE5
330
1F
100
AcDbEntity
  8
AM_0
100
AcDbLine
 10
-1.000000002234745
 20
3.00000000716941
 30
0.0
 11
-3.965686061584849
 21
3.000002361961801
 31
0.0
  0
LINE
  5
4FE6
330
1F
100
AcDbEntity
  8
AM_11
 48
0.5
100
AcDbLine
 10
-31.83067949953631
 20
3.00042856640752
 30
0.0
 11
-25.36192903147473
 21
3.000002361962853
 31
0.0
  0
LINE
  5
4FE7
330
1F
100
AcDbEntity
  8
AM_0
 48
0.5
100
AcDbLine
 10
-25.361937762016
 20
3.000002361962853
 30
0.0
 11
-13.98810443849756
 21
3.000002361962299
 31
0.0
  0
LINE
  5
4FE8
330
1F
100
AcDbEntity
  8
AM_11
 48
0.5
100
AcDbLine
 10
-51.48299682613935
 20
3.000002361963832
 30
0.0
 11
-44.51849321347034
 21
3.000002361963718
 31
0.0
  0
LINE
  5
4FE9
330
1F
100
AcDbEntity
  8
AM_0
100
AcDbLine
 10
-44.51849321347034
 20
3.000002361963718
 30
0.0
 11
-31.83067949953631
 21
3.00042856640752
 31
0.0
  0
LINE
  5
4FEA
330
1F
100
AcDbEntity
  8
AM_11
 48
0.5
100
AcDbLine
 10
-13.98810443848574
 20
3.000002361962201
 30
0.0
 11
-3.85156559938364
 21
3.000002361961782
 31
0.0
  0
SPLINE
  5
4FEB
330
1F
100
AcDbEntity
  8
AM_0
 48
0.5
100
AcDbSpline
210
0.0
220
0.0
230
1.0
 70
     8
 71
     3
 72
    20
 73
    16
 74
     0
 42
0.0000000001
 43
0.0000000001
 40
12.04260318190555
 40
12.04260318190555
 40
12.04260318190555
 40
12.04260318190555
 40
13.08720139956839
 40
14.16337181880432
 40
15.23152222380919
 40
16.29148850140128
 40
17.34331105512262
 40
18.38723020264746
 40
19.42369128463655
 40
20.45333379090873
 40
21.47697865721768
 40
22.49561244472435
 40
23.5103574802404
 40
24.52244778960836
 40
25.53320666051913
 40
25.53320666051913
 40
25.53320666051913
 40
25.53320666051913
 10
-6.217396766683109
 20
1.376706608967072
 30
0.0
 10
-6.380059768345459
 20
1.456265550162469
 30
0.0
 10
-6.887477784732912
 20
1.619500547446717
 30
0.0
 10
-8.07073493307719
 20
1.949677030772656
 30
0.0
 10
-8.60843641980338
 20
2.122863386778369
 30
0.0
 10
-9.146189630472495
 20
2.28297416859596
 30
0.0
 10
-9.68399383690251
 20
2.429027570895727
 30
0.0
 10
-10.22185290202819
 20
2.560112221976539
 30
0.0
 10
-10.75976492772014
 20
2.675416859370496
 30
0.0
 10
-11.29772781262213
 20
2.774234748146989
 30
0.0
 10
-11.83573856322358
 20
2.855910877503779
 30
0.0
 10
-12.37378880829322
 20
2.920071437632491
 30
0.0
 10
-12.91187261797129
 20
2.965844968941058
 30
0.0
 10
-13.44998125753613
 20
2.994649215971931
 30
0.0
 10
-13.80880877154869
 20
2.99821876312365
 30
0.0
 10
-13.98810443849756
 20
3.000002361962297
 30
0.0
  0
SPLINE
  5
4FEC
330
1F
100
AcDbEntity
  8
AM_0
100
AcDbSpline
210
0.0
220
0.0
230
1.0
 70
     8
 71
     3
 72
    55
 73
    51
 74
     0
 42
0.0000000001
 43
0.0000000001
 40
0.0
 40
0.0
 40
0.0
 40
0.0
 40
1.010743684496582
 40
2.022833576467832
 40
3.037578957496688
 40
4.056212745003489
 40
5.079857003664532
 40
6.109500240690281
 40
7.145961322679372
 40
8.189895241603872
 40
9.241717795325891
 40
10.30168407291828
 40
11.36983447792315
 40
12.44600489715814
 40
13.52984294512926
 40
14.62081576220742
 40
15.7182257034828
 40
16.82123173843959
 40
17.92886860250316
 40
19.0400688939571
 40
20.15368796660465
 40
21.26852814259644
 40
22.38336992938901
 40
23.49698739941135
 40
24.6081876908653
 40
25.71582455492886
 40
26.81883757994213
 40
27.91624752121713
 40
29.00722033829659
 40
30.09105838626677
 40
31.16722880550176
 40
32.23537921050758
 40
33.29534548809967
 40
34.347168041821
 40
35.39108718934584
 40
36.42754827133493
 40
37.45720575381954
 40
38.48085062012849
 40
39.49948440763516
 40
40.51422944315121
 40
41.52631975251916
 40
42.53706336719636
 40
43.54780698187354
 40
44.55989729124051
 40
45.57464232675757
 40
46.59327611426424
 40
47.6169209805722
 40
48.64656348684535
 40
49.68302456883444
 40
50.58557219878025
 40
50.58557219878025
 40
50.58557219878025
 40
50.58557219878025
 10
-23.00804716240212
 20
-2.999997638037324
 30
0.0
 10
-23.18734008866401
 20
-2.998212710716756
 30
0.0
 10
-23.54616474107461
 20
-2.994640478734538
 30
0.0
 10
-24.08427113656003
 20
-2.965844278624173
 30
0.0
 10
-24.62235456231232
 20
-2.920065842855425
 30
0.0
 10
-25.16040468598331
 20
-2.855905624040522
 30
0.0
 10
-25.69841613867976
 20
-2.774233116156162
 30
0.0
 10
-26.23637830663855
 20
-2.675411503829502
 30
0.0
 10
-26.77429298931937
 20
-2.560106484664185
 30
0.0
 10
-27.31215541650602
 20
-2.429024131428362
 30
0.0
 10
-27.84996192437515
 20
-2.282969281818922
 30
0.0
 10
-28.38771519359488
 20
-2.122858707028986
 30
0.0
 10
-28.92541666437571
 20
-1.949672294752721
 30
0.0
 10
-29.46307305486678
 20
-1.764488174398902
 30
0.0
 10
-30.00068682665938
 20
-1.568444342063966
 30
0.0
 10
-30.53826296490504
 20
-1.362749819451039
 30
0.0
 10
-31.07580743139589
 20
-1.148673577500035
 30
0.0
 10
-31.61332494390919
 20
-0.9275320838120441
 30
0.0
 10
-32.15082071911366
 20
-0.7006854445994076
 30
0.0
 10
-32.68830050844247
 20
-0.4695298739757543
 30
0.0
 10
-33.22576902610505
 20
-0.2354864213926627
 30
0.0
 10
-33.76323386198932
 20
0.0000017498542204
 30
0.0
 10
-34.30069628510619
 20
0.2354941600349433
 30
0.0
 10
-34.83816660424608
 20
0.4695339679424202
 30
0.0
 10
-35.37564573004889
 20
0.7006902382608266
 30
0.0
 10
-35.91314246360237
 20
0.9275377416580464
 30
0.0
 10
-36.45066220599616
 20
1.148677348085701
 30
0.0
 10
-36.98820752087424
 20
1.362754675701111
 30
0.0
 10
-37.52578373672803
 20
1.568449031516988
 30
0.0
 10
-38.06339748895858
 20
1.764492905079202
 30
0.0
 10
-38.60105388082636
 20
1.949677025703913
 30
0.0
 10
-39.13875536530283
 20
2.122863396568695
 30
0.0
 10
-39.6765085790205
 20
2.282974134846258
 30
0.0
 10
-40.21431277559481
 20
2.429027694793248
 30
0.0
 10
-40.75217187672363
 20
2.560111764880853
 30
0.0
 10
-41.29008635986598
 20
2.675419102685048
 30
0.0
 10
-41.82805236905497
 20
2.77422942821179
 30
0.0
 10
-42.36606559918921
 20
2.855927215463867
 30
0.0
 10
-42.90411588236233
 20
2.920011380620695
 30
0.0
 10
-43.44219968199135
 20
2.966067812153553
 30
0.0
 10
-43.98030562122667
 20
2.993820216683655
 30
0.0
 10
-44.51842338501364
 20
3.003091376736443
 30
0.0
 10
-45.05654114800889
 20
2.99382021666917
 30
0.0
 10
-45.5946470896241
 20
2.966067812211966
 30
0.0
 10
-46.13273088049097
 20
2.920011380401066
 30
0.0
 10
-46.67078119651547
 20
2.855927216289898
 30
0.0
 10
-47.20879168023189
 20
2.77422982339652
 30
0.0
 10
-47.74675557003961
 20
2.675420112967511
 30
0.0
 10
-48.26021224900058
 20
2.565345988002283
 30
0.0
 10
-48.59334878972135
 20
2.48484773981037
 30
0.0
 10
-48.74790472801389
 20
2.445617016525418
 30
0.0
  0
SPLINE
  5
4FED
330
1F
100
AcDbEntity
  8
AM_0
100
AcDbSpline
210
0.0
220
0.0
230
1.0
 70
     8
 71
     3
 72
    23
 73
    19
 74
     0
 42
0.0000000001
 43
0.0000000001
 40
16.03460024169435
 40
16.03460024169435
 40
16.03460024169435
 40
16.03460024169435
 40
16.35212704903564
 40
17.38177054169784
 40
18.41822485651776
 40
19.46214173629503
 40
20.51396345435107
 40
21.57393551351153
 40
22.64208202342361
 40
23.7182574881101
 40
24.80209208578934
 40
25.89306333925047
 40
26.99048218457928
 40
28.09348763352352
 40
29.20111863782268
 40
30.31232390128032
 40
31.42594612798585
 40
32.5407912310448
 40
32.5407912310486
 40
32.5407912310486
 40
32.5407912310486
 10
-51.48299682613934
 20
3.000002361963832
 30
0.0
 10
-50.93536016957617
 20
2.95711893909439
 30
0.0
 10
-50.67468213446528
 20
2.917971328213207
 30
0.0
 10
-50.28488188770149
 20
2.859787101804561
 30
0.0
 10
-49.75036680346169
 20
2.731293842821663
 30
0.0
 10
-49.21634820197402
 20
2.58701733064178
 30
0.0
 10
-48.68279452765346
 20
2.42779256412872
 30
0.0
 10
-48.14968684373451
 20
2.254507224920358
 30
0.0
 10
-47.61699433787081
 20
2.068151885092323
 30
0.0
 10
-47.08467991538081
 20
1.869811085977822
 30
0.0
 10
-46.55271332824724
 20
1.660608019958241
 30
0.0
 10
-46.0210519267798
 20
1.441759990929338
 30
0.0
 10
-45.4896526257673
 20
1.21453903818876
 30
0.0
 10
-44.95848001958991
 20
0.9802515869576383
 30
0.0
 10
-44.42748966568086
 20
0.7402599866805195
 30
0.0
 10
-43.89663238308774
 20
0.4959656122314808
 30
0.0
 10
-43.36586494504236
 20
0.2487840833578723
 30
0.0
 10
-43.01211502897791
 20
0.0830623839944246
 30
0.0
 10
-42.83514360116142
 20
0.000154949853566
 30
0.0
  0
SPLINE
  5
4FEE
330
1F
100
AcDbEntity
  8
AM_0
100
AcDbSpline
210
0.0
220
0.0
230
1.0
 70
     8
 71
     3
 72
    42
 73
    38
 74
     0
 42
0.0000000001
 43
0.0000000001
 40
1.278384351700087
 40
1.278384351700087
 40
1.278384351700087
 40
1.278384351700087
 40
1.527291183660732
 40
1.786406454158005
 40
2.047386241038974
 40
2.310345544571907
 40
2.575337113970003
 40
2.842374715221223
 40
3.111417320030211
 40
3.382376832022752
 40
3.655120036292296
 40
3.929472521611371
 40
4.205224030350333
 40
4.482133246366229
 40
4.759933319229942
 40
5.038338087391601
 40
5.317048131389549
 40
5.595758175387723
 40
5.874162943549383
 40
6.151963016412869
 40
6.428872232428759
 40
6.704623741167955
 40
6.978976226486705
 40
7.251719430756336
 40
7.522680721168327
 40
7.791723325977311
 40
8.058760927228529
 40
8.32375249662655
 40
8.586708135057122
 40
8.84768792193809
 40
9.106803192435362
 40
9.364213819003406
 40
9.620125035580644
 40
9.87478726697307
 40
10.12847352585208
 40
10.38149610319407
 40
10.63418200686337
 40
10.63418200686337
 40
10.63418200686337
 40
10.63418200686337
 10
-3.63465803427317
 20
-2.999997638038258
 30
0.0
 10
-5.091290060300681
 20
-2.828641293990747
 30
0.0
 10
-5.446508556294451
 20
-2.762536913152332
 30
0.0
 10
-6.111476832404559
 20
-2.560106036705859
 30
0.0
 10
-6.649338092914047
 20
-2.429021926285987
 30
0.0
 10
-7.187145886936212
 20
-2.282970792189644
 30
0.0
 10
-7.724901289419864
 20
-2.12285849771261
 30
0.0
 10
-8.262602853966457
 20
-1.949672351482733
 30
0.0
 10
-8.800259219039324
 20
-1.764488159017077
 30
0.0
 10
-9.337872997755873
 20
-1.568444346292638
 30
0.0
 10
-9.875449133976196
 20
-1.362749818066693
 30
0.0
 10
-10.41299360158548
 20
-1.148673578785945
 30
0.0
 10
-10.95051111165071
 20
-0.9275320800433368
 30
0.0
 10
-11.48800689557341
 20
-0.7006854584650933
 30
0.0
 10
-12.02548665234115
 20
-0.4695298220841104
 30
0.0
 10
-12.56295529186662
 20
-0.2354866155759572
 30
0.0
 10
-13.10041941333582
 20
0.0000023619146096
 30
0.0
 10
-13.63788353468693
 20
0.2354913396913417
 30
0.0
 10
-14.17535217456658
 20
0.4695345453414142
 30
0.0
 10
-14.71283193003979
 20
0.7006901848583046
 30
0.0
 10
-15.25032771876262
 20
0.9275367948066138
 30
0.0
 10
-15.78784521102935
 20
1.148678336671835
 30
0.0
 10
-16.32538974455254
 20
1.362754416254367
 30
0.0
 10
-16.86296680562599
 20
1.568449982376625
 30
0.0
 10
-17.40058267325031
 20
1.764492013943646
 30
0.0
 10
-17.93823999741972
 20
1.949677155970422
 30
0.0
 10
-18.47594154944711
 20
2.122863353732395
 30
0.0
 10
-19.01369474289267
 20
2.282974176914271
 30
0.0
 10
-19.55149895361209
 20
2.429027570297942
 30
0.0
 10
-20.089358018608
 20
2.560112216210748
 30
0.0
 10
-20.62727004061682
 20
2.67541688278134
 30
0.0
 10
-21.16523294023463
 20
2.774234661048128
 30
0.0
 10
-21.70324628734554
 20
2.855911602506566
 30
0.0
 10
-22.24129941934118
 20
2.920070835496079
 30
0.0
 10
-22.77938584042229
 20
2.965845069857832
 30
0.0
 10
-23.31749179364018
 20
2.994649040651387
 30
0.0
 10
-23.67631659632281
 20
2.998218713691477
 30
0.0
 10
-23.85560955447828
 20
3.000002361962779
 30
0.0
  0
SPLINE
  5
4FEF
330
1F
100
AcDbEntity
  8
AM_0
100
AcDbSpline
210
0.0
220
0.0
230
1.0
 70
     8
 71
     3
 72
    46
 73
    42
 74
     0
 42
0.0000000001
 43
0.0000000001
 40
0.0
 40
0.0
 40
0.0
 40
0.0
 40
0.5056245176053715
 40
0.759310862862336
 40
1.013969309739036
 40
1.269880374404297
 40
1.527291183660732
 40
1.786406454158005
 40
2.047386241038974
 40
2.310345544571907
 40
2.575337113970003
 40
2.842374715221223
 40
3.111417320030211
 40
3.382376832022752
 40
3.655120036292296
 40
3.929472521611371
 40
4.205224030350333
 40
4.482133246366229
 40
4.759933319229942
 40
5.038338087391601
 40
5.317048131389549
 40
5.595758175387723
 40
5.874162943549382
 40
6.151963016412868
 40
6.428872232428759
 40
6.704623741167953
 40
6.978976226486702
 40
7.251719430756334
 40
7.522680721168324
 40
7.791723325977308
 40
8.058760927228528
 40
8.323752496626548
 40
8.586708135057122
 40
8.84768792193809
 40
9.106803192435362
 40
9.364213819003406
 40
9.620125035580642
 40
9.874787266973068
 40
10.12847352585207
 40
10.38149610319407
 40
10.63418200686337
 40
10.63418200686337
 40
10.63418200686337
 40
10.63418200686337
 10
-21.50171489501953
 20
-2.999997638037395
 30
0.0
 10
-21.86055707903082
 20
-2.993163406134637
 30
0.0
 10
-22.39944069500626
 20
-2.982900243763351
 30
0.0
 10
-23.1160177389332
 20
-2.919711838486707
 30
0.0
 10
-23.65407364339451
 20
-2.85600111710694
 30
0.0
 10
-24.19208355688466
 20
-2.77420737313329
 30
0.0
 10
-24.73004606210127
 20
-2.675418247605801
 30
0.0
 10
-25.2679583954255
 20
-2.560106036704991
 30
0.0
 10
-25.80581965593499
 20
-2.429021926285122
 30
0.0
 10
-26.34362744995717
 20
-2.282970792188778
 30
0.0
 10
-26.88138285244083
 20
-2.122858497711742
 30
0.0
 10
-27.41908441698742
 20
-1.949672351481865
 30
0.0
 10
-27.95674078206028
 20
-1.764488159016208
 30
0.0
 10
-28.49435456077684
 20
-1.568444346291771
 30
0.0
 10
-29.03193069699717
 20
-1.362749818065825
 30
0.0
 10
-29.56947516460644
 20
-1.148673578785078
 30
0.0
 10
-30.10699267467165
 20
-0.9275320800424703
 30
0.0
 10
-30.64448845859433
 20
-0.7006854584642266
 30
0.0
 10
-31.18196821536209
 20
-0.4695298220832436
 30
0.0
 10
-31.71943685488756
 20
-0.2354866155750903
 30
0.0
 10
-32.25690097635679
 20
0.0000023619154758
 30
0.0
 10
-32.79436509770788
 20
0.2354913396922093
 30
0.0
 10
-33.33183373758755
 20
0.4695345453422801
 30
0.0
 10
-33.86931349306077
 20
0.7006901848591722
 30
0.0
 10
-34.40680928178363
 20
0.9275367948074791
 30
0.0
 10
-34.94432677405032
 20
1.148678336672703
 30
0.0
 10
-35.48187130757352
 20
1.362754416255235
 30
0.0
 10
-36.01944836864695
 20
1.568449982377491
 30
0.0
 10
-36.55706423627129
 20
1.764492013944514
 30
0.0
 10
-37.09472156044066
 20
1.949677155971289
 30
0.0
 10
-37.63242311246808
 20
2.122863353733261
 30
0.0
 10
-38.17017630591355
 20
2.28297417691514
 30
0.0
 10
-38.707980516633
 20
2.429027570298808
 30
0.0
 10
-39.24583958162891
 20
2.560112216211614
 30
0.0
 10
-39.78375160363771
 20
2.675416882782208
 30
0.0
 10
-40.32171450325556
 20
2.774234661048993
 30
0.0
 10
-40.85972785036645
 20
2.855911602507433
 30
0.0
 10
-41.39778098236209
 20
2.920070835496944
 30
0.0
 10
-41.93586740344316
 20
2.965845069858701
 30
0.0
 10
-42.47397335666111
 20
2.994649040652254
 30
0.0
 10
-42.83279815934371
 20
2.99821871369234
 30
0.0
 10
-43.0120911174992
 20
3.000002361963644
 30
0.0
  0
SPLINE
  5
4FF0
330
1F
100
AcDbEntity
  8
AM_0
100
AcDbSpline
210
0.0
220
0.0
230
1.0
 70
     8
 71
     3
 72
    23
 73
    19
 74
     0
 42
0.0000000001
 43
0.0000000001
 40
16.03460024169435
 40
16.03460024169435
 40
16.03460024169435
 40
16.03460024169435
 40
16.35212704903564
 40
17.38177054169784
 40
18.41822485651776
 40
19.46214173629503
 40
20.51396345435107
 40
21.57393551351153
 40
22.64208202342361
 40
23.7182574881101
 40
24.80209208578934
 40
25.89306333925047
 40
26.99048218457928
 40
28.09348763352352
 40
29.20111863782268
 40
30.31232390128032
 40
31.42594612798585
 40
32.5407912310448
 40
32.5407912310486
 40
32.5407912310486
 40
32.5407912310486
 10
-31.83067949953629
 20
3.000428566407519
 30
0.0
 10
-31.77539568046764
 20
2.990301094706363
 30
0.0
 10
-31.54107856267005
 20
2.946198805887148
 30
0.0
 10
-31.12832643624713
 20
2.859787101803695
 30
0.0
 10
-30.59381135200735
 20
2.7312938428208
 30
0.0
 10
-30.05979275051968
 20
2.587017330640917
 30
0.0
 10
-29.52623907619908
 20
2.427792564127855
 30
0.0
 10
-28.99313139228015
 20
2.254507224919493
 30
0.0
 10
-28.46043888641639
 20
2.068151885091459
 30
0.0
 10
-27.92812446392639
 20
1.869811085976956
 30
0.0
 10
-27.39615787679279
 20
1.660608019957376
 30
0.0
 10
-26.86449647532536
 20
1.441759990928473
 30
0.0
 10
-26.33309717431285
 20
1.214539038187895
 30
0.0
 10
-25.80192456813553
 20
0.9802515869567727
 30
0.0
 10
-25.27093421422649
 20
0.7402599866796538
 30
0.0
 10
-24.74007693163336
 20
0.4959656122306157
 30
0.0
 10
-24.20930949358799
 20
0.2487840833570071
 30
0.0
 10
-23.85555957752356
 20
0.0830623839935598
 30
0.0
 10
-23.67858814970705
 20
0.0001549498527011
 30
0.0
  0
SPLINE
  5
4FF1
330
1F
100
AcDbEntity
  8
AM_0
100
AcDbSpline
210
0.0
220
0.0
230
1.0
 70
     8
 71
     3
 72
    52
 73
    48
 74
     0
 42
0.0000000001
 43
0.0000000001
 40
3.537595802313026
 40
3.537595802313026
 40
3.537595802313026
 40
3.537595802313026
 40
4.056212745003489
 40
5.079857003664532
 40
6.109500240690281
 40
7.145961322679372
 40
8.189895241603872
 40
9.241717795325891
 40
10.30168407291828
 40
11.36983447792315
 40
12.44600489715814
 40
13.52984294512926
 40
14.62081576220742
 40
15.7182257034828
 40
16.82123173843959
 40
17.92886860250316
 40
19.0400688939571
 40
20.15368796660465
 40
21.26852814259644
 40
22.38336992938901
 40
23.49698739941135
 40
24.6081876908653
 40
25.71582455492886
 40
26.81883757994213
 40
27.91624752121713
 40
29.00722033829659
 40
30.09105838626677
 40
31.16722880550176
 40
32.23537921050758
 40
33.29534548809967
 40
34.347168041821
 40
35.39108718934584
 40
36.42754827133493
 40
37.45720575381954
 40
38.48085062012849
 40
39.49948440763516
 40
40.51422944315121
 40
41.52631975251916
 40
42.53706336719636
 40
43.54780698187354
 40
44.55989729124051
 40
45.57464232675757
 40
46.59327611426424
 40
47.6169209805722
 40
48.64656348684535
 40
49.68302456883444
 40
50.58557219878025
 40
50.58557219878025
 40
50.58557219878025
 40
50.58557219878025
 10
-5.257972456152437
 20
-2.999997638038179
 30
0.0
 10
-5.820377307701039
 20
-2.920972027416257
 30
0.0
 10
-6.09149528521929
 20
-2.842611784149071
 30
0.0
 10
-6.541934575658794
 20
-2.774233116157028
 30
0.0
 10
-7.07989674361761
 20
-2.675411503830369
 30
0.0
 10
-7.617811426298412
 20
-2.560106484665054
 30
0.0
 10
-8.155673853485069
 20
-2.42902413142923
 30
0.0
 10
-8.693480361354197
 20
-2.282969281819789
 30
0.0
 10
-9.231233630573917
 20
-2.122858707029854
 30
0.0
 10
-9.76893510135474
 20
-1.949672294753588
 30
0.0
 10
-10.30659149184582
 20
-1.764488174399767
 30
0.0
 10
-10.8442052636384
 20
-1.568444342064833
 30
0.0
 10
-11.38178140188407
 20
-1.362749819451906
 30
0.0
 10
-11.91932586837494
 20
-1.148673577500902
 30
0.0
 10
-12.45684338088827
 20
-0.9275320838129108
 30
0.0
 10
-12.99433915609274
 20
-0.7006854446002738
 30
0.0
 10
-13.53181894542154
 20
-0.4695298739766211
 30
0.0
 10
-14.06928746308409
 20
-0.2354864213935294
 30
0.0
 10
-14.60675229896837
 20
0.0000017498533536
 30
0.0
 10
-15.14421472208524
 20
0.2354941600340765
 30
0.0
 10
-15.68168504122511
 20
0.4695339679415533
 30
0.0
 10
-16.21916416702791
 20
0.7006902382599593
 30
0.0
 10
-16.75666090058138
 20
0.9275377416571803
 30
0.0
 10
-17.29418064297519
 20
1.148677348084833
 30
0.0
 10
-17.83172595785326
 20
1.362754675700243
 30
0.0
 10
-18.36930217370704
 20
1.568449031516122
 30
0.0
 10
-18.90691592593757
 20
1.764492905078337
 30
0.0
 10
-19.44457231780539
 20
1.949677025703047
 30
0.0
 10
-19.98227380228188
 20
2.122863396567824
 30
0.0
 10
-20.52002701599961
 20
2.282974134845389
 30
0.0
 10
-21.05783121257391
 20
2.429027694792381
 30
0.0
 10
-21.59569031370272
 20
2.560111764879985
 30
0.0
 10
-22.13360479684509
 20
2.675419102684181
 30
0.0
 10
-22.67157080603407
 20
2.77422942821092
 30
0.0
 10
-23.20958403616829
 20
2.855927215463001
 30
0.0
 10
-23.74763431934141
 20
2.920011380619826
 30
0.0
 10
-24.28571811897043
 20
2.966067812152684
 30
0.0
 10
-24.82382405820576
 20
2.99382021668279
 30
0.0
 10
-25.36194182199274
 20
3.003091376735576
 30
0.0
 10
-25.90005958498796
 20
2.993820216668304
 30
0.0
 10
-26.43816552660319
 20
2.966067812211095
 30
0.0
 10
-26.97624931747005
 20
2.920011380400199
 30
0.0
 10
-27.51429963349456
 20
2.855927216289029
 30
0.0
 10
-28.05231011721097
 20
2.774229823395652
 30
0.0
 10
-28.59027400701867
 20
2.675420112966643
 30
0.0
 10
-29.10373068597966
 20
2.565345988001417
 30
0.0
 10
-29.43686722670041
 20
2.484847739809502
 30
0.0
 10
-29.59142316499294
 20
2.445617016524551
 30
0.0
  0
SPLINE
  5
4FF2
330
1F
100
AcDbEntity
  8
AM_0
 48
0.5
100
AcDbSpline
210
0.0
220
0.0
230
1.0
 70
     8
 71
     3
 72
    17
 73
    13
 74
     0
 42
0.0000000001
 43
0.0000000001
 40
0.0
 40
0.0
 40
0.0
 40
0.0
 40
1.010743614677189
 40
2.022833924044153
 40
3.037578959561199
 40
4.056212747067873
 40
5.079857613375832
 40
6.109500119648989
 40
7.14596120163808
 40
8.18989512056258
 40
9.241717674284874
 40
9.693948937866434
 40
9.693948937866434
 40
9.693948937866434
 40
9.693948937866434
 10
-3.851565599380959
 20
3.000002361961808
 30
0.0
 10
-4.030858558272013
 20
2.998218720946681
 30
0.0
 10
-4.389683362426658
 20
2.994649062428636
 30
0.0
 10
-4.927789304582155
 20
2.965844982513588
 30
0.0
 10
-5.465873093228368
 20
2.92007139203741
 30
0.0
 10
-6.003923417642171
 20
2.855911047304738
 30
0.0
 10
-6.541933869800088
 20
2.774234109861187
 30
0.0
 10
-7.079897878436291
 20
2.675419263219728
 30
0.0
 10
-7.617808223169644
 20
2.560102611227408
 30
0.0
 10
-8.155685777080753
 20
2.429060495284104
 30
0.0
 10
-8.589874564442126
 20
2.311011357347702
 30
0.0
 10
-8.844855677338133
 20
2.237213669928613
 30
0.0
 10
-8.921387327523689
 20
2.214624691833031
 30
0.0
  0
LINE
  5
4FF3
330
1F
100
AcDbEntity
  8
AM_11
100
AcDbLine
 10
-63.674978836126
 20
3.000002361963707
 30
0.0
 11
-67.00000000000025
 21
2.999999526804241
 31
0.0
  0
SPLINE
  5
4FF4
330
1F
100
AcDbEntity
  8
AM_0
100
AcDbSpline
210
0.0
220
0.0
230
1.0
 70
     8
 71
     3
 72
    20
 73
    16
 74
     0
 42
0.0000000001
 43
0.0000000001
 40
19.06958205160103
 40
19.06958205160103
 40
19.06958205160103
 40
19.06958205160103
 40
19.46214173629503
 40
20.51396345435107
 40
21.57393551351153
 40
22.64208202342361
 40
23.7182574881101
 40
24.80209208578934
 40
25.89306333925047
 40
26.99048218457928
 40
28.09348763352352
 40
29.20111863782268
 40
30.31232390128032
 40
31.42594612798585
 40
32.5407912310448
 40
32.5407912310486
 40
32.5407912310486
 40
32.5407912310486
 10
-67.00000000000025
 20
2.999999526804241
 30
0.0
 10
-66.60511409519777
 20
2.685211886183659
 30
0.0
 10
-66.49067890494551
 20
2.534586497281052
 30
0.0
 10
-66.04768470811163
 20
2.408226656794696
 30
0.0
 10
-65.48993877016953
 20
2.234941317586355
 30
0.0
 10
-64.93262719826791
 20
2.048585977758346
 30
0.0
 10
-64.37571118334708
 20
1.850245178643863
 30
0.0
 10
-63.81915907943893
 20
1.641042112624306
 30
0.0
 10
-63.26292626574314
 20
1.422194083595427
 30
0.0
 10
-62.70696766581032
 20
1.194973130854873
 30
0.0
 10
-62.15124623770464
 20
0.9606856796237742
 30
0.0
 10
-61.59571548488916
 20
0.7206940793466737
 30
0.0
 10
-61.04032395345078
 20
0.476399704897664
 30
0.0
 10
-60.48502641884095
 20
0.2292181760240744
 30
0.0
 10
-60.11492749758381
 20
0.0634964766606375
 30
0.0
 10
-59.92977710869638
 20
-0.0194109574802132
 30
0.0
  0
SPLINE
  5
4FF5
330
1F
100
AcDbEntity
  8
AM_0
100
AcDbSpline
210
0.0
220
0.0
230
1.0
 70
     8
 71
     3
 72
    46
 73
    42
 74
     0
 42
0.0000000001
 43
0.0000000001
 40
0.0
 40
0.0
 40
0.0
 40
0.0
 40
0.5056245176053715
 40
0.759310862862336
 40
1.013969309739036
 40
1.269880374404297
 40
1.527291183660732
 40
1.786406454158005
 40
2.047386241038974
 40
2.310345544571907
 40
2.575337113970003
 40
2.842374715221223
 40
3.111417320030211
 40
3.382376832022752
 40
3.655120036292296
 40
3.929472521611371
 40
4.205224030350333
 40
4.482133246366229
 40
4.759933319229942
 40
5.038338087391601
 40
5.317048131389549
 40
5.595758175387723
 40
5.874162943549382
 40
6.151963016412868
 40
6.428872232428759
 40
6.704623741167953
 40
6.978976226486702
 40
7.251719430756334
 40
7.522680721168324
 40
7.791723325977308
 40
8.058760927228528
 40
8.323752496626548
 40
8.586708135057122
 40
8.84768792193809
 40
9.106803192435362
 40
9.364213819003406
 40
9.620125035580642
 40
9.874787266973068
 40
10.12847352585207
 40
10.38149610319407
 40
10.63418200686337
 40
10.63418200686337
 40
10.63418200686337
 40
10.63418200686337
 10
-40.6582703464739
 20
-2.999997638037335
 30
0.0
 10
-41.01711253048519
 20
-2.993163406134576
 30
0.0
 10
-41.55599614646064
 20
-2.982900243763289
 30
0.0
 10
-42.27257319038758
 20
-2.919711838486647
 30
0.0
 10
-42.8106290948489
 20
-2.85600111710688
 30
0.0
 10
-43.34863900833904
 20
-2.77420737313323
 30
0.0
 10
-43.88660151355566
 20
-2.67541824760574
 30
0.0
 10
-44.42451384687988
 20
-2.56010603670493
 30
0.0
 10
-44.96237510738938
 20
-2.429021926285061
 30
0.0
 10
-45.50018290141155
 20
-2.282970792188717
 30
0.0
 10
-46.03793830389521
 20
-2.122858497711681
 30
0.0
 10
-46.5756398684418
 20
-1.949672351481804
 30
0.0
 10
-47.11329623351463
 20
-1.764488159016147
 30
0.0
 10
-47.6509100122312
 20
-1.56844434629171
 30
0.0
 10
-48.18848614845152
 20
-1.362749818065764
 30
0.0
 10
-48.72603061606081
 20
-1.148673578785017
 30
0.0
 10
-49.26354812612602
 20
-0.9275320800424097
 30
0.0
 10
-49.80104391004872
 20
-0.7006854584641659
 30
0.0
 10
-50.33852366681647
 20
-0.4695298220831829
 30
0.0
 10
-50.87599230634194
 20
-0.2354866155750297
 30
0.0
 10
-51.41345642781116
 20
0.0000023619155364
 30
0.0
 10
-51.95092054916225
 20
0.23549133969227
 30
0.0
 10
-52.48838918904191
 20
0.4695345453423407
 30
0.0
 10
-53.02586894451515
 20
0.700690184859233
 30
0.0
 10
-53.56336473323801
 20
0.9275367948075396
 30
0.0
 10
-54.1008822255047
 20
1.148678336672764
 30
0.0
 10
-54.63842675902791
 20
1.362754416255295
 30
0.0
 10
-55.17600382010133
 20
1.568449982377551
 30
0.0
 10
-55.71361968772569
 20
1.764492013944574
 30
0.0
 10
-56.25127701189505
 20
1.94967715597135
 30
0.0
 10
-56.78897856392246
 20
2.122863353733322
 30
0.0
 10
-57.32673175736795
 20
2.2829741769152
 30
0.0
 10
-57.86453596808737
 20
2.429027570298869
 30
0.0
 10
-58.40239503308328
 20
2.560112216211674
 30
0.0
 10
-58.9403070550921
 20
2.675416882782267
 30
0.0
 10
-59.47826995470993
 20
2.774234661049053
 30
0.0
 10
-60.01628330182082
 20
2.855911602507493
 30
0.0
 10
-60.55433643381647
 20
2.920070835497005
 30
0.0
 10
-61.09242285489755
 20
2.965845069858762
 30
0.0
 10
-61.63052880811548
 20
2.994649040652315
 30
0.0
 10
-61.98935361079809
 20
2.998218713692402
 30
0.0
 10
-62.16864656895356
 20
3.000002361963705
 30
0.0
  0
SPLINE
  5
4FF6
330
1F
100
AcDbEntity
  8
AM_0
100
AcDbSpline
210
0.0
220
0.0
230
1.0
 70
     8
 71
     3
 72
    53
 73
    49
 74
     0
 42
0.0000000001
 43
0.0000000001
 40
0.0
 40
0.0
 40
0.0
 40
0.0
 40
1.010743684496582
 40
2.022833576467832
 40
3.037578957496688
 40
4.056212745003489
 40
5.079857003664532
 40
6.109500240690281
 40
7.145961322679372
 40
8.189895241603872
 40
9.241717795325891
 40
10.30168407291828
 40
11.36983447792315
 40
12.44600489715814
 40
13.52984294512926
 40
14.62081576220742
 40
15.7182257034828
 40
16.82123173843959
 40
17.92886860250316
 40
19.0400688939571
 40
20.15368796660465
 40
21.26852814259644
 40
22.38336992938901
 40
23.49698739941135
 40
24.6081876908653
 40
25.71582455492886
 40
26.81883757994213
 40
27.91624752121713
 40
29.00722033829659
 40
30.09105838626677
 40
31.16722880550176
 40
32.23537921050758
 40
33.29534548809967
 40
34.347168041821
 40
35.39108718934584
 40
36.42754827133493
 40
37.45720575381954
 40
38.48085062012849
 40
39.49948440763516
 40
40.51422944315121
 40
41.52631975251916
 40
42.53706336719636
 40
43.54780698187354
 40
44.55989729124051
 40
45.57464232675757
 40
46.59327611426424
 40
47.6169209805722
 40
48.07983812532803
 40
48.07983812532803
 40
48.07983812532803
 40
48.07983812532803
 10
-42.1646026138565
 20
-2.999997638037264
 30
0.0
 10
-42.34389554011839
 20
-2.998212710716696
 30
0.0
 10
-42.702720192529
 20
-2.994640478734477
 30
0.0
 10
-43.24082658801441
 20
-2.965844278624113
 30
0.0
 10
-43.77891001376671
 20
-2.920065842855364
 30
0.0
 10
-44.3169601374377
 20
-2.855905624040461
 30
0.0
 10
-44.85497159013415
 20
-2.774233116156101
 30
0.0
 10
-45.39293375809294
 20
-2.675411503829441
 30
0.0
 10
-45.93084844077377
 20
-2.560106484664125
 30
0.0
 10
-46.46871086796038
 20
-2.429024131428302
 30
0.0
 10
-47.00651737582952
 20
-2.282969281818862
 30
0.0
 10
-47.54427064504926
 20
-2.122858707028925
 30
0.0
 10
-48.08197211583009
 20
-1.94967229475266
 30
0.0
 10
-48.61962850632115
 20
-1.764488174398841
 30
0.0
 10
-49.15724227811375
 20
-1.568444342063905
 30
0.0
 10
-49.6948184163594
 20
-1.362749819450979
 30
0.0
 10
-50.23236288285026
 20
-1.148673577499975
 30
0.0
 10
-50.76988039536357
 20
-0.9275320838119835
 30
0.0
 10
-51.30737617056804
 20
-0.7006854445993472
 30
0.0
 10
-51.84485595989684
 20
-0.4695298739756936
 30
0.0
 10
-52.38232447755941
 20
-0.235486421392602
 30
0.0
 10
-52.91978931344369
 20
0.0000017498542811
 30
0.0
 10
-53.45725173656056
 20
0.235494160035004
 30
0.0
 10
-53.99472205570045
 20
0.4695339679424809
 30
0.0
 10
-54.53220118150326
 20
0.7006902382608874
 30
0.0
 10
-55.06969791505675
 20
0.927537741658107
 30
0.0
 10
-55.60721765745055
 20
1.148677348085761
 30
0.0
 10
-56.14476297232862
 20
1.362754675701171
 30
0.0
 10
-56.68233918818241
 20
1.568449031517049
 30
0.0
 10
-57.21995294041296
 20
1.764492905079263
 30
0.0
 10
-57.75760933228074
 20
1.949677025703973
 30
0.0
 10
-58.29531081675721
 20
2.122863396568755
 30
0.0
 10
-58.83306403047489
 20
2.282974134846319
 30
0.0
 10
-59.37086822704919
 20
2.429027694793308
 30
0.0
 10
-59.90872732817799
 20
2.560111764880914
 30
0.0
 10
-60.44664181132035
 20
2.675419102685109
 30
0.0
 10
-60.98460782050936
 20
2.77422942821185
 30
0.0
 10
-61.52262105064359
 20
2.855927215463928
 30
0.0
 10
-62.0606713338167
 20
2.920011380620755
 30
0.0
 10
-62.59875513344574
 20
2.966067812153614
 30
0.0
 10
-63.13686107268104
 20
2.993820216683715
 30
0.0
 10
-63.67497883646803
 20
3.003091376736504
 30
0.0
 10
-64.21309659946327
 20
2.993820216669231
 30
0.0
 10
-64.75120254107849
 20
2.966067812212026
 30
0.0
 10
-65.28928633194538
 20
2.920011380401127
 30
0.0
 10
-65.82733664796989
 20
2.855927216289959
 30
0.0
 10
-66.2660919197213
 20
2.789301819749898
 30
0.0
 10
-66.525341783904
 20
2.743971256504468
 30
0.0
 10
-66.65640893169977
 20
2.719197235395494
 30
0.0
  0
LINE
  5
4FF7
330
1F
100
AcDbEntity
  8
AM_0
100
AcDbLine
 10
-51.48299682613935
 20
3.000002361963832
 30
0.0
 11
-63.674978836126
 21
3.000002361963707
 31
0.0
  0
VIEWPORT
  5
110
330
101
100
AcDbEntity
 67
     1
  8
0
100
AcDbViewport
 10
420.5
 20
297.0
 30
0.0
 40
948.9782706766916
 41
628.452
 68
     1
 69
     1
1001
ACAD
1000
MVIEW
1002
{
1070
    16
1010
0.0
1020
0.0
1030
0.0
1010
0.0
1020
0.0
1030
1.0
1040
0.0
1040
628.452
1040
420.5
1040
297.0
1040
50.0
1040
0.0
1040
0.0
1070
     0
1070
   100
1070
     1
1070
     1
1070
     0
1070
     0
1070
     0
1070
     0
1040
0.0
1040
0.0
1040
0.0
1040
10.0
1040
10.0
1040
10.0
1040
10.0
1070
     0
1002
{
1002
}
1002
}
  0
ENDSEC
  0
SECTION
  2
OBJECTS
  0
DICTIONARY
  5
C
330
0
100
AcDbDictionary
  3
ACAD_GROUP
350
D
  3
ACAD_LAYOUT
350
1A
  3
ACAD_MLINESTYLE
350
17
  3
ACAD_PLOTSETTINGS
350
19
  3
ACAD_PLOTSTYLENAME
350
E
  3
ACDBVARIABLEDICTIONARY
350
34
  3
ACMDICTIONARY
350
43
  3
AMG
350
2B
  3
AMGSNAPSETTINGS
350
6E
  3
DWGPROPS
350
50F0
  3
ACDBHEADERROUNDTRIPXREC
350
50FC
  0
DICTIONARY
  5
74
330
1F
100
AcDbDictionary
280
     1
  3
ACAD_INDEX
360
50F2
  3
ACAD_LAYOUTSELFREF
360
511F
  0
DICTIONARY
  5
5124
330
101
100
AcDbDictionary
280
     1
  3
ACAD_LAYOUTSELFREF
360
5125
  0
DICTIONARY
  5
D
102
{ACAD_REACTORS
330
C
102
}
330
C
100
AcDbDictionary
  0
DICTIONARY
  5
1A
102
{ACAD_REACTORS
330
C
102
}
330
C
100
AcDbDictionary
  0
DICTIONARY
  5
17
102
{ACAD_REACTORS
330
C
102
}
330
C
100
AcDbDictionary
  3
STANDARD
350
18
  0
DICTIONARY
  5
19
102
{ACAD_REACTORS
330
C
102
}
330
C
100
AcDbDictionary
  0
ACDBDICTIONARYWDFLT
  5
E
102
{ACAD_REACTORS
330
C
102
}
330
C
100
AcDbDictionary
281
     1
  3
Normal
350
F
100
AcDbDictionaryWithDefault
340
F
  0
DICTIONARY
  5
34
102
{ACAD_REACTORS
330
C
102
}
330
C
100
AcDbDictionary
  3
INDEXCTL
350
35
  3
SORTENTS
350
B5E
  0
DICTIONARY
  5
43
102
{ACAD_REACTORS
330
C
102
}
330
C
100
AcDbDictionary
  3
ACMSTDDICTIONARY
350
260
  0
DICTIONARY
  5
2B
102
{ACAD_REACTORS
330
C
102
}
330
C
100
AcDbDictionary
  3
ACMGSETTINGS
350
2C
  0
DICTIONARY
  5
6E
102
{ACAD_REACTORS
330
C
102
}
330
C
100
AcDbDictionary
  0
XRECORD
  5
50F0
102
{ACAD_REACTORS
330
C
102
}
330
C
100
AcDbXrecord
  1
DWGPROPS COOKIE
  2

  3

  4

  6

  7

  8

  9

300
AmdtFileType=82
301
=
302
=
303
=
304
=
305
=
306
=
307
=
308
=
309
=
 40
0.1375864467592593
 41
2452800.443498622
 42
2452946.583214155
  1

 90
        1
  0
DICTIONARY
  5
50FC
102
{ACAD_REACTORS
330
C
102
}
330
C
100
AcDbDictionary
  3
TSTACKALIGN
350
50FD
  3
TSTACKSIZE
350
50FE
  3
HYPERLINKBASE
350
50FF
  3
STYLESHEET
350
5100
  3
LAYOUTDICT
350
5101
  3
PLOTSETDICT
350
5102
  3
PLOTSTYLNAMDICT
350
5103
  3
LWETCUNION
350
5104
  3
INSUNITS
350
5105
  3
CEPSNTYPE
350
5106
  3
FINGERPRINTGUID
350
5107
  3
VERSIONGUID
350
5108
  3
PSVPSCALE
350
5109
  3
DIMSTYLEDATA
350
510A
  3
PUCSORTHOREF
350
510B
  3
PUCSORTHOVIEW
350
510C
  3
PUCSBASE
350
510D
  3
PUCSORGTOP
350
510E
  3
PUCSORGBOTTOM
350
510F
  3
PUCSORGLEFT
350
5110
  3
PUCSORGRIGHT
350
5111
  3
PUCSORGFRONT
350
5112
  3
PUCSORGBACK
350
5113
  3
UCSORTHOREF
350
5114
  3
UCSORTHOVIEW
350
5115
  3
UCSBASE
350
5116
  3
UCSORGTOP
350
5117
  3
UCSORGBOTTOM
350
5118
  3
UCSORGLEFT
350
5119
  3
UCSORGRIGHT
350
511A
  3
UCSORGFRONT
350
511B
  3
UCSORGBACK
350
511C
  0
DICTIONARY
  5
50F2
102
{ACAD_REACTORS
330
74
102
}
330
74
100
AcDbDictionary
  3
*A1
350
50F3
  0
XRECORD
  5
511F
102
{ACAD_REACTORS
330
74
102
}
330
74
100
AcDbXrecord
340
1F
  0
XRECORD
  5
5125
102
{ACAD_REACTORS
330
5124
102
}
330
5124
100
AcDbXrecord
340
101
  0
MLINESTYLE
  5
18
102
{ACAD_REACTORS
330
17
102
}
330
17
100
AcDbMlineStyle
  2
STANDARD
 70
     0
  3

 62
   256
 51
90.0
 52
90.0
 71
     2
 49
0.5
 62
   256
  6
BYLAYER
 49
-0.5
 62
   256
  6
BYLAYER
  0
ACDBPLACEHOLDER
  5
F
102
{ACAD_REACTORS
330
E
102
}
330
E
100
AcDbPlaceHolder
280
     0
  0
DICTIONARYVAR
  5
35
102
{ACAD_REACTORS
330
34
102
}
330
34
100
DictionaryVariables
280
     0
  1
1
  0
DICTIONARYVAR
  5
B5E
102
{ACAD_REACTORS
330
34
102
}
330
34
100
DictionaryVariables
280
     0
  1
96
  0
DICTIONARY
  5
260
102
{ACAD_REACTORS
330
43
102
}
330
43
100
AcDbDictionary
  0
DICTIONARY
  5
2C
102
{ACAD_REACTORS
330
2B
102
}
330
2B
100
AcDbDictionary
  3
DWGSETTINGS
350
2D
  0
XRECORD
  5
50FD
102
{ACAD_REACTORS
330
50FC
102
}
330
50FC
100
AcDbXrecord
 90
        1
  0
XRECORD
  5
50FE
102
{ACAD_REACTORS
330
50FC
102
}
330
50FC
100
AcDbXrecord
 90
       70
  0
XRECORD
  5
50FF
102
{ACAD_REACTORS
330
50FC
102
}
330
50FC
100
AcDbXrecord
  1

  0
XRECORD
  5
5100
102
{ACAD_REACTORS
330
50FC
102
}
330
50FC
100
AcDbXrecord
  1
ASAMI.ctb
  0
XRECORD
  5
5101
102
{ACAD_REACTORS
330
50FC
102
}
330
50FC
100
AcDbXrecord
340
1A
  0
XRECORD
  5
5102
102
{ACAD_REACTORS
330
50FC
102
}
330
50FC
100
AcDbXrecord
340
19
  0
XRECORD
  5
5103
102
{ACAD_REACTORS
330
50FC
102
}
330
50FC
100
AcDbXrecord
340
E
  0
XRECORD
  5
5104
102
{ACAD_REACTORS
330
50FC
102
}
330
50FC
100
AcDbXrecord
 90
    10781
  0
XRECORD
  5
5105
102
{ACAD_REACTORS
330
50FC
102
}
330
50FC
100
AcDbXrecord
 90
        4
  0
XRECORD
  5
5106
102
{ACAD_REACTORS
330
50FC
102
}
330
50FC
100
AcDbXrecord
 90
        0
  0
XRECORD
  5
5107
102
{ACAD_REACTORS
330
50FC
102
}
330
50FC
100
AcDbXrecord
  1
{AFB28963-8C59-40AE-9337-C84526B81ACE}
  0
XRECORD
  5
5108
102
{ACAD_REACTORS
330
50FC
102
}
330
50FC
100
AcDbXrecord
  1
{05BF3081-7254-47D1-B6A2-A951518D1069}
  0
XRECORD
  5
5109
102
{ACAD_REACTORS
330
50FC
102
}
330
50FC
100
AcDbXrecord
 40
0.0
  0
XRECORD
  5
510A
102
{ACAD_REACTORS
330
50FC
102
}
330
50FC
100
AcDbXrecord
1000
DSTYLE
1002
{
1070
    79
 70
     2
1070
   341
340
59
1070
   342
340
59
1070
   371
 70
    -1
1070
   372
 70
    -1
1002
}
  0
XRECORD
  5
510B
102
{ACAD_REACTORS
330
50FC
102
}
330
50FC
100
AcDbXrecord
340
0
  0
XRECORD
  5
510C
102
{ACAD_REACTORS
330
50FC
102
}
330
50FC
100
AcDbXrecord
 70
     0
  0
XRECORD
  5
510D
102
{ACAD_REACTORS
330
50FC
102
}
330
50FC
100
AcDbXrecord
340
0
  0
XRECORD
  5
510E
102
{ACAD_REACTORS
330
50FC
102
}
330
50FC
100
AcDbXrecord
 10
0.0
 20
0.0
 30
0.0
  0
XRECORD
  5
510F
102
{ACAD_REACTORS
330
50FC
102
}
330
50FC
100
AcDbXrecord
 10
0.0
 20
0.0
 30
0.0
  0
XRECORD
  5
5110
102
{ACAD_REACTORS
330
50FC
102
}
330
50FC
100
AcDbXrecord
 10
0.0
 20
0.0
 30
0.0
  0
XRECORD
  5
5111
102
{ACAD_REACTORS
330
50FC
102
}
330
50FC
100
AcDbXrecord
 10
0.0
 20
0.0
 30
0.0
  0
XRECORD
  5
5112
102
{ACAD_REACTORS
330
50FC
102
}
330
50FC
100
AcDbXrecord
 10
0.0
 20
0.0
 30
0.0
  0
XRECORD
  5
5113
102
{ACAD_REACTORS
330
50FC
102
}
330
50FC
100
AcDbXrecord
 10
0.0
 20
0.0
 30
0.0
  0
XRECORD
  5
5114
102
{ACAD_REACTORS
330
50FC
102
}
330
50FC
100
AcDbXrecord
340
0
  0
XRECORD
  5
5115
102
{ACAD_REACTORS
330
50FC
102
}
330
50FC
100
AcDbXrecord
 70
     0
  0
XRECORD
  5
5116
102
{ACAD_REACTORS
330
50FC
102
}
330
50FC
100
AcDbXrecord
340
0
  0
XRECORD
  5
5117
102
{ACAD_REACTORS
330
50FC
102
}
330
50FC
100
AcDbXrecord
 10
0.0
 20
0.0
 30
0.0
  0
XRECORD
  5
5118
102
{ACAD_REACTORS
330
50FC
102
}
330
50FC
100
AcDbXrecord
 10
0.0
 20
0.0
 30
0.0
  0
XRECORD
  5
5119
102
{ACAD_REACTORS
330
50FC
102
}
330
50FC
100
AcDbXrecord
 10
0.0
 20
0.0
 30
0.0
  0
XRECORD
  5
511A
102
{ACAD_REACTORS
330
50FC
102
}
330
50FC
100
AcDbXrecord
 10
0.0
 20
0.0
 30
0.0
  0
XRECORD
  5
511B
102
{ACAD_REACTORS
330
50FC
102
}
330
50FC
100
AcDbXrecord
 10
0.0
 20
0.0
 30
0.0
  0
XRECORD
  5
511C
102
{ACAD_REACTORS
330
50FC
102
}
330
50FC
100
AcDbXrecord
 10
0.0
 20
0.0
 30
0.0
  0
LAYER_INDEX
  5
50F3
102
{ACAD_REACTORS
330
50F2
102
}
330
50F2
100
AcDbIndex
 40
2453151.72221081
100
AcDbLayerIndex
  8
0
360
50F4
 90
        0
  8
AM_0
360
50F5
 90
       66
  8
AM_7
360
50F6
 90
        1
  8
AM_11
360
50F7
 90
       29
  8
AM_5
360
50F8
 90
        5
  8
Defpoints
360
50F9
 90
        0
  8
AM_6
360
50FA
 90
        1
  0
XRECORD
  5
2D
102
{ACAD_REACTORS
330
2C
102
}
330
2C
100
AcDbXrecord
  1
VERSION
140
15.0
  1
PRODUCT
  2
AutoCAD Mechanical 2000
  0
IDBUFFER
  5
50F4
330
0
100
AcDbIdBuffer
  0
IDBUFFER
  5
50F5
330
0
100
AcDbIdBuffer
330
4FE2
330
4FE3
330
4FE4
330
4FE5
330
4FE7
330
4FE9
330
4FEB
330
4FEC
330
4FED
330
4FEE
330
4FEF
330
4FF0
330
4FF1
330
4FF2
330
4FF4
330
4FF5
330
4FF6
330
4FF7
330
C1D
330
4522
330
4525
330
4526
330
4536
330
4544
330
4547
330
4658
330
46D0
330
46E1
330
4831
330
4874
330
4877
330
4BB1
330
4BB2
330
4FBD
330
4FBE
330
4FBF
330
4FC0
330
4FC1
330
4FC2
330
4FC3
330
4FC4
330
4FC5
330
4FC6
330
4FC7
330
4FCB
330
4FCC
330
4FCD
330
4FCE
330
4FCF
330
4FD0
330
4FD1
330
4FD2
330
4FD3
330
4FD4
330
4FD5
330
4FD6
330
4FD7
330
4FD8
330
4FD9
330
4FDA
330
4FDB
330
4FDD
330
4FDE
330
4FDF
330
4FE0
330
4FE1
  0
IDBUFFER
  5
50F6
330
0
100
AcDbIdBuffer
330
C9F
  0
IDBUFFER
  5
50F7
330
0
100
AcDbIdBuffer
330
4D32
330
4D33
330
4D34
330
4D35
330
4D36
330
4FC8
330
4FC9
330
4FCA
330
4FDC
330
4FE6
330
4FE8
330
4FEA
330
4FF3
330
4D1E
330
4D1F
330
4D20
330
4D21
330
4D22
330
4D23
330
4D24
330
4D29
330
4D2A
330
4D2B
330
4D2C
330
4D2D
330
4D2E
330
4D2F
330
4D30
330
4D31
  0
IDBUFFER
  5
50F8
330
0
100
AcDbIdBuffer
330
CC6
330
DF5
330
48D2
330
4A9C
330
4DEE
  0
IDBUFFER
  5
50F9
330
0
100
AcDbIdBuffer
  0
IDBUFFER
  5
50FA
330
0
100
AcDbIdBuffer
330
19BD
  0
ENDSEC
  0
EOF
