  0
SECTION
  2
HEADER
  9
$ACADVER
  1
AC1014
  9
$ACADMAINTVER
 70
     9
  9
$DWGCODEPAGE
  3
ANSI_932
  9
$INSBASE
 10
0.0
 20
0.0
 30
0.0
  9
$EXTMIN
 10
-100.4000009999999
 20
-26.75001206798984
 30
-0.00000001
  9
$EXTMAX
 10
14.56429417212132
 20
14.15582965651501
 30
0.00000001
  9
$LIMMIN
 10
-126.9722917054209
 20
-47.01556391205523
  9
$LIMMAX
 10
22.8581825236518
 20
32.61046322322207
  9
$ORTHOMODE
 70
     0
  9
$REGENMODE
 70
     1
  9
$FILLMODE
 70
     1
  9
$QTEXTMODE
 70
     0
  9
$MIRRTEXT
 70
     0
  9
$DRAGMODE
 70
     2
  9
$LTSCALE
 40
1.0
  9
$OSMODE
 70
    55
  9
$ATTMODE
 70
     1
  9
$TEXTSIZE
 40
2.5
  9
$TRACEWID
 40
1.0
  9
$TEXTSTYLE
  7
STANDARD
  9
$CLAYER
  8
AM_0
  9
$CELTYPE
  6
BYLAYER
  9
$CECOLOR
 62
   256
  9
$CELTSCALE
 40
1.0
  9
$DELOBJ
 70
     1
  9
$DISPSILH
 70
     0
  9
$DIMSCALE
 40
0.5
  9
$DIMASZ
 40
2.5
  9
$DIMEXO
 40
1.0
  9
$DIMDLI
 40
12.0
  9
$DIMRND
 40
0.0
  9
$DIMDLE
 40
0.0
  9
$DIMEXE
 40
1.0
  9
$DIMTP
 40
0.1
  9
$DIMTM
 40
0.1
  9
$DIMTXT
 40
3.2
  9
$DIMCEN
 40
0.0
  9
$DIMTSZ
 40
0.0
  9
$DIMTOL
 70
     0
  9
$DIMLIM
 70
     0
  9
$DIMTIH
 70
     0
  9
$DIMTOH
 70
     0
  9
$DIMSE1
 70
     0
  9
$DIMSE2
 70
     0
  9
$DIMTAD
 70
     3
  9
$DIMZIN
 70
     8
  9
$DIMBLK
  1
OPEN30
  9
$DIMASO
 70
     1
  9
$DIMSHO
 70
     1
  9
$DIMPOST
  1

  9
$DIMAPOST
  1
"
  9
$DIMALT
 70
     0
  9
$DIMALTD
 70
     2
  9
$DIMALTF
 40
0.0393701
  9
$DIMLFAC
 40
1.0
  9
$DIMTOFL
 70
     1
  9
$DIMTVP
 40
0.0
  9
$DIMTIX
 70
     0
  9
$DIMSOXD
 70
     0
  9
$DIMSAH
 70
     0
  9
$DIMBLK1
  1

  9
$DIMBLK2
  1

  9
$DIMSTYLE
  2
AM_JIS
  9
$DIMCLRD
 70
   256
  9
$DIMCLRE
 70
   256
  9
$DIMCLRT
 70
     2
  9
$DIMTFAC
 40
0.71
  9
$DIMGAP
 40
1.5
  9
$DIMJUST
 70
     0
  9
$DIMSD1
 70
     0
  9
$DIMSD2
 70
     0
  9
$DIMTOLJ
 70
     0
  9
$DIMTZIN
 70
     0
  9
$DIMALTZ
 70
     0
  9
$DIMALTTZ
 70
     0
  9
$DIMFIT
 70
     3
  9
$DIMUPT
 70
     0
  9
$DIMUNIT
 70
     2
  9
$DIMDEC
 70
     3
  9
$DIMTDEC
 70
     3
  9
$DIMALTU
 70
     2
  9
$DIMALTTD
 70
     2
  9
$DIMTXSTY
  7
ASAMI
  9
$DIMAUNIT
 70
     0
  9
$LUNITS
 70
     2
  9
$LUPREC
 70
     2
  9
$SKETCHINC
 40
1.0
  9
$FILLETRAD
 40
2.5
  9
$AUNITS
 70
     0
  9
$AUPREC
 70
     0
  9
$MENU
  1
.
  9
$ELEVATION
 40
0.0
  9
$PELEVATION
 40
0.0
  9
$THICKNESS
 40
0.0
  9
$LIMCHECK
 70
     0
  9
$BLIPMODE
 70
     0
  9
$CHAMFERA
 40
0.5
  9
$CHAMFERB
 40
0.5
  9
$CHAMFERC
 40
20.0
  9
$CHAMFERD
 40
0.0
  9
$SKPOLY
 70
     0
  9
$TDCREATE
 40
2452800.443498622
  9
$TDUPDATE
 40
2453151.580224595
  9
$TDINDWG
 40
0.0718534722
  9
$TDUSRTIMER
 40
0.0718534722
  9
$USRTIMER
 70
     1
  9
$ANGBASE
 50
0.0
  9
$ANGDIR
 70
     0
  9
$PDMODE
 70
     3
  9
$PDSIZE
 40
0.0
  9
$PLINEWID
 40
0.0
  9
$COORDS
 70
     1
  9
$SPLFRAME
 70
     0
  9
$SPLINETYPE
 70
     6
  9
$SPLINESEGS
 70
     8
  9
$ATTDIA
 70
     1
  9
$ATTREQ
 70
     1
  9
$HANDLING
 70
 12289
  9
$HANDSEED
  5
2B02
  9
$SURFTAB1
 70
     6
  9
$SURFTAB2
 70
     6
  9
$SURFTYPE
 70
     6
  9
$SURFU
 70
     6
  9
$SURFV
 70
     6
  9
$UCSNAME
  2

  9
$UCSORG
 10
0.0
 20
0.0
 30
0.0
  9
$UCSXDIR
 10
1.0
 20
0.000000000000002
 30
0.0
  9
$UCSYDIR
 10
-0.000000000000002
 20
1.0
 30
0.0
  9
$PUCSNAME
  2

  9
$PUCSORG
 10
0.0
 20
0.0
 30
0.0
  9
$PUCSXDIR
 10
1.0
 20
0.0
 30
0.0
  9
$PUCSYDIR
 10
0.0
 20
1.0
 30
0.0
  9
$USERI1
 70
     0
  9
$USERI2
 70
     0
  9
$USERI3
 70
     0
  9
$USERI4
 70
     0
  9
$USERI5
 70
     0
  9
$USERR1
 40
0.0
  9
$USERR2
 40
0.0
  9
$USERR3
 40
0.0
  9
$USERR4
 40
0.0
  9
$USERR5
 40
0.0
  9
$WORLDVIEW
 70
     1
  9
$SHADEDGE
 70
     3
  9
$SHADEDIF
 70
    70
  9
$TILEMODE
 70
     1
  9
$MAXACTVP
 70
    64
  9
$PINSBASE
 10
0.0
 20
0.0
 30
0.0
  9
$PLIMCHECK
 70
     0
  9
$PEXTMIN
 10
1.000000000000000E+20
 20
1.000000000000000E+20
 30
1.000000000000000E+20
  9
$PEXTMAX
 10
-1.000000000000000E+20
 20
-1.000000000000000E+20
 30
-1.000000000000000E+20
  9
$PLIMMIN
 10
0.0
 20
0.0
  9
$PLIMMAX
 10
841.0
 20
594.0
  9
$UNITMODE
 70
     0
  9
$VISRETAIN
 70
     1
  9
$PLINEGEN
 70
     0
  9
$PSLTSCALE
 70
     0
  9
$TREEDEPTH
 70
  3020
  9
$PICKSTYLE
 70
     0
  9
$CMLSTYLE
  2
STANDARD
  9
$CMLJUST
 70
     0
  9
$CMLSCALE
 40
20.0
  9
$PROXYGRAPHICS
 70
     1
  9
$MEASUREMENT
 70
     1
  0
ENDSEC
  0
SECTION
  2
CLASSES
  0
CLASS
  1
ACDBDICTIONARYWDFLT
  2
AcDbDictionaryWithDefault
  3
AutoCAD 2000
 90
        0
280
     0
281
     0
  0
CLASS
  1
ACDBPLACEHOLDER
  2
AcDbPlaceHolder
  3
AutoCAD 2000
 90
        0
280
     0
281
     0
  0
CLASS
  1
LAYOUT
  2
AcDbLayout
  3
AutoCAD 2000
 90
        0
280
     0
281
     0
  0
CLASS
  1
AMGSETTINGSOBJ
  2
AmgSettingsObj
  3
"AcadM|Product Description: AutoCAD Mechanical 2000|Company: Autodesk"
 90
        0
280
     0
281
     0
  0
CLASS
  1
ACME_DOCUMENT
  2
AcMeDbDoc
  3
AcMeServices
 90
        0
280
     0
281
     0
  0
CLASS
  1
ACMESCOPE
  2
AcMeScope
  3
AcMeServices
 90
        0
280
     0
281
     0
  0
CLASS
  1
ACMECOMMANDHISTORY
  2
AcMeCommandHistory
  3
AcMeServices
 90
        0
280
     0
281
     0
  0
CLASS
  1
DICTIONARYVAR
  2
AcDbDictionaryVar
  3
AutoCAD 2000
 90
        0
280
     0
281
     0
  0
CLASS
  1
ACIMSYSVARMAN
  2
AcImSysVarManager
  3
AcMeServices
 90
        0
280
     0
281
     0
  0
CLASS
  1
ACIMREALSYSVAR
  2
AcImRealSysVar
  3
AcMeServices
 90
        0
280
     0
281
     0
  0
CLASS
  1
ACIMINTSYSVAR
  2
AcImIntSysVar
  3
AcMeServices
 90
        0
280
     0
281
     0
  0
CLASS
  1
ACMEDRAWINGMAN
  2
AcMeDrawingMan
  3
AcMeServices
 90
        0
280
     0
281
     0
  0
CLASS
  1
ACMEVIEW
  2
AcMeView
  3
AcMeServices
 90
        0
280
     0
281
     0
  0
CLASS
  1
ACDBENTITYCACHE
  2
AcMeEntityCache
  3
AcMeServices
 90
        0
280
     0
281
     0
  0
CLASS
  1
GSMANAGER
  2
AcMeGSManager
  3
AcMeServices
 90
        0
280
     0
281
     0
  0
CLASS
  1
AmdtInternalReactor
  2
AmdtInternalReactor
  3
AcMeServices
 90
        0
280
     0
281
     0
  0
CLASS
  1
ACMESTATEMGR
  2
AcMeStateMgr
  3
AcMeServices
 90
        0
280
     0
281
     0
  0
CLASS
  1
ACME_DATABASE
  2
AcMeDbDatabase
  3
AcMeServices
 90
        0
280
     0
281
     0
  0
CLASS
  1
ACRFINSADJUSTERMGR
  2
AcRfInsAdjusterMgr
  3
AcMeServices
 90
        0
280
     0
281
     0
  0
CLASS
  1
ACMDATADICTIONARY
  2
AcmDataDictionary
  3
"AcmSymBB|Product Description: AutoCAD Mechanical 2000|Company: Autodesk"
 90
        0
280
     0
281
     0
  0
CLASS
  1
ACMDATAENTRYBLOCK
  2
AcmDataEntryBlock
  3
"AcmSymBB|Product Description: AutoCAD Mechanical 2000|Company: Autodesk"
 90
        0
280
     0
281
     0
  0
CLASS
  1
AMGOBJPROPCFG
  2
AmgObjPropCfg
  3
"AmgLay|Product Description: AutoCAD Mechanical 2000|Company: Autodesk"
 90
        1
280
     0
281
     0
  0
CLASS
  1
ACAMGFILTERDAT
  2
AcAmgFilterDat
  3
"AcadM|Product Description: AutoCAD Mechanical 2000|Company: Autodesk"
 90
        0
280
     0
281
     0
  0
CLASS
  1
LAYER_INDEX
  2
AcDbLayerIndex
  3
AutoCAD 2000
 90
        0
280
     0
281
     0
  0
CLASS
  1
IDBUFFER
  2
AcDbIdBuffer
  3
AutoCAD 2000
 90
        0
280
     0
281
     0
  0
CLASS
  1
ACIMSTRSYSVAR
  2
AcImStrSysVar
  3
AcMeServices
 90
        0
280
     0
281
     0
  0
CLASS
  1
ACMSTANDARDJIS
  2
AcmStandardJIS
  3
"AcmSymBB|Product Description: AutoCAD Mechanical 2000|Company: Autodesk"
 90
        0
280
     0
281
     0
  0
CLASS
  1
ACMSURFSTANDARDJIS
  2
AcmSurfTextStdJIS
  3
"AcmSymBB|Product Description: AutoCAD Mechanical 2000|Company: Autodesk"
 90
        0
280
     0
281
     0
  0
CLASS
  1
ACMFCFSTANDARDJIS
  2
AcmFCFStdJIS
  3
"AcmSymBB|Product Description: AutoCAD Mechanical 2000|Company: Autodesk"
 90
        0
280
     0
281
     0
  0
CLASS
  1
ACMWELDSTANDARDJIS
  2
AcmWeldingStdJIS
  3
"AcmSymBB|Product Description: AutoCAD Mechanical 2000|Company: Autodesk"
 90
        0
280
     0
281
     0
  0
CLASS
  1
ACMIDSTANDARDJIS
  2
AcmIdStdJIS
  3
"AcmSymBB|Product Description: AutoCAD Mechanical 2000|Company: Autodesk"
 90
        0
280
     0
281
     0
  0
CLASS
  1
ACMDATUMSTANDARDJIS
  2
AcmDatumStdJIS
  3
"AcmSymBB|Product Description: AutoCAD Mechanical 2000|Company: Autodesk"
 90
        0
280
     0
281
     0
  0
CLASS
  1
ACMBOMSTANDARDJIS
  2
AcmBOMStdJIS
  3
"AcmSymBB|Product Description: AutoCAD Mechanical 2000|Company: Autodesk"
 90
        0
280
     0
281
     0
  0
CLASS
  1
ACMSTANDARDANSI
  2
AcmStandardANSI
  3
"AcmSymBB|Product Description: AutoCAD Mechanical 2000|Company: Autodesk"
 90
        0
280
     0
281
     0
  0
CLASS
  1
ACMSURFSTANDARDANSI
  2
AcmSurfTextStdANSI
  3
"AcmSymBB|Product Description: AutoCAD Mechanical 2000|Company: Autodesk"
 90
        0
280
     0
281
     0
  0
CLASS
  1
ACMFCFSTANDARDANSI
  2
AcmFCFStdANSI
  3
"AcmSymBB|Product Description: AutoCAD Mechanical 2000|Company: Autodesk"
 90
        0
280
     0
281
     0
  0
CLASS
  1
ACMWELDSTANDARDANSI
  2
AcmWeldingStdANSI
  3
"AcmSymBB|Product Description: AutoCAD Mechanical 2000|Company: Autodesk"
 90
        0
280
     0
281
     0
  0
CLASS
  1
ACMIDSTANDARDANSI
  2
AcmIdStdANSI
  3
"AcmSymBB|Product Description: AutoCAD Mechanical 2000|Company: Autodesk"
 90
        0
280
     0
281
     0
  0
CLASS
  1
ACMDATUMSTANDARDANSI
  2
AcmDatumStdANSI
  3
"AcmSymBB|Product Description: AutoCAD Mechanical 2000|Company: Autodesk"
 90
        0
280
     0
281
     0
  0
CLASS
  1
ACMBOMSTANDARDANSI
  2
AcmBOMStdANSI
  3
"AcmSymBB|Product Description: AutoCAD Mechanical 2000|Company: Autodesk"
 90
        0
280
     0
281
     0
  0
CLASS
  1
ACMSTANDARDBSI
  2
AcmStandardBSI
  3
"AcmSymBB|Product Description: AutoCAD Mechanical 2000|Company: Autodesk"
 90
        0
280
     0
281
     0
  0
CLASS
  1
ACMSURFSTANDARDBSI
  2
AcmSurfTextStdBSI
  3
"AcmSymBB|Product Description: AutoCAD Mechanical 2000|Company: Autodesk"
 90
        0
280
     0
281
     0
  0
CLASS
  1
ACMFCFSTANDARDBSI
  2
AcmFCFStdBSI
  3
"AcmSymBB|Product Description: AutoCAD Mechanical 2000|Company: Autodesk"
 90
        0
280
     0
281
     0
  0
CLASS
  1
ACMWELDSTANDARDBSI
  2
AcmWeldingStdBSI
  3
"AcmSymBB|Product Description: AutoCAD Mechanical 2000|Company: Autodesk"
 90
        0
280
     0
281
     0
  0
CLASS
  1
ACMIDSTANDARDBSI
  2
AcmIdStdBSI
  3
"AcmSymBB|Product Description: AutoCAD Mechanical 2000|Company: Autodesk"
 90
        0
280
     0
281
     0
  0
CLASS
  1
ACMDATUMSTANDARDBSI
  2
AcmDatumStdBSI
  3
"AcmSymBB|Product Description: AutoCAD Mechanical 2000|Company: Autodesk"
 90
        0
280
     0
281
     0
  0
CLASS
  1
ACMBOMSTANDARDBSI
  2
AcmBOMStdBSI
  3
"AcmSymBB|Product Description: AutoCAD Mechanical 2000|Company: Autodesk"
 90
        0
280
     0
281
     0
  0
CLASS
  1
LONG_TRANSACTION
  2
AcDbLongTransaction
  3
AutoCAD 2000
 90
        0
280
     0
281
     0
  0
CLASS
  1
LWPOLYLINE
  2
AcDbPolyline
  3
AutoCAD 2000
 90
        0
280
     0
281
     1
  0
CLASS
  1
HATCH
  2
AcDbHatch
  3
AutoCAD 2000
 90
        0
280
     0
281
     1
  0
CLASS
  1
XRECORD
  2
AcDbXrecord
  3
AutoCAD 2000
 90
        0
280
     0
281
     0
  0
ENDSEC
  0
SECTION
  2
TABLES
  0
TABLE
  2
VPORT
  5
8
330
0
100
AcDbSymbolTable
 70
     3
  0
VPORT
  5
2ACC
330
8
100
AcDbSymbolTableRecord
100
AcDbViewportTableRecord
  2
*ACTIVE
 70
     0
 10
0.0
 20
0.0
 11
1.0
 21
1.0
 12
-40.78720038490659
 22
-6.297377577772138
 13
0.0
 23
0.0
 14
2.5
 24
2.5
 15
10.0
 25
10.0
 16
0.0
 26
0.0
 36
1.0
 17
0.0
 27
0.0
 37
0.0
 40
76.52710482944943
 41
1.56570841889117
 42
50.0
 43
0.0
 44
0.0
 50
0.0
 51
0.0
 71
     0
 72
   100
 73
     1
 74
     1
 75
     0
 76
     0
 77
     0
 78
     0
  0
ENDTAB
  0
TABLE
  2
LTYPE
  5
5
330
0
100
AcDbSymbolTable
 70
    10
  0
LTYPE
  5
14
330
5
100
AcDbSymbolTableRecord
100
AcDbLinetypeTableRecord
  2
BYBLOCK
 70
     0
  3

 72
    65
 73
     0
 40
0.0
  0
LTYPE
  5
15
330
5
100
AcDbSymbolTableRecord
100
AcDbLinetypeTableRecord
  2
BYLAYER
 70
     0
  3

 72
    65
 73
     0
 40
0.0
  0
LTYPE
  5
16
330
5
100
AcDbSymbolTableRecord
100
AcDbLinetypeTableRecord
  2
CONTINUOUS
 70
     0
  3
Solid line
 72
    65
 73
     0
 40
0.0
  0
LTYPE
  5
4B
330
5
100
AcDbSymbolTableRecord
100
AcDbLinetypeTableRecord
  2
AM_ISO02W050
 70
     0
  3
__ __ __ __ __ __ __ __ __ __ __ __ __ __ __
 72
    65
 73
     2
 40
7.5
 49
6.0
 74
     0
 49
-1.5
 74
     0
  0
LTYPE
  5
4C
330
5
100
AcDbSymbolTableRecord
100
AcDbLinetypeTableRecord
  2
AM_ISO08W050
 70
     0
  3
____ . ____ . ____ . ____ . ____ . ____ . ____
 72
    65
 73
     4
 40
18.0
 49
12.0
 74
     0
 49
-1.5
 74
     0
 49
3.0
 74
     0
 49
-1.5
 74
     0
  0
LTYPE
  5
4D
330
5
100
AcDbSymbolTableRecord
100
AcDbLinetypeTableRecord
  2
AM_ISO09W050
 70
     0
  3
_____ . . _____ . . _____ . . ____ .. ____
 72
    65
 73
     6
 40
22.5
 49
12.0
 74
     0
 49
-1.5
 74
     0
 49
3.0
 74
     0
 49
-1.5
 74
     0
 49
3.0
 74
     0
 49
-1.5
 74
     0
  0
LTYPE
  5
4E
330
5
100
AcDbSymbolTableRecord
100
AcDbLinetypeTableRecord
  2
AMCONSTR
 70
     0
  3
_______________________
 72
    65
 73
     2
 40
9999.0
 49
9999.0
 74
     0
 49
0.0
 74
     0
  0
LTYPE
  5
4F
330
5
100
AcDbSymbolTableRecord
100
AcDbLinetypeTableRecord
  2
AM_ISO02W050X2
 70
     0
  3
 _ _ _ _ _ _ _ _ _ _ _ _
 72
    65
 73
     2
 40
3.75
 49
3.0
 74
     0
 49
-0.75
 74
     0
  0
LTYPE
  5
50
330
5
100
AcDbSymbolTableRecord
100
AcDbLinetypeTableRecord
  2
AM_ISO08W050X2
 70
     0
  3
__ . __ . __ . __ . __ . __
 72
    65
 73
     4
 40
9.0
 49
6.0
 74
     0
 49
-0.75
 74
     0
 49
1.5
 74
     0
 49
-0.75
 74
     0
  0
LTYPE
  5
53
330
5
100
AcDbSymbolTableRecord
100
AcDbLinetypeTableRecord
  2
AMZIGZAG
 70
     0
  3
/\/-/\/-/\/-/\/-/\/-/\/
 72
    65
 73
     2
 40
11.00009999999999
 49
0.0001
 74
     4
 75
   135
340
52
 46
0.04
 50
0.0
 44
0.0
 45
0.0
 49
-11.0
 74
     0
  0
LTYPE
  5
166
330
5
100
AcDbSymbolTableRecord
100
AcDbLinetypeTableRecord
  2
ACJISTGL
 70
     0
  3
_ _ _ _ _
 72
    65
 73
     2
 40
3.0
 49
2.0
 74
     0
 49
-1.0
 74
     0
  0
LTYPE
  5
26A
330
5
100
AcDbSymbolTableRecord
100
AcDbLinetypeTableRecord
  2
ACJISTGB
 70
     0
  3
__ . . __ . .
 72
    65
 73
     6
 40
9.0
 49
4.0
 74
     0
 49
-1.0
 74
     0
 49
1.0
 74
     0
 49
-1.0
 74
     0
 49
1.0
 74
     0
 49
-1.0
 74
     0
  0
ENDTAB
  0
TABLE
  2
LAYER
  5
2
330
0
100
AcDbSymbolTable
 70
     8
  0
LAYER
  5
10
330
2
100
AcDbSymbolTableRecord
100
AcDbLayerTableRecord
  2
0
 70
     0
 62
     7
  6
CONTINUOUS
  0
LAYER
  5
3F9
330
2
100
AcDbSymbolTableRecord
100
AcDbLayerTableRecord
  2
AM_0
 70
     0
 62
     7
  6
CONTINUOUS
  0
LAYER
  5
C7C
330
2
100
AcDbSymbolTableRecord
100
AcDbLayerTableRecord
  2
AM_7
 70
     0
 62
     4
  6
AM_ISO08W050
  0
LAYER
  5
C97
330
2
100
AcDbSymbolTableRecord
100
AcDbLayerTableRecord
  2
AM_11
 70
     0
 62
     3
  6
AM_ISO09W050
  0
LAYER
  5
CC5
330
2
100
AcDbSymbolTableRecord
100
AcDbLayerTableRecord
  2
AM_5
 70
     0
 62
     3
  6
CONTINUOUS
  0
LAYER
  5
CC7
330
2
100
AcDbSymbolTableRecord
100
AcDbLayerTableRecord
  2
DEFPOINTS
 70
     0
 62
     7
  6
CONTINUOUS
  0
LAYER
  5
19BC
330
2
100
AcDbSymbolTableRecord
100
AcDbLayerTableRecord
  2
AM_6
 70
     0
 62
     2
  6
CONTINUOUS
  0
LAYER
  5
2A66
330
2
100
AcDbSymbolTableRecord
100
AcDbLayerTableRecord
  2
AM_CL
 70
     0
 62
     1
  6
AMCONSTR
  0
ENDTAB
  0
TABLE
  2
STYLE
  5
3
330
0
100
AcDbSymbolTable
 70
     5
  0
STYLE
  5
11
330
3
100
AcDbSymbolTableRecord
100
AcDbTextStyleTableRecord
  2
STANDARD
 70
     0
 40
0.0
 41
1.0
 50
0.0
 71
     0
 42
2.5
  3
simplex.shx
  4
EXTFONT.SHX
  0
STYLE
  5
52
330
3
100
AcDbSymbolTableRecord
100
AcDbTextStyleTableRecord
  2

 70
     1
 40
0.0
 41
1.0
 50
0.0
 71
     0
 42
2.5
  3
ltypeshp.shx
  4

  0
STYLE
  5
6B
330
3
100
AcDbSymbolTableRecord
100
AcDbTextStyleTableRecord
  2
ASAMI
 70
     0
 40
0.0
 41
1.0
 50
0.0
 71
     0
 42
2.5
  3
simplex.shx
  4
EXTFONT.SHX
  0
STYLE
  5
262
330
3
100
AcDbSymbolTableRecord
100
AcDbTextStyleTableRecord
  2
ACJISTS
 70
     0
 40
1.0
 41
1.0
 50
0.0
 71
     0
 42
2.5
  3
simplex.shx
  4
bigfont.shx
  0
STYLE
  5
269
330
3
100
AcDbSymbolTableRecord
100
AcDbTextStyleTableRecord
  2
ACJISGDT
 70
     0
 40
0.0
 41
1.0
 50
0.0
 71
     0
 42
2.5
  3
amgdtans.shx
  4

  0
ENDTAB
  0
TABLE
  2
VIEW
  5
6
330
0
100
AcDbSymbolTable
 70
     0
  0
ENDTAB
  0
TABLE
  2
UCS
  5
7
330
0
100
AcDbSymbolTable
 70
     0
  0
ENDTAB
  0
TABLE
  2
APPID
  5
9
330
0
100
AcDbSymbolTable
 70
    16
  0
APPID
  5
12
330
9
100
AcDbSymbolTableRecord
100
AcDbRegAppTableRecord
  2
ACAD
 70
     0
  0
APPID
  5
30
330
9
100
AcDbSymbolTableRecord
100
AcDbRegAppTableRecord
  2
MCAD_NO_VIS
 70
     0
  0
APPID
  5
31
330
9
100
AcDbSymbolTableRecord
100
AcDbRegAppTableRecord
  2
ACAD_TEMP_GRAPHIC
 70
     0
  0
APPID
  5
2C2
330
9
100
AcDbSymbolTableRecord
100
AcDbRegAppTableRecord
  2
GENIUS_GENDTOL_13
 70
     0
  0
APPID
  5
339
330
9
100
AcDbSymbolTableRecord
100
AcDbRegAppTableRecord
  2
GENIUS_GENODEF_13
 70
     0
  0
APPID
  5
33A
330
9
100
AcDbSymbolTableRecord
100
AcDbRegAppTableRecord
  2
GENIUS_GENOBJ-N-RSBK_13
 70
     0
  0
APPID
  5
33B
330
9
100
AcDbSymbolTableRecord
100
AcDbRegAppTableRecord
  2
GENIUS_GENOBJ-N-LIB_13
 70
     0
  0
APPID
  5
33C
330
9
100
AcDbSymbolTableRecord
100
AcDbRegAppTableRecord
  2
GENIUS_GENSCALE_13
 70
     0
  0
APPID
  5
378
330
9
100
AcDbSymbolTableRecord
100
AcDbRegAppTableRecord
  2
GENIUS_GENDIMSH_14
 70
     0
  0
APPID
  5
C82
330
9
100
AcDbSymbolTableRecord
100
AcDbRegAppTableRecord
  2
GENIUS_GENOBJ-N-CRS_13
 70
     0
  0
APPID
  5
C83
330
9
100
AcDbSymbolTableRecord
100
AcDbRegAppTableRecord
  2
GENIUS_GENOENT_13
 70
     0
  0
APPID
  5
C84
330
9
100
AcDbSymbolTableRecord
100
AcDbRegAppTableRecord
  2
GENIUS_GENOREF_13
 70
     0
  0
APPID
  5
C85
330
9
100
AcDbSymbolTableRecord
100
AcDbRegAppTableRecord
  2
GENIUS_GENOLIS_13
 70
     0
  0
APPID
  5
CA0
330
9
100
AcDbSymbolTableRecord
100
AcDbRegAppTableRecord
  2
GENIUS_GENOBJ-N-CEN_13
 70
     0
  0
APPID
  5
1CFA
330
9
100
AcDbSymbolTableRecord
100
AcDbRegAppTableRecord
  2
GENIUS_GENFIL_13
 70
     0
  0
APPID
  5
1CFB
330
9
100
AcDbSymbolTableRecord
100
AcDbRegAppTableRecord
  2
GENIUS_GENOBJ-N-CHA_13
 70
     0
  0
ENDTAB
  0
TABLE
  2
DIMSTYLE
  5
A
330
0
100
AcDbSymbolTable
 70
     9
  0
DIMSTYLE
105
58
330
A
100
AcDbSymbolTableRecord
100
AcDbDimStyleTableRecord
  2
AM_JIS
 70
     0
  3

  4
"
  5
OPEN30
  6

  7

 40
0.5
 41
2.5
 42
1.0
 43
12.0
 44
1.0
 45
0.0
 46
0.0
 47
0.1
 48
0.1
140
3.2
141
0.0
142
0.0
143
0.0393701
144
1.0
145
0.0
146
0.71
147
1.5
 71
     0
 72
     0
 73
     0
 74
     0
 75
     0
 76
     0
 77
     3
 78
     8
170
     0
171
     2
172
     1
173
     0
174
     0
175
     0
176
   256
177
   256
178
     2
270
     2
271
     3
272
     3
273
     2
274
     2
340
6B
275
     0
280
     0
281
     0
282
     0
283
     0
284
     0
285
     0
286
     0
287
     3
288
     0
  0
DIMSTYLE
105
5F
330
A
100
AcDbSymbolTableRecord
100
AcDbDimStyleTableRecord
  2
AM_JIS$3
 70
     0
  3

  4
"
  5
OPEN30
  6

  7

 40
0.5
 41
2.5
 42
1.0
 43
10.0
 44
1.0
 45
0.0
 46
0.0
 47
0.1
 48
0.1
140
3.2
141
0.0
142
0.0
143
0.0393701
144
1.0
145
0.0
146
0.71
147
1.5
 71
     0
 72
     0
 73
     0
 74
     1
 75
     0
 76
     0
 77
     3
 78
     8
170
     0
171
     2
172
     0
173
     0
174
     0
175
     0
176
   256
177
   256
178
     2
270
     2
271
     2
272
     3
273
     2
274
     2
340
6B
275
     0
280
     0
281
     0
282
     0
283
     0
284
     0
285
     0
286
     0
287
     0
288
     1
  0
DIMSTYLE
105
60
330
A
100
AcDbSymbolTableRecord
100
AcDbDimStyleTableRecord
  2
AM_JIS$4
 70
     0
  3

  4
"
  5
OPEN30
  6

  7

 40
0.5
 41
2.5
 42
1.0
 43
10.0
 44
1.0
 45
0.0
 46
0.0
 47
0.1
 48
0.1
140
3.2
141
0.0
142
0.0
143
0.0393701
144
1.0
145
0.0
146
0.71
147
1.5
 71
     0
 72
     0
 73
     0
 74
     1
 75
     0
 76
     0
 77
     3
 78
     8
170
     0
171
     2
172
     0
173
     0
174
     0
175
     0
176
   256
177
   256
178
     2
270
     2
271
     2
272
     3
273
     2
274
     2
340
6B
275
     0
280
     0
281
     0
282
     0
283
     0
284
     0
285
     0
286
     0
287
     0
288
     1
  0
DIMSTYLE
105
61
330
A
100
AcDbSymbolTableRecord
100
AcDbDimStyleTableRecord
  2
AM_JIS$6
 70
     0
  3

  4
"
  5
OPEN30
  6

  7

 40
0.5
 41
2.5
 42
1.0
 43
10.0
 44
1.0
 45
0.0
 46
0.0
 47
0.1
 48
0.1
140
3.2
141
0.0
142
0.0
143
0.0393701
144
1.0
145
0.0
146
0.71
147
1.5
 71
     0
 72
     0
 73
     0
 74
     0
 75
     0
 76
     0
 77
     0
 78
     8
170
     0
171
     2
172
     1
173
     0
174
     0
175
     0
176
   256
177
   256
178
     2
270
     2
271
     2
272
     2
273
     2
274
     2
340
6B
275
     0
280
     0
281
     0
282
     0
283
     0
284
     0
285
     0
286
     0
287
     3
288
     0
  0
DIMSTYLE
105
62
330
A
100
AcDbSymbolTableRecord
100
AcDbDimStyleTableRecord
  2
AM_JIS$7
 70
     0
  3

  4
"
  5
OPEN30
  6

  7

 40
0.5
 41
2.5
 42
1.0
 43
10.0
 44
1.0
 45
0.0
 46
0.0
 47
0.1
 48
0.1
140
3.2
141
0.0
142
0.0
143
0.0393701
144
1.0
145
0.0
146
0.71
147
1.5
 71
     0
 72
     0
 73
     0
 74
     0
 75
     0
 76
     0
 77
     3
 78
     8
170
     0
171
     2
172
     1
173
     0
174
     0
175
     0
176
   256
177
   256
178
     2
270
     2
271
     2
272
     3
273
     2
274
     2
340
6B
275
     0
280
     0
281
     0
282
     0
283
     0
284
     0
285
     0
286
     0
287
     3
288
     0
  0
DIMSTYLE
105
63
330
A
100
AcDbSymbolTableRecord
100
AcDbDimStyleTableRecord
  2
AM_JIS$SF
 70
     0
  3

  4
"
  5
OPEN30
  6

  7

 40
0.5
 41
2.5
 42
1.0
 43
10.0
 44
1.0
 45
0.0
 46
0.0
 47
0.1
 48
0.1
140
3.2
141
0.0
142
0.0
143
0.0393701
144
1.0
145
0.0
146
0.71
147
1.5
 71
     0
 72
     0
 73
     0
 74
     0
 75
     1
 76
     1
 77
     3
 78
     8
170
     0
171
     2
172
     1
173
     0
174
     0
175
     0
176
   256
177
   256
178
     2
270
     2
271
     2
272
     2
273
     2
274
     2
340
6B
275
     0
280
     0
281
     0
282
     0
283
     0
284
     0
285
     0
286
     0
287
     3
288
     0
  0
DIMSTYLE
105
68
330
A
100
AcDbSymbolTableRecord
100
AcDbDimStyleTableRecord
  2
AM_JIS$SH
 70
     0
  3

  4
"
  5

  6
GENAXEH
  7
OPEN30
 40
0.5
 41
2.5
 42
1.0
 43
10.0
 44
1.0
 45
0.0
 46
0.0
 47
0.1
 48
0.1
140
3.2
141
0.0
142
0.0
143
0.0393701
144
2.0
145
0.0
146
0.71
147
1.5
 71
     0
 72
     0
 73
     0
 74
     0
 75
     1
 76
     1
 77
     3
 78
     8
170
     0
171
     2
172
     1
173
     1
174
     0
175
     0
176
   256
177
   256
178
     2
270
     2
271
     2
272
     2
273
     2
274
     2
340
6B
275
     0
280
     0
281
     0
282
     0
283
     0
284
     0
285
     0
286
     0
287
     3
288
     0
  0
DIMSTYLE
105
B34
102
{ACAD_REACTORS
330
2577
102
}
330
A
100
AcDbSymbolTableRecord
100
AcDbDimStyleTableRecord
  2
AM_JIS$2
 70
     0
  3

  4
"
  5
OPEN30
  6

  7

 40
0.5
 41
2.5
 42
1.0
 43
12.0
 44
1.0
 45
0.0
 46
0.0
 47
0.1
 48
0.1
140
3.2
141
0.0
142
0.0
143
0.0393701
144
1.0
145
0.0
146
0.71
147
1.5
 71
     0
 72
     0
 73
     0
 74
     0
 75
     0
 76
     0
 77
     3
 78
     8
170
     0
171
     2
172
     1
173
     0
174
     0
175
     0
176
   256
177
   256
178
     2
270
     2
271
     3
272
     3
273
     2
274
     2
340
6B
275
     0
280
     0
281
     0
282
     0
283
     0
284
     0
285
     0
286
     0
287
     3
288
     0
  0
DIMSTYLE
105
BA5
102
{ACAD_REACTORS
330
CC6
330
DF5
330
1F93
330
239B
102
}
330
A
100
AcDbSymbolTableRecord
100
AcDbDimStyleTableRecord
  2
AM_JIS$0
 70
     0
  3

  4
"
  5
OPEN30
  6

  7

 40
0.5
 41
2.5
 42
0.0
 43
10.0
 44
1.0
 45
0.0
 46
0.0
 47
0.1
 48
0.1000000001
140
3.799999999999999
141
0.0
142
0.0
143
0.0393701
144
1.0
145
0.0
146
0.71
147
1.5
 71
     0
 72
     0
 73
     0
 74
     0
 75
     0
 76
     0
 77
     3
 78
     1
170
     0
171
     2
172
     1
173
     0
174
     0
175
     0
176
     3
177
     3
178
     2
270
     2
271
     2
272
     2
273
     2
274
     2
340
11
275
     1
280
     0
281
     0
282
     0
283
     0
284
     8
285
     0
286
     0
287
     0
288
     0
  0
ENDTAB
  0
TABLE
  2
BLOCK_RECORD
  5
1
330
0
100
AcDbSymbolTable
 70
    10
  0
BLOCK_RECORD
  5
1F
102
{ACAD_XDICTIONARY
360
74
102
}
330
1
100
AcDbSymbolTableRecord
100
AcDbBlockTableRecord
  2
*MODEL_SPACE
  0
BLOCK_RECORD
  5
101
102
{ACAD_XDICTIONARY
360
2AF5
102
}
330
1
100
AcDbSymbolTableRecord
100
AcDbBlockTableRecord
  2
*PAPER_SPACE
  0
BLOCK_RECORD
  5
59
330
1
100
AcDbSymbolTableRecord
100
AcDbBlockTableRecord
  2
_OPEN30
  0
BLOCK_RECORD
  5
64
330
1
100
AcDbSymbolTableRecord
100
AcDbBlockTableRecord
  2
GENAXEH
  0
BLOCK_RECORD
  5
CC8
330
1
100
AcDbSymbolTableRecord
100
AcDbBlockTableRecord
  2
*D5
  0
BLOCK_RECORD
  5
DF6
330
1
100
AcDbSymbolTableRecord
100
AcDbBlockTableRecord
  2
*D6
  0
BLOCK_RECORD
  5
1F94
330
1
100
AcDbSymbolTableRecord
100
AcDbBlockTableRecord
  2
*D7
  0
BLOCK_RECORD
  5
239C
330
1
100
AcDbSymbolTableRecord
100
AcDbBlockTableRecord
  2
*D8
  0
BLOCK_RECORD
  5
2578
330
1
100
AcDbSymbolTableRecord
100
AcDbBlockTableRecord
  2
*D9
  0
ENDTAB
  0
ENDSEC
  0
SECTION
  2
BLOCKS
  0
BLOCK
  5
20
330
1F
100
AcDbEntity
  8
0
100
AcDbBlockBegin
  2
*MODEL_SPACE
 70
     0
 10
0.0
 20
0.0
 30
0.0
  3
*MODEL_SPACE
  1

  0
ENDBLK
  5
21
330
1F
100
AcDbEntity
  8
0
100
AcDbBlockEnd
  0
BLOCK
  5
103
330
101
100
AcDbEntity
 67
     1
  8
0
100
AcDbBlockBegin
  2
*PAPER_SPACE
 70
     0
 10
0.0
 20
0.0
 30
0.0
  3
*PAPER_SPACE
  1

  0
ENDBLK
  5
104
330
101
100
AcDbEntity
 67
     1
  8
0
100
AcDbBlockEnd
  0
BLOCK
  5
5D
330
59
100
AcDbEntity
  8
0
100
AcDbBlockBegin
  2
_OPEN30
 70
     0
 10
0.0
 20
0.0
 30
0.0
  3
_OPEN30
  1

  0
LINE
  5
5A
330
59
100
AcDbEntity
  8
0
 62
     0
100
AcDbLine
 10
-1.0
 20
0.26794919
 30
0.0
 11
0.0
 21
0.0
 31
0.0
  0
LINE
  5
5B
330
59
100
AcDbEntity
  8
0
 62
     0
100
AcDbLine
 10
0.0
 20
0.0
 30
0.0
 11
-1.0
 21
-0.26794919
 31
0.0
  0
LINE
  5
5C
330
59
100
AcDbEntity
  8
0
 62
     0
100
AcDbLine
 10
0.0
 20
0.0
 30
0.0
 11
-1.0
 21
0.0
 31
0.0
  0
ENDBLK
  5
5E
330
59
100
AcDbEntity
  8
0
100
AcDbBlockEnd
  0
BLOCK
  5
66
330
64
100
AcDbEntity
  8
0
100
AcDbBlockBegin
  2
GENAXEH
 70
     0
 10
0.0
 20
0.0
 30
0.0
  3
GENAXEH
  1

  0
LINE
  5
65
330
64
100
AcDbEntity
  8
0
100
AcDbLine
 10
-1.0
 20
0.0
 30
0.0
 11
1.0
 21
0.0
 31
0.0
  0
ENDBLK
  5
67
330
64
100
AcDbEntity
  8
0
100
AcDbBlockEnd
  0
BLOCK
  5
CD2
330
CC8
100
AcDbEntity
  8
0
100
AcDbBlockBegin
  2
*D5
 70
     1
 10
0.0
 20
0.0
 30
0.0
  3
*D5
  1

  0
LINE
  5
2A78
330
CC8
100
AcDbEntity
  8
AM_5
 62
     3
100
AcDbLine
 10
-88.99999999999996
 20
-3.000000000000201
 30
0.0
 11
-88.99999999999996
 21
-16.00001206798981
 31
0.0
  0
LINE
  5
2A79
330
CC8
100
AcDbEntity
  8
AM_5
 62
     3
100
AcDbLine
 10
-0.9999821980835545
 20
-3.050011479262652
 30
0.0
 11
-0.9999821980835553
 21
-16.00001206798981
 31
0.0
  0
LINE
  5
2A7A
330
CC8
100
AcDbEntity
  8
AM_5
 62
     3
100
AcDbLine
 10
-87.74999999999996
 20
-15.50001206798981
 30
0.0
 11
-2.249982198083555
 21
-15.50001206798981
 31
0.0
  0
INSERT
  5
2A7B
330
CC8
100
AcDbEntity
  8
AM_5
 62
     3
100
AcDbBlockReference
  2
_OPEN30
 10
-88.99999999999996
 20
-15.50001206798981
 30
0.0
 41
1.25
 42
1.25
 43
1.25
 50
180.0
  0
INSERT
  5
2A7C
330
CC8
100
AcDbEntity
  8
AM_5
 62
     3
100
AcDbBlockReference
  2
_OPEN30
 10
-0.9999821980835553
 20
-15.50001206798981
 30
0.0
 41
1.25
 42
1.25
 43
1.25
  0
MTEXT
  5
2A7D
330
CC8
100
AcDbEntity
  8
AM_5
 62
     2
100
AcDbMText
 10
-44.99999109904176
 20
-13.80001206798981
 30
0.0
 40
1.9
 41
0.0
 71
     5
 72
     1
  1
88
1001
ACAD
1000
MTEXTBEGIN
1070
    73
1070
     1
1070
    44
1040
1.0
1070
    74
1070
     0
1000
MTEXTEND
  0
POINT
  5
2A7E
330
CC8
100
AcDbEntity
  8
DEFPOINTS
 62
     0
100
AcDbPoint
 10
-88.99999999999996
 20
-3.000000000000201
 30
0.0
  0
POINT
  5
2A7F
330
CC8
100
AcDbEntity
  8
DEFPOINTS
 62
     0
100
AcDbPoint
 10
-0.9999821980835545
 20
-3.050011479262652
 30
0.0
  0
POINT
  5
2A80
330
CC8
100
AcDbEntity
  8
DEFPOINTS
 62
     0
100
AcDbPoint
 10
-0.9999821980835553
 20
-15.50001206798981
 30
0.0
  0
ENDBLK
  5
CD3
330
CC8
100
AcDbEntity
  8
0
100
AcDbBlockEnd
  0
BLOCK
  5
E00
330
DF6
100
AcDbEntity
  8
0
100
AcDbBlockBegin
  2
*D6
 70
     1
 10
0.0
 20
0.0
 30
0.0
  3
*D6
  1

  0
LINE
  5
2A95
330
DF6
100
AcDbEntity
  8
AM_5
 62
     3
100
AcDbLine
 10
-35.99999999999997
 20
-3.500000000000055
 30
0.0
 11
-35.99999999999997
 21
-11.00001206798977
 31
0.0
  0
LINE
  5
2A96
330
DF6
100
AcDbEntity
  8
AM_5
 62
     3
100
AcDbLine
 10
-0.9999821980835545
 20
-3.050011479262652
 30
0.0
 11
-0.999982198083555
 21
-11.00001206798977
 31
0.0
  0
LINE
  5
2A97
330
DF6
100
AcDbEntity
  8
AM_5
 62
     3
100
AcDbLine
 10
-34.74999999999997
 20
-10.50001206798977
 30
0.0
 11
-2.249982198083555
 21
-10.50001206798977
 31
0.0
  0
INSERT
  5
2A98
330
DF6
100
AcDbEntity
  8
AM_5
 62
     3
100
AcDbBlockReference
  2
_OPEN30
 10
-35.99999999999997
 20
-10.50001206798977
 30
0.0
 41
1.25
 42
1.25
 43
1.25
 50
180.0
  0
INSERT
  5
2A99
330
DF6
100
AcDbEntity
  8
AM_5
 62
     3
100
AcDbBlockReference
  2
_OPEN30
 10
-0.999982198083555
 20
-10.50001206798977
 30
0.0
 41
1.25
 42
1.25
 43
1.25
  0
MTEXT
  5
2A9A
330
DF6
100
AcDbEntity
  8
AM_5
 62
     2
100
AcDbMText
 10
-18.49999109904176
 20
-8.800012067989777
 30
0.0
 40
1.9
 41
0.0
 71
     5
 72
     1
  1
35
1001
ACAD
1000
MTEXTBEGIN
1070
    73
1070
     1
1070
    44
1040
1.0
1070
    74
1070
     0
1000
MTEXTEND
  0
POINT
  5
2A9B
330
DF6
100
AcDbEntity
  8
DEFPOINTS
 62
     0
100
AcDbPoint
 10
-35.99999999999997
 20
-3.500000000000055
 30
0.0
  0
POINT
  5
2A9C
330
DF6
100
AcDbEntity
  8
DEFPOINTS
 62
     0
100
AcDbPoint
 10
-0.9999821980835545
 20
-3.050011479262652
 30
0.0
  0
POINT
  5
2A9D
330
DF6
100
AcDbEntity
  8
DEFPOINTS
 62
     0
100
AcDbPoint
 10
-0.999982198083555
 20
-10.50001206798977
 30
0.0
  0
ENDBLK
  5
E01
330
DF6
100
AcDbEntity
  8
0
100
AcDbBlockEnd
  0
BLOCK
  5
1FA0
330
1F94
100
AcDbEntity
  8
0
100
AcDbBlockBegin
  2
*D7
 70
     1
 10
0.0
 20
0.0
 30
0.0
  3
*D7
  1

  0
LINE
  5
2A81
330
1F94
100
AcDbEntity
  8
AM_5
 62
     3
100
AcDbLine
 10
-88.49999999999997
 20
-3.500000000000197
 30
0.0
 11
-98.25000099999996
 21
-3.500000000000216
 31
0.0
  0
LINE
  5
2A82
330
1F94
100
AcDbEntity
  8
AM_5
 62
     3
100
AcDbLine
 10
-88.49999999999996
 20
3.499999999999801
 30
0.0
 11
-98.25000099999996
 21
3.499999999999782
 31
0.0
  0
LINE
  5
2A83
330
1F94
100
AcDbEntity
  8
AM_5
 62
     3
100
AcDbLine
 10
-97.75000099999997
 20
-2.250000000000215
 30
0.0
 11
-97.75000099999997
 21
2.249999999999783
 31
0.0
  0
INSERT
  5
2A84
330
1F94
100
AcDbEntity
  8
AM_5
 62
     3
100
AcDbBlockReference
  2
_OPEN30
 10
-97.75000099999997
 20
-3.500000000000215
 30
0.0
 41
1.25
 42
1.25
 43
1.25
 50
270.0000000000001
  0
INSERT
  5
2A85
330
1F94
100
AcDbEntity
  8
AM_5
 62
     3
100
AcDbBlockReference
  2
_OPEN30
 10
-97.75000099999997
 20
3.499999999999783
 30
0.0
 41
1.25
 42
1.25
 43
1.25
 50
90.0000000000001
  0
MTEXT
  5
2A86
330
1F94
100
AcDbEntity
  8
AM_5
 62
     2
100
AcDbMText
 10
-99.45000099999997
 20
-0.0000000000003988
 30
0.0
 40
1.9
 41
0.0
 71
     5
 72
     1
  1
%%c7
 11
-0.000000000000002
 21
1.0
 31
0.0
1001
ACAD
1000
MTEXTBEGIN
1070
    73
1070
     1
1070
    44
1040
1.0
1070
    74
1070
     0
1000
MTEXTEND
  0
POINT
  5
2A87
330
1F94
100
AcDbEntity
  8
DEFPOINTS
 62
     0
100
AcDbPoint
 10
-88.49999999999997
 20
-3.500000000000001
 30
0.0
  0
POINT
  5
2A88
330
1F94
100
AcDbEntity
  8
DEFPOINTS
 62
     0
100
AcDbPoint
 10
-88.49999999999996
 20
3.499999999999998
 30
0.0
  0
POINT
  5
2A89
330
1F94
100
AcDbEntity
  8
DEFPOINTS
 62
     0
100
AcDbPoint
 10
-97.75000099999997
 20
3.5
 30
0.0
  0
ENDBLK
  5
1FA1
330
1F94
100
AcDbEntity
  8
0
100
AcDbBlockEnd
  0
BLOCK
  5
23A8
330
239C
100
AcDbEntity
  8
0
100
AcDbBlockBegin
  2
*D8
 70
     1
 10
0.0
 20
0.0
 30
0.0
  3
*D8
  1

  0
LINE
  5
2A9E
330
239C
100
AcDbEntity
  8
AM_5
 62
     3
100
AcDbLine
 10
-0.9999999999999689
 20
-3.050011479262652
 30
0.0
 11
9.586422120790572
 21
-3.050011479262655
 31
0.0
  0
LINE
  5
2A9F
330
239C
100
AcDbEntity
  8
AM_5
 62
     3
100
AcDbLine
 10
-0.9999999999999689
 20
3.049988520737346
 30
0.0
 11
9.586422120790572
 21
3.049988520737343
 31
0.0
  0
LINE
  5
2AA0
330
239C
100
AcDbEntity
  8
AM_5
 62
     3
100
AcDbLine
 10
9.086422120790572
 20
-1.800011479262655
 30
0.0
 11
9.086422120790572
 21
1.799988520737343
 31
0.0
  0
INSERT
  5
2AA1
330
239C
100
AcDbEntity
  8
AM_5
 62
     3
100
AcDbBlockReference
  2
_OPEN30
 10
9.086422120790572
 20
-3.050011479262655
 30
0.0
 41
1.25
 42
1.25
 43
1.25
 50
270.0
  0
INSERT
  5
2AA2
330
239C
100
AcDbEntity
  8
AM_5
 62
     3
100
AcDbBlockReference
  2
_OPEN30
 10
9.086422120790572
 20
3.049988520737343
 30
0.0
 41
1.25
 42
1.25
 43
1.25
 50
90.0
  0
MTEXT
  5
2AA3
330
239C
100
AcDbEntity
  8
AM_5
 62
     2
100
AcDbMText
 10
7.386422120790572
 20
-0.0000114792626541
 30
0.0
 40
1.9
 41
0.0
 71
     5
 72
     1
  1
%%c6.1
 11
0.0000000000000001
 21
1.0
 31
0.0
1001
ACAD
1000
MTEXTBEGIN
1070
    73
1070
     1
1070
    44
1040
1.0
1070
    74
1070
     0
1000
MTEXTEND
  0
POINT
  5
2AA4
330
239C
100
AcDbEntity
  8
DEFPOINTS
 62
     0
100
AcDbPoint
 10
-0.9999999999999689
 20
-3.050011479262652
 30
0.0
  0
POINT
  5
2AA5
330
239C
100
AcDbEntity
  8
DEFPOINTS
 62
     0
100
AcDbPoint
 10
-0.9999999999999689
 20
3.049988520737346
 30
0.0
  0
POINT
  5
2AA6
330
239C
100
AcDbEntity
  8
DEFPOINTS
 62
     0
100
AcDbPoint
 10
9.086422120790572
 20
3.049988520737343
 30
0.0
  0
ENDBLK
  5
23A9
330
239C
100
AcDbEntity
  8
0
100
AcDbBlockEnd
  0
BLOCK
  5
2586
330
2578
100
AcDbEntity
  8
0
100
AcDbBlockBegin
  2
*D9
 70
     1
 10
0.0
 20
0.0
 30
0.0
  3
*D9
  1

  0
LINE
  5
2AF7
330
2578
100
AcDbEntity
  8
AM_5
100
AcDbLine
 10
0.1710079208341862
 20
-0.4698470932250066
 30
0.0
 11
5.152227250416965
 21
-14.15582965651495
 31
0.0
  0
LINE
  5
2AF8
330
2578
100
AcDbEntity
  8
AM_5
100
AcDbLine
 10
0.1710079208341822
 20
0.46984709322502
 30
0.0
 11
5.152227250416845
 21
14.15582965651501
 31
0.0
  0
ARC
  5
2AF9
330
2578
100
AcDbEntity
  8
AM_5
100
AcDbCircle
 10
0.0000000000000311
 20
0.000000000000006
 30
0.0
 40
14.56429417212128
100
AcDbArc
 50
294.918735062585
 51
65.08126493741549
  0
INSERT
  5
2AFA
330
2578
100
AcDbEntity
  8
AM_5
100
AcDbBlockReference
  2
_OPEN30
 10
4.981219329582815
 20
-13.68598256328995
 30
0.0
 41
1.25
 42
1.25
 43
1.25
 50
202.4592363891502
  0
INSERT
  5
2AFB
330
2578
100
AcDbEntity
  8
AM_5
100
AcDbBlockReference
  2
_OPEN30
 10
4.981219329582699
 20
13.68598256329001
 30
0.0
 41
1.25
 42
1.25
 43
1.25
 50
157.5407636108502
  0
MTEXT
  5
2AFC
330
2578
100
AcDbEntity
  8
AM_5
 62
     2
100
AcDbMText
 10
13.01429417212131
 20
0.0000000000000677
 30
0.0
 40
1.6
 41
0.0
 71
     5
 72
     1
  1
140°
  7
ASAMI
 11
-0.000000000000002
 21
1.0
 31
0.0
  0
POINT
  5
2AFD
330
2578
100
AcDbEntity
  8
DEFPOINTS
 62
     0
100
AcDbPoint
 10
13.37316069178126
 20
-5.768642634440371
 30
0.0
  0
POINT
  5
2AFE
330
2578
100
AcDbEntity
  8
DEFPOINTS
 62
     0
100
AcDbPoint
 10
0.000000000000036
 20
0.0000000000000194
 30
0.0
  0
POINT
  5
2AFF
330
2578
100
AcDbEntity
  8
DEFPOINTS
 62
     0
100
AcDbPoint
 10
0.000000000000036
 20
-0.0000000000000074
 30
0.0
  0
POINT
  5
2B00
330
2578
100
AcDbEntity
  8
DEFPOINTS
 62
     0
100
AcDbPoint
 10
-0.2725326313313967
 20
0.748787915878001
 30
0.0
  0
POINT
  5
2B01
330
2578
100
AcDbEntity
  8
DEFPOINTS
 62
     0
100
AcDbPoint
 10
-0.2725326313313937
 20
-0.7487879158779901
 30
0.0
  0
ENDBLK
  5
2587
330
2578
100
AcDbEntity
  8
0
100
AcDbBlockEnd
  0
ENDSEC
  0
SECTION
  2
ENTITIES
  0
LINE
  5
C1D
330
1F
100
AcDbEntity
  8
AM_0
 48
0.5
100
AcDbLine
 10
0.000000000000036
 20
-0.0000000000000074
 30
0.0
 11
-0.2725326313313967
 21
0.748787915878001
 31
0.0
  0
DIMENSION
  5
CC6
330
1F
100
AcDbEntity
  8
AM_5
100
AcDbDimension
  2
*D5
 10
-0.9999821980835553
 20
-15.50001206798981
 30
0.0
 11
-44.99999109904176
 21
-13.80001206798981
 31
0.0
 70
    32
  1
<>
  3
AM_JIS$0
100
AcDbAlignedDimension
 13
-88.99999999999996
 23
-3.000000000000201
 33
0.0
 14
-0.9999821980835545
 24
-3.050011479262652
 34
0.0
 50
0.0000000000001132
100
AcDbRotatedDimension
1001
GENIUS_GENDTOL_13
1000

1000
h7
1000

1040
0.0
1001
ACAD
1000
DSTYLE
1002
{
1070
   271
1070
     0
1002
}
  0
DIMENSION
  5
DF5
330
1F
100
AcDbEntity
  8
AM_5
100
AcDbDimension
  2
*D6
 10
-0.999982198083555
 20
-10.50001206798977
 30
0.0
 11
-18.49999109904176
 21
-8.800012067989777
 31
0.0
 70
    32
  1
<>
  3
AM_JIS$0
100
AcDbAlignedDimension
 13
-35.99999999999997
 23
-3.500000000000055
 33
0.0
 14
-0.9999821980835545
 24
-3.050011479262652
 34
0.0
 50
0.0000000000001527
100
AcDbRotatedDimension
1001
GENIUS_GENDTOL_13
1000

1000
h7
1000

1040
0.0
1001
ACAD
1000
DSTYLE
1002
{
1070
   271
1070
     0
1002
}
  0
ARC
  5
144A
330
1F
100
AcDbEntity
  8
AM_11
 48
0.5
100
AcDbCircle
 10
-56.11257425944014
 20
-15.45937617226462
 30
0.0
 40
17.09271208445208
100
AcDbArc
 50
64.74833051131179
 51
115.2516644797366
  0
ARC
  5
144B
330
1F
100
AcDbEntity
  8
AM_11
 48
0.5
100
AcDbCircle
 10
-56.11257425944012
 20
15.45938667054937
 30
0.0
 40
17.09271208445208
100
AcDbArc
 50
244.7482808787518
 51
295.2516148471758
  0
TEXT
  5
19BD
330
1F
100
AcDbEntity
  8
AM_6
100
AcDbText
 10
-56.01189586094649
 20
-26.75001206798984
 30
0.0
 40
2.5
  1
MDW061MHK
 50
0.0000000000001527
 72
     4
 11
-44.99999109904173
 21
-25.50001206798981
 31
0.0
100
AcDbText
  0
LINE
  5
1D14
330
1F
100
AcDbEntity
  8
AM_7
100
AcDbLine
 10
-90.74999999999993
 20
-0.0000000000000426
 30
0.0
 11
2.086421120790578
 21
0.0000000000000071
 31
0.0
1001
GENIUS_GENODEF_13
1002
{
1000
HIER
1070
     0
1002
}
1002
{
1000
MANEDIT
1070
     0
1002
}
1002
{
1000
NOSEL
1070
     0
1002
}
1002
{
1000
BEHIND
1070
     0
1002
}
1002
{
1000
REACTOR
1002
}
1001
GENIUS_GENOBJ-N-CEN_13
1002
{
1000
OWNER
1000
GEN
1002
}
  0
LINE
  5
1D9D
330
1F
100
AcDbEntity
  8
AM_0
100
AcDbLine
 10
-88.49999999999997
 20
-3.500000000000001
 30
0.0
 11
-88.49999999999996
 21
3.499999999999998
 31
0.0
  0
LINE
  5
1D9E
330
1F
100
AcDbEntity
  8
AM_0
 48
0.5
100
AcDbLine
 10
-88.99999999999996
 20
-3.000000000000201
 30
0.0
 11
-88.99999999999996
 21
2.999999999999798
 31
0.0
  0
LINE
  5
1DA2
330
1F
100
AcDbEntity
  8
AM_0
100
AcDbLine
 10
-35.99999999999997
 20
-3.500000000000055
 30
0.0
 11
-36.0
 21
3.499999999999944
 31
0.0
  0
LINE
  5
1DA4
330
1F
100
AcDbEntity
  8
AM_0
100
AcDbLine
 10
-88.49999999999997
 20
3.4999999999998
 30
0.0
 11
-35.99999999999997
 21
3.49999999999997
 31
0.0
  0
LINE
  5
1DA5
330
1F
100
AcDbEntity
  8
AM_0
100
AcDbLine
 10
-88.49999999999996
 20
-3.500000000000199
 30
0.0
 11
-35.99999999999997
 21
-3.500000000000029
 31
0.0
  0
LINE
  5
1F71
330
1F
100
AcDbEntity
  8
AM_0
100
AcDbLine
 10
-36.0
 20
3.499999999999944
 30
0.0
 11
-35.22055725392785
 21
3.049988520737266
 31
0.0
  0
LINE
  5
1F72
330
1F
100
AcDbEntity
  8
AM_0
100
AcDbLine
 10
-35.99999999999997
 20
-3.500000000000055
 30
0.0
 11
-35.22059701926013
 21
-3.050011479262725
 31
0.0
  0
ARC
  5
1F77
330
1F
100
AcDbEntity
  8
AM_11
 48
0.5
100
AcDbCircle
 10
-70.69590759277335
 20
15.45938667054933
 30
0.0
 40
17.09271208445208
100
AcDbArc
 50
244.7482808787518
 51
295.2516148471758
  0
ARC
  5
1F78
330
1F
100
AcDbEntity
  8
AM_11
 48
0.5
100
AcDbCircle
 10
-70.69590759277338
 20
-15.45937617226466
 30
0.0
 40
17.09271208445208
100
AcDbArc
 50
64.74833051131179
 51
115.2516644797366
  0
ARC
  5
1F79
330
1F
100
AcDbEntity
  8
AM_11
 48
0.5
100
AcDbCircle
 10
-85.27924092610659
 20
15.45938667054929
 30
0.0
 40
17.09271208445208
100
AcDbArc
 50
257.4271351938719
 51
295.2516148471758
  0
ARC
  5
1F7A
330
1F
100
AcDbEntity
  8
AM_11
 48
0.5
100
AcDbCircle
 10
-85.2792409261066
 20
-15.4593761722647
 30
0.0
 40
17.09271208445208
100
AcDbArc
 50
64.74833051131179
 51
102.5728648061279
  0
DIMENSION
  5
1F93
330
1F
100
AcDbEntity
  8
AM_5
100
AcDbDimension
  2
*D7
 10
-97.75000099999997
 20
3.5
 30
0.0
 11
-97.75000099999997
 21
-0.000000000000198
 31
0.0
 70
   160
  1
%%c<>
 51
359.9999999999998
  3
AM_JIS$0
100
AcDbAlignedDimension
 13
-88.49999999999997
 23
-3.500000000000001
 33
0.0
 14
-88.49999999999996
 24
3.499999999999998
 34
0.0
 50
270.0000000000002
100
AcDbRotatedDimension
1001
ACAD
1000
DSTYLE
1002
{
1070
   271
1070
     0
1002
}
1001
GENIUS_GENDTOL_13
1000

1000
h7
1000

1040
0.0
  0
ELLIPSE
  5
231A
330
1F
100
AcDbEntity
  8
AM_11
 48
0.5
100
AcDbEllipse
 10
2.220759073889153
 20
15.21399958054064
 30
0.0
 11
-17.09271208445214
 21
0.0000000000021758
 31
0.0
210
0.0
220
0.0
230
1.0
 40
0.9841269841269811
 41
1.130070686340432
 42
1.291800737381121
  0
ELLIPSE
  5
2324
330
1F
100
AcDbEntity
  8
AM_11
 48
0.5
100
AcDbEllipse
 10
-41.52924092610684
 20
-15.21398924889526
 30
0.0
 11
-17.09271208445209
 21
0.0000000000000504
 31
0.0
210
0.0
220
0.0
230
1.0
 40
0.9841269841269831
 41
4.271664206181688
 42
5.153113667164995
  0
ELLIPSE
  5
2325
330
1F
100
AcDbEntity
  8
AM_11
 48
0.5
100
AcDbEllipse
 10
-41.52924092610677
 20
15.21399958054073
 30
0.0
 11
-17.09271208445209
 21
0.000000000000001
 31
0.0
210
0.0
220
0.0
230
1.0
 40
0.9841269841269829
 41
1.130070686340305
 42
2.011520147323597
  0
ELLIPSE
  5
2327
330
1F
100
AcDbEntity
  8
AM_11
 48
0.5
100
AcDbEllipse
 10
-26.94590759277753
 20
15.2139995805407
 30
0.0
 11
17.09271208445209
 21
0.0000000000000162
 31
0.0
210
0.0
220
0.0
230
1.0
 40
0.9841269841269825
 41
4.271663339930097
 42
5.153112800913389
  0
ELLIPSE
  5
2328
330
1F
100
AcDbEntity
  8
AM_11
 48
0.5
100
AcDbEllipse
 10
-26.94590759277759
 20
-15.21398924889528
 30
0.0
 11
-17.09271208445208
 21
0.000000000000001
 31
0.0
210
0.0
220
0.0
230
1.0
 40
0.9841269841269834
 41
4.271664206181685
 42
5.153113667164991
  0
ELLIPSE
  5
232D
330
1F
100
AcDbEntity
  8
AM_11
 48
0.5
100
AcDbEllipse
 10
-12.36257425944425
 20
-15.21398924889532
 30
0.0
 11
-17.09271208445209
 21
0.0000000000000162
 31
0.0
210
0.0
220
0.0
230
1.0
 40
0.9841269841269831
 41
4.271664206181686
 42
5.153113667164992
  0
ELLIPSE
  5
232E
330
1F
100
AcDbEntity
  8
AM_11
 48
0.5
100
AcDbEllipse
 10
-12.36257425944419
 20
15.21399958054067
 30
0.0
 11
17.09271208445209
 21
0.0000000000000162
 31
0.0
210
0.0
220
0.0
230
1.0
 40
0.9841269841269829
 41
4.271663339930097
 42
5.153112800913389
  0
LINE
  5
2398
330
1F
100
AcDbEntity
  8
AM_0
100
AcDbLine
 10
-35.22059701926013
 20
-3.050011479262725
 30
0.0
 11
-35.22055725392785
 21
3.049988520737264
 31
0.0
  0
DIMENSION
  5
239B
330
1F
100
AcDbEntity
  8
AM_5
100
AcDbDimension
  2
*D8
 10
9.086422120790572
 20
3.049988520737343
 30
0.0
 11
9.086422120790572
 21
-0.0000114792626543
 31
0.0
 70
   160
  1
%%c<>
  3
AM_JIS$0
100
AcDbAlignedDimension
 13
-0.9999999999999689
 23
-3.050011479262652
 33
0.0
 14
-0.9999999999999689
 24
3.049988520737346
 34
0.0
 50
89.99999999999941
100
AcDbRotatedDimension
1001
ACAD
1000
DSTYLE
1002
{
1070
   271
1070
     1
1002
}
1001
GENIUS_GENDTOL_13
1000

1000
h7
1000

1040
0.0
  0
LINE
  5
23AA
330
1F
100
AcDbEntity
  8
AM_0
 48
0.5
100
AcDbLine
 10
0.000000000000042
 20
-0.0000000000000017
 30
0.0
 11
-1.412443883655191
 21
1.186576494427188
 31
0.0
  0
ELLIPSE
  5
23AB
330
1F
100
AcDbEntity
  8
AM_0
 48
0.5
100
AcDbEllipse
 10
-5.885029805373456
 20
5.801424205443517
 30
0.0
 11
-8.395139808944252
 21
1.096365982891558
 31
0.0
210
0.0
220
0.0
230
1.0
 40
0.9381800032537258
 41
2.369669121186372
 42
2.46224555570649
  0
LINE
  5
23AC
330
1F
100
AcDbEntity
  8
AM_0
 48
0.5
100
AcDbLine
 10
-0.7804932361520083
 20
2.763326247473126
 30
0.0
 11
-0.9999999999999689
 21
3.049988520737346
 31
0.0
  0
LINE
  5
23AE
330
1F
100
AcDbEntity
  8
AM_0
 48
0.5
100
AcDbLine
 10
-3.021103422291022
 20
-3.050011479262678
 30
0.0
 11
-0.9999999999999689
 21
-3.050011479262652
 31
0.0
  0
LINE
  5
23AF
330
1F
100
AcDbEntity
  8
AM_0
 48
0.5
100
AcDbLine
 10
-2.748204948072353
 20
3.049988520737411
 30
0.0
 11
-0.9999999999999689
 21
3.049988520737346
 31
0.0
  0
ELLIPSE
  5
23BB
330
1F
100
AcDbEntity
  8
AM_0
 48
0.5
100
AcDbEllipse
 10
2.35307820478046
 20
3.661701167221668
 30
0.0
 11
-6.283942281537102
 21
4.421933601400209
 31
0.0
210
0.0
220
0.0
230
1.0
 40
0.8203797591112865
 41
1.18455839604909
 42
1.505547223983815
  0
ELLIPSE
  5
23BC
330
1F
100
AcDbEntity
  8
AM_0
 48
0.5
100
AcDbEllipse
 10
-5.68393632683966
 20
5.118994232610527
 30
0.0
 11
-4.54756832485889
 21
5.971056756232002
 31
0.0
210
0.0
220
0.0
230
1.0
 40
0.7017212389796437
 41
3.020332706211925
 42
3.159411835585784
  0
SPLINE
  5
23C4
330
1F
100
AcDbEntity
  8
AM_0
 48
0.5
100
AcDbSpline
210
0.0
220
0.0
230
1.0
 70
     8
 71
     3
 72
    10
 73
     6
 74
     0
 42
0.0000000001
 43
0.0000000001
 40
0.0
 40
0.0
 40
0.0
 40
0.0
 40
2.69986029516136
 40
4.147722969032201
 40
6.285750005020438
 40
6.285750005020438
 40
6.285750005020438
 40
6.285750005020438
 10
-3.374546503875044
 20
0.5520222630061875
 30
0.0
 10
-2.984703080747188
 20
0.2686561865562722
 30
0.0
 10
-2.385797084266039
 20
-0.1666715176372551
 30
0.0
 10
-0.9694648550786393
 20
0.0440782502608149
 30
0.0
 10
-1.23620141039744
 20
0.7539113548865905
 30
0.0
 10
-1.412443883655191
 20
1.186576494427188
 30
0.0
  0
ELLIPSE
  5
23C7
330
1F
100
AcDbEntity
  8
AM_0
 48
0.5
100
AcDbEllipse
 10
-0.824955634499782
 20
-0.6347378836990498
 30
0.0
 11
-0.4735171324434121
 21
0.2463712873099476
 31
0.0
210
0.0
220
0.0
230
1.0
 40
0.4832076140780939
 41
4.449110730862319
 42
7.592551072191829
  0
ELLIPSE
  5
23C8
330
1F
100
AcDbEntity
  8
AM_0
 48
0.5
100
AcDbEllipse
 10
-0.824955634499782
 20
-0.6347378836990498
 30
0.0
 11
-0.0983266738628204
 21
0.4998368575717194
 31
0.0
210
0.0
220
0.0
230
1.0
 40
0.5305195538555044
 41
1.789810599169815
 42
4.925152488881791
  0
ELLIPSE
  5
23D3
330
1F
100
AcDbEntity
  8
AM_0
 48
0.5
100
AcDbEllipse
 10
3.663565270375209
 20
-0.8675954825635566
 30
0.0
 11
-3.360475385847639
 21
7.645786936873169
 31
0.0
210
0.0
220
0.0
230
0.9999999999999998
 40
0.6164100922914847
 41
1.347468451588073
 42
1.585341341645628
  0
ELLIPSE
  5
23D5
330
1F
100
AcDbEntity
  8
AM_0
 48
0.5
100
AcDbEllipse
 10
4.537164231286303
 20
3.856893983336735
 30
0.0
 11
4.64545886067619
 21
3.357654964305436
 31
0.0
210
0.0
220
0.0
230
1.0
 40
0.7713757486121493
 41
2.613281070465999
 42
3.074038162807732
  0
LINE
  5
2500
330
1F
100
AcDbEntity
  8
AM_0
 48
0.5
100
AcDbLine
 10
-88.49999999999997
 20
3.4999999999998
 30
0.0
 11
-88.99999999999996
 21
2.999999999999798
 31
0.0
1001
GENIUS_GENFIL_13
1070
     0
1040
0.5
1040
0.5
1040
20.0
1040
0.0
1002
{
1002
}
1001
GENIUS_GENODEF_13
1002
{
1000
HIER
1070
     0
1002
}
1002
{
1000
MANEDIT
1070
     0
1002
}
1002
{
1000
NOSEL
1070
     0
1002
}
1002
{
1000
BEHIND
1070
     0
1002
}
1002
{
1000
REACTOR
1002
}
1001
GENIUS_GENOBJ-N-CHA_13
1002
{
1000
OWNER
1000
GEN
1002
}
  0
LINE
  5
2503
330
1F
100
AcDbEntity
  8
AM_0
100
AcDbLine
 10
-88.99999999999996
 20
-3.000000000000201
 30
0.0
 11
-88.49999999999996
 21
-3.500000000000199
 31
0.0
1001
GENIUS_GENFIL_13
1070
     0
1040
0.5
1040
0.5
1040
20.0
1040
0.0
1002
{
1002
}
1001
GENIUS_GENODEF_13
1002
{
1000
HIER
1070
     0
1002
}
1002
{
1000
MANEDIT
1070
     0
1002
}
1002
{
1000
NOSEL
1070
     0
1002
}
1002
{
1000
BEHIND
1070
     0
1002
}
1002
{
1000
REACTOR
1002
}
1001
GENIUS_GENOBJ-N-CHA_13
1002
{
1000
OWNER
1000
GEN
1002
}
  0
ELLIPSE
  5
2567
330
1F
100
AcDbEntity
  8
AM_0
 48
0.5
100
AcDbEllipse
 10
4.537164231286318
 20
-3.856893983336705
 30
0.0
 11
4.645458860676204
 21
-3.357654964305418
 31
0.0
210
0.0
220
0.0
230
-1.0
 40
0.7713757486121493
 41
2.613281070465999
 42
3.074038162807732
  0
LINE
  5
2568
330
1F
100
AcDbEntity
  8
AM_0
 48
0.5
100
AcDbLine
 10
-0.7804932361519974
 20
-2.763326247473117
 30
0.0
 11
-0.999999999999957
 21
-3.049988520737338
 31
0.0
  0
LINE
  5
2569
330
1F
100
AcDbEntity
  8
AM_0
 48
0.5
100
AcDbLine
 10
0.000000000000036
 20
0.0000000000000194
 30
0.0
 11
-0.2725326313313937
 21
-0.7487879158779901
 31
0.0
  0
DIMENSION
  5
2577
330
1F
100
AcDbEntity
  8
AM_5
100
AcDbDimension
  2
*D9
 10
-0.2725326313313937
 20
-0.7487879158779901
 30
0.0
 11
13.01429417212131
 21
0.0000000000000393
 31
0.0
 70
    34
  1
<>
 51
359.9999999999998
  3
AM_JIS$2
100
AcDb2LineAngularDimension
 13
0.000000000000036
 23
-0.0000000000000074
 33
0.0
 14
-0.2725326313313967
 24
0.748787915878001
 34
0.0
 15
0.000000000000036
 25
0.0000000000000194
 35
0.0
 16
13.37316069178126
 26
-5.768642634440371
 36
0.0
1001
GENIUS_GENDTOL_13
1000

1000
h7
1000

1040
0.0
1001
ACAD
1000
DSTYLE
1002
{
1070
   271
1070
     0
1002
}
  0
SPLINE
  5
282B
330
1F
100
AcDbEntity
  8
AM_0
100
AcDbSpline
210
0.0
220
0.0
230
1.0
 70
     8
 71
     3
 72
    23
 73
    19
 74
     0
 42
0.0000000001
 43
0.0000000001
 40
16.03460024169435
 40
16.03460024169435
 40
16.03460024169435
 40
16.03460024169435
 40
16.35212704903564
 40
17.38177054169784
 40
18.41822485651776
 40
19.46214173629503
 40
20.51396345435107
 40
21.57393551351153
 40
22.64208202342361
 40
23.7182574881101
 40
24.80209208578934
 40
25.89306333925047
 40
26.99048218457928
 40
28.09348763352352
 40
29.20111863782268
 40
30.31232390128032
 40
31.42594612798585
 40
32.5407912310448
 40
32.5407912310486
 40
32.5407912310486
 40
32.5407912310486
 10
-31.13629532863294
 20
3.049988520737271
 30
0.0
 10
-31.08306475540473
 20
3.040123626564803
 30
0.0
 10
-30.84758853741354
 20
2.995286299598607
 30
0.0
 10
-30.43279464351698
 20
2.907434400447108
 30
0.0
 10
-29.89563546505371
 20
2.776799587147834
 30
0.0
 10
-29.35897522530171
 20
2.630118466431618
 30
0.0
 10
-28.82278221257937
 20
2.46823995381003
 30
0.0
 10
-28.28703739644642
 20
2.292066525614874
 30
0.0
 10
-27.75170981213651
 20
2.102605263456378
 30
0.0
 10
-27.21676218147137
 20
1.900958784356632
 30
0.0
 10
-26.6821641068053
 20
1.68826900057008
 30
0.0
 10
-26.14787272747215
 20
1.465773504390703
 30
0.0
 10
-25.61384474513039
 20
1.234765535771131
 30
0.0
 10
-25.08004457901874
 20
0.9965732936861577
 30
0.0
 10
-24.54642756672557
 20
0.7525818334044239
 30
0.0
 10
-24.01294428401426
 20
0.5042158860479269
 30
0.0
 10
-23.47955129028619
 20
0.2529146650264309
 30
0.0
 10
-23.1240514739155
 20
0.084430937340251
 30
0.0
 10
-22.94620461873726
 20
0.0001417126303949
 30
0.0
  0
SPLINE
  5
282C
330
1F
100
AcDbEntity
  8
AM_0
 48
0.5
100
AcDbSpline
210
0.0
220
0.0
230
1.0
 70
     8
 71
     3
 72
    22
 73
    18
 74
     0
 42
0.0000000001
 43
0.0000000001
 40
0.0
 40
0.0
 40
0.0
 40
0.0
 40
1.010743684496582
 40
2.022833993863546
 40
3.037578683882831
 40
4.056212471389632
 40
5.079857945358201
 40
6.109499720892564
 40
7.145961650132166
 40
8.189873411961459
 40
9.241710626092514
 40
10.30166235592959
 40
11.36982472628033
 40
12.44598212828784
 40
13.52983440361964
 40
14.62080578343036
 40
14.90544694398022
 40
14.90544694398022
 40
14.90544694398022
 40
14.90544694398022
 10
-24.74309885873045
 20
-3.050011479262716
 30
0.0
 10
-24.94247655681664
 20
-3.048356204540031
 30
0.0
 10
-25.3030763561234
 20
-3.044725519607365
 30
0.0
 10
-25.84384404440482
 20
-3.015441227623626
 30
0.0
 10
-26.38458980109544
 20
-2.968907653337432
 30
0.0
 10
-26.92530179334066
 20
-2.903678037410081
 30
0.0
 10
-27.46597316318874
 20
-2.820636574376504
 30
0.0
 10
-28.00659827019412
 20
-2.720176380424935
 30
0.0
 10
-28.54716919228016
 20
-2.602946818149608
 30
0.0
 10
-29.08768964660115
 20
-2.469675131957882
 30
0.0
 10
-29.62815476497491
 20
-2.321193447978352
 30
0.0
 10
-30.16856737181903
 20
-2.158405442465188
 30
0.0
 10
-30.70893095080919
 20
-1.982347009925064
 30
0.0
 10
-31.24924509606896
 20
-1.794064810286304
 30
0.0
 10
-31.78951992974736
 20
-1.594758286406008
 30
0.0
 10
-32.19557422405398
 20
-1.437583528158082
 30
0.0
 10
-32.42184184666291
 20
-1.347747488590254
 30
0.0
 10
-32.38917795911703
 20
-1.360800299596558
 30
0.0
  0
SPLINE
  5
282D
330
1F
100
AcDbEntity
  8
AM_0
 48
0.5
100
AcDbSpline
210
0.0
220
0.0
230
1.0
 70
     8
 71
     3
 72
    26
 73
    22
 74
     0
 42
0.0000000001
 43
0.0000000001
 40
0.0
 40
0.0
 40
0.0
 40
0.0
 40
0.2526859211241313
 40
0.5057083941171959
 40
0.7593947393741639
 40
1.01405318625086
 40
1.26996425091637
 40
1.527375060172565
 40
1.786490330669834
 40
2.047470117551047
 40
2.310425755981314
 40
2.575417325379407
 40
2.842456731169063
 40
3.111495753801943
 40
3.382458822635121
 40
3.655202026904655
 40
3.929554512223505
 40
4.205306020962704
 40
4.482215236978595
 40
4.76001530984208
 40
5.029821427366006
 40
5.029821427366006
 40
5.029821427366006
 40
5.029821427366006
 10
-23.24851301993027
 20
-3.050170338511151
 30
0.0
 10
-23.42869285736866
 20
-3.048355662480993
 30
0.0
 10
-23.78929251340765
 20
-3.044723893457323
 30
0.0
 10
-24.33006076798664
 20
-3.01544775548933
 30
0.0
 10
-24.87080594077759
 20
-2.968906350328527
 30
0.0
 10
-25.41151764083217
 20
-2.903676777477496
 30
0.0
 10
-25.95219050087424
 20
-2.820643125265441
 30
0.0
 10
-26.4928137486031
 20
-2.72017424457519
 30
0.0
 10
-27.03338702436606
 20
-2.602948942146845
 30
0.0
 10
-27.57390664146537
 20
-2.469679185427989
 30
0.0
 10
-28.11437132206025
 20
-2.32119189099215
 30
0.0
 10
-28.65478551419527
 20
-2.158411256110636
 30
0.0
 10
-29.19514697857056
 20
-1.98234239873404
 30
0.0
 10
-29.73546183763352
 20
-1.794065368894003
 30
0.0
 10
-30.27573731576637
 20
-1.594759888765921
 30
0.0
 10
-30.81597458030133
 20
-1.385634996753964
 30
0.0
 10
-31.35617765842333
 20
-1.167989937942675
 30
0.0
 10
-31.89635647032635
 20
-0.9431675353550625
 30
0.0
 10
-32.43650208895587
 20
-0.7125217620139959
 30
0.0
 10
-32.97109923855062
 20
-0.4800073645065342
 30
0.0
 10
-33.32528996379386
 20
-0.3238025612684086
 30
0.0
 10
-33.49999999999997
 20
-0.2468383593951063
 30
0.0
  0
SPLINE
  5
282E
330
1F
100
AcDbEntity
  8
AM_0
100
AcDbSpline
210
0.0
220
0.0
230
1.0
 70
     8
 71
     3
 72
    13
 73
     9
 74
     0
 42
0.0000000001
 43
0.0000000001
 40
16.03460056234195
 40
16.03460056234195
 40
16.03460056234195
 40
16.03460056234195
 40
16.35212717791071
 40
17.38177067057215
 40
18.41822498539278
 40
19.46214186516937
 40
20.5139635832251
 40
21.34083983469381
 40
21.34083983469381
 40
21.34083983469381
 40
21.34083983469381
 10
-32.43053945936788
 20
-3.050011479262729
 30
0.0
 10
-32.27744116941674
 20
-3.040151762906955
 30
0.0
 10
-32.04196475657381
 20
-2.995315666132459
 30
0.0
 10
-31.62717108878778
 20
-2.907462741289425
 30
0.0
 10
-31.0900118427255
 20
-2.776828290209227
 30
0.0
 10
-30.55335162128066
 20
-2.630147071397999
 30
0.0
 10
-30.05676437171778
 20
-2.480225700744455
 30
0.0
 10
-29.73995045135077
 20
-2.376994167699301
 30
0.0
 10
-29.60096608328477
 20
-2.330332574116987
 30
0.0
  0
ELLIPSE
  5
282F
330
1F
100
AcDbEntity
  8
AM_0
 48
0.5
100
AcDbEllipse
 10
-32.698117089644
 20
-2.06447945868905
 30
0.0
 11
-0.8021463884954259
 21
0.0000000000002852
 31
0.0
210
0.0
220
0.0
230
1.0
 40
0.9505746219592298
 41
4.317028824483418
 42
6.257553905069706
  0
ELLIPSE
  5
2830
330
1F
100
AcDbEntity
  8
AM_0
 48
0.5
100
AcDbEllipse
 10
-32.43053912362518
 20
-2.033503671844205
 30
0.0
 11
1.069525438503447
 21
0.0016799480408694
 31
0.0
210
0.0
220
0.0
230
0.9999999999999998
 40
0.950427540620134
 41
3.151188519071707
 42
4.710895791552045
  0
SPLINE
  5
2831
330
1F
100
AcDbEntity
  8
AM_0
100
AcDbSpline
210
0.0
220
0.0
230
1.0
 70
     8
 71
     3
 72
    17
 73
    13
 74
     0
 42
0.0000000001
 43
0.0000000001
 40
1.580019955310467
 40
1.580019955310467
 40
1.580019955310467
 40
1.580019955310467
 40
2.030549285115227
 40
3.082371838836284
 40
4.126290986361125
 40
5.162752068350215
 40
6.192395305374981
 40
7.216039564037012
 40
8.234688489606833
 40
9.249433870634691
 40
10.26152376260694
 40
11.27226744710342
 40
11.27226744710342
 40
11.27226744710342
 40
11.27226744710352
 10
-8.114046750978889
 20
-2.251003230492095
 30
0.0
 10
-8.190556432805262
 20
-2.274186555574182
 30
0.0
 10
-8.446124474466053
 20
-2.350173000106444
 30
0.0
 10
-8.882442499803072
 20
-2.469360457197446
 30
0.0
 10
-9.422886920665369
 20
-2.602834597841635
 30
0.0
 10
-9.963480125370722
 20
-2.720007171745979
 30
0.0
 10
-10.50409809986805
 20
-2.820484687072404
 30
0.0
 10
-11.04477497372474
 20
-2.903536265522081
 30
0.0
 10
-11.5854892013952
 20
-2.968687968357464
 30
0.0
 10
-12.12623709826185
 20
-3.015517590744174
 30
0.0
 10
-12.66700534169682
 20
-3.043723684964476
 30
0.0
 10
-13.02760500340713
 20
-3.050013435843602
 30
0.0
 10
-13.20778483844672
 20
-3.050011479262695
 30
0.0
  0
SPLINE
  5
2832
330
1F
100
AcDbEntity
  8
AM_0
100
AcDbSpline
210
0.0
220
0.0
230
1.0
 70
     8
 71
     3
 72
    22
 73
    18
 74
     0
 42
0.0000000001
 43
0.0000000001
 40
17.17441611292
 40
17.17441611292
 40
17.17441611292
 40
17.17441611292
 40
17.38177636558528
 40
18.41823744757437
 40
19.46215659509824
 40
20.51397914882054
 40
21.57394542641293
 40
22.64209583141747
 40
23.71826625065247
 40
24.80210429862395
 40
25.8930771157021
 40
26.99048705697709
 40
28.09349309193389
 40
29.20112995599786
 40
30.31233024745139
 40
31.42594771747373
 40
32.5407895042663
 40
32.54078950426994
 40
32.54078950426994
 40
32.54078950426994
 10
-15.27177747180666
 20
-2.7389354932209
 30
0.0
 10
-15.30798808430321
 20
-2.731875042370297
 30
0.0
 10
-15.52505093045272
 20
-2.688869064512978
 30
0.0
 10
-15.92269783315597
 20
-2.602636481556402
 30
0.0
 10
-16.46321749311825
 20
-2.469367294085017
 30
0.0
 10
-17.00368207526178
 20
-2.320879612102292
 30
0.0
 10
-17.54409539523623
 20
-2.158100332537134
 30
0.0
 10
-18.08445673919319
 20
-1.982027533045485
 30
0.0
 10
-18.62477275835416
 20
-1.793756996020846
 30
0.0
 10
-19.16504595453426
 20
-1.594445771607617
 30
0.0
 10
-19.70528132654528
 20
-1.385323001205748
 30
0.0
 10
-20.24548488146202
 20
-1.16767883984804
 30
0.0
 10
-20.78566130792538
 20
-0.9428515880644248
 30
0.0
 10
-21.3258160436845
 20
-0.712224421099112
 30
0.0
 10
-21.86595387674092
 20
-0.4772154349739744
 30
0.0
 10
-22.40608280876695
 20
-0.2392747621576632
 30
0.0
 10
-22.76609808289025
 20
-0.0796930001274703
 30
0.0
 10
-22.94620461873967
 20
0.000141712631482
 30
0.0
  0
SPLINE
  5
2833
330
1F
100
AcDbEntity
  8
AM_0
100
AcDbSpline
210
0.0
220
0.0
230
1.0
 70
     8
 71
     3
 72
    11
 73
     7
 74
     0
 42
0.0000000001
 43
0.0000000001
 40
11.27226913003534
 40
11.27226913003534
 40
11.27226913003534
 40
11.2722691300354
 40
12.28301561507924
 40
13.29510212255852
 40
14.30984805882082
 40
15.18258238371378
 40
15.18258238371378
 40
15.18258238371378
 40
15.18258238371378
 10
-13.20778483844676
 20
-3.050011479262695
 30
0.0
 10
-13.38727954104903
 20
-3.035085832067114
 30
0.0
 10
-13.74593038511233
 20
-2.998946795251274
 30
0.0
 10
-14.28205464511071
 20
-2.926045419024159
 30
0.0
 10
-14.79084602119193
 20
-2.838972718445038
 30
0.0
 10
-15.11990241778665
 20
-2.772037342060045
 30
0.0
 10
-15.27154097520983
 20
-2.738973114947576
 30
0.0
  0
LINE
  5
2838
330
1F
100
AcDbEntity
  8
AM_0
 48
0.5
100
AcDbLine
 10
-24.74309885873045
 20
-3.050011479262716
 30
0.0
 11
-13.20778483844676
 21
-3.050011479262695
 31
0.0
  0
LINE
  5
2839
330
1F
100
AcDbEntity
  8
AM_0
100
AcDbLine
 10
-24.63787250947588
 20
3.049988520737282
 30
0.0
 11
-13.03265028061801
 21
3.049988520737485
 31
0.0
  0
LINE
  5
283A
330
1F
100
AcDbEntity
  8
AM_11
 48
0.5
100
AcDbLine
 10
-32.43053945936785
 20
-3.050011479262718
 30
0.0
 11
-24.74309885873045
 21
-3.050011479262716
 31
0.0
  0
LINE
  5
283B
330
1F
100
AcDbEntity
  8
AM_0
 48
0.5
100
AcDbLine
 10
-26.12170730872767
 20
1.453218155013157
 30
0.0
 11
-33.49999999999994
 21
-0.2468383593951098
 31
0.0
  0
LINE
  5
283C
330
1F
100
AcDbEntity
  8
AM_11
 48
0.5
100
AcDbLine
 10
-31.136295328576
 20
3.04998852073727
 30
0.0
 11
-24.63787250947588
 21
3.049988520737282
 31
0.0
  0
SPLINE
  5
283D
330
1F
100
AcDbEntity
  8
AM_0
 48
0.5
100
AcDbSpline
210
0.0
220
0.0
230
1.0
 70
     8
 71
     3
 72
    25
 73
    21
 74
     0
 42
0.0000000001
 43
0.0000000001
 40
6.846175049578289
 40
6.846175049578289
 40
6.846175049578289
 40
6.846175049578289
 40
7.604337694224321
 40
8.711974558287883
 40
9.814980593243754
 40
10.91239053451967
 40
12.0033633515982
 40
13.08720139956839
 40
14.16337181880432
 40
15.23152222380919
 40
16.29148850140128
 40
17.34331105512262
 40
18.38723020264746
 40
19.42369128463655
 40
20.45333379090873
 40
21.47697865721768
 40
22.49561244472435
 40
23.5103574802404
 40
24.52244778960836
 40
25.53320666051913
 40
25.53320666051913
 40
25.53320666051913
 40
25.53320666051913
 10
-3.384929544295688
 20
0.552058488632472
 30
0.0
 10
-3.508952543085599
 20
0.6056110642274426
 30
0.0
 10
-3.814427814732309
 20
0.7368653279465072
 30
0.0
 10
-4.301809327974692
 20
0.9429817712556669
 30
0.0
 10
-4.847169921609581
 20
1.167809086569171
 30
0.0
 10
-5.392557941782926
 20
1.385453231009883
 30
0.0
 10
-5.937978074394227
 20
1.594576005982439
 30
0.0
 10
-6.483436396769772
 20
1.793887228900747
 30
0.0
 10
-7.02893795268572
 20
1.982157767361602
 30
0.0
 10
-7.574485267526964
 20
2.158230562634049
 30
0.0
 10
-8.12008506103691
 20
2.321009857481911
 30
0.0
 10
-8.66573659440829
 20
2.469497483153318
 30
0.0
 10
-9.211443786941597
 20
2.602766878418783
 30
0.0
 10
-9.757204712811034
 20
2.719993259769292
 30
0.0
 10
-10.30301723999859
 20
2.8204581133587
 30
0.0
 10
-10.84887833131414
 20
2.903495511538086
 30
0.0
 10
-11.39477949337822
 20
2.968725414335587
 30
0.0
 10
-11.94071470980602
 20
3.015261837832603
 30
0.0
 10
-12.48667511842389
 20
3.044546155647303
 30
0.0
 10
-12.85073843532598
 20
3.048175195251538
 30
0.0
 10
-13.03265028061799
 20
3.049988520737485
 30
0.0
  0
SPLINE
  5
283E
330
1F
100
AcDbEntity
  8
AM_0
100
AcDbSpline
210
0.0
220
0.0
230
1.0
 70
     8
 71
     3
 72
    55
 73
    51
 74
     0
 42
0.0000000001
 43
0.0000000001
 40
0.0
 40
0.0
 40
0.0
 40
0.0
 40
1.010743684496582
 40
2.022833576467832
 40
3.037578957496688
 40
4.056212745003489
 40
5.079857003664532
 40
6.109500240690281
 40
7.145961322679372
 40
8.189895241603872
 40
9.241717795325891
 40
10.30168407291828
 40
11.36983447792315
 40
12.44600489715814
 40
13.52984294512926
 40
14.62081576220742
 40
15.7182257034828
 40
16.82123173843959
 40
17.92886860250316
 40
19.0400688939571
 40
20.15368796660465
 40
21.26852814259644
 40
22.38336992938901
 40
23.49698739941135
 40
24.6081876908653
 40
25.71582455492886
 40
26.81883757994213
 40
27.91624752121713
 40
29.00722033829659
 40
30.09105838626677
 40
31.16722880550176
 40
32.23537921050758
 40
33.29534548809967
 40
34.347168041821
 40
35.39108718934584
 40
36.42754827133493
 40
37.45720575381954
 40
38.48085062012849
 40
39.49948440763516
 40
40.51422944315121
 40
41.52631975251916
 40
42.53706336719636
 40
43.54780698187354
 40
44.55989729124051
 40
45.57464232675757
 40
46.59327611426424
 40
47.6169209805722
 40
48.64656348684535
 40
49.68302456883444
 40
50.58557219878025
 40
50.58557219878025
 40
50.58557219878025
 40
50.58557219878025
 10
-3.021103422291022
 20
-3.05001147926267
 30
0.0
 10
-3.201283259707712
 20
-3.048198742282412
 30
0.0
 10
-3.561882915703148
 20
-3.044566973100497
 30
0.0
 10
-4.102651170608141
 20
-3.015290836321636
 30
0.0
 10
-4.643396342155292
 20
-2.968749426623411
 30
0.0
 10
-5.184108046885175
 20
-2.903519870828283
 30
0.0
 10
-5.7247808893462
 20
-2.820486154479191
 30
0.0
 10
-6.26540420327202
 20
-2.720017515280421
 30
0.0
 10
-6.805979797023657
 20
-2.602790745795697
 30
0.0
 10
-7.346502876788037
 20
-2.469523686672626
 30
0.0
 10
-7.886969760617945
 20
-2.321034589569691
 30
0.0
 10
-8.427383142441961
 20
-2.158255505199932
 30
0.0
 10
-8.967744469594912
 20
-1.982182652719082
 30
0.0
 10
-9.508060493458774
 20
-1.79391213035938
 30
0.0
 10
-10.04833368780151
 20
-1.594600900818871
 30
0.0
 10
-10.5885690624349
 20
-1.385478136162401
 30
0.0
 10
-11.12877260864231
 20
-1.167833956845566
 30
0.0
 10
-11.6689490675385
 20
-0.9430067715961172
 30
0.0
 10
-12.20910368159756
 20
-0.7123793550632769
 30
0.0
 10
-12.74924223070335
 20
-0.4773711915958998
 30
0.0
 10
-13.28936945238517
 20
-0.2394270148031019
 30
0.0
 10
-13.82949297407601
 20
-0.0000140407021156
 30
0.0
 10
-14.36961407106417
 20
0.2394032429815986
 30
0.0
 10
-14.9097431031347
 20
0.4773437143542126
 30
0.0
 10
-15.44988098543224
 20
0.712352589177911
 30
0.0
 10
-15.990036562581
 20
0.9429808842984073
 30
0.0
 10
-16.53021526238825
 20
1.167806150833172
 30
0.0
 10
-17.07041966117961
 20
1.385451433908837
 30
0.0
 10
-17.61065511380499
 20
1.594574028988294
 30
0.0
 10
-18.15092828848892
 20
1.793885300443196
 30
0.0
 10
-18.69124431373629
 20
1.982155823078315
 30
0.0
 10
-19.23160565465271
 20
2.158228633457504
 30
0.0
 10
-19.77201898070018
 20
2.321007884039694
 30
0.0
 10
-20.31248354180193
 20
2.469495669985779
 30
0.0
 10
-20.85300327905542
 20
2.602764474574836
 30
0.0
 10
-21.39357867228156
 20
2.719993601342427
 30
0.0
 10
-21.934205846439
 20
2.820450765627931
 30
0.0
 10
-22.47488047513031
 20
2.903510182667538
 30
0.0
 10
-23.01559234015137
 20
2.968662417243628
 30
0.0
 10
-23.55633788742466
 20
3.015486455968698
 30
0.0
 10
-24.09710568382261
 20
3.043701400574295
 30
0.0
 10
-24.63788536326495
 20
3.053127079961281
 30
0.0
 10
-25.17866504191161
 20
3.043701400559545
 30
0.0
 10
-25.71943284070124
 20
3.01548645602805
 30
0.0
 10
-26.26017837916908
 20
2.968662417020283
 30
0.0
 10
-26.800890277204
 20
2.903510183507258
 30
0.0
 10
-27.34156214589173
 20
2.820451167398989
 30
0.0
 10
-27.88218719018394
 20
2.719994628462817
 30
0.0
 10
-28.39818379342179
 20
2.608085934748149
 30
0.0
 10
-28.73296826593886
 20
2.52624604908637
 30
0.0
 10
-28.88828874853647
 20
2.486361480413325
 30
0.0
  0
SPLINE
  5
283F
330
1F
100
AcDbEntity
  8
AM_0
100
AcDbSpline
210
0.0
220
0.0
230
1.0
 70
     8
 71
     3
 72
    46
 73
    42
 74
     0
 42
0.0000000001
 43
0.0000000001
 40
0.0
 40
0.0
 40
0.0
 40
0.0
 40
0.5056245176053715
 40
0.759310862862336
 40
1.013969309739036
 40
1.269880374404297
 40
1.527291183660732
 40
1.786406454158005
 40
2.047386241038974
 40
2.310345544571907
 40
2.575337113970003
 40
2.842374715221223
 40
3.111417320030211
 40
3.382376832022752
 40
3.655120036292296
 40
3.929472521611371
 40
4.205224030350333
 40
4.482133246366229
 40
4.759933319229942
 40
5.038338087391601
 40
5.317048131389549
 40
5.595758175387723
 40
5.874162943549383
 40
6.151963016412869
 40
6.428872232428759
 40
6.704623741167955
 40
6.978976226486705
 40
7.251719430756336
 40
7.522680721168327
 40
7.791723325977311
 40
8.058760927228529
 40
8.32375249662655
 40
8.586708135057122
 40
8.84768792193809
 40
9.106803192435362
 40
9.364213819003406
 40
9.620125035580644
 40
9.87478726697307
 40
10.12847352585208
 40
10.38149610319407
 40
10.63418200686337
 40
10.63418200686337
 40
10.63418200686337
 40
10.63418200686337
 10
-1.507319757250646
 20
-3.050013418391699
 30
0.0
 10
-1.867937031570584
 20
-3.043065282623906
 30
0.0
 10
-2.409486351654515
 20
-3.032631067546446
 30
0.0
 10
-3.129608098581159
 20
-2.968389522181862
 30
0.0
 10
-3.670325612697308
 20
-2.903616955445773
 30
0.0
 10
-4.210996908338011
 20
-2.82045998240591
 30
0.0
 10
-4.751620561189977
 20
-2.720024371452979
 30
0.0
 10
-5.292193793963417
 20
-2.602790290370492
 30
0.0
 10
-5.832715701279437
 20
-2.469521444776965
 30
0.0
 10
-6.373183877624588
 20
-2.32103612511236
 30
0.0
 10
-6.913599403265181
 20
-2.158255292394049
 30
0.0
 10
-7.453960824647777
 20
-1.98218271039369
 30
0.0
 10
-7.994276822967681
 20
-1.793912114720285
 30
0.0
 10
-8.534550024268643
 20
-1.594600905117111
 30
0.0
 10
-9.074785396866644
 20
-1.38547813475408
 30
0.0
 10
-9.614988944198024
 20
-1.167833958151991
 30
0.0
 10
-10.155165400634
 20
-0.9430067677636877
 30
0.0
 10
-10.69532002345442
 20
-0.7123793691591409
 30
0.0
 10
-11.23545853983807
 20
-0.477371138838489
 30
0.0
 10
-11.77558588398564
 20
-0.2394272122218766
 30
0.0
 10
-12.31570868772737
 20
-0.0000134184398064
 30
0.0
 10
-12.85583149135046
 20
0.2394003756331813
 30
0.0
 10
-13.39595883585395
 20
0.4773443013774319
 30
0.0
 10
-13.93609735093668
 20
0.7123525348862536
 30
0.0
 10
-14.47625197858099
 20
0.942979921667014
 30
0.0
 10
-15.01642841713045
 20
1.167807155896653
 30
0.0
 10
-15.55663203070177
 20
1.385451170138878
 30
0.0
 10
-16.09686833272789
 20
1.594574995696497
 30
0.0
 10
-16.63714363326986
 20
1.793884394456302
 30
0.0
 10
-17.17746059543067
 20
1.982155955516841
 30
0.0
 10
-17.71782200423212
 20
2.158228589908173
 30
0.0
 10
-18.25823530990713
 20
2.321007926809738
 30
0.0
 10
-18.79869988522397
 20
2.469495543416456
 30
0.0
 10
-19.33921958616584
 20
2.602764933427806
 30
0.0
 10
-19.87979250608389
 20
2.719991344441233
 30
0.0
 10
-20.420416555288
 20
2.820456085679122
 30
0.0
 10
-20.96109130153464
 20
2.90349430949519
 30
0.0
 10
-21.50180602947052
 20
2.968722863034525
 30
0.0
 10
-22.0425542111635
 20
3.015260001302294
 30
0.0
 10
-22.58332202161323
 20
3.044544038275724
 30
0.0
 10
-22.94392182862402
 20
3.048173205866483
 30
0.0
 10
-23.12410169809206
 20
3.049986581608969
 30
0.0
  0
LINE
  5
2840
330
1F
100
AcDbEntity
  8
AM_11
 48
0.5
100
AcDbLine
 10
-13.20778483844676
 20
-3.050011479262695
 30
0.0
 11
-3.021103422291022
 21
-3.050011479262678
 31
0.0
  0
SPLINE
  5
2841
330
1F
100
AcDbEntity
  8
AM_0
 48
0.5
100
AcDbSpline
210
0.0
220
0.0
230
1.0
 70
     8
 71
     3
 72
    17
 73
    13
 74
     0
 42
0.0000000001
 43
0.0000000001
 40
0.0
 40
0.0
 40
0.0
 40
0.0
 40
1.010743614677189
 40
2.022833924044153
 40
3.037578959561199
 40
4.056212747067873
 40
5.079857613375832
 40
6.109500119648989
 40
7.14596120163808
 40
8.18989512056258
 40
9.241717674284874
 40
9.693948937866434
 40
9.693948937866434
 40
9.693948937866434
 40
9.693948937866434
 10
-2.748204948072353
 20
3.049988520737411
 30
0.0
 10
-2.930114045792142
 20
3.048175152372028
 30
0.0
 10
-3.294174613295624
 20
3.044545999545331
 30
0.0
 10
-3.840132285145135
 20
3.015261851631674
 30
0.0
 10
-4.386067480234193
 20
2.968725367980873
 30
0.0
 10
-4.931968722800182
 20
2.9034956841693
 30
0.0
 10
-5.477829511317485
 20
2.820457464435001
 30
0.0
 10
-6.023643178636125
 20
2.71999570368283
 30
0.0
 10
-6.569402399019389
 20
2.602757107490614
 30
0.0
 10
-7.115128350115747
 20
2.469530956281563
 30
0.0
 10
-7.555652568342048
 20
2.349514332712868
 30
0.0
 10
-7.814354217695083
 20
2.274486683836791
 30
0.0
 10
-7.892002573315786
 20
2.251521222772943
 30
0.0
  0
LINE
  5
2842
330
1F
100
AcDbEntity
  8
AM_11
 48
0.5
100
AcDbLine
 10
-13.03245574827076
 20
3.049986581608699
 30
0.0
 11
-3.110870639881312
 21
3.049986581608385
 31
0.0
  0
LINE
  5
284F
330
1F
100
AcDbEntity
  8
AM_0
100
AcDbLine
 10
-31.136295328576
 20
3.04998852073727
 30
0.0
 11
-35.22055725392785
 21
3.049988520737263
 31
0.0
  0
LINE
  5
2870
330
1F
100
AcDbEntity
  8
AM_0
100
AcDbLine
 10
-32.43053945937146
 20
-3.050011479262718
 30
0.0
 11
-35.22059701926013
 21
-3.050011479262725
 31
0.0
  0
VIEWPORT
  5
110
330
101
100
AcDbEntity
 67
     1
  8
0
100
AcDbViewport
 10
420.5
 20
297.0
 30
0.0
 40
948.9782706766916
 41
628.452
 68
     1
 69
     1
1001
ACAD
1000
MVIEW
1002
{
1070
    16
1010
0.0
1020
0.0
1030
0.0
1010
0.0
1020
0.0
1030
1.0
1040
0.0
1040
628.452
1040
420.5
1040
297.0
1040
50.0
1040
0.0
1040
0.0
1070
     0
1070
   100
1070
     1
1070
     1
1070
     0
1070
     0
1070
     0
1070
     0
1040
0.0
1040
0.0
1040
0.0
1040
10.0
1040
10.0
1040
10.0
1040
10.0
1070
     0
1002
{
1002
}
1002
}
  0
ENDSEC
  0
SECTION
  2
OBJECTS
  0
DICTIONARY
  5
C
330
0
100
AcDbDictionary
  3
ACAD_GROUP
350
D
  3
ACAD_LAYOUT
350
1A
  3
ACAD_MLINESTYLE
350
17
  3
ACAD_PLOTSETTINGS
350
19
  3
ACAD_PLOTSTYLENAME
350
E
  3
ACDBVARIABLEDICTIONARY
350
34
  3
ACMDICTIONARY
350
43
  3
AMG
350
2B
  3
AMGSNAPSETTINGS
350
6E
  3
DWGPROPS
350
2AC0
  3
ACDBHEADERROUNDTRIPXREC
350
2ACD
  0
DICTIONARY
  5
74
330
1F
100
AcDbDictionary
280
     1
  3
ACAD_INDEX
360
2AC2
  3
ACAD_LAYOUTSELFREF
360
2AF0
  0
DICTIONARY
  5
2AF5
330
101
100
AcDbDictionary
280
     1
  3
ACAD_LAYOUTSELFREF
360
2AF6
  0
DICTIONARY
  5
D
102
{ACAD_REACTORS
330
C
102
}
330
C
100
AcDbDictionary
  0
DICTIONARY
  5
1A
102
{ACAD_REACTORS
330
C
102
}
330
C
100
AcDbDictionary
  0
DICTIONARY
  5
17
102
{ACAD_REACTORS
330
C
102
}
330
C
100
AcDbDictionary
  3
STANDARD
350
18
  0
DICTIONARY
  5
19
102
{ACAD_REACTORS
330
C
102
}
330
C
100
AcDbDictionary
  0
ACDBDICTIONARYWDFLT
  5
E
102
{ACAD_REACTORS
330
C
102
}
330
C
100
AcDbDictionary
281
     1
  3
Normal
350
F
100
AcDbDictionaryWithDefault
340
F
  0
DICTIONARY
  5
34
102
{ACAD_REACTORS
330
C
102
}
330
C
100
AcDbDictionary
  3
INDEXCTL
350
35
  3
SORTENTS
350
B5E
  0
DICTIONARY
  5
43
102
{ACAD_REACTORS
330
C
102
}
330
C
100
AcDbDictionary
  3
ACMSTDDICTIONARY
350
260
  0
DICTIONARY
  5
2B
102
{ACAD_REACTORS
330
C
102
}
330
C
100
AcDbDictionary
  3
ACMGSETTINGS
350
2C
  0
DICTIONARY
  5
6E
102
{ACAD_REACTORS
330
C
102
}
330
C
100
AcDbDictionary
  0
XRECORD
  5
2AC0
102
{ACAD_REACTORS
330
C
102
}
330
C
100
AcDbXrecord
  1
DWGPROPS COOKIE
  2

  3

  4

  6

  7

  8

  9

300
AmdtFileType=82
301
=
302
=
303
=
304
=
305
=
306
=
307
=
308
=
309
=
 40
0.0717619560185185
 41
2452800.443498622
 42
2452946.607577211
  1

 90
        1
  0
DICTIONARY
  5
2ACD
102
{ACAD_REACTORS
330
C
102
}
330
C
100
AcDbDictionary
  3
TSTACKALIGN
350
2ACE
  3
TSTACKSIZE
350
2ACF
  3
HYPERLINKBASE
350
2AD0
  3
STYLESHEET
350
2AD1
  3
LAYOUTDICT
350
2AD2
  3
PLOTSETDICT
350
2AD3
  3
PLOTSTYLNAMDICT
350
2AD4
  3
LWETCUNION
350
2AD5
  3
INSUNITS
350
2AD6
  3
CEPSNTYPE
350
2AD7
  3
FINGERPRINTGUID
350
2AD8
  3
VERSIONGUID
350
2AD9
  3
PSVPSCALE
350
2ADA
  3
DIMSTYLEDATA
350
2ADB
  3
PUCSORTHOREF
350
2ADC
  3
PUCSORTHOVIEW
350
2ADD
  3
PUCSBASE
350
2ADE
  3
PUCSORGTOP
350
2ADF
  3
PUCSORGBOTTOM
350
2AE0
  3
PUCSORGLEFT
350
2AE1
  3
PUCSORGRIGHT
350
2AE2
  3
PUCSORGFRONT
350
2AE3
  3
PUCSORGBACK
350
2AE4
  3
UCSORTHOREF
350
2AE5
  3
UCSORTHOVIEW
350
2AE6
  3
UCSBASE
350
2AE7
  3
UCSORGTOP
350
2AE8
  3
UCSORGBOTTOM
350
2AE9
  3
UCSORGLEFT
350
2AEA
  3
UCSORGRIGHT
350
2AEB
  3
UCSORGFRONT
350
2AEC
  3
UCSORGBACK
350
2AED
  0
DICTIONARY
  5
2AC2
102
{ACAD_REACTORS
330
74
102
}
330
74
100
AcDbDictionary
  3
*A1
350
2AC3
  0
XRECORD
  5
2AF0
102
{ACAD_REACTORS
330
74
102
}
330
74
100
AcDbXrecord
340
1F
  0
XRECORD
  5
2AF6
102
{ACAD_REACTORS
330
2AF5
102
}
330
2AF5
100
AcDbXrecord
340
101
  0
MLINESTYLE
  5
18
102
{ACAD_REACTORS
330
17
102
}
330
17
100
AcDbMlineStyle
  2
STANDARD
 70
     0
  3

 62
   256
 51
90.0
 52
90.0
 71
     2
 49
0.5
 62
   256
  6
BYLAYER
 49
-0.5
 62
   256
  6
BYLAYER
  0
ACDBPLACEHOLDER
  5
F
102
{ACAD_REACTORS
330
E
102
}
330
E
100
AcDbPlaceHolder
280
     0
  0
DICTIONARYVAR
  5
35
102
{ACAD_REACTORS
330
34
102
}
330
34
100
DictionaryVariables
280
     0
  1
1
  0
DICTIONARYVAR
  5
B5E
102
{ACAD_REACTORS
330
34
102
}
330
34
100
DictionaryVariables
280
     0
  1
96
  0
DICTIONARY
  5
260
102
{ACAD_REACTORS
330
43
102
}
330
43
100
AcDbDictionary
  0
DICTIONARY
  5
2C
102
{ACAD_REACTORS
330
2B
102
}
330
2B
100
AcDbDictionary
  3
DWGSETTINGS
350
2D
  0
XRECORD
  5
2ACE
102
{ACAD_REACTORS
330
2ACD
102
}
330
2ACD
100
AcDbXrecord
 90
        1
  0
XRECORD
  5
2ACF
102
{ACAD_REACTORS
330
2ACD
102
}
330
2ACD
100
AcDbXrecord
 90
       70
  0
XRECORD
  5
2AD0
102
{ACAD_REACTORS
330
2ACD
102
}
330
2ACD
100
AcDbXrecord
  1

  0
XRECORD
  5
2AD1
102
{ACAD_REACTORS
330
2ACD
102
}
330
2ACD
100
AcDbXrecord
  1
ASAMI.ctb
  0
XRECORD
  5
2AD2
102
{ACAD_REACTORS
330
2ACD
102
}
330
2ACD
100
AcDbXrecord
340
1A
  0
XRECORD
  5
2AD3
102
{ACAD_REACTORS
330
2ACD
102
}
330
2ACD
100
AcDbXrecord
340
19
  0
XRECORD
  5
2AD4
102
{ACAD_REACTORS
330
2ACD
102
}
330
2ACD
100
AcDbXrecord
340
E
  0
XRECORD
  5
2AD5
102
{ACAD_REACTORS
330
2ACD
102
}
330
2ACD
100
AcDbXrecord
 90
    10781
  0
XRECORD
  5
2AD6
102
{ACAD_REACTORS
330
2ACD
102
}
330
2ACD
100
AcDbXrecord
 90
        4
  0
XRECORD
  5
2AD7
102
{ACAD_REACTORS
330
2ACD
102
}
330
2ACD
100
AcDbXrecord
 90
        0
  0
XRECORD
  5
2AD8
102
{ACAD_REACTORS
330
2ACD
102
}
330
2ACD
100
AcDbXrecord
  1
{AFB28963-8C59-40AE-9337-C84526B81ACE}
  0
XRECORD
  5
2AD9
102
{ACAD_REACTORS
330
2ACD
102
}
330
2ACD
100
AcDbXrecord
  1
{C115DD01-3F5F-44F8-9601-FC47AC5DFA7A}
  0
XRECORD
  5
2ADA
102
{ACAD_REACTORS
330
2ACD
102
}
330
2ACD
100
AcDbXrecord
 40
0.0
  0
XRECORD
  5
2ADB
102
{ACAD_REACTORS
330
2ACD
102
}
330
2ACD
100
AcDbXrecord
1000
DSTYLE
1002
{
1070
    79
 70
     2
1070
   341
340
59
1070
   342
340
59
1070
   371
 70
    -1
1070
   372
 70
    -1
1002
}
  0
XRECORD
  5
2ADC
102
{ACAD_REACTORS
330
2ACD
102
}
330
2ACD
100
AcDbXrecord
340
0
  0
XRECORD
  5
2ADD
102
{ACAD_REACTORS
330
2ACD
102
}
330
2ACD
100
AcDbXrecord
 70
     0
  0
XRECORD
  5
2ADE
102
{ACAD_REACTORS
330
2ACD
102
}
330
2ACD
100
AcDbXrecord
340
0
  0
XRECORD
  5
2ADF
102
{ACAD_REACTORS
330
2ACD
102
}
330
2ACD
100
AcDbXrecord
 10
0.0
 20
0.0
 30
0.0
  0
XRECORD
  5
2AE0
102
{ACAD_REACTORS
330
2ACD
102
}
330
2ACD
100
AcDbXrecord
 10
0.0
 20
0.0
 30
0.0
  0
XRECORD
  5
2AE1
102
{ACAD_REACTORS
330
2ACD
102
}
330
2ACD
100
AcDbXrecord
 10
0.0
 20
0.0
 30
0.0
  0
XRECORD
  5
2AE2
102
{ACAD_REACTORS
330
2ACD
102
}
330
2ACD
100
AcDbXrecord
 10
0.0
 20
0.0
 30
0.0
  0
XRECORD
  5
2AE3
102
{ACAD_REACTORS
330
2ACD
102
}
330
2ACD
100
AcDbXrecord
 10
0.0
 20
0.0
 30
0.0
  0
XRECORD
  5
2AE4
102
{ACAD_REACTORS
330
2ACD
102
}
330
2ACD
100
AcDbXrecord
 10
0.0
 20
0.0
 30
0.0
  0
XRECORD
  5
2AE5
102
{ACAD_REACTORS
330
2ACD
102
}
330
2ACD
100
AcDbXrecord
340
0
  0
XRECORD
  5
2AE6
102
{ACAD_REACTORS
330
2ACD
102
}
330
2ACD
100
AcDbXrecord
 70
     0
  0
XRECORD
  5
2AE7
102
{ACAD_REACTORS
330
2ACD
102
}
330
2ACD
100
AcDbXrecord
340
0
  0
XRECORD
  5
2AE8
102
{ACAD_REACTORS
330
2ACD
102
}
330
2ACD
100
AcDbXrecord
 10
0.0
 20
0.0
 30
0.0
  0
XRECORD
  5
2AE9
102
{ACAD_REACTORS
330
2ACD
102
}
330
2ACD
100
AcDbXrecord
 10
0.0
 20
0.0
 30
0.0
  0
XRECORD
  5
2AEA
102
{ACAD_REACTORS
330
2ACD
102
}
330
2ACD
100
AcDbXrecord
 10
0.0
 20
0.0
 30
0.0
  0
XRECORD
  5
2AEB
102
{ACAD_REACTORS
330
2ACD
102
}
330
2ACD
100
AcDbXrecord
 10
0.0
 20
0.0
 30
0.0
  0
XRECORD
  5
2AEC
102
{ACAD_REACTORS
330
2ACD
102
}
330
2ACD
100
AcDbXrecord
 10
0.0
 20
0.0
 30
0.0
  0
XRECORD
  5
2AED
102
{ACAD_REACTORS
330
2ACD
102
}
330
2ACD
100
AcDbXrecord
 10
0.0
 20
0.0
 30
0.0
  0
LAYER_INDEX
  5
2AC3
102
{ACAD_REACTORS
330
2AC2
102
}
330
2AC2
100
AcDbIndex
 40
2453151.580224595
100
AcDbLayerIndex
  8
0
360
2AC4
 90
        0
  8
AM_0
360
2AC5
 90
       44
  8
AM_7
360
2AC6
 90
        1
  8
AM_11
360
2AC7
 90
       17
  8
AM_5
360
2AC8
 90
        5
  8
Defpoints
360
2AC9
 90
        0
  8
AM_6
360
2ACA
 90
        1
  8
AM_CL
360
2ACB
 90
        0
  0
XRECORD
  5
2D
102
{ACAD_REACTORS
330
2C
102
}
330
2C
100
AcDbXrecord
  1
VERSION
140
15.0
  1
PRODUCT
  2
AutoCAD Mechanical 2000
  0
IDBUFFER
  5
2AC4
330
0
100
AcDbIdBuffer
  0
IDBUFFER
  5
2AC5
330
0
100
AcDbIdBuffer
330
23C4
330
23C7
330
23C8
330
23D3
330
23D5
330
2500
330
2503
330
2567
330
2568
330
2569
330
282B
330
282C
330
282D
330
282E
330
282F
330
2830
330
2831
330
2832
330
2833
330
2838
330
2839
330
283B
330
283D
330
283E
330
283F
330
2841
330
284F
330
2870
330
C1D
330
1D9D
330
1D9E
330
1DA2
330
1DA4
330
1DA5
330
1F71
330
1F72
330
2398
330
23AA
330
23AB
330
23AC
330
23AE
330
23AF
330
23BB
330
23BC
  0
IDBUFFER
  5
2AC6
330
0
100
AcDbIdBuffer
330
1D14
  0
IDBUFFER
  5
2AC7
330
0
100
AcDbIdBuffer
330
2842
330
144A
330
144B
330
1F77
330
1F78
330
1F79
330
1F7A
330
231A
330
2324
330
2325
330
2327
330
2328
330
232D
330
232E
330
283A
330
283C
330
2840
  0
IDBUFFER
  5
2AC8
330
0
100
AcDbIdBuffer
330
CC6
330
DF5
330
1F93
330
239B
330
2577
  0
IDBUFFER
  5
2AC9
330
0
100
AcDbIdBuffer
  0
IDBUFFER
  5
2ACA
330
0
100
AcDbIdBuffer
330
19BD
  0
IDBUFFER
  5
2ACB
330
0
100
AcDbIdBuffer
  0
ENDSEC
  0
EOF
