  0
SECTION
  2
HEADER
  9
$ACADVER
  1
AC1014
  9
$ACADMAINTVER
 70
     9
  9
$DWGCODEPAGE
  3
ANSI_932
  9
$INSBASE
 10
0.0
 20
0.0
 30
0.0
  9
$EXTMIN
 10
-100.4000009999999
 20
-26.75001206798985
 30
-0.00000001
  9
$EXTMAX
 10
14.56429417212131
 20
14.155829656515
 30
0.00000001
  9
$LIMMIN
 10
-126.9722917054209
 20
-47.01556391205523
  9
$LIMMAX
 10
22.8581825236518
 20
32.61046322322207
  9
$ORTHOMODE
 70
     0
  9
$REGENMODE
 70
     1
  9
$FILLMODE
 70
     1
  9
$QTEXTMODE
 70
     0
  9
$MIRRTEXT
 70
     0
  9
$DRAGMODE
 70
     2
  9
$LTSCALE
 40
1.0
  9
$OSMODE
 70
    55
  9
$ATTMODE
 70
     1
  9
$TEXTSIZE
 40
2.5
  9
$TRACEWID
 40
1.0
  9
$TEXTSTYLE
  7
STANDARD
  9
$CLAYER
  8
AM_0
  9
$CELTYPE
  6
BYLAYER
  9
$CECOLOR
 62
   256
  9
$CELTSCALE
 40
1.0
  9
$DELOBJ
 70
     1
  9
$DISPSILH
 70
     0
  9
$DIMSCALE
 40
0.5
  9
$DIMASZ
 40
2.5
  9
$DIMEXO
 40
1.0
  9
$DIMDLI
 40
12.0
  9
$DIMRND
 40
0.0
  9
$DIMDLE
 40
0.0
  9
$DIMEXE
 40
1.0
  9
$DIMTP
 40
0.1
  9
$DIMTM
 40
0.1
  9
$DIMTXT
 40
3.2
  9
$DIMCEN
 40
0.0
  9
$DIMTSZ
 40
0.0
  9
$DIMTOL
 70
     0
  9
$DIMLIM
 70
     0
  9
$DIMTIH
 70
     0
  9
$DIMTOH
 70
     0
  9
$DIMSE1
 70
     0
  9
$DIMSE2
 70
     0
  9
$DIMTAD
 70
     3
  9
$DIMZIN
 70
     8
  9
$DIMBLK
  1
OPEN30
  9
$DIMASO
 70
     1
  9
$DIMSHO
 70
     1
  9
$DIMPOST
  1

  9
$DIMAPOST
  1
"
  9
$DIMALT
 70
     0
  9
$DIMALTD
 70
     2
  9
$DIMALTF
 40
0.0393701
  9
$DIMLFAC
 40
1.0
  9
$DIMTOFL
 70
     1
  9
$DIMTVP
 40
0.0
  9
$DIMTIX
 70
     0
  9
$DIMSOXD
 70
     0
  9
$DIMSAH
 70
     0
  9
$DIMBLK1
  1

  9
$DIMBLK2
  1

  9
$DIMSTYLE
  2
AM_JIS
  9
$DIMCLRD
 70
   256
  9
$DIMCLRE
 70
   256
  9
$DIMCLRT
 70
     2
  9
$DIMTFAC
 40
0.71
  9
$DIMGAP
 40
1.5
  9
$DIMJUST
 70
     0
  9
$DIMSD1
 70
     0
  9
$DIMSD2
 70
     0
  9
$DIMTOLJ
 70
     0
  9
$DIMTZIN
 70
     0
  9
$DIMALTZ
 70
     0
  9
$DIMALTTZ
 70
     0
  9
$DIMFIT
 70
     3
  9
$DIMUPT
 70
     0
  9
$DIMUNIT
 70
     2
  9
$DIMDEC
 70
     3
  9
$DIMTDEC
 70
     3
  9
$DIMALTU
 70
     2
  9
$DIMALTTD
 70
     2
  9
$DIMTXSTY
  7
ASAMI
  9
$DIMAUNIT
 70
     0
  9
$LUNITS
 70
     2
  9
$LUPREC
 70
     2
  9
$SKETCHINC
 40
1.0
  9
$FILLETRAD
 40
2.5
  9
$AUNITS
 70
     0
  9
$AUPREC
 70
     0
  9
$MENU
  1
.
  9
$ELEVATION
 40
0.0
  9
$PELEVATION
 40
0.0
  9
$THICKNESS
 40
0.0
  9
$LIMCHECK
 70
     0
  9
$BLIPMODE
 70
     0
  9
$CHAMFERA
 40
0.5
  9
$CHAMFERB
 40
0.5
  9
$CHAMFERC
 40
20.0
  9
$CHAMFERD
 40
0.0
  9
$SKPOLY
 70
     0
  9
$TDCREATE
 40
2452800.443498622
  9
$TDUPDATE
 40
2453151.580347025
  9
$TDINDWG
 40
0.0715742477
  9
$TDUSRTIMER
 40
0.0715742477
  9
$USRTIMER
 70
     1
  9
$ANGBASE
 50
0.0
  9
$ANGDIR
 70
     0
  9
$PDMODE
 70
     3
  9
$PDSIZE
 40
0.0
  9
$PLINEWID
 40
0.0
  9
$COORDS
 70
     1
  9
$SPLFRAME
 70
     0
  9
$SPLINETYPE
 70
     6
  9
$SPLINESEGS
 70
     8
  9
$ATTDIA
 70
     1
  9
$ATTREQ
 70
     1
  9
$HANDLING
 70
 12289
  9
$HANDSEED
  5
2B5D
  9
$SURFTAB1
 70
     6
  9
$SURFTAB2
 70
     6
  9
$SURFTYPE
 70
     6
  9
$SURFU
 70
     6
  9
$SURFV
 70
     6
  9
$UCSNAME
  2

  9
$UCSORG
 10
0.0
 20
0.0
 30
0.0
  9
$UCSXDIR
 10
1.0
 20
0.000000000000002
 30
0.0
  9
$UCSYDIR
 10
-0.000000000000002
 20
1.0
 30
0.0
  9
$PUCSNAME
  2

  9
$PUCSORG
 10
0.0
 20
0.0
 30
0.0
  9
$PUCSXDIR
 10
1.0
 20
0.0
 30
0.0
  9
$PUCSYDIR
 10
0.0
 20
1.0
 30
0.0
  9
$USERI1
 70
     0
  9
$USERI2
 70
     0
  9
$USERI3
 70
     0
  9
$USERI4
 70
     0
  9
$USERI5
 70
     0
  9
$USERR1
 40
0.0
  9
$USERR2
 40
0.0
  9
$USERR3
 40
0.0
  9
$USERR4
 40
0.0
  9
$USERR5
 40
0.0
  9
$WORLDVIEW
 70
     1
  9
$SHADEDGE
 70
     3
  9
$SHADEDIF
 70
    70
  9
$TILEMODE
 70
     1
  9
$MAXACTVP
 70
    64
  9
$PINSBASE
 10
0.0
 20
0.0
 30
0.0
  9
$PLIMCHECK
 70
     0
  9
$PEXTMIN
 10
1.000000000000000E+20
 20
1.000000000000000E+20
 30
1.000000000000000E+20
  9
$PEXTMAX
 10
-1.000000000000000E+20
 20
-1.000000000000000E+20
 30
-1.000000000000000E+20
  9
$PLIMMIN
 10
0.0
 20
0.0
  9
$PLIMMAX
 10
841.0
 20
594.0
  9
$UNITMODE
 70
     0
  9
$VISRETAIN
 70
     1
  9
$PLINEGEN
 70
     0
  9
$PSLTSCALE
 70
     0
  9
$TREEDEPTH
 70
  3020
  9
$PICKSTYLE
 70
     0
  9
$CMLSTYLE
  2
STANDARD
  9
$CMLJUST
 70
     0
  9
$CMLSCALE
 40
20.0
  9
$PROXYGRAPHICS
 70
     1
  9
$MEASUREMENT
 70
     1
  0
ENDSEC
  0
SECTION
  2
CLASSES
  0
CLASS
  1
ACDBDICTIONARYWDFLT
  2
AcDbDictionaryWithDefault
  3
AutoCAD 2000
 90
        0
280
     0
281
     0
  0
CLASS
  1
ACDBPLACEHOLDER
  2
AcDbPlaceHolder
  3
AutoCAD 2000
 90
        0
280
     0
281
     0
  0
CLASS
  1
LAYOUT
  2
AcDbLayout
  3
AutoCAD 2000
 90
        0
280
     0
281
     0
  0
CLASS
  1
AMGSETTINGSOBJ
  2
AmgSettingsObj
  3
"AcadM|Product Description: AutoCAD Mechanical 2000|Company: Autodesk"
 90
        0
280
     0
281
     0
  0
CLASS
  1
ACME_DOCUMENT
  2
AcMeDbDoc
  3
AcMeServices
 90
        0
280
     0
281
     0
  0
CLASS
  1
ACMESCOPE
  2
AcMeScope
  3
AcMeServices
 90
        0
280
     0
281
     0
  0
CLASS
  1
ACMECOMMANDHISTORY
  2
AcMeCommandHistory
  3
AcMeServices
 90
        0
280
     0
281
     0
  0
CLASS
  1
DICTIONARYVAR
  2
AcDbDictionaryVar
  3
AutoCAD 2000
 90
        0
280
     0
281
     0
  0
CLASS
  1
ACIMSYSVARMAN
  2
AcImSysVarManager
  3
AcMeServices
 90
        0
280
     0
281
     0
  0
CLASS
  1
ACIMREALSYSVAR
  2
AcImRealSysVar
  3
AcMeServices
 90
        0
280
     0
281
     0
  0
CLASS
  1
ACIMINTSYSVAR
  2
AcImIntSysVar
  3
AcMeServices
 90
        0
280
     0
281
     0
  0
CLASS
  1
ACMEDRAWINGMAN
  2
AcMeDrawingMan
  3
AcMeServices
 90
        0
280
     0
281
     0
  0
CLASS
  1
ACMEVIEW
  2
AcMeView
  3
AcMeServices
 90
        0
280
     0
281
     0
  0
CLASS
  1
ACDBENTITYCACHE
  2
AcMeEntityCache
  3
AcMeServices
 90
        0
280
     0
281
     0
  0
CLASS
  1
GSMANAGER
  2
AcMeGSManager
  3
AcMeServices
 90
        0
280
     0
281
     0
  0
CLASS
  1
AmdtInternalReactor
  2
AmdtInternalReactor
  3
AcMeServices
 90
        0
280
     0
281
     0
  0
CLASS
  1
ACMESTATEMGR
  2
AcMeStateMgr
  3
AcMeServices
 90
        0
280
     0
281
     0
  0
CLASS
  1
ACME_DATABASE
  2
AcMeDbDatabase
  3
AcMeServices
 90
        0
280
     0
281
     0
  0
CLASS
  1
ACRFINSADJUSTERMGR
  2
AcRfInsAdjusterMgr
  3
AcMeServices
 90
        0
280
     0
281
     0
  0
CLASS
  1
ACMDATADICTIONARY
  2
AcmDataDictionary
  3
"AcmSymBB|Product Description: AutoCAD Mechanical 2000|Company: Autodesk"
 90
        0
280
     0
281
     0
  0
CLASS
  1
ACMDATAENTRYBLOCK
  2
AcmDataEntryBlock
  3
"AcmSymBB|Product Description: AutoCAD Mechanical 2000|Company: Autodesk"
 90
        0
280
     0
281
     0
  0
CLASS
  1
AMGOBJPROPCFG
  2
AmgObjPropCfg
  3
"AmgLay|Product Description: AutoCAD Mechanical 2000|Company: Autodesk"
 90
        1
280
     0
281
     0
  0
CLASS
  1
ACAMGFILTERDAT
  2
AcAmgFilterDat
  3
"AcadM|Product Description: AutoCAD Mechanical 2000|Company: Autodesk"
 90
        0
280
     0
281
     0
  0
CLASS
  1
LAYER_INDEX
  2
AcDbLayerIndex
  3
AutoCAD 2000
 90
        0
280
     0
281
     0
  0
CLASS
  1
IDBUFFER
  2
AcDbIdBuffer
  3
AutoCAD 2000
 90
        0
280
     0
281
     0
  0
CLASS
  1
ACIMSTRSYSVAR
  2
AcImStrSysVar
  3
AcMeServices
 90
        0
280
     0
281
     0
  0
CLASS
  1
ACMSTANDARDJIS
  2
AcmStandardJIS
  3
"AcmSymBB|Product Description: AutoCAD Mechanical 2000|Company: Autodesk"
 90
        0
280
     0
281
     0
  0
CLASS
  1
ACMSURFSTANDARDJIS
  2
AcmSurfTextStdJIS
  3
"AcmSymBB|Product Description: AutoCAD Mechanical 2000|Company: Autodesk"
 90
        0
280
     0
281
     0
  0
CLASS
  1
ACMFCFSTANDARDJIS
  2
AcmFCFStdJIS
  3
"AcmSymBB|Product Description: AutoCAD Mechanical 2000|Company: Autodesk"
 90
        0
280
     0
281
     0
  0
CLASS
  1
ACMWELDSTANDARDJIS
  2
AcmWeldingStdJIS
  3
"AcmSymBB|Product Description: AutoCAD Mechanical 2000|Company: Autodesk"
 90
        0
280
     0
281
     0
  0
CLASS
  1
ACMIDSTANDARDJIS
  2
AcmIdStdJIS
  3
"AcmSymBB|Product Description: AutoCAD Mechanical 2000|Company: Autodesk"
 90
        0
280
     0
281
     0
  0
CLASS
  1
ACMDATUMSTANDARDJIS
  2
AcmDatumStdJIS
  3
"AcmSymBB|Product Description: AutoCAD Mechanical 2000|Company: Autodesk"
 90
        0
280
     0
281
     0
  0
CLASS
  1
ACMBOMSTANDARDJIS
  2
AcmBOMStdJIS
  3
"AcmSymBB|Product Description: AutoCAD Mechanical 2000|Company: Autodesk"
 90
        0
280
     0
281
     0
  0
CLASS
  1
ACMSTANDARDANSI
  2
AcmStandardANSI
  3
"AcmSymBB|Product Description: AutoCAD Mechanical 2000|Company: Autodesk"
 90
        0
280
     0
281
     0
  0
CLASS
  1
ACMSURFSTANDARDANSI
  2
AcmSurfTextStdANSI
  3
"AcmSymBB|Product Description: AutoCAD Mechanical 2000|Company: Autodesk"
 90
        0
280
     0
281
     0
  0
CLASS
  1
ACMFCFSTANDARDANSI
  2
AcmFCFStdANSI
  3
"AcmSymBB|Product Description: AutoCAD Mechanical 2000|Company: Autodesk"
 90
        0
280
     0
281
     0
  0
CLASS
  1
ACMWELDSTANDARDANSI
  2
AcmWeldingStdANSI
  3
"AcmSymBB|Product Description: AutoCAD Mechanical 2000|Company: Autodesk"
 90
        0
280
     0
281
     0
  0
CLASS
  1
ACMIDSTANDARDANSI
  2
AcmIdStdANSI
  3
"AcmSymBB|Product Description: AutoCAD Mechanical 2000|Company: Autodesk"
 90
        0
280
     0
281
     0
  0
CLASS
  1
ACMDATUMSTANDARDANSI
  2
AcmDatumStdANSI
  3
"AcmSymBB|Product Description: AutoCAD Mechanical 2000|Company: Autodesk"
 90
        0
280
     0
281
     0
  0
CLASS
  1
ACMBOMSTANDARDANSI
  2
AcmBOMStdANSI
  3
"AcmSymBB|Product Description: AutoCAD Mechanical 2000|Company: Autodesk"
 90
        0
280
     0
281
     0
  0
CLASS
  1
ACMSTANDARDBSI
  2
AcmStandardBSI
  3
"AcmSymBB|Product Description: AutoCAD Mechanical 2000|Company: Autodesk"
 90
        0
280
     0
281
     0
  0
CLASS
  1
ACMSURFSTANDARDBSI
  2
AcmSurfTextStdBSI
  3
"AcmSymBB|Product Description: AutoCAD Mechanical 2000|Company: Autodesk"
 90
        0
280
     0
281
     0
  0
CLASS
  1
ACMFCFSTANDARDBSI
  2
AcmFCFStdBSI
  3
"AcmSymBB|Product Description: AutoCAD Mechanical 2000|Company: Autodesk"
 90
        0
280
     0
281
     0
  0
CLASS
  1
ACMWELDSTANDARDBSI
  2
AcmWeldingStdBSI
  3
"AcmSymBB|Product Description: AutoCAD Mechanical 2000|Company: Autodesk"
 90
        0
280
     0
281
     0
  0
CLASS
  1
ACMIDSTANDARDBSI
  2
AcmIdStdBSI
  3
"AcmSymBB|Product Description: AutoCAD Mechanical 2000|Company: Autodesk"
 90
        0
280
     0
281
     0
  0
CLASS
  1
ACMDATUMSTANDARDBSI
  2
AcmDatumStdBSI
  3
"AcmSymBB|Product Description: AutoCAD Mechanical 2000|Company: Autodesk"
 90
        0
280
     0
281
     0
  0
CLASS
  1
ACMBOMSTANDARDBSI
  2
AcmBOMStdBSI
  3
"AcmSymBB|Product Description: AutoCAD Mechanical 2000|Company: Autodesk"
 90
        0
280
     0
281
     0
  0
CLASS
  1
LONG_TRANSACTION
  2
AcDbLongTransaction
  3
AutoCAD 2000
 90
        0
280
     0
281
     0
  0
CLASS
  1
LWPOLYLINE
  2
AcDbPolyline
  3
AutoCAD 2000
 90
        0
280
     0
281
     1
  0
CLASS
  1
HATCH
  2
AcDbHatch
  3
AutoCAD 2000
 90
        0
280
     0
281
     1
  0
CLASS
  1
XRECORD
  2
AcDbXrecord
  3
AutoCAD 2000
 90
        0
280
     0
281
     0
  0
ENDSEC
  0
SECTION
  2
TABLES
  0
TABLE
  2
VPORT
  5
8
330
0
100
AcDbSymbolTable
 70
     3
  0
VPORT
  5
2B27
330
8
100
AcDbSymbolTableRecord
100
AcDbViewportTableRecord
  2
*ACTIVE
 70
     0
 10
0.0
 20
0.0
 11
1.0
 21
1.0
 12
-40.78720038490659
 22
-6.297377577772138
 13
0.0
 23
0.0
 14
2.5
 24
2.5
 15
10.0
 25
10.0
 16
0.0
 26
0.0
 36
1.0
 17
0.0
 27
0.0
 37
0.0
 40
76.52710482944943
 41
1.56570841889117
 42
50.0
 43
0.0
 44
0.0
 50
0.0
 51
0.0
 71
     0
 72
   100
 73
     1
 74
     1
 75
     0
 76
     0
 77
     0
 78
     0
  0
ENDTAB
  0
TABLE
  2
LTYPE
  5
5
330
0
100
AcDbSymbolTable
 70
    10
  0
LTYPE
  5
14
330
5
100
AcDbSymbolTableRecord
100
AcDbLinetypeTableRecord
  2
BYBLOCK
 70
     0
  3

 72
    65
 73
     0
 40
0.0
  0
LTYPE
  5
15
330
5
100
AcDbSymbolTableRecord
100
AcDbLinetypeTableRecord
  2
BYLAYER
 70
     0
  3

 72
    65
 73
     0
 40
0.0
  0
LTYPE
  5
16
330
5
100
AcDbSymbolTableRecord
100
AcDbLinetypeTableRecord
  2
CONTINUOUS
 70
     0
  3
Solid line
 72
    65
 73
     0
 40
0.0
  0
LTYPE
  5
4B
330
5
100
AcDbSymbolTableRecord
100
AcDbLinetypeTableRecord
  2
AM_ISO02W050
 70
     0
  3
__ __ __ __ __ __ __ __ __ __ __ __ __ __ __
 72
    65
 73
     2
 40
7.5
 49
6.0
 74
     0
 49
-1.5
 74
     0
  0
LTYPE
  5
4C
330
5
100
AcDbSymbolTableRecord
100
AcDbLinetypeTableRecord
  2
AM_ISO08W050
 70
     0
  3
____ . ____ . ____ . ____ . ____ . ____ . ____
 72
    65
 73
     4
 40
18.0
 49
12.0
 74
     0
 49
-1.5
 74
     0
 49
3.0
 74
     0
 49
-1.5
 74
     0
  0
LTYPE
  5
4D
330
5
100
AcDbSymbolTableRecord
100
AcDbLinetypeTableRecord
  2
AM_ISO09W050
 70
     0
  3
_____ . . _____ . . _____ . . ____ .. ____
 72
    65
 73
     6
 40
22.5
 49
12.0
 74
     0
 49
-1.5
 74
     0
 49
3.0
 74
     0
 49
-1.5
 74
     0
 49
3.0
 74
     0
 49
-1.5
 74
     0
  0
LTYPE
  5
4E
330
5
100
AcDbSymbolTableRecord
100
AcDbLinetypeTableRecord
  2
AMCONSTR
 70
     0
  3
_______________________
 72
    65
 73
     2
 40
9999.0
 49
9999.0
 74
     0
 49
0.0
 74
     0
  0
LTYPE
  5
4F
330
5
100
AcDbSymbolTableRecord
100
AcDbLinetypeTableRecord
  2
AM_ISO02W050X2
 70
     0
  3
 _ _ _ _ _ _ _ _ _ _ _ _
 72
    65
 73
     2
 40
3.75
 49
3.0
 74
     0
 49
-0.75
 74
     0
  0
LTYPE
  5
50
330
5
100
AcDbSymbolTableRecord
100
AcDbLinetypeTableRecord
  2
AM_ISO08W050X2
 70
     0
  3
__ . __ . __ . __ . __ . __
 72
    65
 73
     4
 40
9.0
 49
6.0
 74
     0
 49
-0.75
 74
     0
 49
1.5
 74
     0
 49
-0.75
 74
     0
  0
LTYPE
  5
53
330
5
100
AcDbSymbolTableRecord
100
AcDbLinetypeTableRecord
  2
AMZIGZAG
 70
     0
  3
/\/-/\/-/\/-/\/-/\/-/\/
 72
    65
 73
     2
 40
11.00009999999999
 49
0.0001
 74
     4
 75
   135
340
52
 46
0.04
 50
0.0
 44
0.0
 45
0.0
 49
-11.0
 74
     0
  0
LTYPE
  5
166
330
5
100
AcDbSymbolTableRecord
100
AcDbLinetypeTableRecord
  2
ACJISTGL
 70
     0
  3
_ _ _ _ _
 72
    65
 73
     2
 40
3.0
 49
2.0
 74
     0
 49
-1.0
 74
     0
  0
LTYPE
  5
26A
330
5
100
AcDbSymbolTableRecord
100
AcDbLinetypeTableRecord
  2
ACJISTGB
 70
     0
  3
__ . . __ . .
 72
    65
 73
     6
 40
9.0
 49
4.0
 74
     0
 49
-1.0
 74
     0
 49
1.0
 74
     0
 49
-1.0
 74
     0
 49
1.0
 74
     0
 49
-1.0
 74
     0
  0
ENDTAB
  0
TABLE
  2
LAYER
  5
2
330
0
100
AcDbSymbolTable
 70
     7
  0
LAYER
  5
10
330
2
100
AcDbSymbolTableRecord
100
AcDbLayerTableRecord
  2
0
 70
     0
 62
     7
  6
CONTINUOUS
  0
LAYER
  5
3F9
330
2
100
AcDbSymbolTableRecord
100
AcDbLayerTableRecord
  2
AM_0
 70
     0
 62
     7
  6
CONTINUOUS
  0
LAYER
  5
C7C
330
2
100
AcDbSymbolTableRecord
100
AcDbLayerTableRecord
  2
AM_7
 70
     0
 62
     4
  6
AM_ISO08W050
  0
LAYER
  5
C97
330
2
100
AcDbSymbolTableRecord
100
AcDbLayerTableRecord
  2
AM_11
 70
     0
 62
     3
  6
AM_ISO09W050
  0
LAYER
  5
CC5
330
2
100
AcDbSymbolTableRecord
100
AcDbLayerTableRecord
  2
AM_5
 70
     0
 62
     3
  6
CONTINUOUS
  0
LAYER
  5
CC7
330
2
100
AcDbSymbolTableRecord
100
AcDbLayerTableRecord
  2
DEFPOINTS
 70
     0
 62
     7
  6
CONTINUOUS
  0
LAYER
  5
19BC
330
2
100
AcDbSymbolTableRecord
100
AcDbLayerTableRecord
  2
AM_6
 70
     0
 62
     2
  6
CONTINUOUS
  0
ENDTAB
  0
TABLE
  2
STYLE
  5
3
330
0
100
AcDbSymbolTable
 70
     5
  0
STYLE
  5
11
330
3
100
AcDbSymbolTableRecord
100
AcDbTextStyleTableRecord
  2
STANDARD
 70
     0
 40
0.0
 41
1.0
 50
0.0
 71
     0
 42
2.5
  3
simplex.shx
  4
EXTFONT.SHX
  0
STYLE
  5
52
330
3
100
AcDbSymbolTableRecord
100
AcDbTextStyleTableRecord
  2

 70
     1
 40
0.0
 41
1.0
 50
0.0
 71
     0
 42
2.5
  3
ltypeshp.shx
  4

  0
STYLE
  5
6B
330
3
100
AcDbSymbolTableRecord
100
AcDbTextStyleTableRecord
  2
ASAMI
 70
     0
 40
0.0
 41
1.0
 50
0.0
 71
     0
 42
2.5
  3
simplex.shx
  4
EXTFONT.SHX
  0
STYLE
  5
262
330
3
100
AcDbSymbolTableRecord
100
AcDbTextStyleTableRecord
  2
ACJISTS
 70
     0
 40
1.0
 41
1.0
 50
0.0
 71
     0
 42
2.5
  3
simplex.shx
  4
bigfont.shx
  0
STYLE
  5
269
330
3
100
AcDbSymbolTableRecord
100
AcDbTextStyleTableRecord
  2
ACJISGDT
 70
     0
 40
0.0
 41
1.0
 50
0.0
 71
     0
 42
2.5
  3
amgdtans.shx
  4

  0
ENDTAB
  0
TABLE
  2
VIEW
  5
6
330
0
100
AcDbSymbolTable
 70
     0
  0
ENDTAB
  0
TABLE
  2
UCS
  5
7
330
0
100
AcDbSymbolTable
 70
     0
  0
ENDTAB
  0
TABLE
  2
APPID
  5
9
330
0
100
AcDbSymbolTable
 70
    16
  0
APPID
  5
12
330
9
100
AcDbSymbolTableRecord
100
AcDbRegAppTableRecord
  2
ACAD
 70
     0
  0
APPID
  5
30
330
9
100
AcDbSymbolTableRecord
100
AcDbRegAppTableRecord
  2
MCAD_NO_VIS
 70
     0
  0
APPID
  5
31
330
9
100
AcDbSymbolTableRecord
100
AcDbRegAppTableRecord
  2
ACAD_TEMP_GRAPHIC
 70
     0
  0
APPID
  5
2C2
330
9
100
AcDbSymbolTableRecord
100
AcDbRegAppTableRecord
  2
GENIUS_GENDTOL_13
 70
     0
  0
APPID
  5
339
330
9
100
AcDbSymbolTableRecord
100
AcDbRegAppTableRecord
  2
GENIUS_GENODEF_13
 70
     0
  0
APPID
  5
33A
330
9
100
AcDbSymbolTableRecord
100
AcDbRegAppTableRecord
  2
GENIUS_GENOBJ-N-RSBK_13
 70
     0
  0
APPID
  5
33B
330
9
100
AcDbSymbolTableRecord
100
AcDbRegAppTableRecord
  2
GENIUS_GENOBJ-N-LIB_13
 70
     0
  0
APPID
  5
33C
330
9
100
AcDbSymbolTableRecord
100
AcDbRegAppTableRecord
  2
GENIUS_GENSCALE_13
 70
     0
  0
APPID
  5
378
330
9
100
AcDbSymbolTableRecord
100
AcDbRegAppTableRecord
  2
GENIUS_GENDIMSH_14
 70
     0
  0
APPID
  5
C82
330
9
100
AcDbSymbolTableRecord
100
AcDbRegAppTableRecord
  2
GENIUS_GENOBJ-N-CRS_13
 70
     0
  0
APPID
  5
C83
330
9
100
AcDbSymbolTableRecord
100
AcDbRegAppTableRecord
  2
GENIUS_GENOENT_13
 70
     0
  0
APPID
  5
C84
330
9
100
AcDbSymbolTableRecord
100
AcDbRegAppTableRecord
  2
GENIUS_GENOREF_13
 70
     0
  0
APPID
  5
C85
330
9
100
AcDbSymbolTableRecord
100
AcDbRegAppTableRecord
  2
GENIUS_GENOLIS_13
 70
     0
  0
APPID
  5
CA0
330
9
100
AcDbSymbolTableRecord
100
AcDbRegAppTableRecord
  2
GENIUS_GENOBJ-N-CEN_13
 70
     0
  0
APPID
  5
1CFA
330
9
100
AcDbSymbolTableRecord
100
AcDbRegAppTableRecord
  2
GENIUS_GENFIL_13
 70
     0
  0
APPID
  5
1CFB
330
9
100
AcDbSymbolTableRecord
100
AcDbRegAppTableRecord
  2
GENIUS_GENOBJ-N-CHA_13
 70
     0
  0
ENDTAB
  0
TABLE
  2
DIMSTYLE
  5
A
330
0
100
AcDbSymbolTable
 70
     9
  0
DIMSTYLE
105
58
330
A
100
AcDbSymbolTableRecord
100
AcDbDimStyleTableRecord
  2
AM_JIS
 70
     0
  3

  4
"
  5
OPEN30
  6

  7

 40
0.5
 41
2.5
 42
1.0
 43
12.0
 44
1.0
 45
0.0
 46
0.0
 47
0.1
 48
0.1
140
3.2
141
0.0
142
0.0
143
0.0393701
144
1.0
145
0.0
146
0.71
147
1.5
 71
     0
 72
     0
 73
     0
 74
     0
 75
     0
 76
     0
 77
     3
 78
     8
170
     0
171
     2
172
     1
173
     0
174
     0
175
     0
176
   256
177
   256
178
     2
270
     2
271
     3
272
     3
273
     2
274
     2
340
6B
275
     0
280
     0
281
     0
282
     0
283
     0
284
     0
285
     0
286
     0
287
     3
288
     0
  0
DIMSTYLE
105
5F
330
A
100
AcDbSymbolTableRecord
100
AcDbDimStyleTableRecord
  2
AM_JIS$3
 70
     0
  3

  4
"
  5
OPEN30
  6

  7

 40
0.5
 41
2.5
 42
1.0
 43
10.0
 44
1.0
 45
0.0
 46
0.0
 47
0.1
 48
0.1
140
3.2
141
0.0
142
0.0
143
0.0393701
144
1.0
145
0.0
146
0.71
147
1.5
 71
     0
 72
     0
 73
     0
 74
     1
 75
     0
 76
     0
 77
     3
 78
     8
170
     0
171
     2
172
     0
173
     0
174
     0
175
     0
176
   256
177
   256
178
     2
270
     2
271
     2
272
     3
273
     2
274
     2
340
6B
275
     0
280
     0
281
     0
282
     0
283
     0
284
     0
285
     0
286
     0
287
     0
288
     1
  0
DIMSTYLE
105
60
330
A
100
AcDbSymbolTableRecord
100
AcDbDimStyleTableRecord
  2
AM_JIS$4
 70
     0
  3

  4
"
  5
OPEN30
  6

  7

 40
0.5
 41
2.5
 42
1.0
 43
10.0
 44
1.0
 45
0.0
 46
0.0
 47
0.1
 48
0.1
140
3.2
141
0.0
142
0.0
143
0.0393701
144
1.0
145
0.0
146
0.71
147
1.5
 71
     0
 72
     0
 73
     0
 74
     1
 75
     0
 76
     0
 77
     3
 78
     8
170
     0
171
     2
172
     0
173
     0
174
     0
175
     0
176
   256
177
   256
178
     2
270
     2
271
     2
272
     3
273
     2
274
     2
340
6B
275
     0
280
     0
281
     0
282
     0
283
     0
284
     0
285
     0
286
     0
287
     0
288
     1
  0
DIMSTYLE
105
61
330
A
100
AcDbSymbolTableRecord
100
AcDbDimStyleTableRecord
  2
AM_JIS$6
 70
     0
  3

  4
"
  5
OPEN30
  6

  7

 40
0.5
 41
2.5
 42
1.0
 43
10.0
 44
1.0
 45
0.0
 46
0.0
 47
0.1
 48
0.1
140
3.2
141
0.0
142
0.0
143
0.0393701
144
1.0
145
0.0
146
0.71
147
1.5
 71
     0
 72
     0
 73
     0
 74
     0
 75
     0
 76
     0
 77
     0
 78
     8
170
     0
171
     2
172
     1
173
     0
174
     0
175
     0
176
   256
177
   256
178
     2
270
     2
271
     2
272
     2
273
     2
274
     2
340
6B
275
     0
280
     0
281
     0
282
     0
283
     0
284
     0
285
     0
286
     0
287
     3
288
     0
  0
DIMSTYLE
105
62
330
A
100
AcDbSymbolTableRecord
100
AcDbDimStyleTableRecord
  2
AM_JIS$7
 70
     0
  3

  4
"
  5
OPEN30
  6

  7

 40
0.5
 41
2.5
 42
1.0
 43
10.0
 44
1.0
 45
0.0
 46
0.0
 47
0.1
 48
0.1
140
3.2
141
0.0
142
0.0
143
0.0393701
144
1.0
145
0.0
146
0.71
147
1.5
 71
     0
 72
     0
 73
     0
 74
     0
 75
     0
 76
     0
 77
     3
 78
     8
170
     0
171
     2
172
     1
173
     0
174
     0
175
     0
176
   256
177
   256
178
     2
270
     2
271
     2
272
     3
273
     2
274
     2
340
6B
275
     0
280
     0
281
     0
282
     0
283
     0
284
     0
285
     0
286
     0
287
     3
288
     0
  0
DIMSTYLE
105
63
330
A
100
AcDbSymbolTableRecord
100
AcDbDimStyleTableRecord
  2
AM_JIS$SF
 70
     0
  3

  4
"
  5
OPEN30
  6

  7

 40
0.5
 41
2.5
 42
1.0
 43
10.0
 44
1.0
 45
0.0
 46
0.0
 47
0.1
 48
0.1
140
3.2
141
0.0
142
0.0
143
0.0393701
144
1.0
145
0.0
146
0.71
147
1.5
 71
     0
 72
     0
 73
     0
 74
     0
 75
     1
 76
     1
 77
     3
 78
     8
170
     0
171
     2
172
     1
173
     0
174
     0
175
     0
176
   256
177
   256
178
     2
270
     2
271
     2
272
     2
273
     2
274
     2
340
6B
275
     0
280
     0
281
     0
282
     0
283
     0
284
     0
285
     0
286
     0
287
     3
288
     0
  0
DIMSTYLE
105
68
330
A
100
AcDbSymbolTableRecord
100
AcDbDimStyleTableRecord
  2
AM_JIS$SH
 70
     0
  3

  4
"
  5

  6
GENAXEH
  7
OPEN30
 40
0.5
 41
2.5
 42
1.0
 43
10.0
 44
1.0
 45
0.0
 46
0.0
 47
0.1
 48
0.1
140
3.2
141
0.0
142
0.0
143
0.0393701
144
2.0
145
0.0
146
0.71
147
1.5
 71
     0
 72
     0
 73
     0
 74
     0
 75
     1
 76
     1
 77
     3
 78
     8
170
     0
171
     2
172
     1
173
     1
174
     0
175
     0
176
   256
177
   256
178
     2
270
     2
271
     2
272
     2
273
     2
274
     2
340
6B
275
     0
280
     0
281
     0
282
     0
283
     0
284
     0
285
     0
286
     0
287
     3
288
     0
  0
DIMSTYLE
105
B34
102
{ACAD_REACTORS
330
2577
102
}
330
A
100
AcDbSymbolTableRecord
100
AcDbDimStyleTableRecord
  2
AM_JIS$2
 70
     0
  3

  4
"
  5
OPEN30
  6

  7

 40
0.5
 41
2.5
 42
1.0
 43
12.0
 44
1.0
 45
0.0
 46
0.0
 47
0.1
 48
0.1
140
3.2
141
0.0
142
0.0
143
0.0393701
144
1.0
145
0.0
146
0.71
147
1.5
 71
     0
 72
     0
 73
     0
 74
     0
 75
     0
 76
     0
 77
     3
 78
     8
170
     0
171
     2
172
     1
173
     0
174
     0
175
     0
176
   256
177
   256
178
     2
270
     2
271
     3
272
     3
273
     2
274
     2
340
6B
275
     0
280
     0
281
     0
282
     0
283
     0
284
     0
285
     0
286
     0
287
     3
288
     0
  0
DIMSTYLE
105
BA5
102
{ACAD_REACTORS
330
CC6
330
DF5
330
1F93
330
239B
102
}
330
A
100
AcDbSymbolTableRecord
100
AcDbDimStyleTableRecord
  2
AM_JIS$0
 70
     0
  3

  4
"
  5
OPEN30
  6

  7

 40
0.5
 41
2.5
 42
0.0
 43
10.0
 44
1.0
 45
0.0
 46
0.0
 47
0.1
 48
0.1000000001
140
3.799999999999999
141
0.0
142
0.0
143
0.0393701
144
1.0
145
0.0
146
0.71
147
1.5
 71
     0
 72
     0
 73
     0
 74
     0
 75
     0
 76
     0
 77
     3
 78
     1
170
     0
171
     2
172
     1
173
     0
174
     0
175
     0
176
     3
177
     3
178
     2
270
     2
271
     2
272
     2
273
     2
274
     2
340
11
275
     1
280
     0
281
     0
282
     0
283
     0
284
     8
285
     0
286
     0
287
     0
288
     0
  0
ENDTAB
  0
TABLE
  2
BLOCK_RECORD
  5
1
330
0
100
AcDbSymbolTable
 70
    10
  0
BLOCK_RECORD
  5
1F
102
{ACAD_XDICTIONARY
360
74
102
}
330
1
100
AcDbSymbolTableRecord
100
AcDbBlockTableRecord
  2
*MODEL_SPACE
  0
BLOCK_RECORD
  5
101
102
{ACAD_XDICTIONARY
360
2B50
102
}
330
1
100
AcDbSymbolTableRecord
100
AcDbBlockTableRecord
  2
*PAPER_SPACE
  0
BLOCK_RECORD
  5
59
330
1
100
AcDbSymbolTableRecord
100
AcDbBlockTableRecord
  2
_OPEN30
  0
BLOCK_RECORD
  5
64
330
1
100
AcDbSymbolTableRecord
100
AcDbBlockTableRecord
  2
GENAXEH
  0
BLOCK_RECORD
  5
CC8
330
1
100
AcDbSymbolTableRecord
100
AcDbBlockTableRecord
  2
*D5
  0
BLOCK_RECORD
  5
DF6
330
1
100
AcDbSymbolTableRecord
100
AcDbBlockTableRecord
  2
*D6
  0
BLOCK_RECORD
  5
1F94
330
1
100
AcDbSymbolTableRecord
100
AcDbBlockTableRecord
  2
*D7
  0
BLOCK_RECORD
  5
239C
330
1
100
AcDbSymbolTableRecord
100
AcDbBlockTableRecord
  2
*D8
  0
BLOCK_RECORD
  5
2578
330
1
100
AcDbSymbolTableRecord
100
AcDbBlockTableRecord
  2
*D9
  0
ENDTAB
  0
ENDSEC
  0
SECTION
  2
BLOCKS
  0
BLOCK
  5
20
330
1F
100
AcDbEntity
  8
0
100
AcDbBlockBegin
  2
*MODEL_SPACE
 70
     0
 10
0.0
 20
0.0
 30
0.0
  3
*MODEL_SPACE
  1

  0
ENDBLK
  5
21
330
1F
100
AcDbEntity
  8
0
100
AcDbBlockEnd
  0
BLOCK
  5
103
330
101
100
AcDbEntity
 67
     1
  8
0
100
AcDbBlockBegin
  2
*PAPER_SPACE
 70
     0
 10
0.0
 20
0.0
 30
0.0
  3
*PAPER_SPACE
  1

  0
ENDBLK
  5
104
330
101
100
AcDbEntity
 67
     1
  8
0
100
AcDbBlockEnd
  0
BLOCK
  5
5D
330
59
100
AcDbEntity
  8
0
100
AcDbBlockBegin
  2
_OPEN30
 70
     0
 10
0.0
 20
0.0
 30
0.0
  3
_OPEN30
  1

  0
LINE
  5
5A
330
59
100
AcDbEntity
  8
0
 62
     0
100
AcDbLine
 10
-1.0
 20
0.26794919
 30
0.0
 11
0.0
 21
0.0
 31
0.0
  0
LINE
  5
5B
330
59
100
AcDbEntity
  8
0
 62
     0
100
AcDbLine
 10
0.0
 20
0.0
 30
0.0
 11
-1.0
 21
-0.26794919
 31
0.0
  0
LINE
  5
5C
330
59
100
AcDbEntity
  8
0
 62
     0
100
AcDbLine
 10
0.0
 20
0.0
 30
0.0
 11
-1.0
 21
0.0
 31
0.0
  0
ENDBLK
  5
5E
330
59
100
AcDbEntity
  8
0
100
AcDbBlockEnd
  0
BLOCK
  5
66
330
64
100
AcDbEntity
  8
0
100
AcDbBlockBegin
  2
GENAXEH
 70
     0
 10
0.0
 20
0.0
 30
0.0
  3
GENAXEH
  1

  0
LINE
  5
65
330
64
100
AcDbEntity
  8
0
100
AcDbLine
 10
-1.0
 20
0.0
 30
0.0
 11
1.0
 21
0.0
 31
0.0
  0
ENDBLK
  5
67
330
64
100
AcDbEntity
  8
0
100
AcDbBlockEnd
  0
BLOCK
  5
CD2
330
CC8
100
AcDbEntity
  8
0
100
AcDbBlockBegin
  2
*D5
 70
     1
 10
0.0
 20
0.0
 30
0.0
  3
*D5
  1

  0
LINE
  5
2AD5
330
CC8
100
AcDbEntity
  8
AM_5
 62
     3
100
AcDbLine
 10
-88.99999999999996
 20
-3.000000000000206
 30
0.0
 11
-88.99999999999996
 21
-16.00001206798981
 31
0.0
  0
LINE
  5
2AD6
330
CC8
100
AcDbEntity
  8
AM_5
 62
     3
100
AcDbLine
 10
-0.9999821980835715
 20
-3.0999843623857
 30
0.0
 11
-0.9999821980835722
 21
-16.00001206798982
 31
0.0
  0
LINE
  5
2AD7
330
CC8
100
AcDbEntity
  8
AM_5
 62
     3
100
AcDbLine
 10
-87.74999999999996
 20
-15.50001206798982
 30
0.0
 11
-2.249982198083572
 21
-15.50001206798982
 31
0.0
  0
INSERT
  5
2AD8
330
CC8
100
AcDbEntity
  8
AM_5
 62
     3
100
AcDbBlockReference
  2
_OPEN30
 10
-88.99999999999996
 20
-15.50001206798982
 30
0.0
 41
1.25
 42
1.25
 43
1.25
 50
180.0
  0
INSERT
  5
2AD9
330
CC8
100
AcDbEntity
  8
AM_5
 62
     3
100
AcDbBlockReference
  2
_OPEN30
 10
-0.9999821980835722
 20
-15.50001206798982
 30
0.0
 41
1.25
 42
1.25
 43
1.25
  0
MTEXT
  5
2ADA
330
CC8
100
AcDbEntity
  8
AM_5
 62
     2
100
AcDbMText
 10
-44.99999109904177
 20
-13.80001206798982
 30
0.0
 40
1.9
 41
0.0
 71
     5
 72
     1
  1
88
1001
ACAD
1000
MTEXTBEGIN
1070
    73
1070
     1
1070
    44
1040
1.0
1070
    74
1070
     0
1000
MTEXTEND
  0
POINT
  5
2ADB
330
CC8
100
AcDbEntity
  8
DEFPOINTS
 62
     0
100
AcDbPoint
 10
-88.99999999999996
 20
-3.000000000000206
 30
0.0
  0
POINT
  5
2ADC
330
CC8
100
AcDbEntity
  8
DEFPOINTS
 62
     0
100
AcDbPoint
 10
-0.9999821980835715
 20
-3.0999843623857
 30
0.0
  0
POINT
  5
2ADD
330
CC8
100
AcDbEntity
  8
DEFPOINTS
 62
     0
100
AcDbPoint
 10
-0.9999821980835722
 20
-15.50001206798982
 30
0.0
  0
ENDBLK
  5
CD3
330
CC8
100
AcDbEntity
  8
0
100
AcDbBlockEnd
  0
BLOCK
  5
E00
330
DF6
100
AcDbEntity
  8
0
100
AcDbBlockBegin
  2
*D6
 70
     1
 10
0.0
 20
0.0
 30
0.0
  3
*D6
  1

  0
LINE
  5
2AF2
330
DF6
100
AcDbEntity
  8
AM_5
 62
     3
100
AcDbLine
 10
-35.99999999999998
 20
-3.500000000000061
 30
0.0
 11
-35.99999999999998
 21
-11.00001206798978
 31
0.0
  0
LINE
  5
2AF3
330
DF6
100
AcDbEntity
  8
AM_5
 62
     3
100
AcDbLine
 10
-0.9999821980835715
 20
-3.0999843623857
 30
0.0
 11
-0.9999821980835719
 21
-11.00001206798978
 31
0.0
  0
LINE
  5
2AF4
330
DF6
100
AcDbEntity
  8
AM_5
 62
     3
100
AcDbLine
 10
-34.74999999999998
 20
-10.50001206798978
 30
0.0
 11
-2.249982198083571
 21
-10.50001206798978
 31
0.0
  0
INSERT
  5
2AF5
330
DF6
100
AcDbEntity
  8
AM_5
 62
     3
100
AcDbBlockReference
  2
_OPEN30
 10
-35.99999999999998
 20
-10.50001206798978
 30
0.0
 41
1.25
 42
1.25
 43
1.25
 50
180.0
  0
INSERT
  5
2AF6
330
DF6
100
AcDbEntity
  8
AM_5
 62
     3
100
AcDbBlockReference
  2
_OPEN30
 10
-0.9999821980835719
 20
-10.50001206798978
 30
0.0
 41
1.25
 42
1.25
 43
1.25
  0
MTEXT
  5
2AF7
330
DF6
100
AcDbEntity
  8
AM_5
 62
     2
100
AcDbMText
 10
-18.49999109904177
 20
-8.800012067989783
 30
0.0
 40
1.9
 41
0.0
 71
     5
 72
     1
  1
35
1001
ACAD
1000
MTEXTBEGIN
1070
    73
1070
     1
1070
    44
1040
1.0
1070
    74
1070
     0
1000
MTEXTEND
  0
POINT
  5
2AF8
330
DF6
100
AcDbEntity
  8
DEFPOINTS
 62
     0
100
AcDbPoint
 10
-35.99999999999998
 20
-3.500000000000061
 30
0.0
  0
POINT
  5
2AF9
330
DF6
100
AcDbEntity
  8
DEFPOINTS
 62
     0
100
AcDbPoint
 10
-0.9999821980835715
 20
-3.0999843623857
 30
0.0
  0
POINT
  5
2AFA
330
DF6
100
AcDbEntity
  8
DEFPOINTS
 62
     0
100
AcDbPoint
 10
-0.9999821980835719
 20
-10.50001206798978
 30
0.0
  0
ENDBLK
  5
E01
330
DF6
100
AcDbEntity
  8
0
100
AcDbBlockEnd
  0
BLOCK
  5
1FA0
330
1F94
100
AcDbEntity
  8
0
100
AcDbBlockBegin
  2
*D7
 70
     1
 10
0.0
 20
0.0
 30
0.0
  3
*D7
  1

  0
LINE
  5
2ADE
330
1F94
100
AcDbEntity
  8
AM_5
 62
     3
100
AcDbLine
 10
-88.49999999999999
 20
-3.500000000000203
 30
0.0
 11
-98.25000099999998
 21
-3.500000000000222
 31
0.0
  0
LINE
  5
2ADF
330
1F94
100
AcDbEntity
  8
AM_5
 62
     3
100
AcDbLine
 10
-88.49999999999997
 20
3.499999999999796
 30
0.0
 11
-98.25000099999998
 21
3.499999999999777
 31
0.0
  0
LINE
  5
2AE0
330
1F94
100
AcDbEntity
  8
AM_5
 62
     3
100
AcDbLine
 10
-97.75000099999999
 20
-2.250000000000221
 30
0.0
 11
-97.75000099999999
 21
2.249999999999777
 31
0.0
  0
INSERT
  5
2AE1
330
1F94
100
AcDbEntity
  8
AM_5
 62
     3
100
AcDbBlockReference
  2
_OPEN30
 10
-97.75000099999999
 20
-3.500000000000221
 30
0.0
 41
1.25
 42
1.25
 43
1.25
 50
270.0000000000001
  0
INSERT
  5
2AE2
330
1F94
100
AcDbEntity
  8
AM_5
 62
     3
100
AcDbBlockReference
  2
_OPEN30
 10
-97.75000099999999
 20
3.499999999999777
 30
0.0
 41
1.25
 42
1.25
 43
1.25
 50
90.0000000000001
  0
MTEXT
  5
2AE3
330
1F94
100
AcDbEntity
  8
AM_5
 62
     2
100
AcDbMText
 10
-99.45000099999999
 20
-0.0000000000004048
 30
0.0
 40
1.9
 41
0.0
 71
     5
 72
     1
  1
%%c7
 11
-0.000000000000002
 21
1.0
 31
0.0
1001
ACAD
1000
MTEXTBEGIN
1070
    73
1070
     1
1070
    44
1040
1.0
1070
    74
1070
     0
1000
MTEXTEND
  0
POINT
  5
2AE4
330
1F94
100
AcDbEntity
  8
DEFPOINTS
 62
     0
100
AcDbPoint
 10
-88.49999999999999
 20
-3.500000000000007
 30
0.0
  0
POINT
  5
2AE5
330
1F94
100
AcDbEntity
  8
DEFPOINTS
 62
     0
100
AcDbPoint
 10
-88.49999999999997
 20
3.499999999999992
 30
0.0
  0
POINT
  5
2AE6
330
1F94
100
AcDbEntity
  8
DEFPOINTS
 62
     0
100
AcDbPoint
 10
-97.75000099999999
 20
3.499999999999995
 30
0.0
  0
ENDBLK
  5
1FA1
330
1F94
100
AcDbEntity
  8
0
100
AcDbBlockEnd
  0
BLOCK
  5
23A8
330
239C
100
AcDbEntity
  8
0
100
AcDbBlockBegin
  2
*D8
 70
     1
 10
0.0
 20
0.0
 30
0.0
  3
*D8
  1

  0
LINE
  5
2AFB
330
239C
100
AcDbEntity
  8
AM_5
 62
     3
100
AcDbLine
 10
-0.9999999999999857
 20
-3.0999843623857
 30
0.0
 11
9.586422120790555
 21
-3.099984362385703
 31
0.0
  0
LINE
  5
2AFC
330
239C
100
AcDbEntity
  8
AM_5
 62
     3
100
AcDbLine
 10
-0.9999999999999797
 20
3.099988332552708
 30
0.0
 11
9.586422120790555
 21
3.099988332552706
 31
0.0
  0
LINE
  5
2AFD
330
239C
100
AcDbEntity
  8
AM_5
 62
     3
100
AcDbLine
 10
9.086422120790555
 20
-1.849984362385703
 30
0.0
 11
9.086422120790555
 21
1.849988332552706
 31
0.0
  0
INSERT
  5
2AFE
330
239C
100
AcDbEntity
  8
AM_5
 62
     3
100
AcDbBlockReference
  2
_OPEN30
 10
9.086422120790555
 20
-3.099984362385703
 30
0.0
 41
1.25
 42
1.25
 43
1.25
 50
270.0
  0
INSERT
  5
2AFF
330
239C
100
AcDbEntity
  8
AM_5
 62
     3
100
AcDbBlockReference
  2
_OPEN30
 10
9.086422120790555
 20
3.099988332552706
 30
0.0
 41
1.25
 42
1.25
 43
1.25
 50
90.0
  0
MTEXT
  5
2B00
330
239C
100
AcDbEntity
  8
AM_5
 62
     2
100
AcDbMText
 10
7.386422120790554
 20
0.0000019850835032
 30
0.0
 40
1.9
 41
0.0
 71
     5
 72
     1
  1
%%c6.2
 11
0.0000000000000001
 21
1.0
 31
0.0
1001
ACAD
1000
MTEXTBEGIN
1070
    73
1070
     1
1070
    44
1040
1.0
1070
    74
1070
     0
1000
MTEXTEND
  0
POINT
  5
2B01
330
239C
100
AcDbEntity
  8
DEFPOINTS
 62
     0
100
AcDbPoint
 10
-0.9999999999999857
 20
-3.0999843623857
 30
0.0
  0
POINT
  5
2B02
330
239C
100
AcDbEntity
  8
DEFPOINTS
 62
     0
100
AcDbPoint
 10
-0.9999999999999797
 20
3.099988332552708
 30
0.0
  0
POINT
  5
2B03
330
239C
100
AcDbEntity
  8
DEFPOINTS
 62
     0
100
AcDbPoint
 10
9.086422120790555
 20
3.099988332552706
 30
0.0
  0
ENDBLK
  5
23A9
330
239C
100
AcDbEntity
  8
0
100
AcDbBlockEnd
  0
BLOCK
  5
2586
330
2578
100
AcDbEntity
  8
0
100
AcDbBlockBegin
  2
*D9
 70
     1
 10
0.0
 20
0.0
 30
0.0
  3
*D9
  1

  0
LINE
  5
2B52
330
2578
100
AcDbEntity
  8
AM_5
100
AcDbLine
 10
0.1710079208341693
 20
-0.4698470932250125
 30
0.0
 11
5.152227250416949
 21
-14.15582965651496
 31
0.0
  0
LINE
  5
2B53
330
2578
100
AcDbEntity
  8
AM_5
100
AcDbLine
 10
0.1710079208341653
 20
0.469847093225014
 30
0.0
 11
5.152227250416828
 21
14.155829656515
 31
0.0
  0
ARC
  5
2B54
330
2578
100
AcDbEntity
  8
AM_5
100
AcDbCircle
 10
0.0000000000000142
 20
0.0
 30
0.0
 40
14.56429417212128
100
AcDbArc
 50
294.918735062585
 51
65.08126493741549
  0
INSERT
  5
2B55
330
2578
100
AcDbEntity
  8
AM_5
100
AcDbBlockReference
  2
_OPEN30
 10
4.981219329582799
 20
-13.68598256328996
 30
0.0
 41
1.25
 42
1.25
 43
1.25
 50
202.4592363891502
  0
INSERT
  5
2B56
330
2578
100
AcDbEntity
  8
AM_5
100
AcDbBlockReference
  2
_OPEN30
 10
4.981219329582682
 20
13.68598256329
 30
0.0
 41
1.25
 42
1.25
 43
1.25
 50
157.5407636108502
  0
MTEXT
  5
2B57
330
2578
100
AcDbEntity
  8
AM_5
 62
     2
100
AcDbMText
 10
13.0142941721213
 20
0.0000000000000617
 30
0.0
 40
1.6
 41
0.0
 71
     5
 72
     1
  1
140°
  7
ASAMI
 11
-0.000000000000002
 21
1.0
 31
0.0
  0
POINT
  5
2B58
330
2578
100
AcDbEntity
  8
DEFPOINTS
 62
     0
100
AcDbPoint
 10
13.37316069178125
 20
-5.768642634440378
 30
0.0
  0
POINT
  5
2B59
330
2578
100
AcDbEntity
  8
DEFPOINTS
 62
     0
100
AcDbPoint
 10
0.0000000000000191
 20
0.0000000000000134
 30
0.0
  0
POINT
  5
2B5A
330
2578
100
AcDbEntity
  8
DEFPOINTS
 62
     0
100
AcDbPoint
 10
0.0000000000000191
 20
-0.0000000000000134
 30
0.0
  0
POINT
  5
2B5B
330
2578
100
AcDbEntity
  8
DEFPOINTS
 62
     0
100
AcDbPoint
 10
-0.2725326313314136
 20
0.748787915877995
 30
0.0
  0
POINT
  5
2B5C
330
2578
100
AcDbEntity
  8
DEFPOINTS
 62
     0
100
AcDbPoint
 10
-0.2725326313314106
 20
-0.7487879158779962
 30
0.0
  0
ENDBLK
  5
2587
330
2578
100
AcDbEntity
  8
0
100
AcDbBlockEnd
  0
ENDSEC
  0
SECTION
  2
ENTITIES
  0
LINE
  5
C1D
330
1F
100
AcDbEntity
  8
AM_0
 48
0.5
100
AcDbLine
 10
0.0000000000000191
 20
-0.0000000000000134
 30
0.0
 11
-0.2725326313314136
 21
0.748787915877995
 31
0.0
  0
DIMENSION
  5
CC6
330
1F
100
AcDbEntity
  8
AM_5
100
AcDbDimension
  2
*D5
 10
-0.9999821980835722
 20
-15.50001206798982
 30
0.0
 11
-44.99999109904177
 21
-13.80001206798982
 31
0.0
 70
    32
  1
<>
  3
AM_JIS$0
100
AcDbAlignedDimension
 13
-88.99999999999996
 23
-3.000000000000206
 33
0.0
 14
-0.9999821980835715
 24
-3.0999843623857
 34
0.0
 50
0.0000000000001132
100
AcDbRotatedDimension
1001
GENIUS_GENDTOL_13
1000

1000
h7
1000

1040
0.0
1001
ACAD
1000
DSTYLE
1002
{
1070
   271
1070
     0
1002
}
  0
DIMENSION
  5
DF5
330
1F
100
AcDbEntity
  8
AM_5
100
AcDbDimension
  2
*D6
 10
-0.9999821980835719
 20
-10.50001206798978
 30
0.0
 11
-18.49999109904177
 21
-8.800012067989783
 31
0.0
 70
    32
  1
<>
  3
AM_JIS$0
100
AcDbAlignedDimension
 13
-35.99999999999998
 23
-3.500000000000061
 33
0.0
 14
-0.9999821980835715
 24
-3.0999843623857
 34
0.0
 50
0.0000000000001527
100
AcDbRotatedDimension
1001
GENIUS_GENDTOL_13
1000

1000
h7
1000

1040
0.0
1001
ACAD
1000
DSTYLE
1002
{
1070
   271
1070
     0
1002
}
  0
ARC
  5
144A
330
1F
100
AcDbEntity
  8
AM_11
 48
0.5
100
AcDbCircle
 10
-56.11257425944016
 20
-15.45937617226463
 30
0.0
 40
17.09271208445208
100
AcDbArc
 50
64.74833051131179
 51
115.2516644797366
  0
ARC
  5
144B
330
1F
100
AcDbEntity
  8
AM_11
 48
0.5
100
AcDbCircle
 10
-56.11257425944014
 20
15.45938667054937
 30
0.0
 40
17.09271208445208
100
AcDbArc
 50
244.7482808787518
 51
295.2516148471758
  0
TEXT
  5
19BD
330
1F
100
AcDbEntity
  8
AM_6
100
AcDbText
 10
-56.24999109904175
 20
-26.75001206798985
 30
0.0
 40
2.5
  1
MDW062MHK
 50
0.0000000000001527
 72
     4
 11
-44.99999109904175
 21
-25.50001206798982
 31
0.0
100
AcDbText
  0
LINE
  5
1D14
330
1F
100
AcDbEntity
  8
AM_7
100
AcDbLine
 10
-90.74999999999995
 20
-0.0000000000000486
 30
0.0
 11
2.086421120790561
 21
0.0000000000000011
 31
0.0
1001
GENIUS_GENODEF_13
1002
{
1000
HIER
1070
     0
1002
}
1002
{
1000
MANEDIT
1070
     0
1002
}
1002
{
1000
NOSEL
1070
     0
1002
}
1002
{
1000
BEHIND
1070
     0
1002
}
1002
{
1000
REACTOR
1002
}
1001
GENIUS_GENOBJ-N-CEN_13
1002
{
1000
OWNER
1000
GEN
1002
}
  0
LINE
  5
1D9D
330
1F
100
AcDbEntity
  8
AM_0
100
AcDbLine
 10
-88.49999999999999
 20
-3.500000000000007
 30
0.0
 11
-88.49999999999997
 21
3.499999999999992
 31
0.0
  0
LINE
  5
1D9E
330
1F
100
AcDbEntity
  8
AM_0
 48
0.5
100
AcDbLine
 10
-88.99999999999996
 20
-3.000000000000206
 30
0.0
 11
-88.99999999999998
 21
2.999999999999793
 31
0.0
  0
LINE
  5
1DA2
330
1F
100
AcDbEntity
  8
AM_0
100
AcDbLine
 10
-35.99999999999998
 20
-3.500000000000061
 30
0.0
 11
-36.00000000000001
 21
3.499999999999938
 31
0.0
  0
LINE
  5
1DA4
330
1F
100
AcDbEntity
  8
AM_0
100
AcDbLine
 10
-88.49999999999999
 20
3.499999999999794
 30
0.0
 11
-35.99999999999998
 21
3.499999999999964
 31
0.0
  0
LINE
  5
1DA5
330
1F
100
AcDbEntity
  8
AM_0
100
AcDbLine
 10
-88.49999999999997
 20
-3.500000000000205
 30
0.0
 11
-35.99999999999998
 21
-3.500000000000035
 31
0.0
  0
LINE
  5
1F71
330
1F
100
AcDbEntity
  8
AM_0
100
AcDbLine
 10
-36.00000000000001
 20
3.499999999999938
 30
0.0
 11
-35.30715946836108
 21
3.099988332552692
 31
0.0
  0
LINE
  5
1F72
330
1F
100
AcDbEntity
  8
AM_0
100
AcDbLine
 10
-35.99999999999998
 20
-3.500000000000061
 30
0.0
 11
-35.30719988558404
 21
-3.100011667447429
 31
0.0
  0
ARC
  5
1F77
330
1F
100
AcDbEntity
  8
AM_11
 48
0.5
100
AcDbCircle
 10
-70.69590759277336
 20
15.45938667054932
 30
0.0
 40
17.09271208445208
100
AcDbArc
 50
244.7482808787518
 51
295.2516148471758
  0
ARC
  5
1F78
330
1F
100
AcDbEntity
  8
AM_11
 48
0.5
100
AcDbCircle
 10
-70.69590759277339
 20
-15.45937617226467
 30
0.0
 40
17.09271208445208
100
AcDbArc
 50
64.74833051131179
 51
115.2516644797366
  0
ARC
  5
1F79
330
1F
100
AcDbEntity
  8
AM_11
 48
0.5
100
AcDbCircle
 10
-85.27924092610659
 20
15.45938667054929
 30
0.0
 40
17.09271208445208
100
AcDbArc
 50
257.4271351938719
 51
295.2516148471758
  0
ARC
  5
1F7A
330
1F
100
AcDbEntity
  8
AM_11
 48
0.5
100
AcDbCircle
 10
-85.27924092610662
 20
-15.45937617226471
 30
0.0
 40
17.09271208445208
100
AcDbArc
 50
64.74833051131179
 51
102.5728648061279
  0
DIMENSION
  5
1F93
330
1F
100
AcDbEntity
  8
AM_5
100
AcDbDimension
  2
*D7
 10
-97.75000099999999
 20
3.499999999999995
 30
0.0
 11
-97.75000099999999
 21
-0.000000000000204
 31
0.0
 70
   160
  1
%%c<>
 51
359.9999999999998
  3
AM_JIS$0
100
AcDbAlignedDimension
 13
-88.49999999999999
 23
-3.500000000000007
 33
0.0
 14
-88.49999999999997
 24
3.499999999999992
 34
0.0
 50
270.0000000000002
100
AcDbRotatedDimension
1001
ACAD
1000
DSTYLE
1002
{
1070
   271
1070
     0
1002
}
1001
GENIUS_GENDTOL_13
1000

1000
h7
1000

1040
0.0
  0
ELLIPSE
  5
231A
330
1F
100
AcDbEntity
  8
AM_11
 48
0.5
100
AcDbEllipse
 10
2.220759073889136
 20
15.21399958054064
 30
0.0
 11
-17.09271208445214
 21
0.0000000000021758
 31
0.0
210
0.0
220
0.0
230
1.0
 40
0.9841269841269811
 41
1.130070686340432
 42
1.291800737381121
  0
ELLIPSE
  5
2324
330
1F
100
AcDbEntity
  8
AM_11
 48
0.5
100
AcDbEllipse
 10
-41.52924092610684
 20
-15.21398924889526
 30
0.0
 11
-17.09271208445209
 21
0.0000000000000504
 31
0.0
210
0.0
220
0.0
230
1.0
 40
0.9841269841269831
 41
4.271664206181688
 42
5.153113667164995
  0
ELLIPSE
  5
2325
330
1F
100
AcDbEntity
  8
AM_11
 48
0.5
100
AcDbEllipse
 10
-41.52924092610679
 20
15.21399958054073
 30
0.0
 11
-17.09271208445209
 21
0.000000000000001
 31
0.0
210
0.0
220
0.0
230
1.0
 40
0.9841269841269829
 41
1.130070686340305
 42
2.011520147323597
  0
ELLIPSE
  5
2327
330
1F
100
AcDbEntity
  8
AM_11
 48
0.5
100
AcDbEllipse
 10
-26.94590759277755
 20
15.2139995805407
 30
0.0
 11
17.09271208445209
 21
0.0000000000000162
 31
0.0
210
0.0
220
0.0
230
1.0
 40
0.9841269841269825
 41
4.271663339930097
 42
5.153112800913389
  0
ELLIPSE
  5
2328
330
1F
100
AcDbEntity
  8
AM_11
 48
0.5
100
AcDbEllipse
 10
-26.94590759277761
 20
-15.21398924889529
 30
0.0
 11
-17.09271208445208
 21
0.000000000000001
 31
0.0
210
0.0
220
0.0
230
1.0
 40
0.9841269841269834
 41
4.271664206181685
 42
5.153113667164991
  0
ELLIPSE
  5
232D
330
1F
100
AcDbEntity
  8
AM_11
 48
0.5
100
AcDbEllipse
 10
-12.36257425944427
 20
-15.21398924889532
 30
0.0
 11
-17.09271208445209
 21
0.0000000000000162
 31
0.0
210
0.0
220
0.0
230
1.0
 40
0.9841269841269831
 41
4.271664206181686
 42
5.153113667164992
  0
ELLIPSE
  5
232E
330
1F
100
AcDbEntity
  8
AM_11
 48
0.5
100
AcDbEllipse
 10
-12.36257425944421
 20
15.21399958054067
 30
0.0
 11
17.09271208445209
 21
0.0000000000000162
 31
0.0
210
0.0
220
0.0
230
1.0
 40
0.9841269841269829
 41
4.271663339930097
 42
5.153112800913389
  0
LINE
  5
2398
330
1F
100
AcDbEntity
  8
AM_0
100
AcDbLine
 10
-35.30719988558405
 20
-3.100011667447429
 30
0.0
 11
-35.30715946836108
 21
3.099988332552694
 31
0.0
  0
DIMENSION
  5
239B
330
1F
100
AcDbEntity
  8
AM_5
100
AcDbDimension
  2
*D8
 10
9.086422120790555
 20
3.099988332552706
 30
0.0
 11
9.086422120790555
 21
0.000001985083503
 31
0.0
 70
   160
  1
%%c<>
  3
AM_JIS$0
100
AcDbAlignedDimension
 13
-0.9999999999999857
 23
-3.0999843623857
 33
0.0
 14
-0.9999999999999797
 24
3.099988332552708
 34
0.0
 50
89.99999999999941
100
AcDbRotatedDimension
1001
ACAD
1000
DSTYLE
1002
{
1070
   271
1070
     1
1002
}
1001
GENIUS_GENDTOL_13
1000

1000
h7
1000

1040
0.0
  0
LINE
  5
23AC
330
1F
100
AcDbEntity
  8
AM_0
 48
0.5
100
AcDbLine
 10
-0.7804932361520251
 20
2.76332624747312
 30
0.0
 11
-0.9999999999999797
 21
3.099988332552708
 31
0.0
  0
ELLIPSE
  5
23D5
330
1F
100
AcDbEntity
  8
AM_0
 48
0.5
100
AcDbEllipse
 10
4.537164231286286
 20
3.856893983336729
 30
0.0
 11
4.64545886067619
 21
3.357654964305436
 31
0.0
210
0.0
220
0.0
230
1.0
 40
0.7713757486121493
 41
2.613281070465999
 42
3.074038162807732
  0
LINE
  5
2500
330
1F
100
AcDbEntity
  8
AM_0
 48
0.5
100
AcDbLine
 10
-88.49999999999999
 20
3.499999999999794
 30
0.0
 11
-88.99999999999998
 21
2.999999999999793
 31
0.0
1001
GENIUS_GENFIL_13
1070
     0
1040
0.5
1040
0.5
1040
20.0
1040
0.0
1002
{
1002
}
1001
GENIUS_GENODEF_13
1002
{
1000
HIER
1070
     0
1002
}
1002
{
1000
MANEDIT
1070
     0
1002
}
1002
{
1000
NOSEL
1070
     0
1002
}
1002
{
1000
BEHIND
1070
     0
1002
}
1002
{
1000
REACTOR
1002
}
1001
GENIUS_GENOBJ-N-CHA_13
1002
{
1000
OWNER
1000
GEN
1002
}
  0
LINE
  5
2503
330
1F
100
AcDbEntity
  8
AM_0
100
AcDbLine
 10
-88.99999999999996
 20
-3.000000000000206
 30
0.0
 11
-88.49999999999997
 21
-3.500000000000205
 31
0.0
1001
GENIUS_GENFIL_13
1070
     0
1040
0.5
1040
0.5
1040
20.0
1040
0.0
1002
{
1002
}
1001
GENIUS_GENODEF_13
1002
{
1000
HIER
1070
     0
1002
}
1002
{
1000
MANEDIT
1070
     0
1002
}
1002
{
1000
NOSEL
1070
     0
1002
}
1002
{
1000
BEHIND
1070
     0
1002
}
1002
{
1000
REACTOR
1002
}
1001
GENIUS_GENOBJ-N-CHA_13
1002
{
1000
OWNER
1000
GEN
1002
}
  0
ELLIPSE
  5
2567
330
1F
100
AcDbEntity
  8
AM_0
 48
0.5
100
AcDbEllipse
 10
4.537164231286301
 20
-3.856893983336711
 30
0.0
 11
4.645458860676204
 21
-3.357654964305418
 31
0.0
210
0.0
220
0.0
230
-1.0
 40
0.7713757486121493
 41
2.613281070465999
 42
3.074038162807732
  0
LINE
  5
2568
330
1F
100
AcDbEntity
  8
AM_0
 48
0.5
100
AcDbLine
 10
-0.7804932361520143
 20
-2.763326247473123
 30
0.0
 11
-0.9999999999999918
 21
-3.10001166744729
 31
0.0
  0
LINE
  5
2569
330
1F
100
AcDbEntity
  8
AM_0
 48
0.5
100
AcDbLine
 10
0.0000000000000191
 20
0.0000000000000134
 30
0.0
 11
-0.2725326313314106
 21
-0.7487879158779962
 31
0.0
  0
DIMENSION
  5
2577
330
1F
100
AcDbEntity
  8
AM_5
100
AcDbDimension
  2
*D9
 10
-0.2725326313314106
 20
-0.7487879158779962
 30
0.0
 11
13.0142941721213
 21
0.0000000000000333
 31
0.0
 70
    34
  1
<>
 51
359.9999999999998
  3
AM_JIS$2
100
AcDb2LineAngularDimension
 13
0.0000000000000191
 23
-0.0000000000000134
 33
0.0
 14
-0.2725326313314136
 24
0.748787915877995
 34
0.0
 15
0.0000000000000191
 25
0.0000000000000134
 35
0.0
 16
13.37316069178125
 26
-5.768642634440378
 36
0.0
1001
GENIUS_GENDTOL_13
1000

1000
h7
1000

1040
0.0
1001
ACAD
1000
DSTYLE
1002
{
1070
   271
1070
     0
1002
}
  0
LINE
  5
2A80
330
1F
100
AcDbEntity
  8
AM_0
100
AcDbLine
 10
-32.43053945937148
 20
-3.100011667447294
 30
0.0
 11
-35.30719988558382
 21
-3.100011667447295
 31
0.0
  0
LINE
  5
2A81
330
1F
100
AcDbEntity
  8
AM_0
100
AcDbLine
 10
-31.13629532857601
 20
3.099988332552692
 30
0.0
 11
-35.30715946836108
 21
3.099988332552694
 31
0.0
  0
LINE
  5
2A82
330
1F
100
AcDbEntity
  8
AM_0
 48
0.5
100
AcDbLine
 10
-26.12170730872769
 20
1.477041403456042
 30
0.0
 11
-33.49999999999996
 21
-0.250884889876936
 31
0.0
  0
SPLINE
  5
2A83
330
1F
100
AcDbEntity
  8
AM_0
 48
0.5
100
AcDbSpline
210
0.0
220
0.0
230
1.0
 70
     8
 71
     3
 72
    26
 73
    22
 74
     0
 42
0.0000000001
 43
0.0000000001
 40
0.0
 40
0.0
 40
0.0
 40
0.0
 40
0.2526859211241313
 40
0.5057083941171959
 40
0.7593947393741639
 40
1.01405318625086
 40
1.26996425091637
 40
1.527375060172565
 40
1.786490330669834
 40
2.047470117551047
 40
2.310425755981314
 40
2.575417325379407
 40
2.842456731169063
 40
3.111495753801943
 40
3.382458822635121
 40
3.655202026904655
 40
3.929554512223505
 40
4.205306020962704
 40
4.482215236978595
 40
4.76001530984208
 40
5.029821427366006
 40
5.029821427366006
 40
5.029821427366006
 40
5.029821427366006
 10
-23.24851301993029
 20
-3.100173130945719
 30
0.0
 10
-23.42869285736868
 20
-3.098328706128182
 30
0.0
 10
-23.78929251340767
 20
-3.094637399907402
 30
0.0
 10
-24.33006076798666
 20
-3.064881325251407
 30
0.0
 10
-24.87080594077761
 20
-3.017576946235509
 30
0.0
 10
-25.41151764083219
 20
-2.951278036124623
 30
0.0
 10
-25.95219050087426
 20
-2.866883176499255
 30
0.0
 10
-26.49281374860313
 20
-2.764767264978015
 30
0.0
 10
-27.03338702436608
 20
-2.645620236280352
 30
0.0
 10
-27.57390664146539
 20
-2.510165729451349
 30
0.0
 10
-28.11437132206028
 20
-2.359244217073938
 30
0.0
 10
-28.6547855141953
 20
-2.193795047194365
 30
0.0
 10
-29.19514697857058
 20
-2.014839815106677
 30
0.0
 10
-29.73546183763354
 20
-1.823476276580737
 30
0.0
 10
-30.27573731576639
 20
-1.620903493499734
 30
0.0
 10
-30.81597458030135
 20
-1.408350324569547
 30
0.0
 10
-31.35617765842335
 20
-1.187137313974465
 30
0.0
 10
-31.89635647032636
 20
-0.9586292982296779
 30
0.0
 10
-32.43650208895589
 20
-0.7242024466371172
 30
0.0
 10
-32.97109923855063
 20
-0.487876337695106
 30
0.0
 10
-33.32528996379387
 20
-0.3291107999776662
 30
0.0
 10
-33.49999999999998
 20
-0.2508848898769323
 30
0.0
  0
ELLIPSE
  5
2A84
330
1F
100
AcDbEntity
  8
AM_0
 48
0.5
100
AcDbEllipse
 10
-32.69811708964402
 20
-2.09832338424127
 30
0.0
 11
-0.8021463884954258
 21
0.0000000000004104
 31
0.0
210
0.0
220
0.0
230
1.0
 40
0.9661578124831498
 41
4.317028824483574
 42
6.257553905069859
  0
ELLIPSE
  5
2A85
330
1F
100
AcDbEntity
  8
AM_0
 48
0.5
100
AcDbEllipse
 10
-32.4305391236252
 20
-2.066839797612083
 30
0.0
 11
1.069523967882684
 21
0.0024704107873389
 31
0.0
210
0.0
220
0.0
230
0.9999999999999998
 40
0.9660082059899474
 41
3.150450089964238
 42
4.710157362444574
  0
LINE
  5
2A86
330
1F
100
AcDbEntity
  8
AM_0
 48
0.5
100
AcDbLine
 10
-2.748204948072364
 20
3.099988332552778
 30
0.0
 11
-0.9999999999999797
 21
3.099988332552708
 31
0.0
  0
LINE
  5
2A87
330
1F
100
AcDbEntity
  8
AM_0
 48
0.5
100
AcDbLine
 10
0.0000000000000251
 20
-0.000000000000008
 30
0.0
 11
-1.412443883655206
 21
1.206028568106319
 31
0.0
  0
LINE
  5
2A88
330
1F
100
AcDbEntity
  8
AM_0
 48
0.5
100
AcDbLine
 10
-3.021103422291045
 20
-3.100011667447311
 30
0.0
 11
-0.9999999999999918
 21
-3.10001166744729
 31
0.0
  0
LINE
  5
2A89
330
1F
100
AcDbEntity
  8
AM_0
100
AcDbLine
 10
-24.63787250947589
 20
3.099988332552691
 30
0.0
 11
-13.03265028061802
 21
3.099988332552874
 31
0.0
  0
LINE
  5
2A8A
330
1F
100
AcDbEntity
  8
AM_0
 48
0.5
100
AcDbLine
 10
-24.74309885873047
 20
-3.100011667447307
 30
0.0
 11
-13.20778483844678
 21
-3.100011667447309
 31
0.0
  0
LINE
  5
2A8B
330
1F
100
AcDbEntity
  8
AM_11
 48
0.5
100
AcDbLine
 10
-31.13629532857601
 20
3.099988332552692
 30
0.0
 11
-24.63787250947589
 21
3.099988332552691
 31
0.0
  0
LINE
  5
2A8C
330
1F
100
AcDbEntity
  8
AM_11
 48
0.5
100
AcDbLine
 10
-32.43053945936788
 20
-3.100011667447294
 30
0.0
 11
-24.74309885873047
 21
-3.100011667447307
 31
0.0
  0
LINE
  5
2A8D
330
1F
100
AcDbEntity
  8
AM_11
 48
0.5
100
AcDbLine
 10
-13.03245574827077
 20
3.099986361635092
 30
0.0
 11
-3.110870639881322
 21
3.099986361634752
 31
0.0
  0
LINE
  5
2A8E
330
1F
100
AcDbEntity
  8
AM_11
 48
0.5
100
AcDbLine
 10
-13.20778483844678
 20
-3.100011667447309
 30
0.0
 11
-3.021103422291045
 21
-3.100011667447311
 31
0.0
  0
SPLINE
  5
2A8F
330
1F
100
AcDbEntity
  8
AM_0
 48
0.5
100
AcDbSpline
210
0.0
220
0.0
230
1.0
 70
     8
 71
     3
 72
    10
 73
     6
 74
     0
 42
0.0000000001
 43
0.0000000001
 40
0.0
 40
0.0
 40
0.0
 40
0.0
 40
2.69986029516136
 40
4.147722969032201
 40
6.285750005020438
 40
6.285750005020438
 40
6.285750005020438
 40
6.285750005020438
 10
-3.37454650387506
 20
0.5610718083013714
 30
0.0
 10
-2.984703080747204
 20
0.2730603863358829
 30
0.0
 10
-2.385797084266056
 20
-0.1694038375985231
 30
0.0
 10
-0.9694648550786562
 20
0.0448008445273813
 30
0.0
 10
-1.236201410397456
 20
0.7662705574257112
 30
0.0
 10
-1.412443883655205
 20
1.206028568106319
 30
0.0
  0
ELLIPSE
  5
2A90
330
1F
100
AcDbEntity
  8
AM_0
 48
0.5
100
AcDbEllipse
 10
-0.8249556344998003
 20
-0.645143422776088
 30
0.0
 11
-0.4724855730464033
 21
0.2523826154045827
 31
0.0
210
0.0
220
0.0
230
0.9999999999999998
 40
0.4876676326356967
 41
4.457631480848019
 42
7.60107182217753
  0
ELLIPSE
  5
2A91
330
1F
100
AcDbEntity
  8
AM_0
 48
0.5
100
AcDbEllipse
 10
-0.8249556344998003
 20
-0.645143422776088
 30
0.0
 11
-0.0971515128116103
 21
0.5082606955745427
 31
0.0
210
0.0
220
0.0
230
1.0
 40
0.5225783215483921
 41
1.794238651456023
 42
4.929580541167999
  0
ELLIPSE
  5
2A92
330
1F
100
AcDbEntity
  8
AM_0
 48
0.5
100
AcDbEllipse
 10
-5.683936326839667
 20
5.202912170850049
 30
0.0
 11
-4.456935410681225
 21
6.136908318260594
 31
0.0
210
0.0
220
0.0
230
1.0
 40
0.6984458112826763
 41
3.041716870839403
 42
3.180796000213265
  0
ELLIPSE
  5
2A93
330
1F
100
AcDbEntity
  8
AM_0
 48
0.5
100
AcDbEllipse
 10
3.663565270375191
 20
-0.8818183593269072
 30
0.0
 11
-3.305476814357159
 21
7.795070767125541
 31
0.0
210
0.0
220
0.0
230
1.0
 40
0.6095744351031911
 41
1.359090254717385
 42
1.59696314477494
  0
ELLIPSE
  5
2A94
330
1F
100
AcDbEntity
  8
AM_0
 48
0.5
100
AcDbEllipse
 10
-5.885029805373461
 20
5.896529520286859
 30
0.0
 11
-8.342766444694987
 21
1.459703947182108
 31
0.0
210
0.0
220
0.0
230
1.0
 40
0.952867466199404
 41
2.412955202583626
 42
2.505531637103683
  0
ELLIPSE
  5
2A95
330
1F
100
AcDbEntity
  8
AM_0
 48
0.5
100
AcDbEllipse
 10
2.35307820478045
 20
3.721729055208898
 30
0.0
 11
-6.136071554565403
 21
4.697460038312782
 31
0.0
210
0.0
220
0.0
230
1.0
 40
0.8243886149040111
 41
1.223984444269465
 42
1.544973272204192
  0
SPLINE
  5
2A96
330
1F
100
AcDbEntity
  8
AM_0
100
AcDbSpline
210
0.0
220
0.0
230
1.0
 70
     8
 71
     3
 72
    22
 73
    18
 74
     0
 42
0.0000000001
 43
0.0000000001
 40
17.17441611292
 40
17.17441611292
 40
17.17441611292
 40
17.17441611292
 40
17.38177636558528
 40
18.41823744757437
 40
19.46215659509824
 40
20.51397914882054
 40
21.57394542641293
 40
22.64209583141747
 40
23.71826625065247
 40
24.80210429862395
 40
25.8930771157021
 40
26.99048705697709
 40
28.09349309193389
 40
29.20112995599786
 40
30.31233024745139
 40
31.42594771747373
 40
32.5407895042663
 40
32.54078950426994
 40
32.54078950426994
 40
32.54078950426994
 10
-15.27177747180669
 20
-2.783836075076956
 30
0.0
 10
-15.30798808430324
 20
-2.776659879130442
 30
0.0
 10
-15.52505093045275
 20
-2.732948885242674
 30
0.0
 10
-15.92269783315599
 20
-2.64530265338517
 30
0.0
 10
-16.46321749311827
 20
-2.509848725135564
 30
0.0
 10
-17.0036820752618
 20
-2.358926818858039
 30
0.0
 10
-17.54409539523625
 20
-2.193479026513124
 30
0.0
 10
-18.08445673919321
 20
-2.014519787685545
 30
0.0
 10
-18.62477275835418
 20
-1.823162848414599
 30
0.0
 10
-19.16504595453428
 20
-1.620584226879841
 30
0.0
 10
-19.70528132654531
 20
-1.408033214340235
 30
0.0
 10
-20.24548488146205
 20
-1.186821115911088
 30
0.0
 10
-20.7856613079254
 20
-0.9583081714752815
 30
0.0
 10
-21.32581604368451
 20
-0.7239002312810281
 30
0.0
 10
-21.86595387674094
 20
-0.4850386388259692
 30
0.0
 10
-22.40608280876697
 20
-0.2431972992421763
 30
0.0
 10
-22.76609808289026
 20
-0.0809994427524714
 30
0.0
 10
-22.94620461873968
 20
0.0001440357894149
 30
0.0
  0
SPLINE
  5
2A97
330
1F
100
AcDbEntity
  8
AM_0
 48
0.5
100
AcDbSpline
210
0.0
220
0.0
230
1.0
 70
     8
 71
     3
 72
    25
 73
    21
 74
     0
 42
0.0000000001
 43
0.0000000001
 40
6.846175049578289
 40
6.846175049578289
 40
6.846175049578289
 40
6.846175049578289
 40
7.604337694224321
 40
8.711974558287883
 40
9.814980593243754
 40
10.91239053451967
 40
12.0033633515982
 40
13.08720139956839
 40
14.16337181880432
 40
15.23152222380919
 40
16.29148850140128
 40
17.34331105512262
 40
18.38723020264746
 40
19.42369128463655
 40
20.45333379090873
 40
21.47697865721768
 40
22.49561244472435
 40
23.5103574802404
 40
24.52244778960836
 40
25.53320666051913
 40
25.53320666051913
 40
25.53320666051913
 40
25.53320666051913
 10
-3.384929544295704
 20
0.561108627790382
 30
0.0
 10
-3.508952543085615
 20
0.6155391144606802
 30
0.0
 10
-3.814427814732324
 20
0.7489450874210415
 30
0.0
 10
-4.301809327974707
 20
0.9584404888172375
 30
0.0
 10
-4.847169921609594
 20
1.186953497824407
 30
0.0
 10
-5.392557941782939
 20
1.40816557905923
 30
0.0
 10
-5.937978074394241
 20
1.620716596244452
 30
0.0
 10
-6.483436396769786
 20
1.823295216259782
 30
0.0
 10
-7.028937952685733
 20
2.014652156990489
 30
0.0
 10
-7.574485267526977
 20
2.193611391529698
 30
0.0
 10
-8.120085061036922
 20
2.359059199407854
 30
0.0
 10
-8.665736594408302
 20
2.509981048450925
 30
0.0
 10
-9.211443786941609
 20
2.645435187901071
 30
0.0
 10
-9.757204712811047
 20
2.764583313208147
 30
0.0
 10
-10.3030172399986
 20
2.866695131610497
 30
0.0
 10
-10.84887833131415
 20
2.951093798612496
 30
0.0
 10
-11.39477949337823
 20
3.01739304407881
 30
0.0
 10
-11.94071470980603
 20
3.064692359764304
 30
0.0
 10
-12.4866751184239
 20
3.094456748362852
 30
0.0
 10
-12.85073843532599
 20
3.098145280419616
 30
0.0
 10
-13.032650280618
 20
3.099988332552874
 30
0.0
  0
SPLINE
  5
2A98
330
1F
100
AcDbEntity
  8
AM_0
100
AcDbSpline
210
0.0
220
0.0
230
1.0
 70
     8
 71
     3
 72
    46
 73
    42
 74
     0
 42
0.0000000001
 43
0.0000000001
 40
0.0
 40
0.0
 40
0.0
 40
0.0
 40
0.5056245176053715
 40
0.759310862862336
 40
1.013969309739036
 40
1.269880374404297
 40
1.527291183660732
 40
1.786406454158005
 40
2.047386241038974
 40
2.310345544571907
 40
2.575337113970003
 40
2.842374715221223
 40
3.111417320030211
 40
3.382376832022752
 40
3.655120036292296
 40
3.929472521611371
 40
4.205224030350333
 40
4.482133246366229
 40
4.759933319229942
 40
5.038338087391601
 40
5.317048131389549
 40
5.595758175387723
 40
5.874162943549383
 40
6.151963016412869
 40
6.428872232428759
 40
6.704623741167955
 40
6.978976226486705
 40
7.251719430756336
 40
7.522680721168327
 40
7.791723325977311
 40
8.058760927228529
 40
8.32375249662655
 40
8.586708135057122
 40
8.84768792193809
 40
9.106803192435362
 40
9.364213819003406
 40
9.620125035580644
 40
9.87478726697307
 40
10.12847352585208
 40
10.38149610319407
 40
10.63418200686337
 40
10.63418200686337
 40
10.63418200686337
 40
10.63418200686337
 10
-1.507319757250669
 20
-3.100013638365337
 30
0.0
 10
-1.867937031570607
 20
-3.092951598732497
 30
0.0
 10
-2.409486351654538
 20
-3.082346330948849
 30
0.0
 10
-3.129608098581182
 20
-3.017051645496318
 30
0.0
 10
-3.670325612697331
 20
-2.951217233403899
 30
0.0
 10
-4.210996908338033
 20
-2.866697031297808
 30
0.0
 10
-4.75162056119
 20
-2.764614934919417
 30
0.0
 10
-5.29219379396344
 20
-2.64545898365525
 30
0.0
 10
-5.832715701279457
 20
-2.510005402888058
 30
0.0
 10
-6.373183877624608
 20
-2.359085897655179
 30
0.0
 10
-6.913599403265202
 20
-2.193636526695582
 30
0.0
 10
-7.453960824647797
 20
-2.014677508924725
 30
0.0
 10
-7.994276822967702
 20
-1.823320510043559
 30
0.0
 10
-8.534550024268664
 20
-1.620741903561643
 30
0.0
 10
-9.074785396866666
 20
-1.408190891061512
 30
0.0
 10
-9.614988944198044
 20
-1.186978777138076
 30
0.0
 10
-10.15516540063402
 20
-0.9584658951040619
 30
0.0
 10
-10.69532002345444
 20
-0.72405771947321
 30
0.0
 10
-11.23545853983809
 20
-0.4851968952128742
 30
0.0
 10
-11.77558588398565
 20
-0.2433522484877916
 30
0.0
 10
-12.31570868772739
 20
-0.000013638414211
 30
0.0
 10
-12.85583149135048
 20
0.2433249719550562
 30
0.0
 10
-13.39595883585397
 20
0.485169617793476
 30
0.0
 10
-13.93609735093669
 20
0.7240304452942468
 30
0.0
 10
-14.476251978581
 20
0.9584386089074797
 30
0.0
 10
-15.01642841713047
 20
1.18695153550154
 30
0.0
 10
-15.55663203070179
 20
1.408163484403475
 30
0.0
 10
-16.0968683327279
 20
1.620715569396465
 30
0.0
 10
-16.63714363326988
 20
1.823292335349055
 30
0.0
 10
-17.17746059543068
 20
2.014650315443375
 30
0.0
 10
-17.71782200423213
 20
2.193609386464074
 30
0.0
 10
-18.25823530990715
 20
2.359057237085338
 30
0.0
 10
-18.79869988522399
 20
2.509979076915119
 30
0.0
 10
-19.33921958616585
 20
2.645433211025016
 30
0.0
 10
-19.8797925060839
 20
2.764581366481287
 30
0.0
 10
-20.42041655528801
 20
2.86669307069029
 30
0.0
 10
-20.96109130153465
 20
2.951092576864
 30
0.0
 10
-21.50180602947053
 20
3.017390450953161
 30
0.0
 10
-22.04255421116351
 20
3.06469049312696
 30
0.0
 10
-22.58332202161324
 20
3.094454596280283
 30
0.0
 10
-22.94392182862403
 20
3.098143258421711
 30
0.0
 10
-23.12410169809207
 20
3.099986361635386
 30
0.0
  0
SPLINE
  5
2A99
330
1F
100
AcDbEntity
  8
AM_0
 48
0.5
100
AcDbSpline
210
0.0
220
0.0
230
1.0
 70
     8
 71
     3
 72
    17
 73
    13
 74
     0
 42
0.0000000001
 43
0.0000000001
 40
0.0
 40
0.0
 40
0.0
 40
0.0
 40
1.010743614677189
 40
2.022833924044153
 40
3.037578959561199
 40
4.056212747067873
 40
5.079857613375832
 40
6.109500119648989
 40
7.14596120163808
 40
8.18989512056258
 40
9.241717674284874
 40
9.693948937866434
 40
9.693948937866434
 40
9.693948937866434
 40
9.693948937866434
 10
-2.748204948072364
 20
3.099988332552778
 30
0.0
 10
-2.930114045792152
 20
3.098145236837143
 30
0.0
 10
-3.294174613295635
 20
3.094456589701812
 30
0.0
 10
-3.840132285145146
 20
3.064692373789572
 30
0.0
 10
-4.386067480234203
 20
3.017392996964169
 30
0.0
 10
-4.931968722800194
 20
2.951093974073718
 30
0.0
 10
-5.477829511317496
 20
2.866694472048695
 30
0.0
 10
-6.023643178636136
 20
2.764585797185833
 30
0.0
 10
-6.5694023990194
 20
2.645425256793746
 30
0.0
 10
-7.115128350115758
 20
2.510015070318974
 30
0.0
 10
-7.555652568342059
 20
2.388030961118006
 30
0.0
 10
-7.814354217695095
 20
2.311773350784945
 30
0.0
 10
-7.892002573315798
 20
2.288431406752837
 30
0.0
  0
SPLINE
  5
2A9A
330
1F
100
AcDbEntity
  8
AM_0
100
AcDbSpline
210
0.0
220
0.0
230
1.0
 70
     8
 71
     3
 72
    13
 73
     9
 74
     0
 42
0.0000000001
 43
0.0000000001
 40
16.03460056234195
 40
16.03460056234195
 40
16.03460056234195
 40
16.03460056234195
 40
16.35212717791071
 40
17.38177067057215
 40
18.41822498539278
 40
19.46214186516937
 40
20.5139635832251
 40
21.34083983469381
 40
21.34083983469381
 40
21.34083983469381
 40
21.34083983469381
 10
-32.43053945936789
 20
-3.100011667447304
 30
0.0
 10
-32.27744116941677
 20
-3.089990316397174
 30
0.0
 10
-32.04196475657384
 20
-3.044419201642769
 30
0.0
 10
-31.62717108878781
 20
-2.955126064917063
 30
0.0
 10
-31.09001184272552
 20
-2.822350065458502
 30
0.0
 10
-30.55335162128068
 20
-2.673264236502829
 30
0.0
 10
-30.0567643717178
 20
-2.520885138461523
 30
0.0
 10
-29.73995045135079
 20
-2.415961285202515
 30
0.0
 10
-29.60096608328479
 20
-2.368534747463114
 30
0.0
  0
SPLINE
  5
2A9B
330
1F
100
AcDbEntity
  8
AM_0
100
AcDbSpline
210
0.0
220
0.0
230
1.0
 70
     8
 71
     3
 72
    23
 73
    19
 74
     0
 42
0.0000000001
 43
0.0000000001
 40
16.03460024169435
 40
16.03460024169435
 40
16.03460024169435
 40
16.03460024169435
 40
16.35212704903564
 40
17.38177054169784
 40
18.41822485651776
 40
19.46214173629503
 40
20.51396345435107
 40
21.57393551351153
 40
22.64208202342361
 40
23.7182574881101
 40
24.80209208578934
 40
25.89306333925047
 40
26.99048218457928
 40
28.09348763352352
 40
29.20111863782268
 40
30.31232390128032
 40
31.42594612798585
 40
32.5407912310448
 40
32.5407912310486
 40
32.5407912310486
 40
32.5407912310486
 10
-31.13629532863295
 20
3.099988332552692
 30
0.0
 10
-31.08306475540474
 20
3.089961718803627
 30
0.0
 10
-30.84758853741355
 20
3.044389353690444
 30
0.0
 10
-30.43279464351698
 20
2.955097259470887
 30
0.0
 10
-29.89563546505372
 20
2.82232089185523
 30
0.0
 10
-29.35897522530172
 20
2.673235162602681
 30
0.0
 10
-28.82278221257939
 20
2.508702903872542
 30
0.0
 10
-28.28703739644643
 20
2.329641386690578
 30
0.0
 10
-27.75170981213652
 20
2.137074202201615
 30
0.0
 10
-27.21676218147139
 20
1.932122043116625
 30
0.0
 10
-26.68216410680531
 20
1.71594554156308
 30
0.0
 10
-26.14787272747217
 20
1.48980257823322
 30
0.0
 10
-25.6138447451304
 20
1.255007593734638
 30
0.0
 10
-25.08004457901876
 20
1.01291056079581
 30
0.0
 10
-24.54642756672559
 20
0.7649192405094575
 30
0.0
 10
-24.01294428401428
 20
0.5124817202454759
 30
0.0
 10
-23.4795512902862
 20
0.2570608070760854
 30
0.0
 10
-23.12405147391551
 20
0.0858150510671805
 30
0.0
 10
-22.94620461873728
 20
0.00014403578831
 30
0.0
  0
SPLINE
  5
2A9C
330
1F
100
AcDbEntity
  8
AM_0
 48
0.5
100
AcDbSpline
210
0.0
220
0.0
230
1.0
 70
     8
 71
     3
 72
    22
 73
    18
 74
     0
 42
0.0000000001
 43
0.0000000001
 40
0.0
 40
0.0
 40
0.0
 40
0.0
 40
1.010743684496582
 40
2.022833993863546
 40
3.037578683882831
 40
4.056212471389632
 40
5.079857945358201
 40
6.109499720892564
 40
7.145961650132166
 40
8.189873411961459
 40
9.241710626092514
 40
10.30166235592959
 40
11.36982472628033
 40
12.44598212828784
 40
13.52983440361964
 40
14.62080578343036
 40
14.90544694398022
 40
14.90544694398022
 40
14.90544694398022
 40
14.90544694398022
 10
-24.74309885873047
 20
-3.100011667447307
 30
0.0
 10
-24.94247655681666
 20
-3.09832925707343
 30
0.0
 10
-25.30307635612343
 20
-3.094639052715637
 30
0.0
 10
-25.84384404440485
 20
-3.064874690371508
 30
0.0
 10
-26.38458980109547
 20
-3.017578270605211
 30
0.0
 10
-26.92530179334069
 20
-2.951279316711838
 30
0.0
 10
-27.46597316318876
 20
-2.866876518218692
 30
0.0
 10
-28.00659827019415
 20
-2.764769435841686
 30
0.0
 10
-28.54716919228017
 20
-2.645618077463485
 30
0.0
 10
-29.08768964660117
 20
-2.510161609530909
 30
0.0
 10
-29.62815476497493
 20
-2.359245799584501
 30
0.0
 10
-30.16856737181905
 20
-2.193789138243251
 30
0.0
 10
-30.70893095080922
 20
-2.014844501890993
 30
0.0
 10
-31.24924509606898
 20
-1.823475708815531
 30
0.0
 10
-31.78951992974738
 20
-1.620901864871623
 30
0.0
 10
-32.19557422405399
 20
-1.461150471242583
 30
0.0
 10
-32.42184184666292
 20
-1.369841709714626
 30
0.0
 10
-32.38917795911705
 20
-1.38310850122923
 30
0.0
  0
SPLINE
  5
2A9D
330
1F
100
AcDbEntity
  8
AM_0
100
AcDbSpline
210
0.0
220
0.0
230
1.0
 70
     8
 71
     3
 72
    17
 73
    13
 74
     0
 42
0.0000000001
 43
0.0000000001
 40
1.580019955310467
 40
1.580019955310467
 40
1.580019955310467
 40
1.580019955310467
 40
2.030549285115227
 40
3.082371838836284
 40
4.126290986361125
 40
5.162752068350215
 40
6.192395305374981
 40
7.216039564037012
 40
8.234688489606833
 40
9.249433870634691
 40
10.26152376260694
 40
11.27226744710342
 40
11.27226744710342
 40
11.27226744710342
 40
11.27226744710352
 10
-8.114046750978912
 20
-2.287904922795234
 30
0.0
 10
-8.190556432805285
 20
-2.311468302386863
 30
0.0
 10
-8.446124474466076
 20
-2.388700426337686
 30
0.0
 10
-8.882442499803095
 20
-2.509841776167883
 30
0.0
 10
-9.422886920665392
 20
-2.64550401747837
 30
0.0
 10
-9.963480125370745
 20
-2.764597453249998
 30
0.0
 10
-10.50409809986807
 20
-2.866722140958822
 30
0.0
 10
-11.04477497372476
 20
-2.951135220694558
 30
0.0
 10
-11.58548920139522
 20
-3.017354984232159
 30
0.0
 10
-12.12623709826187
 20
-3.064952305346519
 30
0.0
 10
-12.66700534169684
 20
-3.093620794554038
 30
0.0
 10
-13.02760500340715
 20
-3.100013656103314
 30
0.0
 10
-13.20778483844674
 20
-3.100011667447309
 30
0.0
  0
SPLINE
  5
2A9E
330
1F
100
AcDbEntity
  8
AM_0
100
AcDbSpline
210
0.0
220
0.0
230
1.0
 70
     8
 71
     3
 72
    11
 73
     7
 74
     0
 42
0.0000000001
 43
0.0000000001
 40
11.27226913003534
 40
11.27226913003534
 40
11.27226913003534
 40
11.2722691300354
 40
12.28301561507924
 40
13.29510212255852
 40
14.30984805882082
 40
15.18258238371378
 40
15.18258238371378
 40
15.18258238371378
 40
15.18258238371378
 10
-13.20778483844678
 20
-3.100011667447309
 30
0.0
 10
-13.38727954104905
 20
-3.084841337510816
 30
0.0
 10
-13.74593038511236
 20
-3.048109857468487
 30
0.0
 10
-14.28205464511074
 20
-2.974013376713057
 30
0.0
 10
-14.79084602119195
 20
-2.885513254812966
 30
0.0
 10
-15.11990241778667
 20
-2.817480577175759
 30
0.0
 10
-15.27154097520985
 20
-2.783874313553249
 30
0.0
  0
SPLINE
  5
2A9F
330
1F
100
AcDbEntity
  8
AM_0
100
AcDbSpline
210
0.0
220
0.0
230
1.0
 70
     8
 71
     3
 72
    55
 73
    51
 74
     0
 42
0.0000000001
 43
0.0000000001
 40
0.0
 40
0.0
 40
0.0
 40
0.0
 40
1.010743684496582
 40
2.022833576467832
 40
3.037578957496688
 40
4.056212745003489
 40
5.079857003664532
 40
6.109500240690281
 40
7.145961322679372
 40
8.189895241603872
 40
9.241717795325891
 40
10.30168407291828
 40
11.36983447792315
 40
12.44600489715814
 40
13.52984294512926
 40
14.62081576220742
 40
15.7182257034828
 40
16.82123173843959
 40
17.92886860250316
 40
19.0400688939571
 40
20.15368796660465
 40
21.26852814259644
 40
22.38336992938901
 40
23.49698739941135
 40
24.6081876908653
 40
25.71582455492886
 40
26.81883757994213
 40
27.91624752121713
 40
29.00722033829659
 40
30.09105838626677
 40
31.16722880550176
 40
32.23537921050758
 40
33.29534548809967
 40
34.347168041821
 40
35.39108718934584
 40
36.42754827133493
 40
37.45720575381954
 40
38.48085062012849
 40
39.49948440763516
 40
40.51422944315121
 40
41.52631975251916
 40
42.53706336719636
 40
43.54780698187354
 40
44.55989729124051
 40
45.57464232675757
 40
46.59327611426424
 40
47.6169209805722
 40
48.64656348684535
 40
49.68302456883444
 40
50.58557219878025
 40
50.58557219878025
 40
50.58557219878025
 40
50.58557219878025
 10
-3.021103422291045
 20
-3.100011667447304
 30
0.0
 10
-3.201283259707735
 20
-3.098169213467369
 30
0.0
 10
-3.561882915703171
 20
-3.09447790708575
 30
0.0
 10
-4.102651170608163
 20
-3.064721833638381
 30
0.0
 10
-4.643396342155314
 20
-3.017417450010676
 30
0.0
 10
-5.184108046885198
 20
-2.9511185572353
 30
0.0
 10
-5.724780889346222
 20
-2.866723632421467
 30
0.0
 10
-6.265404203272042
 20
-2.764607966350585
 30
0.0
 10
-6.805979797023679
 20
-2.645459446546439
 30
0.0
 10
-7.346502876788058
 20
-2.510007681536103
 30
0.0
 10
-7.886969760617967
 20
-2.359084336939677
 30
0.0
 10
-8.427383142441982
 20
-2.193636742990083
 30
0.0
 10
-8.967744469594933
 20
-2.014677450304628
 30
0.0
 10
-9.508060493458796
 20
-1.82332052593903
 30
0.0
 10
-10.04833368780153
 20
-1.620741899192937
 30
0.0
 10
-10.58856906243492
 20
-1.408190892492917
 30
0.0
 10
-11.12877260864233
 20
-1.186978775810231
 30
0.0
 10
-11.66894906753852
 20
-0.9584658989993151
 30
0.0
 10
-12.20910368159758
 20
-0.7240577051462632
 30
0.0
 10
-12.74924223070336
 20
-0.4851969488351576
 30
0.0
 10
-13.28936945238519
 20
-0.2433520478326406
 30
0.0
 10
-13.82949297407603
 20
-0.0000142708775387
 30
0.0
 10
-14.36961407106419
 20
0.2433278863091884
 30
0.0
 10
-14.90974310313472
 20
0.4851690211469282
 30
0.0
 10
-15.44988098543226
 20
0.7240305004759344
 30
0.0
 10
-15.99003656258101
 20
0.9584395873197186
 30
0.0
 10
-16.53021526238827
 20
1.186950513961611
 30
0.0
 10
-17.07041966117962
 20
1.408163752497535
 30
0.0
 10
-17.610655113805
 20
1.62071458684059
 30
0.0
 10
-18.15092828848894
 20
1.823293256188197
 30
0.0
 10
-18.69124431373631
 20
2.014650180833729
 30
0.0
 10
-19.23160565465272
 20
2.193609430727332
 30
0.0
 10
-19.77201898070019
 20
2.359057193614149
 30
0.0
 10
-20.31248354180194
 20
2.509979205559351
 30
0.0
 10
-20.85300327905543
 20
2.64543274464987
 30
0.0
 10
-21.39357867228157
 20
2.764583660380864
 30
0.0
 10
-21.93420584643902
 20
2.866687663425149
 30
0.0
 10
-22.47488047513032
 20
2.951108710252291
 30
0.0
 10
-23.01559234015138
 20
3.017329014247662
 30
0.0
 10
-23.55633788742467
 20
3.064920660164947
 30
0.0
 10
-24.09710568382262
 20
3.093598144846048
 30
0.0
 10
-24.63788536326496
 20
3.103178343567248
 30
0.0
 10
-25.17866504191162
 20
3.093598144831057
 30
0.0
 10
-25.71943284070125
 20
3.064920660225276
 30
0.0
 10
-26.26017837916909
 20
3.017329014020662
 30
0.0
 10
-26.80089027720401
 20
2.951108711105785
 30
0.0
 10
-27.34156214589174
 20
2.866688071782628
 30
0.0
 10
-27.88218719018395
 20
2.764584704339307
 30
0.0
 10
-28.3981837934218
 20
2.65084144187522
 30
0.0
 10
-28.73296826593888
 20
2.567659918743576
 30
0.0
 10
-28.88828874853649
 20
2.527121504682448
 30
0.0
  0
VIEWPORT
  5
110
330
101
100
AcDbEntity
 67
     1
  8
0
100
AcDbViewport
 10
420.5
 20
297.0
 30
0.0
 40
948.9782706766916
 41
628.452
 68
     1
 69
     1
1001
ACAD
1000
MVIEW
1002
{
1070
    16
1010
0.0
1020
0.0
1030
0.0
1010
0.0
1020
0.0
1030
1.0
1040
0.0
1040
628.452
1040
420.5
1040
297.0
1040
50.0
1040
0.0
1040
0.0
1070
     0
1070
   100
1070
     1
1070
     1
1070
     0
1070
     0
1070
     0
1070
     0
1040
0.0
1040
0.0
1040
0.0
1040
10.0
1040
10.0
1040
10.0
1040
10.0
1070
     0
1002
{
1002
}
1002
}
  0
ENDSEC
  0
SECTION
  2
OBJECTS
  0
DICTIONARY
  5
C
330
0
100
AcDbDictionary
  3
ACAD_GROUP
350
D
  3
ACAD_LAYOUT
350
1A
  3
ACAD_MLINESTYLE
350
17
  3
ACAD_PLOTSETTINGS
350
19
  3
ACAD_PLOTSTYLENAME
350
E
  3
ACDBVARIABLEDICTIONARY
350
34
  3
ACMDICTIONARY
350
43
  3
AMG
350
2B
  3
AMGSNAPSETTINGS
350
6E
  3
DWGPROPS
350
2B1C
  3
ACDBHEADERROUNDTRIPXREC
350
2B28
  0
DICTIONARY
  5
74
330
1F
100
AcDbDictionary
280
     1
  3
ACAD_INDEX
360
2B1E
  3
ACAD_LAYOUTSELFREF
360
2B4B
  0
DICTIONARY
  5
2B50
330
101
100
AcDbDictionary
280
     1
  3
ACAD_LAYOUTSELFREF
360
2B51
  0
DICTIONARY
  5
D
102
{ACAD_REACTORS
330
C
102
}
330
C
100
AcDbDictionary
  0
DICTIONARY
  5
1A
102
{ACAD_REACTORS
330
C
102
}
330
C
100
AcDbDictionary
  0
DICTIONARY
  5
17
102
{ACAD_REACTORS
330
C
102
}
330
C
100
AcDbDictionary
  3
STANDARD
350
18
  0
DICTIONARY
  5
19
102
{ACAD_REACTORS
330
C
102
}
330
C
100
AcDbDictionary
  0
ACDBDICTIONARYWDFLT
  5
E
102
{ACAD_REACTORS
330
C
102
}
330
C
100
AcDbDictionary
281
     1
  3
Normal
350
F
100
AcDbDictionaryWithDefault
340
F
  0
DICTIONARY
  5
34
102
{ACAD_REACTORS
330
C
102
}
330
C
100
AcDbDictionary
  3
INDEXCTL
350
35
  3
SORTENTS
350
B5E
  0
DICTIONARY
  5
43
102
{ACAD_REACTORS
330
C
102
}
330
C
100
AcDbDictionary
  3
ACMSTDDICTIONARY
350
260
  0
DICTIONARY
  5
2B
102
{ACAD_REACTORS
330
C
102
}
330
C
100
AcDbDictionary
  3
ACMGSETTINGS
350
2C
  0
DICTIONARY
  5
6E
102
{ACAD_REACTORS
330
C
102
}
330
C
100
AcDbDictionary
  0
XRECORD
  5
2B1C
102
{ACAD_REACTORS
330
C
102
}
330
C
100
AcDbXrecord
  1
DWGPROPS COOKIE
  2

  3

  4

  6

  7

  8

  9

300
AmdtFileType=82
301
=
302
=
303
=
304
=
305
=
306
=
307
=
308
=
309
=
 40
0.071483287037037
 41
2452800.443498622
 42
2452946.607692592
  1

 90
        1
  0
DICTIONARY
  5
2B28
102
{ACAD_REACTORS
330
C
102
}
330
C
100
AcDbDictionary
  3
TSTACKALIGN
350
2B29
  3
TSTACKSIZE
350
2B2A
  3
HYPERLINKBASE
350
2B2B
  3
STYLESHEET
350
2B2C
  3
LAYOUTDICT
350
2B2D
  3
PLOTSETDICT
350
2B2E
  3
PLOTSTYLNAMDICT
350
2B2F
  3
LWETCUNION
350
2B30
  3
INSUNITS
350
2B31
  3
CEPSNTYPE
350
2B32
  3
FINGERPRINTGUID
350
2B33
  3
VERSIONGUID
350
2B34
  3
PSVPSCALE
350
2B35
  3
DIMSTYLEDATA
350
2B36
  3
PUCSORTHOREF
350
2B37
  3
PUCSORTHOVIEW
350
2B38
  3
PUCSBASE
350
2B39
  3
PUCSORGTOP
350
2B3A
  3
PUCSORGBOTTOM
350
2B3B
  3
PUCSORGLEFT
350
2B3C
  3
PUCSORGRIGHT
350
2B3D
  3
PUCSORGFRONT
350
2B3E
  3
PUCSORGBACK
350
2B3F
  3
UCSORTHOREF
350
2B40
  3
UCSORTHOVIEW
350
2B41
  3
UCSBASE
350
2B42
  3
UCSORGTOP
350
2B43
  3
UCSORGBOTTOM
350
2B44
  3
UCSORGLEFT
350
2B45
  3
UCSORGRIGHT
350
2B46
  3
UCSORGFRONT
350
2B47
  3
UCSORGBACK
350
2B48
  0
DICTIONARY
  5
2B1E
102
{ACAD_REACTORS
330
74
102
}
330
74
100
AcDbDictionary
  3
*A1
350
2B1F
  0
XRECORD
  5
2B4B
102
{ACAD_REACTORS
330
74
102
}
330
74
100
AcDbXrecord
340
1F
  0
XRECORD
  5
2B51
102
{ACAD_REACTORS
330
2B50
102
}
330
2B50
100
AcDbXrecord
340
101
  0
MLINESTYLE
  5
18
102
{ACAD_REACTORS
330
17
102
}
330
17
100
AcDbMlineStyle
  2
STANDARD
 70
     0
  3

 62
   256
 51
90.0
 52
90.0
 71
     2
 49
0.5
 62
   256
  6
BYLAYER
 49
-0.5
 62
   256
  6
BYLAYER
  0
ACDBPLACEHOLDER
  5
F
102
{ACAD_REACTORS
330
E
102
}
330
E
100
AcDbPlaceHolder
280
     0
  0
DICTIONARYVAR
  5
35
102
{ACAD_REACTORS
330
34
102
}
330
34
100
DictionaryVariables
280
     0
  1
1
  0
DICTIONARYVAR
  5
B5E
102
{ACAD_REACTORS
330
34
102
}
330
34
100
DictionaryVariables
280
     0
  1
96
  0
DICTIONARY
  5
260
102
{ACAD_REACTORS
330
43
102
}
330
43
100
AcDbDictionary
  0
DICTIONARY
  5
2C
102
{ACAD_REACTORS
330
2B
102
}
330
2B
100
AcDbDictionary
  3
DWGSETTINGS
350
2D
  0
XRECORD
  5
2B29
102
{ACAD_REACTORS
330
2B28
102
}
330
2B28
100
AcDbXrecord
 90
        1
  0
XRECORD
  5
2B2A
102
{ACAD_REACTORS
330
2B28
102
}
330
2B28
100
AcDbXrecord
 90
       70
  0
XRECORD
  5
2B2B
102
{ACAD_REACTORS
330
2B28
102
}
330
2B28
100
AcDbXrecord
  1

  0
XRECORD
  5
2B2C
102
{ACAD_REACTORS
330
2B28
102
}
330
2B28
100
AcDbXrecord
  1
ASAMI.ctb
  0
XRECORD
  5
2B2D
102
{ACAD_REACTORS
330
2B28
102
}
330
2B28
100
AcDbXrecord
340
1A
  0
XRECORD
  5
2B2E
102
{ACAD_REACTORS
330
2B28
102
}
330
2B28
100
AcDbXrecord
340
19
  0
XRECORD
  5
2B2F
102
{ACAD_REACTORS
330
2B28
102
}
330
2B28
100
AcDbXrecord
340
E
  0
XRECORD
  5
2B30
102
{ACAD_REACTORS
330
2B28
102
}
330
2B28
100
AcDbXrecord
 90
    10781
  0
XRECORD
  5
2B31
102
{ACAD_REACTORS
330
2B28
102
}
330
2B28
100
AcDbXrecord
 90
        4
  0
XRECORD
  5
2B32
102
{ACAD_REACTORS
330
2B28
102
}
330
2B28
100
AcDbXrecord
 90
        0
  0
XRECORD
  5
2B33
102
{ACAD_REACTORS
330
2B28
102
}
330
2B28
100
AcDbXrecord
  1
{AFB28963-8C59-40AE-9337-C84526B81ACE}
  0
XRECORD
  5
2B34
102
{ACAD_REACTORS
330
2B28
102
}
330
2B28
100
AcDbXrecord
  1
{75905EC2-FE8C-4FF7-9DAF-2D1DA50BD28E}
  0
XRECORD
  5
2B35
102
{ACAD_REACTORS
330
2B28
102
}
330
2B28
100
AcDbXrecord
 40
0.0
  0
XRECORD
  5
2B36
102
{ACAD_REACTORS
330
2B28
102
}
330
2B28
100
AcDbXrecord
1000
DSTYLE
1002
{
1070
    79
 70
     2
1070
   341
340
59
1070
   342
340
59
1070
   371
 70
    -1
1070
   372
 70
    -1
1002
}
  0
XRECORD
  5
2B37
102
{ACAD_REACTORS
330
2B28
102
}
330
2B28
100
AcDbXrecord
340
0
  0
XRECORD
  5
2B38
102
{ACAD_REACTORS
330
2B28
102
}
330
2B28
100
AcDbXrecord
 70
     0
  0
XRECORD
  5
2B39
102
{ACAD_REACTORS
330
2B28
102
}
330
2B28
100
AcDbXrecord
340
0
  0
XRECORD
  5
2B3A
102
{ACAD_REACTORS
330
2B28
102
}
330
2B28
100
AcDbXrecord
 10
0.0
 20
0.0
 30
0.0
  0
XRECORD
  5
2B3B
102
{ACAD_REACTORS
330
2B28
102
}
330
2B28
100
AcDbXrecord
 10
0.0
 20
0.0
 30
0.0
  0
XRECORD
  5
2B3C
102
{ACAD_REACTORS
330
2B28
102
}
330
2B28
100
AcDbXrecord
 10
0.0
 20
0.0
 30
0.0
  0
XRECORD
  5
2B3D
102
{ACAD_REACTORS
330
2B28
102
}
330
2B28
100
AcDbXrecord
 10
0.0
 20
0.0
 30
0.0
  0
XRECORD
  5
2B3E
102
{ACAD_REACTORS
330
2B28
102
}
330
2B28
100
AcDbXrecord
 10
0.0
 20
0.0
 30
0.0
  0
XRECORD
  5
2B3F
102
{ACAD_REACTORS
330
2B28
102
}
330
2B28
100
AcDbXrecord
 10
0.0
 20
0.0
 30
0.0
  0
XRECORD
  5
2B40
102
{ACAD_REACTORS
330
2B28
102
}
330
2B28
100
AcDbXrecord
340
0
  0
XRECORD
  5
2B41
102
{ACAD_REACTORS
330
2B28
102
}
330
2B28
100
AcDbXrecord
 70
     0
  0
XRECORD
  5
2B42
102
{ACAD_REACTORS
330
2B28
102
}
330
2B28
100
AcDbXrecord
340
0
  0
XRECORD
  5
2B43
102
{ACAD_REACTORS
330
2B28
102
}
330
2B28
100
AcDbXrecord
 10
0.0
 20
0.0
 30
0.0
  0
XRECORD
  5
2B44
102
{ACAD_REACTORS
330
2B28
102
}
330
2B28
100
AcDbXrecord
 10
0.0
 20
0.0
 30
0.0
  0
XRECORD
  5
2B45
102
{ACAD_REACTORS
330
2B28
102
}
330
2B28
100
AcDbXrecord
 10
0.0
 20
0.0
 30
0.0
  0
XRECORD
  5
2B46
102
{ACAD_REACTORS
330
2B28
102
}
330
2B28
100
AcDbXrecord
 10
0.0
 20
0.0
 30
0.0
  0
XRECORD
  5
2B47
102
{ACAD_REACTORS
330
2B28
102
}
330
2B28
100
AcDbXrecord
 10
0.0
 20
0.0
 30
0.0
  0
XRECORD
  5
2B48
102
{ACAD_REACTORS
330
2B28
102
}
330
2B28
100
AcDbXrecord
 10
0.0
 20
0.0
 30
0.0
  0
LAYER_INDEX
  5
2B1F
102
{ACAD_REACTORS
330
2B1E
102
}
330
2B1E
100
AcDbIndex
 40
2453151.580347025
100
AcDbLayerIndex
  8
0
360
2B20
 90
        0
  8
AM_0
360
2B21
 90
       44
  8
AM_7
360
2B22
 90
        1
  8
AM_11
360
2B23
 90
       17
  8
AM_5
360
2B24
 90
        5
  8
Defpoints
360
2B25
 90
        0
  8
AM_6
360
2B26
 90
        1
  0
XRECORD
  5
2D
102
{ACAD_REACTORS
330
2C
102
}
330
2C
100
AcDbXrecord
  1
VERSION
140
15.0
  1
PRODUCT
  2
AutoCAD Mechanical 2000
  0
IDBUFFER
  5
2B20
330
0
100
AcDbIdBuffer
  0
IDBUFFER
  5
2B21
330
0
100
AcDbIdBuffer
330
2A80
330
2A81
330
2A82
330
2A83
330
2A84
330
2A85
330
2A86
330
2A87
330
2A88
330
2A89
330
2A8A
330
2A8F
330
2A90
330
2A91
330
2A92
330
2A93
330
2A94
330
2A95
330
2A96
330
2A97
330
2A98
330
2A99
330
2A9A
330
2A9B
330
2A9C
330
2A9D
330
2A9E
330
2A9F
330
C1D
330
1D9D
330
1D9E
330
1DA2
330
1DA4
330
1DA5
330
1F71
330
1F72
330
2398
330
23AC
330
23D5
330
2500
330
2503
330
2567
330
2568
330
2569
  0
IDBUFFER
  5
2B22
330
0
100
AcDbIdBuffer
330
1D14
  0
IDBUFFER
  5
2B23
330
0
100
AcDbIdBuffer
330
2A8E
330
144A
330
144B
330
1F77
330
1F78
330
1F79
330
1F7A
330
231A
330
2324
330
2325
330
2327
330
2328
330
232D
330
232E
330
2A8B
330
2A8C
330
2A8D
  0
IDBUFFER
  5
2B24
330
0
100
AcDbIdBuffer
330
CC6
330
DF5
330
1F93
330
239B
330
2577
  0
IDBUFFER
  5
2B25
330
0
100
AcDbIdBuffer
  0
IDBUFFER
  5
2B26
330
0
100
AcDbIdBuffer
330
19BD
  0
ENDSEC
  0
EOF
