  0
SECTION
  2
HEADER
  9
$ACADVER
  1
AC1014
  9
$ACADMAINTVER
 70
     9
  9
$DWGCODEPAGE
  3
ANSI_932
  9
$INSBASE
 10
0.0
 20
0.0
 30
0.0
  9
$EXTMIN
 10
-121.400001
 20
-26.75001206798985
 30
-0.00000001
  9
$EXTMAX
 10
13.86731121352199
 20
13.5008563278815
 30
0.00000001
  9
$LIMMIN
 10
-129.8453480500053
 20
-47.40039492657388
  9
$LIMMAX
 10
21.23781210755538
 20
24.57386599112806
  9
$ORTHOMODE
 70
     0
  9
$REGENMODE
 70
     1
  9
$FILLMODE
 70
     1
  9
$QTEXTMODE
 70
     0
  9
$MIRRTEXT
 70
     0
  9
$DRAGMODE
 70
     2
  9
$LTSCALE
 40
1.0
  9
$OSMODE
 70
    55
  9
$ATTMODE
 70
     1
  9
$TEXTSIZE
 40
2.5
  9
$TRACEWID
 40
1.0
  9
$TEXTSTYLE
  7
STANDARD
  9
$CLAYER
  8
AM_0
  9
$CELTYPE
  6
BYLAYER
  9
$CECOLOR
 62
   256
  9
$CELTSCALE
 40
1.0
  9
$DELOBJ
 70
     1
  9
$DISPSILH
 70
     0
  9
$DIMSCALE
 40
0.5
  9
$DIMASZ
 40
2.5
  9
$DIMEXO
 40
1.0
  9
$DIMDLI
 40
12.0
  9
$DIMRND
 40
0.0
  9
$DIMDLE
 40
0.0
  9
$DIMEXE
 40
1.0
  9
$DIMTP
 40
0.1
  9
$DIMTM
 40
0.1
  9
$DIMTXT
 40
3.2
  9
$DIMCEN
 40
0.0
  9
$DIMTSZ
 40
0.0
  9
$DIMTOL
 70
     0
  9
$DIMLIM
 70
     0
  9
$DIMTIH
 70
     0
  9
$DIMTOH
 70
     0
  9
$DIMSE1
 70
     0
  9
$DIMSE2
 70
     0
  9
$DIMTAD
 70
     3
  9
$DIMZIN
 70
     8
  9
$DIMBLK
  1
OPEN30
  9
$DIMASO
 70
     1
  9
$DIMSHO
 70
     1
  9
$DIMPOST
  1

  9
$DIMAPOST
  1
"
  9
$DIMALT
 70
     0
  9
$DIMALTD
 70
     2
  9
$DIMALTF
 40
0.0393701
  9
$DIMLFAC
 40
1.0
  9
$DIMTOFL
 70
     1
  9
$DIMTVP
 40
0.0
  9
$DIMTIX
 70
     0
  9
$DIMSOXD
 70
     0
  9
$DIMSAH
 70
     0
  9
$DIMBLK1
  1

  9
$DIMBLK2
  1

  9
$DIMSTYLE
  2
AM_JIS
  9
$DIMCLRD
 70
   256
  9
$DIMCLRE
 70
   256
  9
$DIMCLRT
 70
     2
  9
$DIMTFAC
 40
0.71
  9
$DIMGAP
 40
1.5
  9
$DIMJUST
 70
     0
  9
$DIMSD1
 70
     0
  9
$DIMSD2
 70
     0
  9
$DIMTOLJ
 70
     0
  9
$DIMTZIN
 70
     0
  9
$DIMALTZ
 70
     0
  9
$DIMALTTZ
 70
     0
  9
$DIMFIT
 70
     3
  9
$DIMUPT
 70
     0
  9
$DIMUNIT
 70
     2
  9
$DIMDEC
 70
     3
  9
$DIMTDEC
 70
     3
  9
$DIMALTU
 70
     2
  9
$DIMALTTD
 70
     2
  9
$DIMTXSTY
  7
ASAMI
  9
$DIMAUNIT
 70
     0
  9
$LUNITS
 70
     2
  9
$LUPREC
 70
     2
  9
$SKETCHINC
 40
1.0
  9
$FILLETRAD
 40
2.5
  9
$AUNITS
 70
     0
  9
$AUPREC
 70
     0
  9
$MENU
  1
.
  9
$ELEVATION
 40
0.0
  9
$PELEVATION
 40
0.0
  9
$THICKNESS
 40
0.0
  9
$LIMCHECK
 70
     0
  9
$BLIPMODE
 70
     0
  9
$CHAMFERA
 40
0.25
  9
$CHAMFERB
 40
0.25
  9
$CHAMFERC
 40
20.0
  9
$CHAMFERD
 40
0.0
  9
$SKPOLY
 70
     0
  9
$TDCREATE
 40
2452800.443498622
  9
$TDUPDATE
 40
2453151.694935243
  9
$TDINDWG
 40
0.0606407176
  9
$TDUSRTIMER
 40
0.0606407176
  9
$USRTIMER
 70
     1
  9
$ANGBASE
 50
0.0
  9
$ANGDIR
 70
     0
  9
$PDMODE
 70
     3
  9
$PDSIZE
 40
0.0
  9
$PLINEWID
 40
0.0
  9
$COORDS
 70
     1
  9
$SPLFRAME
 70
     0
  9
$SPLINETYPE
 70
     6
  9
$SPLINESEGS
 70
     8
  9
$ATTDIA
 70
     1
  9
$ATTREQ
 70
     1
  9
$HANDLING
 70
 12289
  9
$HANDSEED
  5
2552
  9
$SURFTAB1
 70
     6
  9
$SURFTAB2
 70
     6
  9
$SURFTYPE
 70
     6
  9
$SURFU
 70
     6
  9
$SURFV
 70
     6
  9
$UCSNAME
  2

  9
$UCSORG
 10
0.0
 20
0.0
 30
0.0
  9
$UCSXDIR
 10
1.0
 20
0.000000000000002
 30
0.0
  9
$UCSYDIR
 10
-0.000000000000002
 20
1.0
 30
0.0
  9
$PUCSNAME
  2

  9
$PUCSORG
 10
0.0
 20
0.0
 30
0.0
  9
$PUCSXDIR
 10
1.0
 20
0.0
 30
0.0
  9
$PUCSYDIR
 10
0.0
 20
1.0
 30
0.0
  9
$USERI1
 70
     0
  9
$USERI2
 70
     0
  9
$USERI3
 70
     0
  9
$USERI4
 70
     0
  9
$USERI5
 70
     0
  9
$USERR1
 40
0.0
  9
$USERR2
 40
0.0
  9
$USERR3
 40
0.0
  9
$USERR4
 40
0.0
  9
$USERR5
 40
0.0
  9
$WORLDVIEW
 70
     1
  9
$SHADEDGE
 70
     3
  9
$SHADEDIF
 70
    70
  9
$TILEMODE
 70
     1
  9
$MAXACTVP
 70
    64
  9
$PINSBASE
 10
0.0
 20
0.0
 30
0.0
  9
$PLIMCHECK
 70
     0
  9
$PEXTMIN
 10
1.000000000000000E+20
 20
1.000000000000000E+20
 30
1.000000000000000E+20
  9
$PEXTMAX
 10
-1.000000000000000E+20
 20
-1.000000000000000E+20
 30
-1.000000000000000E+20
  9
$PLIMMIN
 10
0.0
 20
0.0
  9
$PLIMMAX
 10
841.0
 20
594.0
  9
$UNITMODE
 70
     0
  9
$VISRETAIN
 70
     1
  9
$PLINEGEN
 70
     0
  9
$PSLTSCALE
 70
     0
  9
$TREEDEPTH
 70
  3020
  9
$PICKSTYLE
 70
     0
  9
$CMLSTYLE
  2
STANDARD
  9
$CMLJUST
 70
     0
  9
$CMLSCALE
 40
20.0
  9
$PROXYGRAPHICS
 70
     1
  9
$MEASUREMENT
 70
     1
  0
ENDSEC
  0
SECTION
  2
CLASSES
  0
CLASS
  1
ACDBDICTIONARYWDFLT
  2
AcDbDictionaryWithDefault
  3
AutoCAD 2000
 90
        0
280
     0
281
     0
  0
CLASS
  1
ACDBPLACEHOLDER
  2
AcDbPlaceHolder
  3
AutoCAD 2000
 90
        0
280
     0
281
     0
  0
CLASS
  1
LAYOUT
  2
AcDbLayout
  3
AutoCAD 2000
 90
        0
280
     0
281
     0
  0
CLASS
  1
AMGSETTINGSOBJ
  2
AmgSettingsObj
  3
"AcadM|Product Description: AutoCAD Mechanical 2000|Company: Autodesk"
 90
        0
280
     0
281
     0
  0
CLASS
  1
ACME_DOCUMENT
  2
AcMeDbDoc
  3
AcMeServices
 90
        0
280
     0
281
     0
  0
CLASS
  1
ACMESCOPE
  2
AcMeScope
  3
AcMeServices
 90
        0
280
     0
281
     0
  0
CLASS
  1
ACMECOMMANDHISTORY
  2
AcMeCommandHistory
  3
AcMeServices
 90
        0
280
     0
281
     0
  0
CLASS
  1
DICTIONARYVAR
  2
AcDbDictionaryVar
  3
AutoCAD 2000
 90
        0
280
     0
281
     0
  0
CLASS
  1
ACIMSYSVARMAN
  2
AcImSysVarManager
  3
AcMeServices
 90
        0
280
     0
281
     0
  0
CLASS
  1
ACIMREALSYSVAR
  2
AcImRealSysVar
  3
AcMeServices
 90
        0
280
     0
281
     0
  0
CLASS
  1
ACIMINTSYSVAR
  2
AcImIntSysVar
  3
AcMeServices
 90
        0
280
     0
281
     0
  0
CLASS
  1
ACMEDRAWINGMAN
  2
AcMeDrawingMan
  3
AcMeServices
 90
        0
280
     0
281
     0
  0
CLASS
  1
ACMEVIEW
  2
AcMeView
  3
AcMeServices
 90
        0
280
     0
281
     0
  0
CLASS
  1
ACDBENTITYCACHE
  2
AcMeEntityCache
  3
AcMeServices
 90
        0
280
     0
281
     0
  0
CLASS
  1
GSMANAGER
  2
AcMeGSManager
  3
AcMeServices
 90
        0
280
     0
281
     0
  0
CLASS
  1
AmdtInternalReactor
  2
AmdtInternalReactor
  3
AcMeServices
 90
        0
280
     0
281
     0
  0
CLASS
  1
ACMESTATEMGR
  2
AcMeStateMgr
  3
AcMeServices
 90
        0
280
     0
281
     0
  0
CLASS
  1
ACME_DATABASE
  2
AcMeDbDatabase
  3
AcMeServices
 90
        0
280
     0
281
     0
  0
CLASS
  1
ACRFINSADJUSTERMGR
  2
AcRfInsAdjusterMgr
  3
AcMeServices
 90
        0
280
     0
281
     0
  0
CLASS
  1
ACMDATADICTIONARY
  2
AcmDataDictionary
  3
"AcmSymBB|Product Description: AutoCAD Mechanical 2000|Company: Autodesk"
 90
        0
280
     0
281
     0
  0
CLASS
  1
ACMDATAENTRYBLOCK
  2
AcmDataEntryBlock
  3
"AcmSymBB|Product Description: AutoCAD Mechanical 2000|Company: Autodesk"
 90
        0
280
     0
281
     0
  0
CLASS
  1
AMGOBJPROPCFG
  2
AmgObjPropCfg
  3
"AmgLay|Product Description: AutoCAD Mechanical 2000|Company: Autodesk"
 90
        1
280
     0
281
     0
  0
CLASS
  1
ACAMGFILTERDAT
  2
AcAmgFilterDat
  3
"AcadM|Product Description: AutoCAD Mechanical 2000|Company: Autodesk"
 90
        0
280
     0
281
     0
  0
CLASS
  1
LAYER_INDEX
  2
AcDbLayerIndex
  3
AutoCAD 2000
 90
        0
280
     0
281
     0
  0
CLASS
  1
IDBUFFER
  2
AcDbIdBuffer
  3
AutoCAD 2000
 90
        0
280
     0
281
     0
  0
CLASS
  1
ACIMSTRSYSVAR
  2
AcImStrSysVar
  3
AcMeServices
 90
        0
280
     0
281
     0
  0
CLASS
  1
ACMSTANDARDJIS
  2
AcmStandardJIS
  3
"AcmSymBB|Product Description: AutoCAD Mechanical 2000|Company: Autodesk"
 90
        0
280
     0
281
     0
  0
CLASS
  1
ACMSURFSTANDARDJIS
  2
AcmSurfTextStdJIS
  3
"AcmSymBB|Product Description: AutoCAD Mechanical 2000|Company: Autodesk"
 90
        0
280
     0
281
     0
  0
CLASS
  1
ACMFCFSTANDARDJIS
  2
AcmFCFStdJIS
  3
"AcmSymBB|Product Description: AutoCAD Mechanical 2000|Company: Autodesk"
 90
        0
280
     0
281
     0
  0
CLASS
  1
ACMWELDSTANDARDJIS
  2
AcmWeldingStdJIS
  3
"AcmSymBB|Product Description: AutoCAD Mechanical 2000|Company: Autodesk"
 90
        0
280
     0
281
     0
  0
CLASS
  1
ACMIDSTANDARDJIS
  2
AcmIdStdJIS
  3
"AcmSymBB|Product Description: AutoCAD Mechanical 2000|Company: Autodesk"
 90
        0
280
     0
281
     0
  0
CLASS
  1
ACMDATUMSTANDARDJIS
  2
AcmDatumStdJIS
  3
"AcmSymBB|Product Description: AutoCAD Mechanical 2000|Company: Autodesk"
 90
        0
280
     0
281
     0
  0
CLASS
  1
ACMBOMSTANDARDJIS
  2
AcmBOMStdJIS
  3
"AcmSymBB|Product Description: AutoCAD Mechanical 2000|Company: Autodesk"
 90
        0
280
     0
281
     0
  0
CLASS
  1
ACMSTANDARDANSI
  2
AcmStandardANSI
  3
"AcmSymBB|Product Description: AutoCAD Mechanical 2000|Company: Autodesk"
 90
        0
280
     0
281
     0
  0
CLASS
  1
ACMSURFSTANDARDANSI
  2
AcmSurfTextStdANSI
  3
"AcmSymBB|Product Description: AutoCAD Mechanical 2000|Company: Autodesk"
 90
        0
280
     0
281
     0
  0
CLASS
  1
ACMFCFSTANDARDANSI
  2
AcmFCFStdANSI
  3
"AcmSymBB|Product Description: AutoCAD Mechanical 2000|Company: Autodesk"
 90
        0
280
     0
281
     0
  0
CLASS
  1
ACMWELDSTANDARDANSI
  2
AcmWeldingStdANSI
  3
"AcmSymBB|Product Description: AutoCAD Mechanical 2000|Company: Autodesk"
 90
        0
280
     0
281
     0
  0
CLASS
  1
ACMIDSTANDARDANSI
  2
AcmIdStdANSI
  3
"AcmSymBB|Product Description: AutoCAD Mechanical 2000|Company: Autodesk"
 90
        0
280
     0
281
     0
  0
CLASS
  1
ACMDATUMSTANDARDANSI
  2
AcmDatumStdANSI
  3
"AcmSymBB|Product Description: AutoCAD Mechanical 2000|Company: Autodesk"
 90
        0
280
     0
281
     0
  0
CLASS
  1
ACMBOMSTANDARDANSI
  2
AcmBOMStdANSI
  3
"AcmSymBB|Product Description: AutoCAD Mechanical 2000|Company: Autodesk"
 90
        0
280
     0
281
     0
  0
CLASS
  1
ACMSTANDARDBSI
  2
AcmStandardBSI
  3
"AcmSymBB|Product Description: AutoCAD Mechanical 2000|Company: Autodesk"
 90
        0
280
     0
281
     0
  0
CLASS
  1
ACMSURFSTANDARDBSI
  2
AcmSurfTextStdBSI
  3
"AcmSymBB|Product Description: AutoCAD Mechanical 2000|Company: Autodesk"
 90
        0
280
     0
281
     0
  0
CLASS
  1
ACMFCFSTANDARDBSI
  2
AcmFCFStdBSI
  3
"AcmSymBB|Product Description: AutoCAD Mechanical 2000|Company: Autodesk"
 90
        0
280
     0
281
     0
  0
CLASS
  1
ACMWELDSTANDARDBSI
  2
AcmWeldingStdBSI
  3
"AcmSymBB|Product Description: AutoCAD Mechanical 2000|Company: Autodesk"
 90
        0
280
     0
281
     0
  0
CLASS
  1
ACMIDSTANDARDBSI
  2
AcmIdStdBSI
  3
"AcmSymBB|Product Description: AutoCAD Mechanical 2000|Company: Autodesk"
 90
        0
280
     0
281
     0
  0
CLASS
  1
ACMDATUMSTANDARDBSI
  2
AcmDatumStdBSI
  3
"AcmSymBB|Product Description: AutoCAD Mechanical 2000|Company: Autodesk"
 90
        0
280
     0
281
     0
  0
CLASS
  1
ACMBOMSTANDARDBSI
  2
AcmBOMStdBSI
  3
"AcmSymBB|Product Description: AutoCAD Mechanical 2000|Company: Autodesk"
 90
        0
280
     0
281
     0
  0
CLASS
  1
LONG_TRANSACTION
  2
AcDbLongTransaction
  3
AutoCAD 2000
 90
        0
280
     0
281
     0
  0
CLASS
  1
LWPOLYLINE
  2
AcDbPolyline
  3
AutoCAD 2000
 90
        0
280
     0
281
     1
  0
CLASS
  1
HATCH
  2
AcDbHatch
  3
AutoCAD 2000
 90
        0
280
     0
281
     1
  0
CLASS
  1
XRECORD
  2
AcDbXrecord
  3
AutoCAD 2000
 90
        0
280
     0
281
     0
  0
ENDSEC
  0
SECTION
  2
TABLES
  0
TABLE
  2
VPORT
  5
8
330
0
100
AcDbSymbolTable
 70
     3
  0
VPORT
  5
2527
330
8
100
AcDbSymbolTableRecord
100
AcDbViewportTableRecord
  2
*ACTIVE
 70
     0
 10
0.0
 20
0.0
 11
1.0
 21
1.0
 12
-51.25537172565568
 22
-6.622192009815734
 13
0.0
 23
0.0
 14
2.5
 24
2.5
 15
10.0
 25
10.0
 16
0.0
 26
0.0
 36
1.0
 17
0.0
 27
0.0
 37
0.0
 40
90.03191387222523
 41
1.56570841889117
 42
50.0
 43
0.0
 44
0.0
 50
0.0
 51
0.0
 71
     0
 72
   100
 73
     1
 74
     1
 75
     0
 76
     0
 77
     0
 78
     0
  0
ENDTAB
  0
TABLE
  2
LTYPE
  5
5
330
0
100
AcDbSymbolTable
 70
    10
  0
LTYPE
  5
14
330
5
100
AcDbSymbolTableRecord
100
AcDbLinetypeTableRecord
  2
BYBLOCK
 70
     0
  3

 72
    65
 73
     0
 40
0.0
  0
LTYPE
  5
15
330
5
100
AcDbSymbolTableRecord
100
AcDbLinetypeTableRecord
  2
BYLAYER
 70
     0
  3

 72
    65
 73
     0
 40
0.0
  0
LTYPE
  5
16
330
5
100
AcDbSymbolTableRecord
100
AcDbLinetypeTableRecord
  2
CONTINUOUS
 70
     0
  3
Solid line
 72
    65
 73
     0
 40
0.0
  0
LTYPE
  5
4B
330
5
100
AcDbSymbolTableRecord
100
AcDbLinetypeTableRecord
  2
AM_ISO02W050
 70
     0
  3
__ __ __ __ __ __ __ __ __ __ __ __ __ __ __
 72
    65
 73
     2
 40
7.5
 49
6.0
 74
     0
 49
-1.5
 74
     0
  0
LTYPE
  5
4C
330
5
100
AcDbSymbolTableRecord
100
AcDbLinetypeTableRecord
  2
AM_ISO08W050
 70
     0
  3
____ . ____ . ____ . ____ . ____ . ____ . ____
 72
    65
 73
     4
 40
18.0
 49
12.0
 74
     0
 49
-1.5
 74
     0
 49
3.0
 74
     0
 49
-1.5
 74
     0
  0
LTYPE
  5
4D
330
5
100
AcDbSymbolTableRecord
100
AcDbLinetypeTableRecord
  2
AM_ISO09W050
 70
     0
  3
_____ . . _____ . . _____ . . ____ .. ____
 72
    65
 73
     6
 40
22.5
 49
12.0
 74
     0
 49
-1.5
 74
     0
 49
3.0
 74
     0
 49
-1.5
 74
     0
 49
3.0
 74
     0
 49
-1.5
 74
     0
  0
LTYPE
  5
4E
330
5
100
AcDbSymbolTableRecord
100
AcDbLinetypeTableRecord
  2
AMCONSTR
 70
     0
  3
_______________________
 72
    65
 73
     2
 40
9999.0
 49
9999.0
 74
     0
 49
0.0
 74
     0
  0
LTYPE
  5
4F
330
5
100
AcDbSymbolTableRecord
100
AcDbLinetypeTableRecord
  2
AM_ISO02W050X2
 70
     0
  3
 _ _ _ _ _ _ _ _ _ _ _ _
 72
    65
 73
     2
 40
3.75
 49
3.0
 74
     0
 49
-0.75
 74
     0
  0
LTYPE
  5
50
330
5
100
AcDbSymbolTableRecord
100
AcDbLinetypeTableRecord
  2
AM_ISO08W050X2
 70
     0
  3
__ . __ . __ . __ . __ . __
 72
    65
 73
     4
 40
9.0
 49
6.0
 74
     0
 49
-0.75
 74
     0
 49
1.5
 74
     0
 49
-0.75
 74
     0
  0
LTYPE
  5
53
330
5
100
AcDbSymbolTableRecord
100
AcDbLinetypeTableRecord
  2
AMZIGZAG
 70
     0
  3
/\/-/\/-/\/-/\/-/\/-/\/
 72
    65
 73
     2
 40
11.00009999999999
 49
0.0001
 74
     4
 75
   135
340
52
 46
0.04
 50
0.0
 44
0.0
 45
0.0
 49
-11.0
 74
     0
  0
LTYPE
  5
166
330
5
100
AcDbSymbolTableRecord
100
AcDbLinetypeTableRecord
  2
ACJISTGL
 70
     0
  3
_ _ _ _ _
 72
    65
 73
     2
 40
3.0
 49
2.0
 74
     0
 49
-1.0
 74
     0
  0
LTYPE
  5
26A
330
5
100
AcDbSymbolTableRecord
100
AcDbLinetypeTableRecord
  2
ACJISTGB
 70
     0
  3
__ . . __ . .
 72
    65
 73
     6
 40
9.0
 49
4.0
 74
     0
 49
-1.0
 74
     0
 49
1.0
 74
     0
 49
-1.0
 74
     0
 49
1.0
 74
     0
 49
-1.0
 74
     0
  0
ENDTAB
  0
TABLE
  2
LAYER
  5
2
330
0
100
AcDbSymbolTable
 70
     8
  0
LAYER
  5
10
330
2
100
AcDbSymbolTableRecord
100
AcDbLayerTableRecord
  2
0
 70
     0
 62
     7
  6
CONTINUOUS
  0
LAYER
  5
3F9
330
2
100
AcDbSymbolTableRecord
100
AcDbLayerTableRecord
  2
AM_0
 70
     0
 62
     7
  6
CONTINUOUS
  0
LAYER
  5
C7C
330
2
100
AcDbSymbolTableRecord
100
AcDbLayerTableRecord
  2
AM_7
 70
     0
 62
     4
  6
AM_ISO08W050
  0
LAYER
  5
C97
330
2
100
AcDbSymbolTableRecord
100
AcDbLayerTableRecord
  2
AM_11
 70
     0
 62
     3
  6
AM_ISO09W050
  0
LAYER
  5
CC5
330
2
100
AcDbSymbolTableRecord
100
AcDbLayerTableRecord
  2
AM_5
 70
     0
 62
     3
  6
CONTINUOUS
  0
LAYER
  5
CC7
330
2
100
AcDbSymbolTableRecord
100
AcDbLayerTableRecord
  2
DEFPOINTS
 70
     0
 62
     7
  6
CONTINUOUS
  0
LAYER
  5
19BC
330
2
100
AcDbSymbolTableRecord
100
AcDbLayerTableRecord
  2
AM_6
 70
     0
 62
     2
  6
CONTINUOUS
  0
LAYER
  5
23CC
330
2
100
AcDbSymbolTableRecord
100
AcDbLayerTableRecord
  2
AM_CL
 70
     0
 62
     1
  6
AMCONSTR
  0
ENDTAB
  0
TABLE
  2
STYLE
  5
3
330
0
100
AcDbSymbolTable
 70
     5
  0
STYLE
  5
11
330
3
100
AcDbSymbolTableRecord
100
AcDbTextStyleTableRecord
  2
STANDARD
 70
     0
 40
0.0
 41
1.0
 50
0.0
 71
     0
 42
2.5
  3
simplex.shx
  4
EXTFONT.SHX
  0
STYLE
  5
52
330
3
100
AcDbSymbolTableRecord
100
AcDbTextStyleTableRecord
  2

 70
     1
 40
0.0
 41
1.0
 50
0.0
 71
     0
 42
2.5
  3
ltypeshp.shx
  4

  0
STYLE
  5
6B
330
3
100
AcDbSymbolTableRecord
100
AcDbTextStyleTableRecord
  2
ASAMI
 70
     0
 40
0.0
 41
1.0
 50
0.0
 71
     0
 42
2.5
  3
simplex.shx
  4
EXTFONT.SHX
  0
STYLE
  5
262
330
3
100
AcDbSymbolTableRecord
100
AcDbTextStyleTableRecord
  2
ACJISTS
 70
     0
 40
1.0
 41
1.0
 50
0.0
 71
     0
 42
2.5
  3
simplex.shx
  4
bigfont.shx
  0
STYLE
  5
269
330
3
100
AcDbSymbolTableRecord
100
AcDbTextStyleTableRecord
  2
ACJISGDT
 70
     0
 40
0.0
 41
1.0
 50
0.0
 71
     0
 42
2.5
  3
amgdtans.shx
  4

  0
ENDTAB
  0
TABLE
  2
VIEW
  5
6
330
0
100
AcDbSymbolTable
 70
     0
  0
ENDTAB
  0
TABLE
  2
UCS
  5
7
330
0
100
AcDbSymbolTable
 70
     0
  0
ENDTAB
  0
TABLE
  2
APPID
  5
9
330
0
100
AcDbSymbolTable
 70
    16
  0
APPID
  5
12
330
9
100
AcDbSymbolTableRecord
100
AcDbRegAppTableRecord
  2
ACAD
 70
     0
  0
APPID
  5
30
330
9
100
AcDbSymbolTableRecord
100
AcDbRegAppTableRecord
  2
MCAD_NO_VIS
 70
     0
  0
APPID
  5
31
330
9
100
AcDbSymbolTableRecord
100
AcDbRegAppTableRecord
  2
ACAD_TEMP_GRAPHIC
 70
     0
  0
APPID
  5
2C2
330
9
100
AcDbSymbolTableRecord
100
AcDbRegAppTableRecord
  2
GENIUS_GENDTOL_13
 70
     0
  0
APPID
  5
339
330
9
100
AcDbSymbolTableRecord
100
AcDbRegAppTableRecord
  2
GENIUS_GENODEF_13
 70
     0
  0
APPID
  5
33A
330
9
100
AcDbSymbolTableRecord
100
AcDbRegAppTableRecord
  2
GENIUS_GENOBJ-N-RSBK_13
 70
     0
  0
APPID
  5
33B
330
9
100
AcDbSymbolTableRecord
100
AcDbRegAppTableRecord
  2
GENIUS_GENOBJ-N-LIB_13
 70
     0
  0
APPID
  5
33C
330
9
100
AcDbSymbolTableRecord
100
AcDbRegAppTableRecord
  2
GENIUS_GENSCALE_13
 70
     0
  0
APPID
  5
378
330
9
100
AcDbSymbolTableRecord
100
AcDbRegAppTableRecord
  2
GENIUS_GENDIMSH_14
 70
     0
  0
APPID
  5
C82
330
9
100
AcDbSymbolTableRecord
100
AcDbRegAppTableRecord
  2
GENIUS_GENOBJ-N-CRS_13
 70
     0
  0
APPID
  5
C83
330
9
100
AcDbSymbolTableRecord
100
AcDbRegAppTableRecord
  2
GENIUS_GENOENT_13
 70
     0
  0
APPID
  5
C84
330
9
100
AcDbSymbolTableRecord
100
AcDbRegAppTableRecord
  2
GENIUS_GENOREF_13
 70
     0
  0
APPID
  5
C85
330
9
100
AcDbSymbolTableRecord
100
AcDbRegAppTableRecord
  2
GENIUS_GENOLIS_13
 70
     0
  0
APPID
  5
CA0
330
9
100
AcDbSymbolTableRecord
100
AcDbRegAppTableRecord
  2
GENIUS_GENOBJ-N-CEN_13
 70
     0
  0
APPID
  5
1CFA
330
9
100
AcDbSymbolTableRecord
100
AcDbRegAppTableRecord
  2
GENIUS_GENFIL_13
 70
     0
  0
APPID
  5
1CFB
330
9
100
AcDbSymbolTableRecord
100
AcDbRegAppTableRecord
  2
GENIUS_GENOBJ-N-CHA_13
 70
     0
  0
ENDTAB
  0
TABLE
  2
DIMSTYLE
  5
A
330
0
100
AcDbSymbolTable
 70
     9
  0
DIMSTYLE
105
58
330
A
100
AcDbSymbolTableRecord
100
AcDbDimStyleTableRecord
  2
AM_JIS
 70
     0
  3

  4
"
  5
OPEN30
  6

  7

 40
0.5
 41
2.5
 42
1.0
 43
12.0
 44
1.0
 45
0.0
 46
0.0
 47
0.1
 48
0.1
140
3.2
141
0.0
142
0.0
143
0.0393701
144
1.0
145
0.0
146
0.71
147
1.5
 71
     0
 72
     0
 73
     0
 74
     0
 75
     0
 76
     0
 77
     3
 78
     8
170
     0
171
     2
172
     1
173
     0
174
     0
175
     0
176
   256
177
   256
178
     2
270
     2
271
     3
272
     3
273
     2
274
     2
340
6B
275
     0
280
     0
281
     0
282
     0
283
     0
284
     0
285
     0
286
     0
287
     3
288
     0
  0
DIMSTYLE
105
5F
330
A
100
AcDbSymbolTableRecord
100
AcDbDimStyleTableRecord
  2
AM_JIS$3
 70
     0
  3

  4
"
  5
OPEN30
  6

  7

 40
0.5
 41
2.5
 42
1.0
 43
10.0
 44
1.0
 45
0.0
 46
0.0
 47
0.1
 48
0.1
140
3.2
141
0.0
142
0.0
143
0.0393701
144
1.0
145
0.0
146
0.71
147
1.5
 71
     0
 72
     0
 73
     0
 74
     1
 75
     0
 76
     0
 77
     3
 78
     8
170
     0
171
     2
172
     0
173
     0
174
     0
175
     0
176
   256
177
   256
178
     2
270
     2
271
     2
272
     3
273
     2
274
     2
340
6B
275
     0
280
     0
281
     0
282
     0
283
     0
284
     0
285
     0
286
     0
287
     0
288
     1
  0
DIMSTYLE
105
60
330
A
100
AcDbSymbolTableRecord
100
AcDbDimStyleTableRecord
  2
AM_JIS$4
 70
     0
  3

  4
"
  5
OPEN30
  6

  7

 40
0.5
 41
2.5
 42
1.0
 43
10.0
 44
1.0
 45
0.0
 46
0.0
 47
0.1
 48
0.1
140
3.2
141
0.0
142
0.0
143
0.0393701
144
1.0
145
0.0
146
0.71
147
1.5
 71
     0
 72
     0
 73
     0
 74
     1
 75
     0
 76
     0
 77
     3
 78
     8
170
     0
171
     2
172
     0
173
     0
174
     0
175
     0
176
   256
177
   256
178
     2
270
     2
271
     2
272
     3
273
     2
274
     2
340
6B
275
     0
280
     0
281
     0
282
     0
283
     0
284
     0
285
     0
286
     0
287
     0
288
     1
  0
DIMSTYLE
105
61
330
A
100
AcDbSymbolTableRecord
100
AcDbDimStyleTableRecord
  2
AM_JIS$6
 70
     0
  3

  4
"
  5
OPEN30
  6

  7

 40
0.5
 41
2.5
 42
1.0
 43
10.0
 44
1.0
 45
0.0
 46
0.0
 47
0.1
 48
0.1
140
3.2
141
0.0
142
0.0
143
0.0393701
144
1.0
145
0.0
146
0.71
147
1.5
 71
     0
 72
     0
 73
     0
 74
     0
 75
     0
 76
     0
 77
     0
 78
     8
170
     0
171
     2
172
     1
173
     0
174
     0
175
     0
176
   256
177
   256
178
     2
270
     2
271
     2
272
     2
273
     2
274
     2
340
6B
275
     0
280
     0
281
     0
282
     0
283
     0
284
     0
285
     0
286
     0
287
     3
288
     0
  0
DIMSTYLE
105
62
330
A
100
AcDbSymbolTableRecord
100
AcDbDimStyleTableRecord
  2
AM_JIS$7
 70
     0
  3

  4
"
  5
OPEN30
  6

  7

 40
0.5
 41
2.5
 42
1.0
 43
10.0
 44
1.0
 45
0.0
 46
0.0
 47
0.1
 48
0.1
140
3.2
141
0.0
142
0.0
143
0.0393701
144
1.0
145
0.0
146
0.71
147
1.5
 71
     0
 72
     0
 73
     0
 74
     0
 75
     0
 76
     0
 77
     3
 78
     8
170
     0
171
     2
172
     1
173
     0
174
     0
175
     0
176
   256
177
   256
178
     2
270
     2
271
     2
272
     3
273
     2
274
     2
340
6B
275
     0
280
     0
281
     0
282
     0
283
     0
284
     0
285
     0
286
     0
287
     3
288
     0
  0
DIMSTYLE
105
63
330
A
100
AcDbSymbolTableRecord
100
AcDbDimStyleTableRecord
  2
AM_JIS$SF
 70
     0
  3

  4
"
  5
OPEN30
  6

  7

 40
0.5
 41
2.5
 42
1.0
 43
10.0
 44
1.0
 45
0.0
 46
0.0
 47
0.1
 48
0.1
140
3.2
141
0.0
142
0.0
143
0.0393701
144
1.0
145
0.0
146
0.71
147
1.5
 71
     0
 72
     0
 73
     0
 74
     0
 75
     1
 76
     1
 77
     3
 78
     8
170
     0
171
     2
172
     1
173
     0
174
     0
175
     0
176
   256
177
   256
178
     2
270
     2
271
     2
272
     2
273
     2
274
     2
340
6B
275
     0
280
     0
281
     0
282
     0
283
     0
284
     0
285
     0
286
     0
287
     3
288
     0
  0
DIMSTYLE
105
68
330
A
100
AcDbSymbolTableRecord
100
AcDbDimStyleTableRecord
  2
AM_JIS$SH
 70
     0
  3

  4
"
  5

  6
GENAXEH
  7
OPEN30
 40
0.5
 41
2.5
 42
1.0
 43
10.0
 44
1.0
 45
0.0
 46
0.0
 47
0.1
 48
0.1
140
3.2
141
0.0
142
0.0
143
0.0393701
144
2.0
145
0.0
146
0.71
147
1.5
 71
     0
 72
     0
 73
     0
 74
     0
 75
     1
 76
     1
 77
     3
 78
     8
170
     0
171
     2
172
     1
173
     1
174
     0
175
     0
176
   256
177
   256
178
     2
270
     2
271
     2
272
     2
273
     2
274
     2
340
6B
275
     0
280
     0
281
     0
282
     0
283
     0
284
     0
285
     0
286
     0
287
     3
288
     0
  0
DIMSTYLE
105
B34
102
{ACAD_REACTORS
330
23F8
102
}
330
A
100
AcDbSymbolTableRecord
100
AcDbDimStyleTableRecord
  2
AM_JIS$2
 70
     0
  3

  4
"
  5
OPEN30
  6

  7

 40
0.5
 41
2.5
 42
1.0
 43
12.0
 44
1.0
 45
0.0
 46
0.0
 47
0.1
 48
0.1
140
3.2
141
0.0
142
0.0
143
0.0393701
144
1.0
145
0.0
146
0.71
147
1.5
 71
     0
 72
     0
 73
     0
 74
     0
 75
     0
 76
     0
 77
     3
 78
     8
170
     0
171
     2
172
     1
173
     0
174
     0
175
     0
176
   256
177
   256
178
     2
270
     2
271
     3
272
     3
273
     2
274
     2
340
6B
275
     0
280
     0
281
     0
282
     0
283
     0
284
     0
285
     0
286
     0
287
     3
288
     0
  0
DIMSTYLE
105
BA5
102
{ACAD_REACTORS
330
CC6
330
DF5
330
1F93
330
2278
102
}
330
A
100
AcDbSymbolTableRecord
100
AcDbDimStyleTableRecord
  2
AM_JIS$0
 70
     0
  3

  4
"
  5
OPEN30
  6

  7

 40
0.5
 41
2.5
 42
0.0
 43
10.0
 44
1.0
 45
0.0
 46
0.0
 47
0.1
 48
0.1000000001
140
3.799999999999999
141
0.0
142
0.0
143
0.0393701
144
1.0
145
0.0
146
0.71
147
1.5
 71
     0
 72
     0
 73
     0
 74
     0
 75
     0
 76
     0
 77
     3
 78
     1
170
     0
171
     2
172
     1
173
     0
174
     0
175
     0
176
     3
177
     3
178
     2
270
     2
271
     2
272
     2
273
     2
274
     2
340
11
275
     1
280
     0
281
     0
282
     0
283
     0
284
     8
285
     0
286
     0
287
     0
288
     0
  0
ENDTAB
  0
TABLE
  2
BLOCK_RECORD
  5
1
330
0
100
AcDbSymbolTable
 70
    11
  0
BLOCK_RECORD
  5
1F
102
{ACAD_XDICTIONARY
360
74
102
}
330
1
100
AcDbSymbolTableRecord
100
AcDbBlockTableRecord
  2
*MODEL_SPACE
  0
BLOCK_RECORD
  5
101
102
{ACAD_XDICTIONARY
360
2550
102
}
330
1
100
AcDbSymbolTableRecord
100
AcDbBlockTableRecord
  2
*PAPER_SPACE
  0
BLOCK_RECORD
  5
59
330
1
100
AcDbSymbolTableRecord
100
AcDbBlockTableRecord
  2
_OPEN30
  0
BLOCK_RECORD
  5
64
330
1
100
AcDbSymbolTableRecord
100
AcDbBlockTableRecord
  2
GENAXEH
  0
BLOCK_RECORD
  5
CC8
330
1
100
AcDbSymbolTableRecord
100
AcDbBlockTableRecord
  2
*D5
  0
BLOCK_RECORD
  5
DF6
330
1
100
AcDbSymbolTableRecord
100
AcDbBlockTableRecord
  2
*D6
  0
BLOCK_RECORD
  5
1F94
330
1
100
AcDbSymbolTableRecord
100
AcDbBlockTableRecord
  2
*D8
  0
BLOCK_RECORD
  5
2279
330
1
100
AcDbSymbolTableRecord
100
AcDbBlockTableRecord
  2
*D9
  0
BLOCK_RECORD
  5
23F9
330
1
100
AcDbSymbolTableRecord
100
AcDbBlockTableRecord
  2
*D10
  0
ENDTAB
  0
ENDSEC
  0
SECTION
  2
BLOCKS
  0
BLOCK
  5
20
330
1F
100
AcDbEntity
  8
0
100
AcDbBlockBegin
  2
*MODEL_SPACE
 70
     0
 10
0.0
 20
0.0
 30
0.0
  3
*MODEL_SPACE
  1

  0
ENDBLK
  5
21
330
1F
100
AcDbEntity
  8
0
100
AcDbBlockEnd
  0
BLOCK
  5
103
330
101
100
AcDbEntity
 67
     1
  8
0
100
AcDbBlockBegin
  2
*PAPER_SPACE
 70
     0
 10
0.0
 20
0.0
 30
0.0
  3
*PAPER_SPACE
  1

  0
ENDBLK
  5
104
330
101
100
AcDbEntity
 67
     1
  8
0
100
AcDbBlockEnd
  0
BLOCK
  5
5D
330
59
100
AcDbEntity
  8
0
100
AcDbBlockBegin
  2
_OPEN30
 70
     0
 10
0.0
 20
0.0
 30
0.0
  3
_OPEN30
  1

  0
LINE
  5
5A
330
59
100
AcDbEntity
  8
0
 62
     0
100
AcDbLine
 10
-1.0
 20
0.26794919
 30
0.0
 11
0.0
 21
0.0
 31
0.0
  0
LINE
  5
5B
330
59
100
AcDbEntity
  8
0
 62
     0
100
AcDbLine
 10
0.0
 20
0.0
 30
0.0
 11
-1.0
 21
-0.26794919
 31
0.0
  0
LINE
  5
5C
330
59
100
AcDbEntity
  8
0
 62
     0
100
AcDbLine
 10
0.0
 20
0.0
 30
0.0
 11
-1.0
 21
0.0
 31
0.0
  0
ENDBLK
  5
5E
330
59
100
AcDbEntity
  8
0
100
AcDbBlockEnd
  0
BLOCK
  5
66
330
64
100
AcDbEntity
  8
0
100
AcDbBlockBegin
  2
GENAXEH
 70
     0
 10
0.0
 20
0.0
 30
0.0
  3
GENAXEH
  1

  0
LINE
  5
65
330
64
100
AcDbEntity
  8
0
100
AcDbLine
 10
-1.0
 20
0.0
 30
0.0
 11
1.0
 21
0.0
 31
0.0
  0
ENDBLK
  5
67
330
64
100
AcDbEntity
  8
0
100
AcDbBlockEnd
  0
BLOCK
  5
CD2
330
CC8
100
AcDbEntity
  8
0
100
AcDbBlockBegin
  2
*D5
 70
     1
 10
0.0
 20
0.0
 30
0.0
  3
*D5
  1

  0
LINE
  5
24E6
330
CC8
100
AcDbEntity
  8
AM_5
 62
     3
100
AcDbLine
 10
-110.0
 20
-3.293795733920806
 30
0.0
 11
-110.0
 21
-16.00001206798982
 31
0.0
  0
LINE
  5
24E7
330
CC8
100
AcDbEntity
  8
AM_5
 62
     3
100
AcDbLine
 10
-0.9999821980836131
 20
-3.50001206798982
 30
0.0
 11
-0.999982198083614
 21
-16.00001206798982
 31
0.0
  0
LINE
  5
24E8
330
CC8
100
AcDbEntity
  8
AM_5
 62
     3
100
AcDbLine
 10
-108.75
 20
-15.50001206798982
 30
0.0
 11
-2.249982198083614
 21
-15.50001206798982
 31
0.0
  0
INSERT
  5
24E9
330
CC8
100
AcDbEntity
  8
AM_5
 62
     3
100
AcDbBlockReference
  2
_OPEN30
 10
-110.0
 20
-15.50001206798982
 30
0.0
 41
1.25
 42
1.25
 43
1.25
 50
180.0
  0
INSERT
  5
24EA
330
CC8
100
AcDbEntity
  8
AM_5
 62
     3
100
AcDbBlockReference
  2
_OPEN30
 10
-0.999982198083614
 20
-15.50001206798982
 30
0.0
 41
1.25
 42
1.25
 43
1.25
  0
MTEXT
  5
24EB
330
CC8
100
AcDbEntity
  8
AM_5
 62
     2
100
AcDbMText
 10
-55.49999109904181
 20
-13.80001206798981
 30
0.0
 40
1.9
 41
0.0
 71
     5
 72
     1
  1
109
1001
ACAD
1000
MTEXTBEGIN
1070
    73
1070
     1
1070
    44
1040
1.0
1070
    74
1070
     0
1000
MTEXTEND
  0
POINT
  5
24EC
330
CC8
100
AcDbEntity
  8
DEFPOINTS
 62
     0
100
AcDbPoint
 10
-110.0
 20
-3.293795733920806
 30
0.0
  0
POINT
  5
24ED
330
CC8
100
AcDbEntity
  8
DEFPOINTS
 62
     0
100
AcDbPoint
 10
-0.9999821980836131
 20
-3.50001206798982
 30
0.0
  0
POINT
  5
24EE
330
CC8
100
AcDbEntity
  8
DEFPOINTS
 62
     0
100
AcDbPoint
 10
-0.999982198083614
 20
-15.50001206798982
 30
0.0
  0
ENDBLK
  5
CD3
330
CC8
100
AcDbEntity
  8
0
100
AcDbBlockEnd
  0
BLOCK
  5
E00
330
DF6
100
AcDbEntity
  8
0
100
AcDbBlockBegin
  2
*D6
 70
     1
 10
0.0
 20
0.0
 30
0.0
  3
*D6
  1

  0
LINE
  5
24DD
330
DF6
100
AcDbEntity
  8
AM_5
 62
     3
100
AcDbLine
 10
-56.99997329712335
 20
-3.500000000000102
 30
0.0
 11
-56.99997329712335
 21
-11.00001206798978
 31
0.0
  0
LINE
  5
24DE
330
DF6
100
AcDbEntity
  8
AM_5
 62
     3
100
AcDbLine
 10
-0.9999821980836131
 20
-3.50001206798982
 30
0.0
 11
-0.9999821980836136
 21
-11.00001206798978
 31
0.0
  0
LINE
  5
24DF
330
DF6
100
AcDbEntity
  8
AM_5
 62
     3
100
AcDbLine
 10
-55.74997329712335
 20
-10.50001206798978
 30
0.0
 11
-2.249982198083613
 21
-10.50001206798978
 31
0.0
  0
INSERT
  5
24E0
330
DF6
100
AcDbEntity
  8
AM_5
 62
     3
100
AcDbBlockReference
  2
_OPEN30
 10
-56.99997329712335
 20
-10.50001206798978
 30
0.0
 41
1.25
 42
1.25
 43
1.25
 50
180.0
  0
INSERT
  5
24E1
330
DF6
100
AcDbEntity
  8
AM_5
 62
     3
100
AcDbBlockReference
  2
_OPEN30
 10
-0.9999821980836136
 20
-10.50001206798978
 30
0.0
 41
1.25
 42
1.25
 43
1.25
  0
MTEXT
  5
24E2
330
DF6
100
AcDbEntity
  8
AM_5
 62
     2
100
AcDbMText
 10
-28.99997774760348
 20
-8.800012067989783
 30
0.0
 40
1.9
 41
0.0
 71
     5
 72
     1
  1
56
1001
ACAD
1000
MTEXTBEGIN
1070
    73
1070
     1
1070
    44
1040
1.0
1070
    74
1070
     0
1000
MTEXTEND
  0
POINT
  5
24E3
330
DF6
100
AcDbEntity
  8
DEFPOINTS
 62
     0
100
AcDbPoint
 10
-56.99997329712335
 20
-3.500000000000102
 30
0.0
  0
POINT
  5
24E4
330
DF6
100
AcDbEntity
  8
DEFPOINTS
 62
     0
100
AcDbPoint
 10
-0.9999821980836131
 20
-3.50001206798982
 30
0.0
  0
POINT
  5
24E5
330
DF6
100
AcDbEntity
  8
DEFPOINTS
 62
     0
100
AcDbPoint
 10
-0.9999821980836136
 20
-10.50001206798978
 30
0.0
  0
ENDBLK
  5
E01
330
DF6
100
AcDbEntity
  8
0
100
AcDbBlockEnd
  0
BLOCK
  5
1FA0
330
1F94
100
AcDbEntity
  8
0
100
AcDbBlockBegin
  2
*D8
 70
     1
 10
0.0
 20
0.0
 30
0.0
  3
*D8
  1

  0
LINE
  5
24EF
330
1F94
100
AcDbEntity
  8
AM_5
 62
     3
100
AcDbLine
 10
-109.7499999999999
 20
-3.500000000000495
 30
0.0
 11
-119.250001
 21
-3.500000000000513
 31
0.0
  0
LINE
  5
24F0
330
1F94
100
AcDbEntity
  8
AM_5
 62
     3
100
AcDbLine
 10
-109.75
 20
3.499999999999504
 30
0.0
 11
-119.250001
 21
3.499999999999486
 31
0.0
  0
LINE
  5
24F1
330
1F94
100
AcDbEntity
  8
AM_5
 62
     3
100
AcDbLine
 10
-118.750001
 20
-2.250000000000512
 30
0.0
 11
-118.750001
 21
2.249999999999487
 31
0.0
  0
INSERT
  5
24F2
330
1F94
100
AcDbEntity
  8
AM_5
 62
     3
100
AcDbBlockReference
  2
_OPEN30
 10
-118.750001
 20
-3.500000000000512
 30
0.0
 41
1.25
 42
1.25
 43
1.25
 50
270.0000000000001
  0
INSERT
  5
24F3
330
1F94
100
AcDbEntity
  8
AM_5
 62
     3
100
AcDbBlockReference
  2
_OPEN30
 10
-118.750001
 20
3.499999999999487
 30
0.0
 41
1.25
 42
1.25
 43
1.25
 50
90.0000000000001
  0
MTEXT
  5
24F4
330
1F94
100
AcDbEntity
  8
AM_5
 62
     2
100
AcDbMText
 10
-120.450001
 20
-0.0000000000004926
 30
0.0
 40
1.9
 41
0.0
 71
     5
 72
     1
  1
%%c7
 11
-0.000000000000002
 21
1.0
 31
0.0
1001
ACAD
1000
MTEXTBEGIN
1070
    73
1070
     1
1070
    44
1040
1.0
1070
    74
1070
     0
1000
MTEXTEND
  0
POINT
  5
24F5
330
1F94
100
AcDbEntity
  8
DEFPOINTS
 62
     0
100
AcDbPoint
 10
-109.7499999999999
 20
-3.500000000000251
 30
0.0
  0
POINT
  5
24F6
330
1F94
100
AcDbEntity
  8
DEFPOINTS
 62
     0
100
AcDbPoint
 10
-109.75
 20
3.499999999999748
 30
0.0
  0
POINT
  5
24F7
330
1F94
100
AcDbEntity
  8
DEFPOINTS
 62
     0
100
AcDbPoint
 10
-118.750001
 20
3.49999999999975
 30
0.0
  0
ENDBLK
  5
1FA1
330
1F94
100
AcDbEntity
  8
0
100
AcDbBlockEnd
  0
BLOCK
  5
2285
330
2279
100
AcDbEntity
  8
0
100
AcDbBlockBegin
  2
*D9
 70
     1
 10
0.0
 20
0.0
 30
0.0
  3
*D9
  1

  0
LINE
  5
2503
330
2279
100
AcDbEntity
  8
AM_5
 62
     3
100
AcDbLine
 10
-0.9999821980836326
 20
-3.150011691672853
 30
0.0
 11
9.586422120790512
 21
-3.150011691672856
 31
0.0
  0
LINE
  5
2504
330
2279
100
AcDbEntity
  8
AM_5
 62
     3
100
AcDbLine
 10
-0.999982198083596
 20
3.149988308327147
 30
0.0
 11
9.586422120790512
 21
3.149988308327144
 31
0.0
  0
LINE
  5
2505
330
2279
100
AcDbEntity
  8
AM_5
 62
     3
100
AcDbLine
 10
9.086422120790512
 20
-1.900011691672856
 30
0.0
 11
9.086422120790512
 21
1.899988308327144
 31
0.0
  0
INSERT
  5
2506
330
2279
100
AcDbEntity
  8
AM_5
 62
     3
100
AcDbBlockReference
  2
_OPEN30
 10
9.086422120790512
 20
-3.150011691672856
 30
0.0
 41
1.25
 42
1.25
 43
1.25
 50
270.0
  0
INSERT
  5
2507
330
2279
100
AcDbEntity
  8
AM_5
 62
     3
100
AcDbBlockReference
  2
_OPEN30
 10
9.086422120790512
 20
3.149988308327144
 30
0.0
 41
1.25
 42
1.25
 43
1.25
 50
90.0
  0
MTEXT
  5
2508
330
2279
100
AcDbEntity
  8
AM_5
 62
     2
100
AcDbMText
 10
7.386422120790512
 20
-0.000011691672854
 30
0.0
 40
1.9
 41
0.0
 71
     5
 72
     1
  1
%%c6.3
 11
0.0000000000000001
 21
1.0
 31
0.0
1001
ACAD
1000
MTEXTBEGIN
1070
    73
1070
     1
1070
    44
1040
1.0
1070
    74
1070
     0
1000
MTEXTEND
  0
POINT
  5
2509
330
2279
100
AcDbEntity
  8
DEFPOINTS
 62
     0
100
AcDbPoint
 10
-0.9999821980836326
 20
-3.150011691672853
 30
0.0
  0
POINT
  5
250A
330
2279
100
AcDbEntity
  8
DEFPOINTS
 62
     0
100
AcDbPoint
 10
-0.999982198083596
 20
3.149988308327147
 30
0.0
  0
POINT
  5
250B
330
2279
100
AcDbEntity
  8
DEFPOINTS
 62
     0
100
AcDbPoint
 10
9.086422120790512
 20
3.149988308327144
 30
0.0
  0
ENDBLK
  5
2286
330
2279
100
AcDbEntity
  8
0
100
AcDbBlockEnd
  0
BLOCK
  5
2409
330
23F9
100
AcDbEntity
  8
0
100
AcDbBlockBegin
  2
*D10
 70
     1
 10
0.0
 20
0.0
 30
0.0
  3
*D10
  1

  0
LINE
  5
24F8
330
23F9
100
AcDbEntity
  8
AM_5
100
AcDbLine
 10
0.1710100716628932
 20
-0.4698463103927725
 30
0.0
 11
4.913909840453077
 21
-13.50085632788108
 31
0.0
  0
LINE
  5
24F9
330
23F9
100
AcDbEntity
  8
AM_5
100
AcDbLine
 10
0.1710100716628881
 20
0.469846310393144
 30
0.0
 11
4.913909840452932
 21
13.5008563278815
 31
0.0
  0
ARC
  5
24FA
330
23F9
100
AcDbEntity
  8
AM_5
100
AcDbCircle
 10
0.0000000000000673
 20
0.0000000000001849
 30
0.0
 40
13.86731121352192
100
AcDbArc
 50
295.1663940050856
 51
64.83360599491494
  0
INSERT
  5
24FB
330
23F9
100
AcDbEntity
  8
AM_5
100
AcDbBlockReference
  2
_OPEN30
 10
4.742899768790251
 20
-13.03101001748813
 30
0.0
 41
1.25
 42
1.25
 43
1.25
 50
202.5831970025423
  0
INSERT
  5
24FC
330
23F9
100
AcDbEntity
  8
AM_5
100
AcDbBlockReference
  2
_OPEN30
 10
4.742899768790111
 20
13.03101001748855
 30
0.0
 41
1.25
 42
1.25
 43
1.25
 50
157.4168029974583
  0
MTEXT
  5
24FD
330
23F9
100
AcDbEntity
  8
AM_5
 62
     2
100
AcDbMText
 10
12.31731121352198
 20
0.0000000000002558
 30
0.0
 40
1.6
 41
0.0
 71
     5
 72
     1
  1
140°
  7
ASAMI
 11
-0.000000000000002
 21
1.0
 31
0.0
1001
ACAD
1000
MTEXTBEGIN
1070
    73
1070
     1
1070
    44
1040
1.0
1070
    74
1070
     0
1000
MTEXTEND
  0
POINT
  5
24FE
330
23F9
100
AcDbEntity
  8
DEFPOINTS
 62
     0
100
AcDbPoint
 10
12.7331885153773
 20
-5.492561381043811
 30
0.0
  0
POINT
  5
24FF
330
23F9
100
AcDbEntity
  8
DEFPOINTS
 62
     0
100
AcDbPoint
 10
0.0000000000000673
 20
0.0000000000001849
 30
0.0
  0
POINT
  5
2500
330
23F9
100
AcDbEntity
  8
DEFPOINTS
 62
     0
100
AcDbPoint
 10
-0.3334403114330071
 20
0.9161197263985309
 30
0.0
  0
POINT
  5
2501
330
23F9
100
AcDbEntity
  8
DEFPOINTS
 62
     0
100
AcDbPoint
 10
0.0000000000000673
 20
0.0000000000001849
 30
0.0
  0
POINT
  5
2502
330
23F9
100
AcDbEntity
  8
DEFPOINTS
 62
     0
100
AcDbPoint
 10
-0.3334403114330018
 20
-0.9161197263981664
 30
0.0
  0
ENDBLK
  5
240A
330
23F9
100
AcDbEntity
  8
0
100
AcDbBlockEnd
  0
ENDSEC
  0
SECTION
  2
ENTITIES
  0
DIMENSION
  5
CC6
330
1F
100
AcDbEntity
  8
AM_5
100
AcDbDimension
  2
*D5
 10
-0.999982198083614
 20
-15.50001206798982
 30
0.0
 11
-55.49999109904181
 21
-13.80001206798981
 31
0.0
 70
    32
  1
<>
  3
AM_JIS$0
100
AcDbAlignedDimension
 13
-110.0
 23
-3.293795733920806
 33
0.0
 14
-0.9999821980836131
 24
-3.50001206798982
 34
0.0
 50
0.0000000000001132
100
AcDbRotatedDimension
1001
GENIUS_GENDTOL_13
1000

1000
h7
1000

1040
0.0
1001
ACAD
1000
DSTYLE
1002
{
1070
   271
1070
     0
1002
}
  0
DIMENSION
  5
DF5
330
1F
100
AcDbEntity
  8
AM_5
100
AcDbDimension
  2
*D6
 10
-0.9999821980836136
 20
-10.50001206798978
 30
0.0
 11
-28.99997774760348
 21
-8.800012067989783
 31
0.0
 70
    32
  1
<>
  3
AM_JIS$0
100
AcDbAlignedDimension
 13
-56.99997329712335
 23
-3.500000000000102
 33
0.0
 14
-0.9999821980836131
 24
-3.50001206798982
 34
0.0
 50
0.0000000000001527
100
AcDbRotatedDimension
1001
GENIUS_GENDTOL_13
1000

1000
h7
1000

1040
0.0
1001
ACAD
1000
DSTYLE
1002
{
1070
   271
1070
     0
1002
}
  0
ARC
  5
144A
330
1F
100
AcDbEntity
  8
AM_11
 48
0.5
100
AcDbCircle
 10
-56.1125742594402
 20
-15.45937617226463
 30
0.0
 40
17.09271208445208
100
AcDbArc
 50
64.74833051131179
 51
115.2516644797366
  0
ARC
  5
144B
330
1F
100
AcDbEntity
  8
AM_11
 48
0.5
100
AcDbCircle
 10
-56.11257425944017
 20
15.45938667054937
 30
0.0
 40
17.09271208445208
100
AcDbArc
 50
244.7482808787518
 51
295.2516148471758
  0
ARC
  5
144E
330
1F
100
AcDbEntity
  8
AM_11
 48
0.5
100
AcDbCircle
 10
-41.52924092610686
 20
-15.45937617226463
 30
0.0
 40
17.09271208445208
100
AcDbArc
 50
64.74833051131179
 51
115.2516644797366
  0
ARC
  5
144F
330
1F
100
AcDbEntity
  8
AM_11
 48
0.5
100
AcDbCircle
 10
-41.52924092610686
 20
15.45938667054937
 30
0.0
 40
17.09271208445208
100
AcDbArc
 50
244.7482808787518
 51
295.2516148471758
  0
ARC
  5
1450
330
1F
100
AcDbEntity
  8
AM_11
 48
0.5
100
AcDbCircle
 10
-26.94590759277762
 20
15.45938667054937
 30
0.0
 40
17.09271208445208
100
AcDbArc
 50
244.7482808787518
 51
295.2516148471758
  0
ARC
  5
1451
330
1F
100
AcDbEntity
  8
AM_11
 48
0.5
100
AcDbCircle
 10
-26.94590759277762
 20
-15.45937617226463
 30
0.0
 40
17.09271208445208
100
AcDbArc
 50
64.74833051131179
 51
115.2516644797366
  0
ARC
  5
1452
330
1F
100
AcDbEntity
  8
AM_11
 48
0.5
100
AcDbCircle
 10
-12.36257425944429
 20
-15.45937617226463
 30
0.0
 40
17.09271208445208
100
AcDbArc
 50
64.74833051131179
 51
115.2516644797366
  0
ARC
  5
1453
330
1F
100
AcDbEntity
  8
AM_11
 48
0.5
100
AcDbCircle
 10
-12.36257425944429
 20
15.45938667054937
 30
0.0
 40
17.09271208445208
100
AcDbArc
 50
244.7482808787518
 51
295.2516148471758
  0
ARC
  5
1454
330
1F
100
AcDbEntity
  8
AM_11
 48
0.5
100
AcDbCircle
 10
2.220759073889063
 20
15.45938667054937
 30
0.0
 40
17.09271208445208
100
AcDbArc
 50
244.7482808787518
 51
254.0147302238188
  0
TEXT
  5
19BD
330
1F
100
AcDbEntity
  8
AM_6
100
AcDbText
 10
-66.3333244323751
 20
-26.75001206798985
 30
0.0
 40
2.5
  1
MDW063LHK
 50
0.0000000000001527
 72
     4
 11
-55.49999109904177
 21
-25.50001206798981
 31
0.0
100
AcDbText
  0
LINE
  5
1D14
330
1F
100
AcDbEntity
  8
AM_7
100
AcDbLine
 10
-111.7499999999999
 20
-0.000000000000094
 30
0.0
 11
2.086421120790518
 21
0.0000000000000019
 31
0.0
1001
GENIUS_GENODEF_13
1002
{
1000
HIER
1070
     0
1002
}
1002
{
1000
MANEDIT
1070
     0
1002
}
1002
{
1000
NOSEL
1070
     0
1002
}
1002
{
1000
BEHIND
1070
     0
1002
}
1002
{
1000
REACTOR
1002
}
1001
GENIUS_GENOBJ-N-CEN_13
1002
{
1000
OWNER
1000
GEN
1002
}
  0
LINE
  5
1D9D
330
1F
100
AcDbEntity
  8
AM_0
100
AcDbLine
 10
-109.75
 20
-3.500000000000251
 30
0.0
 11
-109.7499999999999
 21
3.499999999999747
 31
0.0
  0
LINE
  5
1D9E
330
1F
100
AcDbEntity
  8
AM_0
 48
0.5
100
AcDbLine
 10
-110.0
 20
-3.250000000000252
 30
0.0
 11
-110.0
 21
3.249999999999747
 31
0.0
  0
LINE
  5
1D9F
330
1F
100
AcDbEntity
  8
AM_0
100
AcDbLine
 10
-110.0
 20
-3.250000000000252
 30
0.0
 11
-109.75
 21
-3.500000000000251
 31
0.0
1001
GENIUS_GENFIL_13
1070
     0
1040
0.25
1040
0.25
1040
20.0
1040
0.0
1002
{
1002
}
1001
GENIUS_GENODEF_13
1002
{
1000
HIER
1070
     0
1002
}
1002
{
1000
MANEDIT
1070
     0
1002
}
1002
{
1000
NOSEL
1070
     0
1002
}
1002
{
1000
BEHIND
1070
     0
1002
}
1002
{
1000
REACTOR
1002
}
1001
GENIUS_GENOBJ-N-CHA_13
1002
{
1000
OWNER
1000
GEN
1002
}
  0
LINE
  5
1DA1
330
1F
100
AcDbEntity
  8
AM_0
100
AcDbLine
 10
-110.0
 20
3.249999999999747
 30
0.0
 11
-109.7499999999999
 21
3.499999999999747
 31
0.0
1001
GENIUS_GENFIL_13
1070
     0
1040
0.25
1040
0.25
1040
20.0
1040
0.0
1002
{
1002
}
1001
GENIUS_GENODEF_13
1002
{
1000
HIER
1070
     0
1002
}
1002
{
1000
MANEDIT
1070
     0
1002
}
1002
{
1000
NOSEL
1070
     0
1002
}
1002
{
1000
BEHIND
1070
     0
1002
}
1002
{
1000
REACTOR
1002
}
1001
GENIUS_GENOBJ-N-CHA_13
1002
{
1000
OWNER
1000
GEN
1002
}
  0
LINE
  5
1DA2
330
1F
100
AcDbEntity
  8
AM_0
100
AcDbLine
 10
-56.99997329712335
 20
-3.500000000000102
 30
0.0
 11
-56.99997329712338
 21
3.499999999999896
 31
0.0
  0
LINE
  5
1DA4
330
1F
100
AcDbEntity
  8
AM_0
100
AcDbLine
 10
-109.7499999999999
 20
3.499999999999748
 30
0.0
 11
-56.99997329712338
 21
3.499999999999896
 31
0.0
  0
LINE
  5
1DA5
330
1F
100
AcDbEntity
  8
AM_0
100
AcDbLine
 10
-109.75
 20
-3.500000000000251
 30
0.0
 11
-56.99997329712335
 21
-3.500000000000102
 31
0.0
  0
LINE
  5
1F71
330
1F
100
AcDbEntity
  8
AM_0
100
AcDbLine
 10
-56.99997329712338
 20
3.499999999999896
 30
0.0
 11
-56.39379672426859
 21
3.15002379248573
 31
0.0
  0
LINE
  5
1F72
330
1F
100
AcDbEntity
  8
AM_0
100
AcDbLine
 10
-56.99997329712335
 20
-3.500000000000102
 30
0.0
 11
-56.39376522268896
 21
-3.150005605040484
 31
0.0
  0
ARC
  5
1F77
330
1F
100
AcDbEntity
  8
AM_11
 48
0.5
100
AcDbCircle
 10
-70.69590759277341
 20
15.45938667054932
 30
0.0
 40
17.09271208445208
100
AcDbArc
 50
244.7482808787518
 51
295.2516148471758
  0
ARC
  5
1F78
330
1F
100
AcDbEntity
  8
AM_11
 48
0.5
100
AcDbCircle
 10
-70.69590759277343
 20
-15.45937617226467
 30
0.0
 40
17.09271208445208
100
AcDbArc
 50
64.74833051131179
 51
115.2516644797366
  0
ARC
  5
1F79
330
1F
100
AcDbEntity
  8
AM_11
 48
0.5
100
AcDbCircle
 10
-85.27924092610664
 20
15.45938667054929
 30
0.0
 40
17.09271208445208
100
AcDbArc
 50
244.7482808787518
 51
295.2516148471758
  0
ARC
  5
1F7A
330
1F
100
AcDbEntity
  8
AM_11
 48
0.5
100
AcDbCircle
 10
-85.27924092610666
 20
-15.45937617226471
 30
0.0
 40
17.09271208445208
100
AcDbArc
 50
64.74833051131179
 51
115.2516644797366
  0
ARC
  5
1F7B
330
1F
100
AcDbEntity
  8
AM_11
 48
0.5
100
AcDbCircle
 10
-99.86257425943987
 20
15.45938667054924
 30
0.0
 40
17.09271208445208
100
AcDbArc
 50
244.7482808787518
 51
295.2516148471758
  0
ARC
  5
1F7C
330
1F
100
AcDbEntity
  8
AM_11
 48
0.5
100
AcDbCircle
 10
-99.86257425943989
 20
-15.45937617226475
 30
0.0
 40
17.09271208445208
100
AcDbArc
 50
64.74833051131179
 51
115.2516644797366
  0
ARC
  5
1F7D
330
1F
100
AcDbEntity
  8
AM_11
 48
0.5
100
AcDbCircle
 10
-114.445907592773
 20
15.45938667054921
 30
0.0
 40
17.09271208445208
100
AcDbArc
 50
285.0763193491397
 51
295.2516148471758
  0
ARC
  5
1F7E
330
1F
100
AcDbEntity
  8
AM_11
 48
0.5
100
AcDbCircle
 10
-114.4459075927731
 20
-15.45937617226479
 30
0.0
 40
17.09271208445208
100
AcDbArc
 50
64.74833051131179
 51
74.92368065086012
  0
DIMENSION
  5
1F93
330
1F
100
AcDbEntity
  8
AM_5
100
AcDbDimension
  2
*D8
 10
-118.750001
 20
3.49999999999975
 30
0.0
 11
-118.750001
 21
-0.0000000000002494
 31
0.0
 70
   160
  1
%%c<>
 51
359.9999999999998
  3
AM_JIS$0
100
AcDbAlignedDimension
 13
-109.7499999999999
 23
-3.500000000000251
 33
0.0
 14
-109.75
 24
3.499999999999748
 34
0.0
 50
270.0000000000002
100
AcDbRotatedDimension
1001
ACAD
1000
DSTYLE
1002
{
1070
   271
1070
     0
1002
}
1001
GENIUS_GENDTOL_13
1000

1000
h7
1000

1040
0.0
  0
LINE
  5
2275
330
1F
100
AcDbEntity
  8
AM_0
100
AcDbLine
 10
-50.63868160332054
 20
3.15043582299403
 30
0.0
 11
-56.39379672426859
 21
3.15002379248573
 31
0.0
  0
LINE
  5
2276
330
1F
100
AcDbEntity
  8
AM_0
100
AcDbLine
 10
-56.39379672426859
 20
-3.150005604999452
 30
0.0
 11
-56.39379672426859
 21
3.15002379248573
 31
0.0
  0
LINE
  5
2277
330
1F
100
AcDbEntity
  8
AM_0
100
AcDbLine
 10
-51.72094144931242
 20
-3.150011691672533
 30
0.0
 11
-56.39379672426859
 21
-3.150005604999452
 31
0.0
  0
DIMENSION
  5
2278
330
1F
100
AcDbEntity
  8
AM_5
100
AcDbDimension
  2
*D9
 10
9.086422120790512
 20
3.149988308327144
 30
0.0
 11
9.086422120790512
 21
-0.0000116916728542
 31
0.0
 70
   160
  1
%%c<>
  3
AM_JIS$0
100
AcDbAlignedDimension
 13
-0.9999821980836326
 23
-3.150011691672853
 33
0.0
 14
-0.999982198083596
 24
3.149988308327147
 34
0.0
 50
89.99999999999968
100
AcDbRotatedDimension
1001
ACAD
1000
DSTYLE
1002
{
1070
   271
1070
     1
1002
}
1001
GENIUS_GENDTOL_13
1000

1000
h7
1000

1040
0.0
  0
LINE
  5
228D
330
1F
100
AcDbEntity
  8
AM_0
 48
0.5
100
AcDbLine
 10
-22.15816415386196
 20
-3.150011691672756
 30
0.0
 11
-12.97660255592135
 21
-3.15001169167276
 31
0.0
  0
LINE
  5
228E
330
1F
100
AcDbEntity
  8
AM_11
 48
0.5
100
AcDbLine
 10
-31.13887996757809
 20
3.150435822993948
 30
0.0
 11
-24.55422275830196
 21
3.149988308327327
 31
0.0
  0
LINE
  5
228F
330
1F
100
AcDbEntity
  8
AM_0
 48
0.5
100
AcDbLine
 10
-24.55423164527664
 20
3.149988308327327
 30
0.0
 11
-12.97660255592129
 21
3.149988308327239
 31
0.0
  0
LINE
  5
2290
330
1F
100
AcDbEntity
  8
AM_11
 48
0.5
100
AcDbLine
 10
-32.4763289792999
 20
-3.150011691672678
 30
0.0
 11
-22.15816415386197
 21
-3.150459206339318
 31
0.0
  0
LINE
  5
2291
330
1F
100
AcDbEntity
  8
AM_11
 48
0.5
100
AcDbLine
 10
-50.63868160332054
 20
3.15043582299403
 30
0.0
 11
-44.0540332810191
 21
3.149988308327409
 31
0.0
  0
LINE
  5
2292
330
1F
100
AcDbEntity
  8
AM_11
 48
0.5
100
AcDbLine
 10
-51.72270457109927
 20
-3.150011691672533
 30
0.0
 11
-44.05403328101916
 21
-3.15001169167259
 31
0.0
  0
LINE
  5
2293
330
1F
100
AcDbEntity
  8
AM_0
 48
0.5
100
AcDbLine
 10
-45.77774842740176
 20
1.596034851448522
 30
0.0
 11
-53.0
 21
-0.2547671886513727
 31
0.0
  0
LINE
  5
2294
330
1F
100
AcDbEntity
  8
AM_0
 48
0.5
100
AcDbLine
 10
-44.05403741362706
 20
-3.150011691672548
 30
0.0
 11
-33.40451749325873
 21
-3.150011691672605
 31
0.0
  0
LINE
  5
2295
330
1F
100
AcDbEntity
  8
AM_0
100
AcDbLine
 10
-44.0540332810191
 20
3.149988308327409
 30
0.0
 11
-31.13887996757809
 21
3.150435822993948
 31
0.0
  0
LINE
  5
2296
330
1F
100
AcDbEntity
  8
AM_11
 48
0.5
100
AcDbLine
 10
-12.97660255592135
 20
-3.15001169167276
 30
0.0
 11
-2.658437730482109
 21
-3.150011691672838
 31
0.0
  0
LINE
  5
2297
330
1F
100
AcDbEntity
  8
AM_11
 48
0.5
100
AcDbLine
 10
-12.97660255592129
 20
3.149988308327239
 30
0.0
 11
-2.658437730482057
 21
3.149988308327161
 31
0.0
  0
ELLIPSE
  5
229A
330
1F
100
AcDbEntity
  8
AM_0
 48
0.5
100
AcDbEllipse
 10
-52.09201749325873
 20
-2.132003078086073
 30
0.0
 11
0.9074514954676791
 21
0.066724069737681
 31
0.0
210
0.0
220
0.0
230
0.9999999999999998
 40
0.8422311414126578
 41
1.157579515676215
 42
3.028200648427326
  0
ELLIPSE
  5
229B
330
1F
100
AcDbEntity
  8
AM_0
 48
0.5
100
AcDbEllipse
 10
-51.82098579566783
 20
-2.100011691672546
 30
0.0
 11
-1.140531182164762
 21
0.3694115442469863
 31
0.0
210
0.0
220
0.0
230
1.0
 40
0.8653202681444229
 41
0.3693680827949768
 42
1.844057227710949
  0
SPLINE
  5
229C
330
1F
100
AcDbEntity
  8
AM_0
100
AcDbSpline
210
0.0
220
0.0
230
1.0
 70
     8
 71
     3
 72
    17
 73
    13
 74
     0
 42
0.0000000001
 43
0.0000000001
 40
1.580019955310467
 40
1.580019955310467
 40
1.580019955310467
 40
1.580019955310467
 40
2.030549285115227
 40
3.082371838836284
 40
4.126290986361125
 40
5.162752068350215
 40
6.192395305374981
 40
7.216039564037012
 40
8.234688489606833
 40
9.249433870634691
 40
10.26152376260694
 40
11.27226744710342
 40
11.27226744710342
 40
11.27226744710342
 40
11.27226744710352
 10
-7.817117634683329
 20
-2.324804448432434
 30
0.0
 10
-7.894614856356959
 20
-2.348747882533613
 30
0.0
 10
-8.153481612883629
 20
-2.427225685902998
 30
0.0
 10
-8.595431362543749
 20
-2.550320928472407
 30
0.0
 10
-9.142851507106461
 20
-2.688171270449208
 30
0.0
 10
-9.69042235592245
 20
-2.809185568088137
 30
0.0
 10
-10.23801829424358
 20
-2.912957428179375
 30
0.0
 10
-10.78567389216077
 20
-2.998732009201181
 30
0.0
 10
-11.33336732603172
 20
-3.06601983344102
 30
0.0
 10
-11.88109486368011
 20
-3.114384853283036
 30
0.0
 10
-12.42884301051783
 20
-3.143515737477785
 30
0.0
 10
-12.7940970705519
 20
-3.150011709697228
 30
0.0
 10
-12.9766025559213
 20
-3.15001169167276
 30
0.0
  0
SPLINE
  5
229D
330
1F
100
AcDbEntity
  8
AM_0
100
AcDbSpline
210
0.0
220
0.0
230
1.0
 70
     8
 71
     3
 72
    22
 73
    18
 74
     0
 42
0.0000000001
 43
0.0000000001
 40
17.17441611292
 40
17.17441611292
 40
17.17441611292
 40
17.17441611292
 40
17.38177636558528
 40
18.41823744757437
 40
19.46215659509824
 40
20.51397914882054
 40
21.57394542641293
 40
22.64209583141747
 40
23.71826625065247
 40
24.80210429862395
 40
25.8930771157021
 40
26.99048705697709
 40
28.09349309193389
 40
29.20112995599786
 40
30.31233024745139
 40
31.42594771747373
 40
32.5407895042663
 40
32.54078950426994
 40
32.54078950426994
 40
32.54078950426994
 10
-15.06723593488657
 20
-2.828734490267279
 30
0.0
 10
-15.10391393166548
 20
-2.821442549224853
 30
0.0
 10
-15.32377849133431
 20
-2.77702653930664
 30
0.0
 10
-15.72655797532899
 20
-2.687966658548224
 30
0.0
 10
-16.27405433013163
 20
-2.55032798952041
 30
0.0
 10
-16.82149489620496
 20
-2.396971858948097
 30
0.0
 10
-17.36888353844872
 20
-2.228855553823444
 30
0.0
 10
-17.91621953380056
 20
-2.047009875659944
 30
0.0
 10
-18.46350961933191
 20
-1.852566534142713
 30
0.0
 10
-19.01075632914969
 20
-1.646720515486435
 30
0.0
 10
-19.5579647265873
 20
-1.430741260809107
 30
0.0
 10
-20.10514089625519
 20
-1.205961225308545
 30
0.0
 10
-20.65228958731236
 20
-0.9737625882205607
 30
0.0
 10
-21.199416307695
 20
-0.735573874797372
 30
0.0
 10
-21.74652590720528
 20
-0.4928596760124134
 30
0.0
 10
-22.29362649079613
 20
-0.2471176696611537
 30
0.0
 10
-22.65828862032818
 20
-0.0823037187119431
 30
0.0
 10
-22.84071986040661
 20
0.0001485256128739
 30
0.0
  0
SPLINE
  5
229E
330
1F
100
AcDbEntity
  8
AM_0
100
AcDbSpline
210
0.0
220
0.0
230
1.0
 70
     8
 71
     3
 72
    11
 73
     7
 74
     0
 42
0.0000000001
 43
0.0000000001
 40
11.27226913003534
 40
11.27226913003534
 40
11.27226913003534
 40
11.2722691300354
 40
12.28301561507924
 40
13.29510212255852
 40
14.30984805882082
 40
15.18258238371378
 40
15.18258238371378
 40
15.18258238371378
 40
15.18258238371378
 10
-12.97660255592133
 20
-3.15001169167276
 30
0.0
 10
-13.15841406558591
 20
-3.134594676288736
 30
0.0
 10
-13.52169415383518
 20
-3.097270753019922
 30
0.0
 10
-14.06473837555851
 20
-3.021979167736192
 30
0.0
 10
-14.58009691733465
 20
-2.932051624515136
 30
0.0
 10
-14.91340057121596
 20
-2.862921645625735
 30
0.0
 10
-15.06699638573733
 20
-2.828773345493192
 30
0.0
  0
SPLINE
  5
229F
330
1F
100
AcDbEntity
  8
AM_0
100
AcDbSpline
210
0.0
220
0.0
230
1.0
 70
     8
 71
     3
 72
    55
 73
    51
 74
     0
 42
0.0000000001
 43
0.0000000001
 40
0.0
 40
0.0
 40
0.0
 40
0.0
 40
1.010743684496582
 40
2.022833576467832
 40
3.037578957496688
 40
4.056212745003489
 40
5.079857003664532
 40
6.109500240690281
 40
7.145961322679372
 40
8.189895241603872
 40
9.241717795325891
 40
10.30168407291828
 40
11.36983447792315
 40
12.44600489715814
 40
13.52984294512926
 40
14.62081576220742
 40
15.7182257034828
 40
16.82123173843959
 40
17.92886860250316
 40
19.0400688939571
 40
20.15368796660465
 40
21.26852814259644
 40
22.38336992938901
 40
23.49698739941135
 40
24.6081876908653
 40
25.71582455492886
 40
26.81883757994213
 40
27.91624752121713
 40
29.00722033829659
 40
30.09105838626677
 40
31.16722880550176
 40
32.23537921050758
 40
33.29534548809967
 40
34.347168041821
 40
35.39108718934584
 40
36.42754827133493
 40
37.45720575381954
 40
38.48085062012849
 40
39.49948440763516
 40
40.51422944315121
 40
41.52631975251916
 40
42.53706336719636
 40
43.54780698187354
 40
44.55989729124051
 40
45.57464232675757
 40
46.59327611426424
 40
47.6169209805722
 40
48.64656348684535
 40
49.68302456883444
 40
50.58557219878025
 40
50.58557219878025
 40
50.58557219878025
 40
50.58557219878025
 10
-2.658437730482109
 20
-3.150011691672838
 30
0.0
 10
-2.840943218259302
 20
-3.148137517986252
 30
0.0
 10
-3.206197272504741
 20
-3.144386674404935
 30
0.0
 10
-3.753945430960509
 20
-3.114150664289079
 30
0.0
 10
-4.301670208112652
 20
-3.066083306731913
 30
0.0
 10
-4.849361086478492
 20
-2.99871507697629
 30
0.0
 10
-5.397012600965223
 20
-2.912958943697734
 30
0.0
 10
-5.944613947632923
 20
-2.809196250754766
 30
0.0
 10
-6.492166958183819
 20
-2.688125980631207
 30
0.0
 10
-7.039666776929292
 20
-2.550489509733616
 30
0.0
 10
-7.587109674397757
 20
-2.397131917643727
 30
0.0
 10
-8.134498379289409
 20
-2.229015814114316
 30
0.0
 10
-8.68183435762036
 20
-2.047170081224263
 30
0.0
 10
-9.229124447915244
 20
-1.852726754852773
 30
0.0
 10
-9.776371155871967
 20
-1.646880730901115
 30
0.0
 10
-10.3235795559658
 20
-1.430901482157564
 30
0.0
 10
-10.87075571681194
 20
-1.206121428109034
 30
0.0
 10
-11.41790444072054
 20
-0.9739228597366658
 30
0.0
 10
-11.9650310378323
 20
-0.7357338885634212
 30
0.0
 10
-12.51214136263429
 20
-0.4930205394086081
 30
0.0
 10
-13.05924021380488
 20
-0.2472749141963846
 30
0.0
 10
-13.60633531722728
 20
-0.0000123343871807
 30
0.0
 10
-14.15342796465043
 20
0.2472546963025555
 30
0.0
 10
-14.70052864957711
 20
0.4929964946053826
 30
0.0
 10
-15.24763829896409
 20
0.7357105784396854
 30
0.0
 10
-15.7947658715965
 20
0.9739004570067443
 30
0.0
 10
-16.34191686534046
 20
1.206097043755757
 30
0.0
 10
-16.88909388977517
 20
1.430878237751915
 30
0.0
 10
-17.43630236886769
 20
1.646857311358563
 30
0.0
 10
-17.98354905691185
 20
1.852703378598865
 30
0.0
 10
-18.53083914860814
 20
2.047146705254787
 30
0.0
 10
-19.07817514088017
 20
2.228992394662784
 30
0.0
 10
-19.62556378927533
 20
2.397108669854203
 30
0.0
 10
-20.17300433403531
 20
2.550464907798519
 30
0.0
 10
-20.72050076712678
 20
2.688103181390484
 30
0.0
 10
-21.26805357456392
 20
2.809175886084864
 30
0.0
 10
-21.81565883128878
 20
2.912926727887917
 30
0.0
 10
-22.36331215506135
 20
2.998709404502579
 30
0.0
 10
-22.91100319578727
 20
3.065997777917222
 30
0.0
 10
-23.45872835351523
 20
3.114357031026701
 30
0.0
 10
-24.00647604754584
 20
3.143497055783285
 30
0.0
 10
-24.55423577799984
 20
3.15323177383869
 30
0.0
 10
-25.10199550764788
 20
3.143497055768029
 30
0.0
 10
-25.64974320410103
 20
3.114357031087938
 30
0.0
 10
-26.19746835290986
 20
3.065997777686472
 30
0.0
 10
-26.74515942707579
 20
2.998709405369723
 30
0.0
 10
-27.29280995522037
 20
2.912927142831654
 30
0.0
 10
-27.84041305458893
 20
2.809176946881169
 30
0.0
 10
-28.36306982415583
 20
2.69359911566766
 30
0.0
 10
-28.70217548843532
 20
2.609075955066136
 30
0.0
 10
-28.85950075215341
 20
2.56788369561693
 30
0.0
  0
SPLINE
  5
22A0
330
1F
100
AcDbEntity
  8
AM_0
100
AcDbSpline
210
0.0
220
0.0
230
1.0
 70
     8
 71
     3
 72
    46
 73
    42
 74
     0
 42
0.0000000001
 43
0.0000000001
 40
0.0
 40
0.0
 40
0.0
 40
0.0
 40
1.1797905410792
 40
1.771725346678784
 40
2.365928389391084
 40
2.963054206943358
 40
3.563679428541708
 40
4.168281726368678
 40
4.777234562424272
 40
5.390806270667785
 40
6.009119932596676
 40
6.632207668849522
 40
7.259973746737163
 40
7.892212608053092
 40
8.52861341801536
 40
9.168769217093204
 40
9.81218940415078
 40
10.45831090818787
 40
11.1065110782032
 40
11.75612220391374
 40
12.40644563990895
 40
13.05676907590469
 40
13.70638020161522
 40
14.35458037163003
 40
15.0007018756671
 40
15.64412206272523
 40
16.28427786180231
 40
16.92067867176479
 40
17.5529216827261
 40
18.18068776061372
 40
18.80377549686657
 40
19.42208915879529
 40
20.03565231513329
 40
20.64460515118888
 40
21.24920744901585
 40
21.84983224434128
 40
22.44695841635484
 40
23.04117028960383
 40
23.63310489365486
 40
24.22349090745283
 40
24.81309134934788
 40
24.81309134934788
 40
24.81309134934788
 40
24.81309134934788
 10
-1.125115078300981
 20
-3.15001169167285
 30
0.0
 10
-1.49038697827742
 20
-3.142835748174968
 30
0.0
 10
-2.038926283420338
 20
-3.132059427685143
 30
0.0
 10
-2.768342918300877
 20
-3.065711602144697
 30
0.0
 10
-3.316039681036952
 20
-2.998815344695966
 30
0.0
 10
-3.863689628737969
 20
-2.912931913523653
 30
0.0
 10
-4.411291318706453
 20
-2.809203331719815
 30
0.0
 10
-4.958841937805126
 20
-2.688125510273988
 30
0.0
 10
-5.50634056896897
 20
-2.550487194333146
 30
0.0
 10
-6.0537847756357
 20
-2.397133503532011
 30
0.0
 10
-6.60117565201499
 20
-2.229015594331145
 30
0.0
 10
-7.148511725791817
 20
-2.047170140789799
 30
0.0
 10
-7.695801790213037
 20
-1.852726738700883
 30
0.0
 10
-8.243048505217791
 20
-1.646880735340246
 30
0.0
 10
-8.790256903249986
 20
-1.430901480703024
 30
0.0
 10
-9.337433065234595
 20
-1.206121429458264
 30
0.0
 10
-9.884581786651228
 20
-0.9739228557785473
 30
0.0
 10
-10.43170839263743
 20
-0.7357339031214171
 30
0.0
 10
-10.97881868429492
 20
-0.4930204849214058
 30
0.0
 10
-11.52591765951197
 20
-0.2472751180878688
 30
0.0
 10
-12.07301203571843
 20
-0.0000116917227976
 30
0.0
 10
-12.6201064118047
 20
0.2472517349427495
 30
0.0
 10
-13.16720538738225
 20
0.4929971008753013
 30
0.0
 10
-13.71431567772204
 20
0.7357105223680129
 30
0.0
 10
-14.2614422885944
 20
0.9738994628137154
 30
0.0
 10
-14.80859099189361
 20
1.206098081772174
 30
0.0
 10
-15.35576722097316
 20
1.43087796533381
 30
0.0
 10
-15.90297656042995
 20
1.646858309762155
 30
0.0
 10
-16.45022540177143
 20
1.852702442907505
 30
0.0
 10
-16.99751644247424
 20
2.047146842035598
 30
0.0
 10
-17.54485250350754
 20
2.228992349685644
 30
0.0
 10
-18.09224113126729
 20
2.397108714026594
 30
0.0
 10
-18.63968169042583
 20
2.550464777079421
 30
0.0
 10
-19.187178086737
 20
2.688103655287848
 30
0.0
 10
-19.73472838894212
 20
2.809173555186945
 30
0.0
 10
-20.28233048037864
 20
2.912932222367049
 30
0.0
 10
-20.8299839232239
 20
2.998693010898387
 30
0.0
 10
-21.3776778638174
 20
3.06606020553735
 30
0.0
 10
-21.92540568996849
 20
3.11412315161717
 30
0.0
 10
-22.47315339823223
 20
3.144367320950379
 30
0.0
 10
-22.83840760544224
 20
3.148115477642456
 30
0.0
 10
-23.02091312568448
 20
3.149988308327316
 30
0.0
  0
SPLINE
  5
22A3
330
1F
100
AcDbEntity
  8
AM_0
 48
0.5
100
AcDbSpline
210
0.0
220
0.0
230
1.0
 70
     8
 71
     3
 72
    17
 73
    13
 74
     0
 42
0.0000000001
 43
0.0000000001
 40
0.0
 40
0.0
 40
0.0
 40
0.0
 40
1.010743614677189
 40
2.022833924044153
 40
3.037578959561199
 40
4.056212747067873
 40
5.079857613375832
 40
6.109500119648989
 40
7.14596120163808
 40
8.18989512056258
 40
9.241717674284874
 40
9.625139735300134
 40
9.625139735300134
 40
9.625139735300134
 40
9.625139735300134
 10
-2.658437730482057
 20
3.149988308327161
 30
0.0
 10
-2.840943251473068
 20
3.148115485261269
 30
0.0
 10
-3.206197460181475
 20
3.144367343817308
 30
0.0
 10
-3.753945157184586
 20
3.114123059906482
 30
0.0
 10
-4.301670303732953
 20
3.066060789906475
 30
0.0
 10
-4.849361386438508
 20
2.998692427937145
 30
0.0
 10
-5.397011882459131
 20
2.912931643621395
 30
0.0
 10
-5.944615102785379
 20
2.809176054647837
 30
0.0
 10
-6.492163697661699
 20
2.688093570055878
 30
0.0
 10
-7.039678914171496
 20
2.550499348315386
 30
0.0
 10
-7.469711975454004
 20
2.429895104914032
 30
0.0
 10
-7.717446143995468
 20
2.356141122857994
 30
0.0
 10
-7.783530851840016
 20
2.336139322043413
 30
0.0
  0
SPLINE
  5
22A6
330
1F
100
AcDbEntity
  8
AM_0
100
AcDbSpline
210
0.0
220
0.0
230
1.0
 70
     8
 71
     3
 72
    23
 73
    19
 74
     0
 42
0.0000000001
 43
0.0000000001
 40
16.03460024169435
 40
16.03460024169435
 40
16.03460024169435
 40
16.03460024169435
 40
16.35212704903564
 40
17.38177054169784
 40
18.41822485651776
 40
19.46214173629503
 40
20.51396345435107
 40
21.57393551351153
 40
22.64208202342361
 40
23.7182574881101
 40
24.80209208578934
 40
25.89306333925047
 40
26.99048218457928
 40
28.09348763352352
 40
29.20111863782268
 40
30.31232390128032
 40
31.42594612798585
 40
32.5407912310448
 40
32.5407912310486
 40
32.5407912310486
 40
32.5407912310486
 10
-50.63868160332054
 20
3.15043582299403
 30
0.0
 10
-50.5824072115993
 20
3.139801977707817
 30
0.0
 10
-50.3438916116267
 20
3.093494574447651
 30
0.0
 10
-49.92374381363796
 20
3.002762285160045
 30
0.0
 10
-49.37965131535968
 20
2.867844363228027
 30
0.0
 10
-48.83606419578618
 20
2.716354025439172
 30
0.0
 10
-48.29295033392103
 20
2.549168020600481
 30
0.0
 10
-47.75029045369082
 20
2.367218414431727
 30
0.0
 10
-47.20805319065505
 20
2.17154530761231
 30
0.0
 10
-46.66620078547164
 20
1.963287468542107
 30
0.0
 10
-46.12470244814082
 20
1.74362424922157
 30
0.0
 10
-45.5835147647774
 20
1.513833818741246
 30
0.0
 10
-45.04259387817148
 20
1.275251818363662
 30
0.0
 10
-44.50190374830721
 20
1.029249994571006
 30
0.0
 10
-43.9613991362981
 20
0.7772588142800541
 30
0.0
 10
-43.42102997996998
 20
0.520749721108587
 30
0.0
 10
-42.88075227801964
 20
0.2612091157913211
 30
0.0
 10
-42.52066388898761
 20
0.0872013314597164
 30
0.0
 10
-42.34052149614663
 20
0.0001485256118225
 30
0.0
  0
SPLINE
  5
22A7
330
1F
100
AcDbEntity
  8
AM_0
100
AcDbSpline
210
0.0
220
0.0
230
1.0
 70
     8
 71
     3
 72
    13
 73
     9
 74
     0
 42
0.0000000001
 43
0.0000000001
 40
16.03460056234195
 40
16.03460056234195
 40
16.03460056234195
 40
16.03460056234195
 40
16.35212717791071
 40
17.38177067057215
 40
18.41822498539278
 40
19.46214186516937
 40
20.5139635832251
 40
21.34083983469381
 40
21.34083983469381
 40
21.34083983469381
 40
21.34083983469381
 10
-51.72245716866921
 20
-3.150298170289741
 30
0.0
 10
-51.6661827541432
 20
-3.139664638179967
 30
0.0
 10
-51.42766695680382
 20
-3.093358505445642
 30
0.0
 10
-51.00751938784413
 20
-3.00262515683726
 30
0.0
 10
-50.46342682109428
 20
-2.86770760900032
 30
0.0
 10
-49.91983972006425
 20
-2.716217169900185
 30
0.0
 10
-49.4168428281545
 20
-2.561380344471105
 30
0.0
 10
-49.09593966884336
 20
-2.454764170998227
 30
0.0
 10
-48.95516137616111
 20
-2.406572689101737
 30
0.0
  0
SPLINE
  5
22A8
330
1F
100
AcDbEntity
  8
AM_0
 48
0.5
100
AcDbSpline
210
0.0
220
0.0
230
1.0
 70
     8
 71
     3
 72
    22
 73
    18
 74
     0
 42
0.0000000001
 43
0.0000000001
 40
0.0
 40
0.0
 40
0.0
 40
0.0
 40
1.010743684496582
 40
2.022833993863546
 40
3.037578683882831
 40
4.056212471389632
 40
5.079857945358201
 40
6.109499720892564
 40
7.145961650132166
 40
8.189873411961459
 40
9.241710626092514
 40
10.30166235592959
 40
11.36982472628033
 40
12.44598212828784
 40
13.52983440361964
 40
14.62080578343036
 40
14.90544694398022
 40
14.90544694398022
 40
14.90544694398022
 40
14.90544694398022
 10
-44.0540374136081
 20
-3.150011691672591
 30
0.0
 10
-44.23654293625898
 20
-3.148138077899194
 30
0.0
 10
-44.60179713566553
 20
-3.144388354116292
 30
0.0
 10
-45.14954472018409
 20
-3.114143921411788
 30
0.0
 10
-45.69727009003238
 20
-3.066084656165403
 30
0.0
 10
-46.24496125962462
 20
-2.998716364306013
 30
0.0
 10
-46.79261128249083
 20
-2.91295223035332
 30
0.0
 10
-47.34021444538206
 20
-2.809198259550888
 30
0.0
 10
-47.8877627239684
 20
-2.688125105069828
 30
0.0
 10
-48.43525988338285
 20
-2.550483855396426
 30
0.0
 10
-48.98270099260776
 20
-2.397133919483151
 30
0.0
 10
-49.53008891251655
 20
-2.229008602313832
 30
0.0
 10
-50.07742717175005
 20
-2.047177762149451
 30
0.0
 10
-50.62471535919302
 20
-1.8527223756373
 30
0.0
 10
-51.1719637276449
 20
-1.646881211629796
 30
0.0
 10
-51.58325912067527
 20
-1.484553182619651
 30
0.0
 10
-51.8124472663884
 20
-1.391771699131578
 30
0.0
 10
-51.85983575383584
 20
-1.372492532714777
 30
0.0
  0
SPLINE
  5
22A9
330
1F
100
AcDbEntity
  8
AM_0
 48
0.5
100
AcDbSpline
210
0.0
220
0.0
230
1.0
 70
     8
 71
     3
 72
    26
 73
    22
 74
     0
 42
0.0000000001
 43
0.0000000001
 40
0.0
 40
0.0
 40
0.0
 40
0.0
 40
0.5896004826229707
 40
1.179986252940122
 40
1.771921058539713
 40
2.366124101252007
 40
2.963249918804864
 40
3.563875140402651
 40
4.168477438229614
 40
4.777430274285771
 40
5.390993430623067
 40
6.009307092551945
 40
6.63239903939448
 40
7.260156758871202
 40
7.892403919481949
 40
8.528804729444196
 40
9.168960528521511
 40
9.812380715579642
 40
10.45850221961671
 40
11.10670238963151
 40
11.73624999718734
 40
11.73624999718734
 40
11.73624999718734
 40
11.73624999718734
 10
-42.52071476142699
 20
-3.150011691672602
 30
0.0
 10
-42.70322024922613
 20
-3.148137518067686
 30
0.0
 10
-43.06847430351569
 20
-3.144386674649807
 30
0.0
 10
-43.61622246164126
 20
-3.114150663305826
 30
0.0
 10
-44.16394724005328
 20
-3.066083310434849
 30
0.0
 10
-44.71163811368345
 20
-2.998715063064126
 30
0.0
 10
-45.25928964597817
 20
-2.912958996025468
 30
0.0
 10
-45.80689092559448
 20
-2.809196053673248
 30
0.0
 10
-46.35444158823754
 20
-2.688127298706289
 30
0.0
 10
-46.90193789962395
 20
-2.550488041767151
 30
0.0
 10
-47.44937856541943
 20
-2.397132311448194
 30
0.0
 10
-47.99676809108109
 20
-2.229014606570554
 30
0.0
 10
-48.54410420840551
 20
-2.047172999771805
 30
0.0
 10
-49.09139311886502
 20
-1.852722952559967
 30
0.0
 10
-49.63864214008958
 20
-1.64688286652606
 30
0.0
 10
-50.18585245447865
 20
-1.430901420677658
 30
0.0
 10
-50.73302814119765
 20
-1.206120458298801
 30
0.0
 10
-51.28017924848427
 20
-0.9739268293968557
 30
0.0
 10
-51.82729673405899
 20
-0.7357188995528076
 30
0.0
 10
-52.36879413437823
 20
-0.495581079176268
 30
0.0
 10
-52.72755653534088
 20
-0.3342548069795292
 30
0.0
 10
-53.0
 20
-0.2547691913673027
 30
0.0
  0
SPLINE
  5
22AA
330
1F
100
AcDbEntity
  8
AM_0
100
AcDbSpline
210
0.0
220
0.0
230
1.0
 70
     8
 71
     3
 72
    55
 73
    51
 74
     0
 42
0.0000000001
 43
0.0000000001
 40
0.0
 40
0.0
 40
0.0
 40
0.0
 40
1.010743684496582
 40
2.022833576467832
 40
3.037578957496688
 40
4.056212745003489
 40
5.079857003664532
 40
6.109500240690281
 40
7.145961322679372
 40
8.189895241603872
 40
9.241717795325891
 40
10.30168407291828
 40
11.36983447792315
 40
12.44600489715814
 40
13.52984294512926
 40
14.62081576220742
 40
15.7182257034828
 40
16.82123173843959
 40
17.92886860250316
 40
19.0400688939571
 40
20.15368796660465
 40
21.26852814259644
 40
22.38336992938901
 40
23.49698739941135
 40
24.6081876908653
 40
25.71582455492886
 40
26.81883757994213
 40
27.91624752121713
 40
29.00722033829659
 40
30.09105838626677
 40
31.16722880550176
 40
32.23537921050758
 40
33.29534548809967
 40
34.347168041821
 40
35.39108718934584
 40
36.42754827133493
 40
37.45720575381954
 40
38.48085062012849
 40
39.49948440763516
 40
40.51422944315121
 40
41.52631975251916
 40
42.53706336719636
 40
43.54780698187354
 40
44.55989729124051
 40
45.57464232675757
 40
46.59327611426424
 40
47.6169209805722
 40
48.64656348684535
 40
49.68302456883444
 40
50.58557219878025
 40
50.58557219878025
 40
50.58557219878025
 40
50.58557219878025
 10
-22.15816415386197
 20
-3.150011691672756
 30
0.0
 10
-22.34066964163916
 20
-3.148137517986169
 30
0.0
 10
-22.7059236958846
 20
-3.144386674404853
 30
0.0
 10
-23.25367185434037
 20
-3.114150664288995
 30
0.0
 10
-23.80139663149251
 20
-3.066083306731831
 30
0.0
 10
-24.34908750985835
 20
-2.998715076976206
 30
0.0
 10
-24.89673902434509
 20
-2.912958943697652
 30
0.0
 10
-25.44434037101279
 20
-2.809196250754683
 30
0.0
 10
-25.99189338156368
 20
-2.688125980631125
 30
0.0
 10
-26.53939320030914
 20
-2.550489509733533
 30
0.0
 10
-27.08683609777761
 20
-2.397131917643644
 30
0.0
 10
-27.63422480266926
 20
-2.229015814114234
 30
0.0
 10
-28.18156078100022
 20
-2.04717008122418
 30
0.0
 10
-28.7288508712951
 20
-1.852726754852691
 30
0.0
 10
-29.27609757925182
 20
-1.646880730901033
 30
0.0
 10
-29.82330597934565
 20
-1.430901482157482
 30
0.0
 10
-30.37048214019181
 20
-1.206121428108952
 30
0.0
 10
-30.91763086410041
 20
-0.9739228597365837
 30
0.0
 10
-31.46475746121216
 20
-0.7357338885633388
 30
0.0
 10
-32.01186778601415
 20
-0.4930205394085257
 30
0.0
 10
-32.55896663718474
 20
-0.2472749141963023
 30
0.0
 10
-33.10606174060714
 20
-0.0000123343870983
 30
0.0
 10
-33.65315438803028
 20
0.2472546963026379
 30
0.0
 10
-34.20025507295697
 20
0.4929964946054649
 30
0.0
 10
-34.74736472234395
 20
0.735710578439768
 30
0.0
 10
-35.29449229497637
 20
0.9739004570068269
 30
0.0
 10
-35.84164328872034
 20
1.206097043755839
 30
0.0
 10
-36.38882031315503
 20
1.430878237751998
 30
0.0
 10
-36.93602879224755
 20
1.646857311358645
 30
0.0
 10
-37.4832754802917
 20
1.852703378598947
 30
0.0
 10
-38.03056557198798
 20
2.04714670525487
 30
0.0
 10
-38.57790156426002
 20
2.228992394662866
 30
0.0
 10
-39.12529021265517
 20
2.397108669854285
 30
0.0
 10
-39.67273075741516
 20
2.550464907798602
 30
0.0
 10
-40.22022719050663
 20
2.688103181390566
 30
0.0
 10
-40.76777999794377
 20
2.809175886084947
 30
0.0
 10
-41.31538525466863
 20
2.912926727887999
 30
0.0
 10
-41.86303857844121
 20
2.998709404502661
 30
0.0
 10
-42.41072961916713
 20
3.065997777917305
 30
0.0
 10
-42.9584547768951
 20
3.114357031026782
 30
0.0
 10
-43.50620247092569
 20
3.143497055783368
 30
0.0
 10
-44.05396220137969
 20
3.153231773838772
 30
0.0
 10
-44.60172193102773
 20
3.143497055768111
 30
0.0
 10
-45.14946962748089
 20
3.114357031088021
 30
0.0
 10
-45.69719477628972
 20
3.065997777686555
 30
0.0
 10
-46.24488585045564
 20
2.998709405369806
 30
0.0
 10
-46.79253637860022
 20
2.912927142831737
 30
0.0
 10
-47.34013947796878
 20
2.809176946881251
 30
0.0
 10
-47.86279624753568
 20
2.693599115667741
 30
0.0
 10
-48.20190191181517
 20
2.609075955066218
 30
0.0
 10
-48.35922717553327
 20
2.567883695617013
 30
0.0
  0
SPLINE
  5
22AB
330
1F
100
AcDbEntity
  8
AM_0
100
AcDbSpline
210
0.0
220
0.0
230
1.0
 70
     8
 71
     3
 72
    46
 73
    42
 74
     0
 42
0.0000000001
 43
0.0000000001
 40
0.0
 40
0.0
 40
0.0
 40
0.0
 40
1.179790541079198
 40
1.771725346678782
 40
2.365928389391083
 40
2.963054206943358
 40
3.56367942854171
 40
4.168281726368679
 40
4.777234562424272
 40
5.390806270667778
 40
6.009119932596676
 40
6.632207668849522
 40
7.259973746737163
 40
7.892212608053084
 40
8.52861341801536
 40
9.168769217093196
 40
9.812189404150775
 40
10.45831090818786
 40
11.10651107820319
 40
11.75612220391373
 40
12.40644563990894
 40
13.05676907590468
 40
13.70638020161522
 40
14.35458037163002
 40
15.0007018756671
 40
15.64412206272522
 40
16.2842778618023
 40
16.92067867176477
 40
17.55292168272609
 40
18.18068776061372
 40
18.80377549686656
 40
19.42208915879528
 40
20.03565231513328
 40
20.64460515118887
 40
21.24920744901584
 40
21.84983224434128
 40
22.44695841635482
 40
23.04117028960381
 40
23.63310489365484
 40
24.22349090745283
 40
24.81309134934786
 40
24.81309134934786
 40
24.81309134934786
 40
24.81309134934786
 10
-20.62484150168084
 20
-3.150011691672768
 30
0.0
 10
-20.99011340165727
 20
-3.142835748174884
 30
0.0
 10
-21.53865270680019
 20
-3.132059427685058
 30
0.0
 10
-22.26806934168073
 20
-3.065711602144616
 30
0.0
 10
-22.81576610441681
 20
-2.998815344695882
 30
0.0
 10
-23.36341605211783
 20
-2.912931913523572
 30
0.0
 10
-23.91101774208631
 20
-2.809203331719731
 30
0.0
 10
-24.45856836118499
 20
-2.688125510273905
 30
0.0
 10
-25.00606699234883
 20
-2.550487194333065
 30
0.0
 10
-25.55351119901555
 20
-2.397133503531925
 30
0.0
 10
-26.10090207539484
 20
-2.229015594331065
 30
0.0
 10
-26.64823814917167
 20
-2.047170140789714
 30
0.0
 10
-27.1955282135929
 20
-1.852726738700803
 30
0.0
 10
-27.74277492859764
 20
-1.646880735340158
 30
0.0
 10
-28.28998332662984
 20
-1.430901480702948
 30
0.0
 10
-28.83715948861445
 20
-1.206121429458178
 30
0.0
 10
-29.38430821003108
 20
-0.9739228557784675
 30
0.0
 10
-29.93143481601727
 20
-0.7357339031213327
 30
0.0
 10
-30.47854510767477
 20
-0.4930204849213247
 30
0.0
 10
-31.02564408289183
 20
-0.2472751180877863
 30
0.0
 10
-31.57273845909829
 20
-0.0000116917227148
 30
0.0
 10
-32.11983283518456
 20
0.2472517349428315
 30
0.0
 10
-32.66693181076212
 20
0.4929971008753836
 30
0.0
 10
-33.21404210110191
 20
0.7357105223680957
 30
0.0
 10
-33.76116871197426
 20
0.9738994628137954
 30
0.0
 10
-34.30831741527347
 20
1.206098081772257
 30
0.0
 10
-34.85549364435303
 20
1.430877965333893
 30
0.0
 10
-35.4027029838098
 20
1.646858309762238
 30
0.0
 10
-35.94995182515127
 20
1.852702442907588
 30
0.0
 10
-36.49724286585408
 20
2.047146842035679
 30
0.0
 10
-37.04457892688738
 20
2.228992349685727
 30
0.0
 10
-37.59196755464713
 20
2.397108714026676
 30
0.0
 10
-38.13940811380569
 20
2.550464777079505
 30
0.0
 10
-38.68690451011684
 20
2.688103655287928
 30
0.0
 10
-39.23445481232198
 20
2.809173555187028
 30
0.0
 10
-39.78205690375851
 20
2.912932222367131
 30
0.0
 10
-40.32971034660375
 20
2.99869301089847
 30
0.0
 10
-40.87740428719724
 20
3.066060205537433
 30
0.0
 10
-41.42513211334835
 20
3.114123151617253
 30
0.0
 10
-41.97287982161208
 20
3.144367320950462
 30
0.0
 10
-42.33813402882209
 20
3.148115477642538
 30
0.0
 10
-42.52063954906433
 20
3.149988308327398
 30
0.0
  0
SPLINE
  5
22AC
330
1F
100
AcDbEntity
  8
AM_0
100
AcDbSpline
210
0.0
220
0.0
230
1.0
 70
     8
 71
     3
 72
    22
 73
    18
 74
     0
 42
0.0000000001
 43
0.0000000001
 40
17.17441611292
 40
17.17441611292
 40
17.17441611292
 40
17.17441611292
 40
17.38177636558528
 40
18.41823744757437
 40
19.46215659509824
 40
20.51397914882054
 40
21.57394542641293
 40
22.64209583141747
 40
23.71826625065247
 40
24.80210429862395
 40
25.8930771157021
 40
26.99048705697709
 40
28.09349309193389
 40
29.20112995599786
 40
30.31233024745139
 40
31.42594771747373
 40
32.5407895042663
 40
32.54078950426994
 40
32.54078950426994
 40
32.54078950426994
 10
-34.56696235826643
 20
-2.828734490267197
 30
0.0
 10
-34.60364035504534
 20
-2.821442549224773
 30
0.0
 10
-34.82350491471417
 20
-2.777026539306558
 30
0.0
 10
-35.22628439870885
 20
-2.68796665854814
 30
0.0
 10
-35.77378075351149
 20
-2.550327989520326
 30
0.0
 10
-36.32122131958483
 20
-2.396971858948015
 30
0.0
 10
-36.86860996182859
 20
-2.228855553823362
 30
0.0
 10
-37.41594595718043
 20
-2.047009875659862
 30
0.0
 10
-37.96323604271178
 20
-1.85256653414263
 30
0.0
 10
-38.51048275252955
 20
-1.646720515486353
 30
0.0
 10
-39.05769114996715
 20
-1.430741260809025
 30
0.0
 10
-39.60486731963503
 20
-1.205961225308464
 30
0.0
 10
-40.15201601069221
 20
-0.9737625882204785
 30
0.0
 10
-40.69914273107484
 20
-0.7355738747972895
 30
0.0
 10
-41.24625233058514
 20
-0.4928596760123314
 30
0.0
 10
-41.79335291417599
 20
-0.2471176696610712
 30
0.0
 10
-42.15801504370804
 20
-0.0823037187118608
 30
0.0
 10
-42.34044628378646
 20
0.0001485256129562
 30
0.0
  0
SPLINE
  5
22AD
330
1F
100
AcDbEntity
  8
AM_0
100
AcDbSpline
210
0.0
220
0.0
230
1.0
 70
     8
 71
     3
 72
    17
 73
    13
 74
     0
 42
0.0000000001
 43
0.0000000001
 40
1.580019955310467
 40
1.580019955310467
 40
1.580019955310467
 40
1.580019955310467
 40
2.030549285115227
 40
3.082371838836284
 40
4.126290986361125
 40
5.162752068350215
 40
6.192395305374981
 40
7.216039564037012
 40
8.234688489606833
 40
9.249433870634691
 40
10.26152376260694
 40
11.27226744710342
 40
11.27226744710342
 40
11.27226744710342
 40
11.27226744710352
 10
-27.31684405806318
 20
-2.324804448432351
 30
0.0
 10
-27.39434127973681
 20
-2.348747882533531
 30
0.0
 10
-27.65320803626347
 20
-2.427225685902917
 30
0.0
 10
-28.09515778592361
 20
-2.550320928472326
 30
0.0
 10
-28.64257793048632
 20
-2.688171270449125
 30
0.0
 10
-29.19014877930231
 20
-2.809185568088054
 30
0.0
 10
-29.73774471762343
 20
-2.912957428179293
 30
0.0
 10
-30.28540031554063
 20
-2.998732009201098
 30
0.0
 10
-30.83309374941157
 20
-3.066019833440936
 30
0.0
 10
-31.38082128705996
 20
-3.114384853282953
 30
0.0
 10
-31.92856943389769
 20
-3.143515737477704
 30
0.0
 10
-32.29382349393176
 20
-3.150011709697145
 30
0.0
 10
-32.47632897930115
 20
-3.150011691672678
 30
0.0
  0
SPLINE
  5
22AE
330
1F
100
AcDbEntity
  8
AM_0
100
AcDbSpline
210
0.0
220
0.0
230
1.0
 70
     8
 71
     3
 72
    11
 73
     7
 74
     0
 42
0.0000000001
 43
0.0000000001
 40
11.27226913003534
 40
11.27226913003534
 40
11.27226913003534
 40
11.2722691300354
 40
12.28301561507924
 40
13.29510212255852
 40
14.30984805882082
 40
15.18258238371378
 40
15.18258238371378
 40
15.18258238371378
 40
15.18258238371378
 10
-32.47632897930119
 20
-3.150011691672678
 30
0.0
 10
-32.65814048896578
 20
-3.134594676288654
 30
0.0
 10
-33.02142057721503
 20
-3.097270753019841
 30
0.0
 10
-33.56446479893837
 20
-3.021979167736109
 30
0.0
 10
-34.07982334071451
 20
-2.932051624515053
 30
0.0
 10
-34.41312699459583
 20
-2.862921645625653
 30
0.0
 10
-34.56672280911719
 20
-2.82877334549311
 30
0.0
  0
SPLINE
  5
22AF
330
1F
100
AcDbEntity
  8
AM_0
100
AcDbSpline
210
0.0
220
0.0
230
1.0
 70
     8
 71
     3
 72
    23
 73
    19
 74
     0
 42
0.0000000001
 43
0.0000000001
 40
16.03460024169435
 40
16.03460024169435
 40
16.03460024169435
 40
16.03460024169435
 40
16.35212704903564
 40
17.38177054169784
 40
18.41822485651776
 40
19.46214173629503
 40
20.51396345435107
 40
21.57393551351153
 40
22.64208202342361
 40
23.7182574881101
 40
24.80209208578934
 40
25.89306333925047
 40
26.99048218457928
 40
28.09348763352352
 40
29.20111863782268
 40
30.31232390128032
 40
31.42594612798585
 40
32.5407912310448
 40
32.5407912310486
 40
32.5407912310486
 40
32.5407912310486
 10
-31.13887996757809
 20
3.150435822993949
 30
0.0
 10
-31.08260557585685
 20
3.139801977707737
 30
0.0
 10
-30.84408997588424
 20
3.093494574447572
 30
0.0
 10
-30.4239421778955
 20
3.002762285159965
 30
0.0
 10
-29.87984967961722
 20
2.867844363227945
 30
0.0
 10
-29.33626256004371
 20
2.716354025439092
 30
0.0
 10
-28.79314869817859
 20
2.549168020600401
 30
0.0
 10
-28.25048881794839
 20
2.367218414431646
 30
0.0
 10
-27.70825155491261
 20
2.17154530761223
 30
0.0
 10
-27.1663991497292
 20
1.963287468542026
 30
0.0
 10
-26.62490081239839
 20
1.74362424922149
 30
0.0
 10
-26.08371312903493
 20
1.513833818741166
 30
0.0
 10
-25.54279224242901
 20
1.275251818363582
 30
0.0
 10
-25.00210211256474
 20
1.029249994570926
 30
0.0
 10
-24.46159750055565
 20
0.7772588142799739
 30
0.0
 10
-23.92122834422753
 20
0.5207497211085066
 30
0.0
 10
-23.3809506422772
 20
0.2612091157912407
 30
0.0
 10
-23.02086225324516
 20
0.087201331459636
 30
0.0
 10
-22.84071986040418
 20
0.0001485256117421
 30
0.0
  0
ELLIPSE
  5
23B3
330
1F
100
AcDbEntity
  8
AM_0
 48
0.5
100
AcDbEllipse
 10
3.354573440548106
 20
-0.7002012012782454
 30
0.0
 11
4.921343283629019
 21
1.112314599827326
 31
0.0
210
0.0
220
0.0
230
1.0
 40
0.8975677673860586
 41
3.035715197349297
 42
3.462746902368838
  0
ELLIPSE
  5
23B4
330
1F
100
AcDbEntity
  8
AM_0
 48
0.5
100
AcDbEllipse
 10
-5.551186122998441
 20
5.991647096234249
 30
0.0
 11
-4.911197028026478
 21
6.65704646846849
 31
0.0
210
0.0
220
0.0
230
1.0
 40
0.5700206404056103
 41
3.14653163117385
 42
3.335796059594246
  0
SPLINE
  5
23B5
330
1F
100
AcDbEntity
  8
AM_0
 48
0.5
100
AcDbSpline
210
0.0
220
0.0
230
1.0
 70
     8
 71
     3
 72
    10
 73
     6
 74
     0
 42
0.0000000001
 43
0.0000000001
 40
0.0
 40
0.0
 40
0.0
 40
0.0
 40
2.69986029516136
 40
4.147722969032201
 40
6.285750005020438
 40
6.285750005020438
 40
6.285750005020438
 40
6.285750005020438
 10
-3.369001007083884
 20
0.5701336147006019
 30
0.0
 10
-2.991152766206113
 20
0.2774768472195409
 30
0.0
 10
-2.410674646539771
 20
-0.1721238964557424
 30
0.0
 10
-1.03792187055814
 20
0.0455356998979985
 30
0.0
 10
-1.296451147251744
 20
0.7786420210688833
 30
0.0
 10
-1.467270775178491
 20
1.225492902889501
 30
0.0
  0
ELLIPSE
  5
23B6
330
1F
100
AcDbEntity
  8
AM_0
 48
0.5
100
AcDbEllipse
 10
-0.8419898986851992
 20
-0.8209349392241447
 30
0.0
 11
-0.4546646373347818
 21
0.2625000007865951
 31
0.0
210
0.0
220
0.0
230
1.0
 40
0.5000000000001405
 41
4.483836531792615
 42
7.627276873122125
  0
ELLIPSE
  5
23B7
330
1F
100
AcDbEntity
  8
AM_0
 48
0.5
100
AcDbEllipse
 10
-0.8419898986851992
 20
-0.8209349392241447
 30
0.0
 11
-0.0911636175733911
 21
0.5170231901188998
 31
0.0
210
0.0
220
0.0
230
1.0
 40
0.4999981224495358
 41
1.805862328724633
 42
4.941204218436607
  0
ELLIPSE
  5
23B8
330
1F
100
AcDbEntity
  8
AM_0
 48
0.5
100
AcDbEllipse
 10
2.107386016842349
 20
3.78176920430018
 30
0.0
 11
-4.489174159341557
 21
4.489174159341538
 31
0.0
210
0.0
220
0.0
230
1.0
 40
0.9999999999999943
 41
1.315765716631529
 42
1.723886646826419
  0
ELLIPSE
  5
23B9
330
1F
100
AcDbEntity
  8
AM_0
 48
0.5
100
AcDbEllipse
 10
-5.356280136111838
 20
5.286842370193614
 30
0.0
 11
5.370464508823589
 21
5.37046450882361
 31
0.0
210
0.0
220
0.0
230
1.0
 40
0.9999999999999122
 41
4.437574142215648
 42
4.526068919895139
  0
ELLIPSE
  5
23BA
330
1F
100
AcDbEntity
  8
AM_0
 48
0.5
100
AcDbEllipse
 10
4.591843812953186
 20
-3.811609748971854
 30
0.0
 11
0.8938490867504739
 21
-6.044302395160404
 31
0.0
210
0.0
220
0.0
230
-1.0
 40
0.8991184301885629
 41
1.890270824098471
 42
2.197796108596753
  0
ELLIPSE
  5
23BB
330
1F
100
AcDbEntity
  8
AM_0
 48
0.5
100
AcDbEllipse
 10
4.591843812953163
 20
3.811609748972246
 30
0.0
 11
0.8938490867504395
 21
6.044302395160409
 31
0.0
210
0.0
220
0.0
230
1.0
 40
0.8991184301885631
 41
1.890270824098471
 42
2.197796108596753
  0
LINE
  5
23BC
330
1F
100
AcDbEntity
  8
AM_0
 48
0.5
100
AcDbLine
 10
-0.8484442974898504
 20
-2.67630029825241
 30
0.0
 11
-1.0
 21
-3.149999594527885
 31
0.0
  0
LINE
  5
23BD
330
1F
100
AcDbEntity
  8
AM_0
 48
0.5
100
AcDbLine
 10
0.0000000000001081
 20
0.0000000000001547
 30
0.0
 11
-1.45156259537093
 21
1.2095047237092
 31
0.0
  0
SPLINE
  5
23BF
330
1F
100
AcDbEntity
  8
AM_0
 48
0.5
100
AcDbSpline
210
0.0
220
0.0
230
1.0
 70
     8
 71
     3
 72
    25
 73
    21
 74
     0
 42
0.0000000001
 43
0.0000000001
 40
6.846175049578289
 40
6.846175049578289
 40
6.846175049578289
 40
6.846175049578289
 40
7.604337694224321
 40
8.711974558287883
 40
9.814980593243754
 40
10.91239053451967
 40
12.0033633515982
 40
13.08720139956839
 40
14.16337181880432
 40
15.23152222380919
 40
16.29148850140128
 40
17.34331105512262
 40
18.38723020264746
 40
19.42369128463655
 40
20.45333379090873
 40
21.47697865721768
 40
22.49561244472435
 40
23.5103574802404
 40
24.52244778960836
 40
25.53320666051913
 40
25.53320666051913
 40
25.53320666051913
 40
25.53320666051913
 10
-3.369085885405414
 20
0.5701710280522879
 30
0.0
 10
-3.489686912929844
 20
0.6254794257979147
 30
0.0
 10
-3.786733686539193
 20
0.7610371079995738
 30
0.0
 10
-4.260667649327924
 20
0.9739114674828039
 30
0.0
 10
-4.790980967062775
 20
1.206110170183638
 30
0.0
 10
-5.321320954598792
 20
1.430890188212574
 30
0.0
 10
-5.85169216854485
 20
1.646869447610468
 30
0.0
 10
-6.382100518545129
 20
1.852715464722818
 30
0.0
 10
-6.912550909210835
 20
2.047158807723375
 30
0.0
 10
-7.443045796247883
 20
2.229004481529351
 30
0.0
 10
-7.973591713992377
 20
2.397120802437802
 30
0.0
 10
-8.504187944021811
 20
2.55047687485254
 30
0.0
 10
-9.034838297497579
 20
2.68811575848737
 30
0.0
 10
-9.565540901730159
 20
2.809185627751007
 30
0.0
 10
-10.09629368352698
 20
2.912944410966305
 30
0.0
 10
-10.62709368949827
 20
2.998704346790917
 30
0.0
 10
-11.15793266060907
 20
3.066072934926042
 30
0.0
 10
-11.68880474647516
 20
3.114135142800016
 30
0.0
 10
-12.2197013294429
 20
3.144379602182413
 30
0.0
 10
-12.5737196206529
 20
3.148127626691705
 30
0.0
 10
-12.75061225891466
 20
3.150000405472283
 30
0.0
  0
LINE
  5
23C0
330
1F
100
AcDbEntity
  8
AM_0
 48
0.5
100
AcDbLine
 10
-2.658437730482057
 20
3.149988308327161
 30
0.0
 11
-0.999982198083596
 21
3.149988308327147
 31
0.0
  0
LINE
  5
23C1
330
1F
100
AcDbEntity
  8
AM_0
 48
0.5
100
AcDbLine
 10
-0.8484442974898664
 20
2.676300298252773
 30
0.0
 11
-0.999982198083596
 21
3.149988308327147
 31
0.0
  0
LINE
  5
23C2
330
1F
100
AcDbEntity
  8
AM_0
 48
0.5
100
AcDbLine
 10
-2.659615736513604
 20
-3.149999594527862
 30
0.0
 11
-1.0
 21
-3.149999594527885
 31
0.0
  0
LINE
  5
23C4
330
1F
100
AcDbEntity
  8
AM_0
100
AcDbLine
 10
-0.3334403114330071
 20
0.9161197263985309
 30
0.0
 11
0.0000000000000673
 21
0.0000000000001849
 31
0.0
  0
LINE
  5
23C5
330
1F
100
AcDbEntity
  8
AM_0
100
AcDbLine
 10
0.0000000000000673
 20
0.0000000000001849
 30
0.0
 11
-0.3334403114330018
 21
-0.9161197263981664
 31
0.0
  0
DIMENSION
  5
23F8
330
1F
100
AcDbEntity
  8
AM_5
100
AcDbDimension
  2
*D10
 10
-0.3334403114330018
 20
-0.9161197263981664
 30
0.0
 11
12.31731121352198
 21
0.000000000000229
 31
0.0
 70
    34
  1
<>
 51
359.9999999999998
  3
AM_JIS$2
100
AcDb2LineAngularDimension
 13
-0.3334403114330071
 23
0.9161197263985309
 33
0.0
 14
0.0000000000000673
 24
0.0000000000001849
 34
0.0
 15
0.0000000000000673
 25
0.0000000000001849
 35
0.0
 16
12.7331885153773
 26
-5.492561381043811
 36
0.0
1001
ACAD
1000
DSTYLE
1002
{
1070
   179
1070
     3
1002
}
1001
GENIUS_GENDTOL_13
1000

1000
h7
1000

1040
0.0
  0
VIEWPORT
  5
110
330
101
100
AcDbEntity
 67
     1
  8
0
100
AcDbViewport
 10
420.5
 20
297.0
 30
0.0
 40
948.9782706766916
 41
628.452
 68
     1
 69
     1
1001
ACAD
1000
MVIEW
1002
{
1070
    16
1010
0.0
1020
0.0
1030
0.0
1010
0.0
1020
0.0
1030
1.0
1040
0.0
1040
628.452
1040
420.5
1040
297.0
1040
50.0
1040
0.0
1040
0.0
1070
     0
1070
   100
1070
     1
1070
     1
1070
     0
1070
     0
1070
     0
1070
     0
1040
0.0
1040
0.0
1040
0.0
1040
10.0
1040
10.0
1040
10.0
1040
10.0
1070
     0
1002
{
1002
}
1002
}
  0
ENDSEC
  0
SECTION
  2
OBJECTS
  0
DICTIONARY
  5
C
330
0
100
AcDbDictionary
  3
ACAD_GROUP
350
D
  3
ACAD_LAYOUT
350
1A
  3
ACAD_MLINESTYLE
350
17
  3
ACAD_PLOTSETTINGS
350
19
  3
ACAD_PLOTSTYLENAME
350
E
  3
ACDBVARIABLEDICTIONARY
350
34
  3
ACMDICTIONARY
350
43
  3
AMG
350
2B
  3
AMGSNAPSETTINGS
350
6E
  3
DWGPROPS
350
251B
  3
ACDBHEADERROUNDTRIPXREC
350
2528
  0
DICTIONARY
  5
74
330
1F
100
AcDbDictionary
280
     1
  3
ACAD_INDEX
360
251D
  3
ACAD_LAYOUTSELFREF
360
254B
  0
DICTIONARY
  5
2550
330
101
100
AcDbDictionary
280
     1
  3
ACAD_LAYOUTSELFREF
360
2551
  0
DICTIONARY
  5
D
102
{ACAD_REACTORS
330
C
102
}
330
C
100
AcDbDictionary
  0
DICTIONARY
  5
1A
102
{ACAD_REACTORS
330
C
102
}
330
C
100
AcDbDictionary
  0
DICTIONARY
  5
17
102
{ACAD_REACTORS
330
C
102
}
330
C
100
AcDbDictionary
  3
STANDARD
350
18
  0
DICTIONARY
  5
19
102
{ACAD_REACTORS
330
C
102
}
330
C
100
AcDbDictionary
  0
ACDBDICTIONARYWDFLT
  5
E
102
{ACAD_REACTORS
330
C
102
}
330
C
100
AcDbDictionary
281
     1
  3
Normal
350
F
100
AcDbDictionaryWithDefault
340
F
  0
DICTIONARY
  5
34
102
{ACAD_REACTORS
330
C
102
}
330
C
100
AcDbDictionary
  3
INDEXCTL
350
35
  3
SORTENTS
350
B5E
  0
DICTIONARY
  5
43
102
{ACAD_REACTORS
330
C
102
}
330
C
100
AcDbDictionary
  3
ACMSTDDICTIONARY
350
260
  0
DICTIONARY
  5
2B
102
{ACAD_REACTORS
330
C
102
}
330
C
100
AcDbDictionary
  3
ACMGSETTINGS
350
2C
  0
DICTIONARY
  5
6E
102
{ACAD_REACTORS
330
C
102
}
330
C
100
AcDbDictionary
  0
XRECORD
  5
251B
102
{ACAD_REACTORS
330
C
102
}
330
C
100
AcDbXrecord
  1
DWGPROPS COOKIE
  2

  3

  4

  6

  7

  8

  9

300
AmdtFileType=82
301
=
302
=
303
=
304
=
305
=
306
=
307
=
308
=
309
=
 40
0.0604801273148148
 41
2452800.443498622
 42
2452948.545935139
  1

 90
        1
  0
DICTIONARY
  5
2528
102
{ACAD_REACTORS
330
C
102
}
330
C
100
AcDbDictionary
  3
TSTACKALIGN
350
2529
  3
TSTACKSIZE
350
252A
  3
HYPERLINKBASE
350
252B
  3
STYLESHEET
350
252C
  3
LAYOUTDICT
350
252D
  3
PLOTSETDICT
350
252E
  3
PLOTSTYLNAMDICT
350
252F
  3
LWETCUNION
350
2530
  3
INSUNITS
350
2531
  3
CEPSNTYPE
350
2532
  3
FINGERPRINTGUID
350
2533
  3
VERSIONGUID
350
2534
  3
PSVPSCALE
350
2535
  3
DIMSTYLEDATA
350
2536
  3
PUCSORTHOREF
350
2537
  3
PUCSORTHOVIEW
350
2538
  3
PUCSBASE
350
2539
  3
PUCSORGTOP
350
253A
  3
PUCSORGBOTTOM
350
253B
  3
PUCSORGLEFT
350
253C
  3
PUCSORGRIGHT
350
253D
  3
PUCSORGFRONT
350
253E
  3
PUCSORGBACK
350
253F
  3
UCSORTHOREF
350
2540
  3
UCSORTHOVIEW
350
2541
  3
UCSBASE
350
2542
  3
UCSORGTOP
350
2543
  3
UCSORGBOTTOM
350
2544
  3
UCSORGLEFT
350
2545
  3
UCSORGRIGHT
350
2546
  3
UCSORGFRONT
350
2547
  3
UCSORGBACK
350
2548
  0
DICTIONARY
  5
251D
102
{ACAD_REACTORS
330
74
102
}
330
74
100
AcDbDictionary
  3
*A1
350
251E
  0
XRECORD
  5
254B
102
{ACAD_REACTORS
330
74
102
}
330
74
100
AcDbXrecord
340
1F
  0
XRECORD
  5
2551
102
{ACAD_REACTORS
330
2550
102
}
330
2550
100
AcDbXrecord
340
101
  0
MLINESTYLE
  5
18
102
{ACAD_REACTORS
330
17
102
}
330
17
100
AcDbMlineStyle
  2
STANDARD
 70
     0
  3

 62
   256
 51
90.0
 52
90.0
 71
     2
 49
0.5
 62
   256
  6
BYLAYER
 49
-0.5
 62
   256
  6
BYLAYER
  0
ACDBPLACEHOLDER
  5
F
102
{ACAD_REACTORS
330
E
102
}
330
E
100
AcDbPlaceHolder
280
     0
  0
DICTIONARYVAR
  5
35
102
{ACAD_REACTORS
330
34
102
}
330
34
100
DictionaryVariables
280
     0
  1
1
  0
DICTIONARYVAR
  5
B5E
102
{ACAD_REACTORS
330
34
102
}
330
34
100
DictionaryVariables
280
     0
  1
96
  0
DICTIONARY
  5
260
102
{ACAD_REACTORS
330
43
102
}
330
43
100
AcDbDictionary
  0
DICTIONARY
  5
2C
102
{ACAD_REACTORS
330
2B
102
}
330
2B
100
AcDbDictionary
  3
DWGSETTINGS
350
2D
  0
XRECORD
  5
2529
102
{ACAD_REACTORS
330
2528
102
}
330
2528
100
AcDbXrecord
 90
        1
  0
XRECORD
  5
252A
102
{ACAD_REACTORS
330
2528
102
}
330
2528
100
AcDbXrecord
 90
       70
  0
XRECORD
  5
252B
102
{ACAD_REACTORS
330
2528
102
}
330
2528
100
AcDbXrecord
  1

  0
XRECORD
  5
252C
102
{ACAD_REACTORS
330
2528
102
}
330
2528
100
AcDbXrecord
  1
ASAMI.ctb
  0
XRECORD
  5
252D
102
{ACAD_REACTORS
330
2528
102
}
330
2528
100
AcDbXrecord
340
1A
  0
XRECORD
  5
252E
102
{ACAD_REACTORS
330
2528
102
}
330
2528
100
AcDbXrecord
340
19
  0
XRECORD
  5
252F
102
{ACAD_REACTORS
330
2528
102
}
330
2528
100
AcDbXrecord
340
E
  0
XRECORD
  5
2530
102
{ACAD_REACTORS
330
2528
102
}
330
2528
100
AcDbXrecord
 90
    10781
  0
XRECORD
  5
2531
102
{ACAD_REACTORS
330
2528
102
}
330
2528
100
AcDbXrecord
 90
        4
  0
XRECORD
  5
2532
102
{ACAD_REACTORS
330
2528
102
}
330
2528
100
AcDbXrecord
 90
        0
  0
XRECORD
  5
2533
102
{ACAD_REACTORS
330
2528
102
}
330
2528
100
AcDbXrecord
  1
{AFB28963-8C59-40AE-9337-C84526B81ACE}
  0
XRECORD
  5
2534
102
{ACAD_REACTORS
330
2528
102
}
330
2528
100
AcDbXrecord
  1
{5D817A12-37D0-4B78-A2E3-B647CD03B612}
  0
XRECORD
  5
2535
102
{ACAD_REACTORS
330
2528
102
}
330
2528
100
AcDbXrecord
 40
0.0
  0
XRECORD
  5
2536
102
{ACAD_REACTORS
330
2528
102
}
330
2528
100
AcDbXrecord
1000
DSTYLE
1002
{
1070
    79
 70
     2
1070
   341
340
59
1070
   342
340
59
1070
   371
 70
    -1
1070
   372
 70
    -1
1002
}
  0
XRECORD
  5
2537
102
{ACAD_REACTORS
330
2528
102
}
330
2528
100
AcDbXrecord
340
0
  0
XRECORD
  5
2538
102
{ACAD_REACTORS
330
2528
102
}
330
2528
100
AcDbXrecord
 70
     0
  0
XRECORD
  5
2539
102
{ACAD_REACTORS
330
2528
102
}
330
2528
100
AcDbXrecord
340
0
  0
XRECORD
  5
253A
102
{ACAD_REACTORS
330
2528
102
}
330
2528
100
AcDbXrecord
 10
0.0
 20
0.0
 30
0.0
  0
XRECORD
  5
253B
102
{ACAD_REACTORS
330
2528
102
}
330
2528
100
AcDbXrecord
 10
0.0
 20
0.0
 30
0.0
  0
XRECORD
  5
253C
102
{ACAD_REACTORS
330
2528
102
}
330
2528
100
AcDbXrecord
 10
0.0
 20
0.0
 30
0.0
  0
XRECORD
  5
253D
102
{ACAD_REACTORS
330
2528
102
}
330
2528
100
AcDbXrecord
 10
0.0
 20
0.0
 30
0.0
  0
XRECORD
  5
253E
102
{ACAD_REACTORS
330
2528
102
}
330
2528
100
AcDbXrecord
 10
0.0
 20
0.0
 30
0.0
  0
XRECORD
  5
253F
102
{ACAD_REACTORS
330
2528
102
}
330
2528
100
AcDbXrecord
 10
0.0
 20
0.0
 30
0.0
  0
XRECORD
  5
2540
102
{ACAD_REACTORS
330
2528
102
}
330
2528
100
AcDbXrecord
340
0
  0
XRECORD
  5
2541
102
{ACAD_REACTORS
330
2528
102
}
330
2528
100
AcDbXrecord
 70
     0
  0
XRECORD
  5
2542
102
{ACAD_REACTORS
330
2528
102
}
330
2528
100
AcDbXrecord
340
0
  0
XRECORD
  5
2543
102
{ACAD_REACTORS
330
2528
102
}
330
2528
100
AcDbXrecord
 10
0.0
 20
0.0
 30
0.0
  0
XRECORD
  5
2544
102
{ACAD_REACTORS
330
2528
102
}
330
2528
100
AcDbXrecord
 10
0.0
 20
0.0
 30
0.0
  0
XRECORD
  5
2545
102
{ACAD_REACTORS
330
2528
102
}
330
2528
100
AcDbXrecord
 10
0.0
 20
0.0
 30
0.0
  0
XRECORD
  5
2546
102
{ACAD_REACTORS
330
2528
102
}
330
2528
100
AcDbXrecord
 10
0.0
 20
0.0
 30
0.0
  0
XRECORD
  5
2547
102
{ACAD_REACTORS
330
2528
102
}
330
2528
100
AcDbXrecord
 10
0.0
 20
0.0
 30
0.0
  0
XRECORD
  5
2548
102
{ACAD_REACTORS
330
2528
102
}
330
2528
100
AcDbXrecord
 10
0.0
 20
0.0
 30
0.0
  0
LAYER_INDEX
  5
251E
102
{ACAD_REACTORS
330
251D
102
}
330
251D
100
AcDbIndex
 40
2453151.694935243
100
AcDbLayerIndex
  8
0
360
251F
 90
        0
  8
AM_0
360
2520
 90
       52
  8
AM_7
360
2521
 90
        1
  8
AM_11
360
2522
 90
       23
  8
AM_5
360
2523
 90
        5
  8
Defpoints
360
2524
 90
        0
  8
AM_6
360
2525
 90
        1
  8
AM_CL
360
2526
 90
        0
  0
XRECORD
  5
2D
102
{ACAD_REACTORS
330
2C
102
}
330
2C
100
AcDbXrecord
  1
VERSION
140
15.0
  1
PRODUCT
  2
AutoCAD Mechanical 2000
  0
IDBUFFER
  5
251F
330
0
100
AcDbIdBuffer
  0
IDBUFFER
  5
2520
330
0
100
AcDbIdBuffer
330
23C1
330
23C2
330
23C4
330
23C5
330
1D9D
330
1D9E
330
1D9F
330
1DA1
330
1DA2
330
1DA4
330
1DA5
330
1F71
330
1F72
330
2275
330
2276
330
2277
330
228D
330
228F
330
2293
330
2294
330
2295
330
229A
330
229B
330
229C
330
229D
330
229E
330
229F
330
22A0
330
22A3
330
22A6
330
22A7
330
22A8
330
22A9
330
22AA
330
22AB
330
22AC
330
22AD
330
22AE
330
22AF
330
23B3
330
23B4
330
23B5
330
23B6
330
23B7
330
23B8
330
23B9
330
23BA
330
23BB
330
23BC
330
23BD
330
23BF
330
23C0
  0
IDBUFFER
  5
2521
330
0
100
AcDbIdBuffer
330
1D14
  0
IDBUFFER
  5
2522
330
0
100
AcDbIdBuffer
330
1F7E
330
228E
330
2290
330
2291
330
2292
330
2296
330
2297
330
144A
330
144B
330
144E
330
144F
330
1450
330
1451
330
1452
330
1453
330
1454
330
1F77
330
1F78
330
1F79
330
1F7A
330
1F7B
330
1F7C
330
1F7D
  0
IDBUFFER
  5
2523
330
0
100
AcDbIdBuffer
330
CC6
330
DF5
330
1F93
330
2278
330
23F8
  0
IDBUFFER
  5
2524
330
0
100
AcDbIdBuffer
  0
IDBUFFER
  5
2525
330
0
100
AcDbIdBuffer
330
19BD
  0
IDBUFFER
  5
2526
330
0
100
AcDbIdBuffer
  0
ENDSEC
  0
EOF
