  0
SECTION
  2
HEADER
  9
$ACADVER
  1
AC1014
  9
$ACADMAINTVER
 70
     9
  9
$DWGCODEPAGE
  3
ANSI_932
  9
$INSBASE
 10
0.0
 20
0.0
 30
0.0
  9
$EXTMIN
 10
-121.4000009999999
 20
-26.75000099999976
 30
-0.00000001
  9
$EXTMAX
 10
13.70487257203745
 20
13.34821393514801
 30
0.00000001
  9
$LIMMIN
 10
-127.3218853520102
 20
-42.31713956502457
  9
$LIMMAX
 10
18.80311631065893
 20
30.79287672055386
  9
$ORTHOMODE
 70
     0
  9
$REGENMODE
 70
     1
  9
$FILLMODE
 70
     1
  9
$QTEXTMODE
 70
     0
  9
$MIRRTEXT
 70
     0
  9
$DRAGMODE
 70
     2
  9
$LTSCALE
 40
1.0
  9
$OSMODE
 70
    55
  9
$ATTMODE
 70
     1
  9
$TEXTSIZE
 40
2.5
  9
$TRACEWID
 40
1.0
  9
$TEXTSTYLE
  7
STANDARD
  9
$CLAYER
  8
AM_0
  9
$CELTYPE
  6
BYLAYER
  9
$CECOLOR
 62
   256
  9
$CELTSCALE
 40
1.0
  9
$DELOBJ
 70
     1
  9
$DISPSILH
 70
     0
  9
$DIMSCALE
 40
0.5
  9
$DIMASZ
 40
2.5
  9
$DIMEXO
 40
1.0
  9
$DIMDLI
 40
12.0
  9
$DIMRND
 40
0.0
  9
$DIMDLE
 40
0.0
  9
$DIMEXE
 40
1.0
  9
$DIMTP
 40
0.1
  9
$DIMTM
 40
0.1
  9
$DIMTXT
 40
3.2
  9
$DIMCEN
 40
0.0
  9
$DIMTSZ
 40
0.0
  9
$DIMTOL
 70
     0
  9
$DIMLIM
 70
     0
  9
$DIMTIH
 70
     0
  9
$DIMTOH
 70
     0
  9
$DIMSE1
 70
     0
  9
$DIMSE2
 70
     0
  9
$DIMTAD
 70
     3
  9
$DIMZIN
 70
     8
  9
$DIMBLK
  1
OPEN30
  9
$DIMASO
 70
     1
  9
$DIMSHO
 70
     1
  9
$DIMPOST
  1

  9
$DIMAPOST
  1
"
  9
$DIMALT
 70
     0
  9
$DIMALTD
 70
     2
  9
$DIMALTF
 40
0.0393701
  9
$DIMLFAC
 40
1.0
  9
$DIMTOFL
 70
     1
  9
$DIMTVP
 40
0.0
  9
$DIMTIX
 70
     0
  9
$DIMSOXD
 70
     0
  9
$DIMSAH
 70
     0
  9
$DIMBLK1
  1

  9
$DIMBLK2
  1

  9
$DIMSTYLE
  2
AM_JIS
  9
$DIMCLRD
 70
   256
  9
$DIMCLRE
 70
   256
  9
$DIMCLRT
 70
     2
  9
$DIMTFAC
 40
0.71
  9
$DIMGAP
 40
1.5
  9
$DIMJUST
 70
     0
  9
$DIMSD1
 70
     0
  9
$DIMSD2
 70
     0
  9
$DIMTOLJ
 70
     0
  9
$DIMTZIN
 70
     0
  9
$DIMALTZ
 70
     0
  9
$DIMALTTZ
 70
     0
  9
$DIMFIT
 70
     3
  9
$DIMUPT
 70
     0
  9
$DIMUNIT
 70
     2
  9
$DIMDEC
 70
     3
  9
$DIMTDEC
 70
     3
  9
$DIMALTU
 70
     2
  9
$DIMALTTD
 70
     2
  9
$DIMTXSTY
  7
ASAMI
  9
$DIMAUNIT
 70
     0
  9
$LUNITS
 70
     2
  9
$LUPREC
 70
     2
  9
$SKETCHINC
 40
1.0
  9
$FILLETRAD
 40
2.5
  9
$AUNITS
 70
     0
  9
$AUPREC
 70
     0
  9
$MENU
  1
.
  9
$ELEVATION
 40
0.0
  9
$PELEVATION
 40
0.0
  9
$THICKNESS
 40
0.0
  9
$LIMCHECK
 70
     0
  9
$BLIPMODE
 70
     0
  9
$CHAMFERA
 40
0.25
  9
$CHAMFERB
 40
0.25
  9
$CHAMFERC
 40
20.0
  9
$CHAMFERD
 40
0.0
  9
$SKPOLY
 70
     0
  9
$TDCREATE
 40
2452800.443498622
  9
$TDUPDATE
 40
2453151.676259745
  9
$TDINDWG
 40
0.1353745139
  9
$TDUSRTIMER
 40
0.1353745139
  9
$USRTIMER
 70
     1
  9
$ANGBASE
 50
0.0
  9
$ANGDIR
 70
     0
  9
$PDMODE
 70
     3
  9
$PDSIZE
 40
0.0
  9
$PLINEWID
 40
0.0
  9
$COORDS
 70
     1
  9
$SPLFRAME
 70
     0
  9
$SPLINETYPE
 70
     6
  9
$SPLINESEGS
 70
     8
  9
$ATTDIA
 70
     1
  9
$ATTREQ
 70
     1
  9
$HANDLING
 70
 12289
  9
$HANDSEED
  5
2364
  9
$SURFTAB1
 70
     6
  9
$SURFTAB2
 70
     6
  9
$SURFTYPE
 70
     6
  9
$SURFU
 70
     6
  9
$SURFV
 70
     6
  9
$UCSNAME
  2

  9
$UCSORG
 10
0.0
 20
0.0
 30
0.0
  9
$UCSXDIR
 10
1.0
 20
0.000000000000002
 30
0.0
  9
$UCSYDIR
 10
-0.000000000000002
 20
1.0
 30
0.0
  9
$PUCSNAME
  2

  9
$PUCSORG
 10
0.0
 20
0.0
 30
0.0
  9
$PUCSXDIR
 10
1.0
 20
0.0
 30
0.0
  9
$PUCSYDIR
 10
0.0
 20
1.0
 30
0.0
  9
$USERI1
 70
     0
  9
$USERI2
 70
     0
  9
$USERI3
 70
     0
  9
$USERI4
 70
     0
  9
$USERI5
 70
     0
  9
$USERR1
 40
0.0
  9
$USERR2
 40
0.0
  9
$USERR3
 40
0.0
  9
$USERR4
 40
0.0
  9
$USERR5
 40
0.0
  9
$WORLDVIEW
 70
     1
  9
$SHADEDGE
 70
     3
  9
$SHADEDIF
 70
    70
  9
$TILEMODE
 70
     1
  9
$MAXACTVP
 70
    64
  9
$PINSBASE
 10
0.0
 20
0.0
 30
0.0
  9
$PLIMCHECK
 70
     0
  9
$PEXTMIN
 10
1.000000000000000E+20
 20
1.000000000000000E+20
 30
1.000000000000000E+20
  9
$PEXTMAX
 10
-1.000000000000000E+20
 20
-1.000000000000000E+20
 30
-1.000000000000000E+20
  9
$PLIMMIN
 10
0.0
 20
0.0
  9
$PLIMMAX
 10
841.0
 20
594.0
  9
$UNITMODE
 70
     0
  9
$VISRETAIN
 70
     1
  9
$PLINEGEN
 70
     0
  9
$PSLTSCALE
 70
     0
  9
$TREEDEPTH
 70
  3020
  9
$PICKSTYLE
 70
     0
  9
$CMLSTYLE
  2
STANDARD
  9
$CMLJUST
 70
     0
  9
$CMLSCALE
 40
20.0
  9
$PROXYGRAPHICS
 70
     1
  9
$MEASUREMENT
 70
     1
  0
ENDSEC
  0
SECTION
  2
CLASSES
  0
CLASS
  1
ACDBDICTIONARYWDFLT
  2
AcDbDictionaryWithDefault
  3
AutoCAD 2000
 90
        0
280
     0
281
     0
  0
CLASS
  1
ACDBPLACEHOLDER
  2
AcDbPlaceHolder
  3
AutoCAD 2000
 90
        0
280
     0
281
     0
  0
CLASS
  1
LAYOUT
  2
AcDbLayout
  3
AutoCAD 2000
 90
        0
280
     0
281
     0
  0
CLASS
  1
AMGSETTINGSOBJ
  2
AmgSettingsObj
  3
"AcadM|Product Description: AutoCAD Mechanical 2000|Company: Autodesk"
 90
        0
280
     0
281
     0
  0
CLASS
  1
ACME_DOCUMENT
  2
AcMeDbDoc
  3
AcMeServices
 90
        0
280
     0
281
     0
  0
CLASS
  1
ACMESCOPE
  2
AcMeScope
  3
AcMeServices
 90
        0
280
     0
281
     0
  0
CLASS
  1
ACMECOMMANDHISTORY
  2
AcMeCommandHistory
  3
AcMeServices
 90
        0
280
     0
281
     0
  0
CLASS
  1
DICTIONARYVAR
  2
AcDbDictionaryVar
  3
AutoCAD 2000
 90
        0
280
     0
281
     0
  0
CLASS
  1
ACIMSYSVARMAN
  2
AcImSysVarManager
  3
AcMeServices
 90
        0
280
     0
281
     0
  0
CLASS
  1
ACIMREALSYSVAR
  2
AcImRealSysVar
  3
AcMeServices
 90
        0
280
     0
281
     0
  0
CLASS
  1
ACIMINTSYSVAR
  2
AcImIntSysVar
  3
AcMeServices
 90
        0
280
     0
281
     0
  0
CLASS
  1
ACMEDRAWINGMAN
  2
AcMeDrawingMan
  3
AcMeServices
 90
        0
280
     0
281
     0
  0
CLASS
  1
ACMEVIEW
  2
AcMeView
  3
AcMeServices
 90
        0
280
     0
281
     0
  0
CLASS
  1
ACDBENTITYCACHE
  2
AcMeEntityCache
  3
AcMeServices
 90
        0
280
     0
281
     0
  0
CLASS
  1
GSMANAGER
  2
AcMeGSManager
  3
AcMeServices
 90
        0
280
     0
281
     0
  0
CLASS
  1
AmdtInternalReactor
  2
AmdtInternalReactor
  3
AcMeServices
 90
        0
280
     0
281
     0
  0
CLASS
  1
ACMESTATEMGR
  2
AcMeStateMgr
  3
AcMeServices
 90
        0
280
     0
281
     0
  0
CLASS
  1
ACME_DATABASE
  2
AcMeDbDatabase
  3
AcMeServices
 90
        0
280
     0
281
     0
  0
CLASS
  1
ACRFINSADJUSTERMGR
  2
AcRfInsAdjusterMgr
  3
AcMeServices
 90
        0
280
     0
281
     0
  0
CLASS
  1
ACMDATADICTIONARY
  2
AcmDataDictionary
  3
"AcmSymBB|Product Description: AutoCAD Mechanical 2000|Company: Autodesk"
 90
        0
280
     0
281
     0
  0
CLASS
  1
ACMDATAENTRYBLOCK
  2
AcmDataEntryBlock
  3
"AcmSymBB|Product Description: AutoCAD Mechanical 2000|Company: Autodesk"
 90
        0
280
     0
281
     0
  0
CLASS
  1
AMGOBJPROPCFG
  2
AmgObjPropCfg
  3
"AmgLay|Product Description: AutoCAD Mechanical 2000|Company: Autodesk"
 90
        1
280
     0
281
     0
  0
CLASS
  1
ACAMGFILTERDAT
  2
AcAmgFilterDat
  3
"AcadM|Product Description: AutoCAD Mechanical 2000|Company: Autodesk"
 90
        0
280
     0
281
     0
  0
CLASS
  1
LAYER_INDEX
  2
AcDbLayerIndex
  3
AutoCAD 2000
 90
        0
280
     0
281
     0
  0
CLASS
  1
IDBUFFER
  2
AcDbIdBuffer
  3
AutoCAD 2000
 90
        0
280
     0
281
     0
  0
CLASS
  1
ACIMSTRSYSVAR
  2
AcImStrSysVar
  3
AcMeServices
 90
        0
280
     0
281
     0
  0
CLASS
  1
ACMSTANDARDJIS
  2
AcmStandardJIS
  3
"AcmSymBB|Product Description: AutoCAD Mechanical 2000|Company: Autodesk"
 90
        0
280
     0
281
     0
  0
CLASS
  1
ACMSURFSTANDARDJIS
  2
AcmSurfTextStdJIS
  3
"AcmSymBB|Product Description: AutoCAD Mechanical 2000|Company: Autodesk"
 90
        0
280
     0
281
     0
  0
CLASS
  1
ACMFCFSTANDARDJIS
  2
AcmFCFStdJIS
  3
"AcmSymBB|Product Description: AutoCAD Mechanical 2000|Company: Autodesk"
 90
        0
280
     0
281
     0
  0
CLASS
  1
ACMWELDSTANDARDJIS
  2
AcmWeldingStdJIS
  3
"AcmSymBB|Product Description: AutoCAD Mechanical 2000|Company: Autodesk"
 90
        0
280
     0
281
     0
  0
CLASS
  1
ACMIDSTANDARDJIS
  2
AcmIdStdJIS
  3
"AcmSymBB|Product Description: AutoCAD Mechanical 2000|Company: Autodesk"
 90
        0
280
     0
281
     0
  0
CLASS
  1
ACMDATUMSTANDARDJIS
  2
AcmDatumStdJIS
  3
"AcmSymBB|Product Description: AutoCAD Mechanical 2000|Company: Autodesk"
 90
        0
280
     0
281
     0
  0
CLASS
  1
ACMBOMSTANDARDJIS
  2
AcmBOMStdJIS
  3
"AcmSymBB|Product Description: AutoCAD Mechanical 2000|Company: Autodesk"
 90
        0
280
     0
281
     0
  0
CLASS
  1
ACMSTANDARDANSI
  2
AcmStandardANSI
  3
"AcmSymBB|Product Description: AutoCAD Mechanical 2000|Company: Autodesk"
 90
        0
280
     0
281
     0
  0
CLASS
  1
ACMSURFSTANDARDANSI
  2
AcmSurfTextStdANSI
  3
"AcmSymBB|Product Description: AutoCAD Mechanical 2000|Company: Autodesk"
 90
        0
280
     0
281
     0
  0
CLASS
  1
ACMFCFSTANDARDANSI
  2
AcmFCFStdANSI
  3
"AcmSymBB|Product Description: AutoCAD Mechanical 2000|Company: Autodesk"
 90
        0
280
     0
281
     0
  0
CLASS
  1
ACMWELDSTANDARDANSI
  2
AcmWeldingStdANSI
  3
"AcmSymBB|Product Description: AutoCAD Mechanical 2000|Company: Autodesk"
 90
        0
280
     0
281
     0
  0
CLASS
  1
ACMIDSTANDARDANSI
  2
AcmIdStdANSI
  3
"AcmSymBB|Product Description: AutoCAD Mechanical 2000|Company: Autodesk"
 90
        0
280
     0
281
     0
  0
CLASS
  1
ACMDATUMSTANDARDANSI
  2
AcmDatumStdANSI
  3
"AcmSymBB|Product Description: AutoCAD Mechanical 2000|Company: Autodesk"
 90
        0
280
     0
281
     0
  0
CLASS
  1
ACMBOMSTANDARDANSI
  2
AcmBOMStdANSI
  3
"AcmSymBB|Product Description: AutoCAD Mechanical 2000|Company: Autodesk"
 90
        0
280
     0
281
     0
  0
CLASS
  1
ACMSTANDARDBSI
  2
AcmStandardBSI
  3
"AcmSymBB|Product Description: AutoCAD Mechanical 2000|Company: Autodesk"
 90
        0
280
     0
281
     0
  0
CLASS
  1
ACMSURFSTANDARDBSI
  2
AcmSurfTextStdBSI
  3
"AcmSymBB|Product Description: AutoCAD Mechanical 2000|Company: Autodesk"
 90
        0
280
     0
281
     0
  0
CLASS
  1
ACMFCFSTANDARDBSI
  2
AcmFCFStdBSI
  3
"AcmSymBB|Product Description: AutoCAD Mechanical 2000|Company: Autodesk"
 90
        0
280
     0
281
     0
  0
CLASS
  1
ACMWELDSTANDARDBSI
  2
AcmWeldingStdBSI
  3
"AcmSymBB|Product Description: AutoCAD Mechanical 2000|Company: Autodesk"
 90
        0
280
     0
281
     0
  0
CLASS
  1
ACMIDSTANDARDBSI
  2
AcmIdStdBSI
  3
"AcmSymBB|Product Description: AutoCAD Mechanical 2000|Company: Autodesk"
 90
        0
280
     0
281
     0
  0
CLASS
  1
ACMDATUMSTANDARDBSI
  2
AcmDatumStdBSI
  3
"AcmSymBB|Product Description: AutoCAD Mechanical 2000|Company: Autodesk"
 90
        0
280
     0
281
     0
  0
CLASS
  1
ACMBOMSTANDARDBSI
  2
AcmBOMStdBSI
  3
"AcmSymBB|Product Description: AutoCAD Mechanical 2000|Company: Autodesk"
 90
        0
280
     0
281
     0
  0
CLASS
  1
LONG_TRANSACTION
  2
AcDbLongTransaction
  3
AutoCAD 2000
 90
        0
280
     0
281
     0
  0
CLASS
  1
LWPOLYLINE
  2
AcDbPolyline
  3
AutoCAD 2000
 90
        0
280
     0
281
     1
  0
CLASS
  1
HATCH
  2
AcDbHatch
  3
AutoCAD 2000
 90
        0
280
     0
281
     1
  0
CLASS
  1
XRECORD
  2
AcDbXrecord
  3
AutoCAD 2000
 90
        0
280
     0
281
     0
  0
ENDSEC
  0
SECTION
  2
TABLES
  0
TABLE
  2
VPORT
  5
8
330
0
100
AcDbSymbolTable
 70
     3
  0
VPORT
  5
2339
330
8
100
AcDbSymbolTableRecord
100
AcDbViewportTableRecord
  2
*ACTIVE
 70
     0
 10
0.0
 20
0.0
 11
1.0
 21
1.0
 12
-51.34318802707473
 22
-6.699210319264096
 13
0.0
 23
0.0
 14
2.5
 24
2.5
 15
10.0
 25
10.0
 16
0.0
 26
0.0
 36
1.0
 17
0.0
 27
0.0
 37
0.0
 40
89.92645434599916
 41
1.56570841889117
 42
50.0
 43
0.0
 44
0.0
 50
0.0
 51
0.0
 71
     0
 72
   100
 73
     1
 74
     1
 75
     0
 76
     0
 77
     0
 78
     0
  0
ENDTAB
  0
TABLE
  2
LTYPE
  5
5
330
0
100
AcDbSymbolTable
 70
    10
  0
LTYPE
  5
14
330
5
100
AcDbSymbolTableRecord
100
AcDbLinetypeTableRecord
  2
BYBLOCK
 70
     0
  3

 72
    65
 73
     0
 40
0.0
  0
LTYPE
  5
15
330
5
100
AcDbSymbolTableRecord
100
AcDbLinetypeTableRecord
  2
BYLAYER
 70
     0
  3

 72
    65
 73
     0
 40
0.0
  0
LTYPE
  5
16
330
5
100
AcDbSymbolTableRecord
100
AcDbLinetypeTableRecord
  2
CONTINUOUS
 70
     0
  3
Solid line
 72
    65
 73
     0
 40
0.0
  0
LTYPE
  5
4B
330
5
100
AcDbSymbolTableRecord
100
AcDbLinetypeTableRecord
  2
AM_ISO02W050
 70
     0
  3
__ __ __ __ __ __ __ __ __ __ __ __ __ __ __
 72
    65
 73
     2
 40
7.5
 49
6.0
 74
     0
 49
-1.5
 74
     0
  0
LTYPE
  5
4C
330
5
100
AcDbSymbolTableRecord
100
AcDbLinetypeTableRecord
  2
AM_ISO08W050
 70
     0
  3
____ . ____ . ____ . ____ . ____ . ____ . ____
 72
    65
 73
     4
 40
18.0
 49
12.0
 74
     0
 49
-1.5
 74
     0
 49
3.0
 74
     0
 49
-1.5
 74
     0
  0
LTYPE
  5
4D
330
5
100
AcDbSymbolTableRecord
100
AcDbLinetypeTableRecord
  2
AM_ISO09W050
 70
     0
  3
_____ . . _____ . . _____ . . ____ .. ____
 72
    65
 73
     6
 40
22.5
 49
12.0
 74
     0
 49
-1.5
 74
     0
 49
3.0
 74
     0
 49
-1.5
 74
     0
 49
3.0
 74
     0
 49
-1.5
 74
     0
  0
LTYPE
  5
4E
330
5
100
AcDbSymbolTableRecord
100
AcDbLinetypeTableRecord
  2
AMCONSTR
 70
     0
  3
_______________________
 72
    65
 73
     2
 40
9999.0
 49
9999.0
 74
     0
 49
0.0
 74
     0
  0
LTYPE
  5
4F
330
5
100
AcDbSymbolTableRecord
100
AcDbLinetypeTableRecord
  2
AM_ISO02W050X2
 70
     0
  3
 _ _ _ _ _ _ _ _ _ _ _ _
 72
    65
 73
     2
 40
3.75
 49
3.0
 74
     0
 49
-0.75
 74
     0
  0
LTYPE
  5
50
330
5
100
AcDbSymbolTableRecord
100
AcDbLinetypeTableRecord
  2
AM_ISO08W050X2
 70
     0
  3
__ . __ . __ . __ . __ . __
 72
    65
 73
     4
 40
9.0
 49
6.0
 74
     0
 49
-0.75
 74
     0
 49
1.5
 74
     0
 49
-0.75
 74
     0
  0
LTYPE
  5
53
330
5
100
AcDbSymbolTableRecord
100
AcDbLinetypeTableRecord
  2
AMZIGZAG
 70
     0
  3
/\/-/\/-/\/-/\/-/\/-/\/
 72
    65
 73
     2
 40
11.00009999999999
 49
0.0001
 74
     4
 75
   135
340
52
 46
0.04
 50
0.0
 44
0.0
 45
0.0
 49
-11.0
 74
     0
  0
LTYPE
  5
166
330
5
100
AcDbSymbolTableRecord
100
AcDbLinetypeTableRecord
  2
ACJISTGL
 70
     0
  3
_ _ _ _ _
 72
    65
 73
     2
 40
3.0
 49
2.0
 74
     0
 49
-1.0
 74
     0
  0
LTYPE
  5
26A
330
5
100
AcDbSymbolTableRecord
100
AcDbLinetypeTableRecord
  2
ACJISTGB
 70
     0
  3
__ . . __ . .
 72
    65
 73
     6
 40
9.0
 49
4.0
 74
     0
 49
-1.0
 74
     0
 49
1.0
 74
     0
 49
-1.0
 74
     0
 49
1.0
 74
     0
 49
-1.0
 74
     0
  0
ENDTAB
  0
TABLE
  2
LAYER
  5
2
330
0
100
AcDbSymbolTable
 70
     8
  0
LAYER
  5
10
330
2
100
AcDbSymbolTableRecord
100
AcDbLayerTableRecord
  2
0
 70
     0
 62
     7
  6
CONTINUOUS
  0
LAYER
  5
3F9
330
2
100
AcDbSymbolTableRecord
100
AcDbLayerTableRecord
  2
AM_0
 70
     0
 62
     7
  6
CONTINUOUS
  0
LAYER
  5
C7C
330
2
100
AcDbSymbolTableRecord
100
AcDbLayerTableRecord
  2
AM_7
 70
     0
 62
     4
  6
AM_ISO08W050
  0
LAYER
  5
C97
330
2
100
AcDbSymbolTableRecord
100
AcDbLayerTableRecord
  2
AM_11
 70
     0
 62
     3
  6
AM_ISO09W050
  0
LAYER
  5
CC5
330
2
100
AcDbSymbolTableRecord
100
AcDbLayerTableRecord
  2
AM_5
 70
     0
 62
     3
  6
CONTINUOUS
  0
LAYER
  5
CC7
330
2
100
AcDbSymbolTableRecord
100
AcDbLayerTableRecord
  2
DEFPOINTS
 70
     0
 62
     7
  6
CONTINUOUS
  0
LAYER
  5
19BC
330
2
100
AcDbSymbolTableRecord
100
AcDbLayerTableRecord
  2
AM_6
 70
     0
 62
     2
  6
CONTINUOUS
  0
LAYER
  5
21D2
330
2
100
AcDbSymbolTableRecord
100
AcDbLayerTableRecord
  2
AM_CL
 70
     0
 62
     1
  6
AMCONSTR
  0
ENDTAB
  0
TABLE
  2
STYLE
  5
3
330
0
100
AcDbSymbolTable
 70
     5
  0
STYLE
  5
11
330
3
100
AcDbSymbolTableRecord
100
AcDbTextStyleTableRecord
  2
STANDARD
 70
     0
 40
0.0
 41
1.0
 50
0.0
 71
     0
 42
2.5
  3
simplex.shx
  4
EXTFONT.SHX
  0
STYLE
  5
52
330
3
100
AcDbSymbolTableRecord
100
AcDbTextStyleTableRecord
  2

 70
     1
 40
0.0
 41
1.0
 50
0.0
 71
     0
 42
2.5
  3
ltypeshp.shx
  4

  0
STYLE
  5
6B
330
3
100
AcDbSymbolTableRecord
100
AcDbTextStyleTableRecord
  2
ASAMI
 70
     0
 40
0.0
 41
1.0
 50
0.0
 71
     0
 42
2.5
  3
simplex.shx
  4
EXTFONT.SHX
  0
STYLE
  5
262
330
3
100
AcDbSymbolTableRecord
100
AcDbTextStyleTableRecord
  2
ACJISTS
 70
     0
 40
1.0
 41
1.0
 50
0.0
 71
     0
 42
2.5
  3
simplex.shx
  4
bigfont.shx
  0
STYLE
  5
269
330
3
100
AcDbSymbolTableRecord
100
AcDbTextStyleTableRecord
  2
ACJISGDT
 70
     0
 40
0.0
 41
1.0
 50
0.0
 71
     0
 42
2.5
  3
amgdtans.shx
  4

  0
ENDTAB
  0
TABLE
  2
VIEW
  5
6
330
0
100
AcDbSymbolTable
 70
     0
  0
ENDTAB
  0
TABLE
  2
UCS
  5
7
330
0
100
AcDbSymbolTable
 70
     0
  0
ENDTAB
  0
TABLE
  2
APPID
  5
9
330
0
100
AcDbSymbolTable
 70
    16
  0
APPID
  5
12
330
9
100
AcDbSymbolTableRecord
100
AcDbRegAppTableRecord
  2
ACAD
 70
     0
  0
APPID
  5
30
330
9
100
AcDbSymbolTableRecord
100
AcDbRegAppTableRecord
  2
MCAD_NO_VIS
 70
     0
  0
APPID
  5
31
330
9
100
AcDbSymbolTableRecord
100
AcDbRegAppTableRecord
  2
ACAD_TEMP_GRAPHIC
 70
     0
  0
APPID
  5
2C2
330
9
100
AcDbSymbolTableRecord
100
AcDbRegAppTableRecord
  2
GENIUS_GENDTOL_13
 70
     0
  0
APPID
  5
339
330
9
100
AcDbSymbolTableRecord
100
AcDbRegAppTableRecord
  2
GENIUS_GENODEF_13
 70
     0
  0
APPID
  5
33A
330
9
100
AcDbSymbolTableRecord
100
AcDbRegAppTableRecord
  2
GENIUS_GENOBJ-N-RSBK_13
 70
     0
  0
APPID
  5
33B
330
9
100
AcDbSymbolTableRecord
100
AcDbRegAppTableRecord
  2
GENIUS_GENOBJ-N-LIB_13
 70
     0
  0
APPID
  5
33C
330
9
100
AcDbSymbolTableRecord
100
AcDbRegAppTableRecord
  2
GENIUS_GENSCALE_13
 70
     0
  0
APPID
  5
378
330
9
100
AcDbSymbolTableRecord
100
AcDbRegAppTableRecord
  2
GENIUS_GENDIMSH_14
 70
     0
  0
APPID
  5
C82
330
9
100
AcDbSymbolTableRecord
100
AcDbRegAppTableRecord
  2
GENIUS_GENOBJ-N-CRS_13
 70
     0
  0
APPID
  5
C83
330
9
100
AcDbSymbolTableRecord
100
AcDbRegAppTableRecord
  2
GENIUS_GENOENT_13
 70
     0
  0
APPID
  5
C84
330
9
100
AcDbSymbolTableRecord
100
AcDbRegAppTableRecord
  2
GENIUS_GENOREF_13
 70
     0
  0
APPID
  5
C85
330
9
100
AcDbSymbolTableRecord
100
AcDbRegAppTableRecord
  2
GENIUS_GENOLIS_13
 70
     0
  0
APPID
  5
CA0
330
9
100
AcDbSymbolTableRecord
100
AcDbRegAppTableRecord
  2
GENIUS_GENOBJ-N-CEN_13
 70
     0
  0
APPID
  5
1CFA
330
9
100
AcDbSymbolTableRecord
100
AcDbRegAppTableRecord
  2
GENIUS_GENFIL_13
 70
     0
  0
APPID
  5
1CFB
330
9
100
AcDbSymbolTableRecord
100
AcDbRegAppTableRecord
  2
GENIUS_GENOBJ-N-CHA_13
 70
     0
  0
ENDTAB
  0
TABLE
  2
DIMSTYLE
  5
A
330
0
100
AcDbSymbolTable
 70
     9
  0
DIMSTYLE
105
58
330
A
100
AcDbSymbolTableRecord
100
AcDbDimStyleTableRecord
  2
AM_JIS
 70
     0
  3

  4
"
  5
OPEN30
  6

  7

 40
0.5
 41
2.5
 42
1.0
 43
12.0
 44
1.0
 45
0.0
 46
0.0
 47
0.1
 48
0.1
140
3.2
141
0.0
142
0.0
143
0.0393701
144
1.0
145
0.0
146
0.71
147
1.5
 71
     0
 72
     0
 73
     0
 74
     0
 75
     0
 76
     0
 77
     3
 78
     8
170
     0
171
     2
172
     1
173
     0
174
     0
175
     0
176
   256
177
   256
178
     2
270
     2
271
     3
272
     3
273
     2
274
     2
340
6B
275
     0
280
     0
281
     0
282
     0
283
     0
284
     0
285
     0
286
     0
287
     3
288
     0
  0
DIMSTYLE
105
5F
330
A
100
AcDbSymbolTableRecord
100
AcDbDimStyleTableRecord
  2
AM_JIS$3
 70
     0
  3

  4
"
  5
OPEN30
  6

  7

 40
0.5
 41
2.5
 42
1.0
 43
10.0
 44
1.0
 45
0.0
 46
0.0
 47
0.1
 48
0.1
140
3.2
141
0.0
142
0.0
143
0.0393701
144
1.0
145
0.0
146
0.71
147
1.5
 71
     0
 72
     0
 73
     0
 74
     1
 75
     0
 76
     0
 77
     3
 78
     8
170
     0
171
     2
172
     0
173
     0
174
     0
175
     0
176
   256
177
   256
178
     2
270
     2
271
     2
272
     3
273
     2
274
     2
340
6B
275
     0
280
     0
281
     0
282
     0
283
     0
284
     0
285
     0
286
     0
287
     0
288
     1
  0
DIMSTYLE
105
60
330
A
100
AcDbSymbolTableRecord
100
AcDbDimStyleTableRecord
  2
AM_JIS$4
 70
     0
  3

  4
"
  5
OPEN30
  6

  7

 40
0.5
 41
2.5
 42
1.0
 43
10.0
 44
1.0
 45
0.0
 46
0.0
 47
0.1
 48
0.1
140
3.2
141
0.0
142
0.0
143
0.0393701
144
1.0
145
0.0
146
0.71
147
1.5
 71
     0
 72
     0
 73
     0
 74
     1
 75
     0
 76
     0
 77
     3
 78
     8
170
     0
171
     2
172
     0
173
     0
174
     0
175
     0
176
   256
177
   256
178
     2
270
     2
271
     2
272
     3
273
     2
274
     2
340
6B
275
     0
280
     0
281
     0
282
     0
283
     0
284
     0
285
     0
286
     0
287
     0
288
     1
  0
DIMSTYLE
105
61
330
A
100
AcDbSymbolTableRecord
100
AcDbDimStyleTableRecord
  2
AM_JIS$6
 70
     0
  3

  4
"
  5
OPEN30
  6

  7

 40
0.5
 41
2.5
 42
1.0
 43
10.0
 44
1.0
 45
0.0
 46
0.0
 47
0.1
 48
0.1
140
3.2
141
0.0
142
0.0
143
0.0393701
144
1.0
145
0.0
146
0.71
147
1.5
 71
     0
 72
     0
 73
     0
 74
     0
 75
     0
 76
     0
 77
     0
 78
     8
170
     0
171
     2
172
     1
173
     0
174
     0
175
     0
176
   256
177
   256
178
     2
270
     2
271
     2
272
     2
273
     2
274
     2
340
6B
275
     0
280
     0
281
     0
282
     0
283
     0
284
     0
285
     0
286
     0
287
     3
288
     0
  0
DIMSTYLE
105
62
330
A
100
AcDbSymbolTableRecord
100
AcDbDimStyleTableRecord
  2
AM_JIS$7
 70
     0
  3

  4
"
  5
OPEN30
  6

  7

 40
0.5
 41
2.5
 42
1.0
 43
10.0
 44
1.0
 45
0.0
 46
0.0
 47
0.1
 48
0.1
140
3.2
141
0.0
142
0.0
143
0.0393701
144
1.0
145
0.0
146
0.71
147
1.5
 71
     0
 72
     0
 73
     0
 74
     0
 75
     0
 76
     0
 77
     3
 78
     8
170
     0
171
     2
172
     1
173
     0
174
     0
175
     0
176
   256
177
   256
178
     2
270
     2
271
     2
272
     3
273
     2
274
     2
340
6B
275
     0
280
     0
281
     0
282
     0
283
     0
284
     0
285
     0
286
     0
287
     3
288
     0
  0
DIMSTYLE
105
63
330
A
100
AcDbSymbolTableRecord
100
AcDbDimStyleTableRecord
  2
AM_JIS$SF
 70
     0
  3

  4
"
  5
OPEN30
  6

  7

 40
0.5
 41
2.5
 42
1.0
 43
10.0
 44
1.0
 45
0.0
 46
0.0
 47
0.1
 48
0.1
140
3.2
141
0.0
142
0.0
143
0.0393701
144
1.0
145
0.0
146
0.71
147
1.5
 71
     0
 72
     0
 73
     0
 74
     0
 75
     1
 76
     1
 77
     3
 78
     8
170
     0
171
     2
172
     1
173
     0
174
     0
175
     0
176
   256
177
   256
178
     2
270
     2
271
     2
272
     2
273
     2
274
     2
340
6B
275
     0
280
     0
281
     0
282
     0
283
     0
284
     0
285
     0
286
     0
287
     3
288
     0
  0
DIMSTYLE
105
68
330
A
100
AcDbSymbolTableRecord
100
AcDbDimStyleTableRecord
  2
AM_JIS$SH
 70
     0
  3

  4
"
  5

  6
GENAXEH
  7
OPEN30
 40
0.5
 41
2.5
 42
1.0
 43
10.0
 44
1.0
 45
0.0
 46
0.0
 47
0.1
 48
0.1
140
3.2
141
0.0
142
0.0
143
0.0393701
144
2.0
145
0.0
146
0.71
147
1.5
 71
     0
 72
     0
 73
     0
 74
     0
 75
     1
 76
     1
 77
     3
 78
     8
170
     0
171
     2
172
     1
173
     1
174
     0
175
     0
176
   256
177
   256
178
     2
270
     2
271
     2
272
     2
273
     2
274
     2
340
6B
275
     0
280
     0
281
     0
282
     0
283
     0
284
     0
285
     0
286
     0
287
     3
288
     0
  0
DIMSTYLE
105
B34
102
{ACAD_REACTORS
330
2209
102
}
330
A
100
AcDbSymbolTableRecord
100
AcDbDimStyleTableRecord
  2
AM_JIS$2
 70
     0
  3

  4
"
  5
OPEN30
  6

  7

 40
0.5
 41
2.5
 42
1.0
 43
12.0
 44
1.0
 45
0.0
 46
0.0
 47
0.1
 48
0.1
140
3.2
141
0.0
142
0.0
143
0.0393701
144
1.0
145
0.0
146
0.71
147
1.5
 71
     0
 72
     0
 73
     0
 74
     0
 75
     0
 76
     0
 77
     3
 78
     8
170
     0
171
     2
172
     1
173
     0
174
     0
175
     0
176
   256
177
   256
178
     2
270
     2
271
     3
272
     3
273
     2
274
     2
340
6B
275
     0
280
     0
281
     0
282
     0
283
     0
284
     0
285
     0
286
     0
287
     3
288
     0
  0
DIMSTYLE
105
BA5
102
{ACAD_REACTORS
330
CC6
330
DF5
330
1ED0
330
2080
102
}
330
A
100
AcDbSymbolTableRecord
100
AcDbDimStyleTableRecord
  2
AM_JIS$0
 70
     0
  3

  4
"
  5
OPEN30
  6

  7

 40
0.5
 41
2.5
 42
0.0
 43
10.0
 44
1.0
 45
0.0
 46
0.0
 47
0.1
 48
0.1000000001
140
3.799999999999999
141
0.0
142
0.0
143
0.0393701
144
1.0
145
0.0
146
0.71
147
1.5
 71
     0
 72
     0
 73
     0
 74
     0
 75
     0
 76
     0
 77
     3
 78
     1
170
     0
171
     2
172
     1
173
     0
174
     0
175
     0
176
     3
177
     3
178
     2
270
     2
271
     2
272
     2
273
     2
274
     2
340
11
275
     1
280
     0
281
     0
282
     0
283
     0
284
     8
285
     0
286
     0
287
     0
288
     0
  0
ENDTAB
  0
TABLE
  2
BLOCK_RECORD
  5
1
330
0
100
AcDbSymbolTable
 70
    11
  0
BLOCK_RECORD
  5
1F
102
{ACAD_XDICTIONARY
360
74
102
}
330
1
100
AcDbSymbolTableRecord
100
AcDbBlockTableRecord
  2
*MODEL_SPACE
  0
BLOCK_RECORD
  5
101
102
{ACAD_XDICTIONARY
360
2362
102
}
330
1
100
AcDbSymbolTableRecord
100
AcDbBlockTableRecord
  2
*PAPER_SPACE
  0
BLOCK_RECORD
  5
59
330
1
100
AcDbSymbolTableRecord
100
AcDbBlockTableRecord
  2
_OPEN30
  0
BLOCK_RECORD
  5
64
330
1
100
AcDbSymbolTableRecord
100
AcDbBlockTableRecord
  2
GENAXEH
  0
BLOCK_RECORD
  5
CC8
330
1
100
AcDbSymbolTableRecord
100
AcDbBlockTableRecord
  2
*D5
  0
BLOCK_RECORD
  5
DF6
330
1
100
AcDbSymbolTableRecord
100
AcDbBlockTableRecord
  2
*D6
  0
BLOCK_RECORD
  5
1ED1
330
1
100
AcDbSymbolTableRecord
100
AcDbBlockTableRecord
  2
*D8
  0
BLOCK_RECORD
  5
2081
330
1
100
AcDbSymbolTableRecord
100
AcDbBlockTableRecord
  2
*D9
  0
BLOCK_RECORD
  5
220A
330
1
100
AcDbSymbolTableRecord
100
AcDbBlockTableRecord
  2
*D10
  0
ENDTAB
  0
ENDSEC
  0
SECTION
  2
BLOCKS
  0
BLOCK
  5
20
330
1F
100
AcDbEntity
  8
0
100
AcDbBlockBegin
  2
*MODEL_SPACE
 70
     0
 10
0.0
 20
0.0
 30
0.0
  3
*MODEL_SPACE
  1

  0
ENDBLK
  5
21
330
1F
100
AcDbEntity
  8
0
100
AcDbBlockEnd
  0
BLOCK
  5
103
330
101
100
AcDbEntity
 67
     1
  8
0
100
AcDbBlockBegin
  2
*PAPER_SPACE
 70
     0
 10
0.0
 20
0.0
 30
0.0
  3
*PAPER_SPACE
  1

  0
ENDBLK
  5
104
330
101
100
AcDbEntity
 67
     1
  8
0
100
AcDbBlockEnd
  0
BLOCK
  5
5D
330
59
100
AcDbEntity
  8
0
100
AcDbBlockBegin
  2
_OPEN30
 70
     0
 10
0.0
 20
0.0
 30
0.0
  3
_OPEN30
  1

  0
LINE
  5
5A
330
59
100
AcDbEntity
  8
0
 62
     0
100
AcDbLine
 10
-1.0
 20
0.26794919
 30
0.0
 11
0.0
 21
0.0
 31
0.0
  0
LINE
  5
5B
330
59
100
AcDbEntity
  8
0
 62
     0
100
AcDbLine
 10
0.0
 20
0.0
 30
0.0
 11
-1.0
 21
-0.26794919
 31
0.0
  0
LINE
  5
5C
330
59
100
AcDbEntity
  8
0
 62
     0
100
AcDbLine
 10
0.0
 20
0.0
 30
0.0
 11
-1.0
 21
0.0
 31
0.0
  0
ENDBLK
  5
5E
330
59
100
AcDbEntity
  8
0
100
AcDbBlockEnd
  0
BLOCK
  5
66
330
64
100
AcDbEntity
  8
0
100
AcDbBlockBegin
  2
GENAXEH
 70
     0
 10
0.0
 20
0.0
 30
0.0
  3
GENAXEH
  1

  0
LINE
  5
65
330
64
100
AcDbEntity
  8
0
100
AcDbLine
 10
-1.0
 20
0.0
 30
0.0
 11
1.0
 21
0.0
 31
0.0
  0
ENDBLK
  5
67
330
64
100
AcDbEntity
  8
0
100
AcDbBlockEnd
  0
BLOCK
  5
CD2
330
CC8
100
AcDbEntity
  8
0
100
AcDbBlockBegin
  2
*D5
 70
     1
 10
0.0
 20
0.0
 30
0.0
  3
*D5
  1

  0
LINE
  5
22F8
330
CC8
100
AcDbEntity
  8
AM_5
 62
     3
100
AcDbLine
 10
-109.9999999999999
 20
-3.2937836659308
 30
0.0
 11
-109.9999999999999
 21
-16.00000099999973
 31
0.0
  0
LINE
  5
22F9
330
CC8
100
AcDbEntity
  8
AM_5
 62
     3
100
AcDbLine
 10
-0.9999821980835541
 20
-3.449999968210669
 30
0.0
 11
-0.9999821980835548
 21
-16.00000099999973
 31
0.0
  0
LINE
  5
22FA
330
CC8
100
AcDbEntity
  8
AM_5
 62
     3
100
AcDbLine
 10
-108.7499999999999
 20
-15.50000099999973
 30
0.0
 11
-2.249982198083555
 21
-15.50000099999973
 31
0.0
  0
INSERT
  5
22FB
330
CC8
100
AcDbEntity
  8
AM_5
 62
     3
100
AcDbBlockReference
  2
_OPEN30
 10
-109.9999999999999
 20
-15.50000099999973
 30
0.0
 41
1.25
 42
1.25
 43
1.25
 50
180.0
  0
INSERT
  5
22FC
330
CC8
100
AcDbEntity
  8
AM_5
 62
     3
100
AcDbBlockReference
  2
_OPEN30
 10
-0.9999821980835548
 20
-15.50000099999973
 30
0.0
 41
1.25
 42
1.25
 43
1.25
  0
MTEXT
  5
22FD
330
CC8
100
AcDbEntity
  8
AM_5
 62
     2
100
AcDbMText
 10
-55.49999109904174
 20
-13.80000099999973
 30
0.0
 40
1.9
 41
0.0
 71
     5
 72
     1
  1
109
1001
ACAD
1000
MTEXTBEGIN
1070
    73
1070
     1
1070
    44
1040
1.0
1070
    74
1070
     0
1000
MTEXTEND
  0
POINT
  5
22FE
330
CC8
100
AcDbEntity
  8
DEFPOINTS
 62
     0
100
AcDbPoint
 10
-109.9999999999999
 20
-3.2937836659308
 30
0.0
  0
POINT
  5
22FF
330
CC8
100
AcDbEntity
  8
DEFPOINTS
 62
     0
100
AcDbPoint
 10
-0.9999821980835541
 20
-3.449999968210669
 30
0.0
  0
POINT
  5
2300
330
CC8
100
AcDbEntity
  8
DEFPOINTS
 62
     0
100
AcDbPoint
 10
-0.9999821980835548
 20
-15.50000099999973
 30
0.0
  0
ENDBLK
  5
CD3
330
CC8
100
AcDbEntity
  8
0
100
AcDbBlockEnd
  0
BLOCK
  5
E00
330
DF6
100
AcDbEntity
  8
0
100
AcDbBlockBegin
  2
*D6
 70
     1
 10
0.0
 20
0.0
 30
0.0
  3
*D6
  1

  0
LINE
  5
22EF
330
DF6
100
AcDbEntity
  8
AM_5
 62
     3
100
AcDbLine
 10
-56.99997329712329
 20
-2.368879318237159
 30
0.0
 11
-56.99997329712329
 21
-11.00000099999969
 31
0.0
  0
LINE
  5
22F0
330
DF6
100
AcDbEntity
  8
AM_5
 62
     3
100
AcDbLine
 10
-0.9999821980835541
 20
-3.449999968210669
 30
0.0
 11
-0.9999821980835545
 21
-11.00000099999969
 31
0.0
  0
LINE
  5
22F1
330
DF6
100
AcDbEntity
  8
AM_5
 62
     3
100
AcDbLine
 10
-55.74997329712329
 20
-10.50000099999969
 30
0.0
 11
-2.249982198083554
 21
-10.50000099999969
 31
0.0
  0
INSERT
  5
22F2
330
DF6
100
AcDbEntity
  8
AM_5
 62
     3
100
AcDbBlockReference
  2
_OPEN30
 10
-56.99997329712329
 20
-10.50000099999969
 30
0.0
 41
1.25
 42
1.25
 43
1.25
 50
180.0
  0
INSERT
  5
22F3
330
DF6
100
AcDbEntity
  8
AM_5
 62
     3
100
AcDbBlockReference
  2
_OPEN30
 10
-0.9999821980835545
 20
-10.50000099999969
 30
0.0
 41
1.25
 42
1.25
 43
1.25
  0
MTEXT
  5
22F4
330
DF6
100
AcDbEntity
  8
AM_5
 62
     2
100
AcDbMText
 10
-28.99997774760342
 20
-8.800000999999697
 30
0.0
 40
1.9
 41
0.0
 71
     5
 72
     1
  1
56
1001
ACAD
1000
MTEXTBEGIN
1070
    73
1070
     1
1070
    44
1040
1.0
1070
    74
1070
     0
1000
MTEXTEND
  0
POINT
  5
22F5
330
DF6
100
AcDbEntity
  8
DEFPOINTS
 62
     0
100
AcDbPoint
 10
-56.99997329712329
 20
-2.368879318237159
 30
0.0
  0
POINT
  5
22F6
330
DF6
100
AcDbEntity
  8
DEFPOINTS
 62
     0
100
AcDbPoint
 10
-0.9999821980835541
 20
-3.449999968210669
 30
0.0
  0
POINT
  5
22F7
330
DF6
100
AcDbEntity
  8
DEFPOINTS
 62
     0
100
AcDbPoint
 10
-0.9999821980835545
 20
-10.50000099999969
 30
0.0
  0
ENDBLK
  5
E01
330
DF6
100
AcDbEntity
  8
0
100
AcDbBlockEnd
  0
BLOCK
  5
1EDD
330
1ED1
100
AcDbEntity
  8
0
100
AcDbBlockBegin
  2
*D8
 70
     1
 10
0.0
 20
0.0
 30
0.0
  3
*D8
  1

  0
LINE
  5
2301
330
1ED1
100
AcDbEntity
  8
AM_5
 62
     3
100
AcDbLine
 10
-109.7499999999999
 20
-3.500000000000134
 30
0.0
 11
-119.2500009999999
 21
-3.500000000000153
 31
0.0
  0
LINE
  5
2302
330
1ED1
100
AcDbEntity
  8
AM_5
 62
     3
100
AcDbLine
 10
-109.7499999999999
 20
3.499999999999865
 30
0.0
 11
-119.2500009999999
 21
3.499999999999846
 31
0.0
  0
LINE
  5
2303
330
1ED1
100
AcDbEntity
  8
AM_5
 62
     3
100
AcDbLine
 10
-118.7500009999999
 20
-2.250000000000151
 30
0.0
 11
-118.7500009999999
 21
2.249999999999848
 31
0.0
  0
INSERT
  5
2304
330
1ED1
100
AcDbEntity
  8
AM_5
 62
     3
100
AcDbBlockReference
  2
_OPEN30
 10
-118.7500009999999
 20
-3.500000000000151
 30
0.0
 41
1.25
 42
1.25
 43
1.25
 50
270.0000000000001
  0
INSERT
  5
2305
330
1ED1
100
AcDbEntity
  8
AM_5
 62
     3
100
AcDbBlockReference
  2
_OPEN30
 10
-118.7500009999999
 20
3.499999999999848
 30
0.0
 41
1.25
 42
1.25
 43
1.25
 50
90.0000000000001
  0
MTEXT
  5
2306
330
1ED1
100
AcDbEntity
  8
AM_5
 62
     2
100
AcDbMText
 10
-120.4500009999999
 20
-0.0000000000001416
 30
0.0
 40
1.9
 41
0.0
 71
     5
 72
     1
  1
%%c7
 11
-0.000000000000002
 21
1.0
 31
0.0
1001
ACAD
1000
MTEXTBEGIN
1070
    73
1070
     1
1070
    44
1040
1.0
1070
    74
1070
     0
1000
MTEXTEND
  0
POINT
  5
2307
330
1ED1
100
AcDbEntity
  8
DEFPOINTS
 62
     0
100
AcDbPoint
 10
-109.7499999999999
 20
-3.49999999999989
 30
0.0
  0
POINT
  5
2308
330
1ED1
100
AcDbEntity
  8
DEFPOINTS
 62
     0
100
AcDbPoint
 10
-109.7499999999999
 20
3.500000000000109
 30
0.0
  0
POINT
  5
2309
330
1ED1
100
AcDbEntity
  8
DEFPOINTS
 62
     0
100
AcDbPoint
 10
-118.7500009999999
 20
3.500000000000111
 30
0.0
  0
ENDBLK
  5
1EDE
330
1ED1
100
AcDbEntity
  8
0
100
AcDbBlockEnd
  0
BLOCK
  5
208D
330
2081
100
AcDbEntity
  8
0
100
AcDbBlockBegin
  2
*D9
 70
     1
 10
0.0
 20
0.0
 30
0.0
  3
*D9
  1

  0
LINE
  5
2315
330
2081
100
AcDbEntity
  8
AM_5
 62
     3
100
AcDbLine
 10
-0.9999999999999356
 20
-3.299999451800916
 30
0.0
 11
9.586422120790578
 21
-3.299999451800919
 31
0.0
  0
LINE
  5
2316
330
2081
100
AcDbEntity
  8
AM_5
 62
     3
100
AcDbLine
 10
-0.9999999999999342
 20
3.300000360133034
 30
0.0
 11
9.586422120790578
 21
3.300000360133031
 31
0.0
  0
LINE
  5
2317
330
2081
100
AcDbEntity
  8
AM_5
 62
     3
100
AcDbLine
 10
9.086422120790578
 20
-2.049999451800919
 30
0.0
 11
9.086422120790578
 21
2.050000360133031
 31
0.0
  0
INSERT
  5
2318
330
2081
100
AcDbEntity
  8
AM_5
 62
     3
100
AcDbBlockReference
  2
_OPEN30
 10
9.086422120790578
 20
-3.299999451800919
 30
0.0
 41
1.25
 42
1.25
 43
1.25
 50
270.0
  0
INSERT
  5
2319
330
2081
100
AcDbEntity
  8
AM_5
 62
     3
100
AcDbBlockReference
  2
_OPEN30
 10
9.086422120790578
 20
3.300000360133031
 30
0.0
 41
1.25
 42
1.25
 43
1.25
 50
90.0
  0
MTEXT
  5
231A
330
2081
100
AcDbEntity
  8
AM_5
 62
     2
100
AcDbMText
 10
7.386422120790578
 20
0.000000454166058
 30
0.0
 40
1.9
 41
0.0
 71
     5
 72
     1
  1
%%c6.6
 11
0.0000000000000001
 21
1.0
 31
0.0
1001
ACAD
1000
MTEXTBEGIN
1070
    73
1070
     1
1070
    44
1040
1.0
1070
    74
1070
     0
1000
MTEXTEND
  0
POINT
  5
231B
330
2081
100
AcDbEntity
  8
DEFPOINTS
 62
     0
100
AcDbPoint
 10
-0.9999999999999356
 20
-3.299999451800916
 30
0.0
  0
POINT
  5
231C
330
2081
100
AcDbEntity
  8
DEFPOINTS
 62
     0
100
AcDbPoint
 10
-0.9999999999999342
 20
3.300000360133034
 30
0.0
  0
POINT
  5
231D
330
2081
100
AcDbEntity
  8
DEFPOINTS
 62
     0
100
AcDbPoint
 10
9.086422120790578
 20
3.300000360133031
 30
0.0
  0
ENDBLK
  5
208E
330
2081
100
AcDbEntity
  8
0
100
AcDbBlockEnd
  0
BLOCK
  5
221A
330
220A
100
AcDbEntity
  8
0
100
AcDbBlockBegin
  2
*D10
 70
     1
 10
0.0
 20
0.0
 30
0.0
  3
*D10
  1

  0
LINE
  5
230A
330
220A
100
AcDbEntity
  8
AM_5
100
AcDbLine
 10
0.1710100716628985
 20
-0.4698463103927572
 30
0.0
 11
4.858352553010913
 21
-13.34821393514757
 31
0.0
  0
LINE
  5
230B
330
220A
100
AcDbEntity
  8
AM_5
100
AcDbLine
 10
0.1710100716628937
 20
0.4698463103931594
 30
0.0
 11
4.858352553010776
 21
13.34821393514801
 31
0.0
  0
ARC
  5
230C
330
220A
100
AcDbEntity
  8
AM_5
100
AcDbCircle
 10
0.0000000000000728
 20
0.0000000000002002
 30
0.0
 40
13.70487257203738
100
AcDbArc
 50
295.2276715745437
 51
64.77232842545683
  0
INSERT
  5
230D
330
220A
100
AcDbEntity
  8
AM_5
100
AcDbBlockReference
  2
_OPEN30
 10
4.687342481348087
 20
-12.87836762475461
 30
0.0
 41
1.25
 42
1.25
 43
1.25
 50
202.6138357872713
  0
INSERT
  5
230E
330
220A
100
AcDbEntity
  8
AM_5
100
AcDbBlockReference
  2
_OPEN30
 10
4.687342481347955
 20
12.87836762475506
 30
0.0
 41
1.25
 42
1.25
 43
1.25
 50
157.3861642127292
  0
MTEXT
  5
230F
330
220A
100
AcDbEntity
  8
AM_5
 62
     2
100
AcDbMText
 10
12.15487257203746
 20
0.0000000000002703
 30
0.0
 40
1.6
 41
0.0
 71
     5
 72
     1
  1
140°
  7
ASAMI
 11
-0.000000000000002
 21
1.0
 31
0.0
1001
ACAD
1000
MTEXTBEGIN
1070
    73
1070
     1
1070
    44
1040
1.0
1070
    74
1070
     0
1000
MTEXTEND
  0
POINT
  5
2310
330
220A
100
AcDbEntity
  8
DEFPOINTS
 62
     0
100
AcDbPoint
 10
12.58403473838646
 20
-5.428222721928884
 30
0.0
  0
POINT
  5
2311
330
220A
100
AcDbEntity
  8
DEFPOINTS
 62
     0
100
AcDbPoint
 10
0.0000000000000728
 20
0.0000000000002002
 30
0.0
  0
POINT
  5
2312
330
220A
100
AcDbEntity
  8
DEFPOINTS
 62
     0
100
AcDbPoint
 10
-0.349318421501243
 20
0.9597444752746588
 30
0.0
  0
POINT
  5
2313
330
220A
100
AcDbEntity
  8
DEFPOINTS
 62
     0
100
AcDbPoint
 10
0.0000000000000728
 20
0.0000000000002002
 30
0.0
  0
POINT
  5
2314
330
220A
100
AcDbEntity
  8
DEFPOINTS
 62
     0
100
AcDbPoint
 10
-0.3493184215012359
 20
-0.9597444752742584
 30
0.0
  0
ENDBLK
  5
221B
330
220A
100
AcDbEntity
  8
0
100
AcDbBlockEnd
  0
ENDSEC
  0
SECTION
  2
ENTITIES
  0
LINE
  5
C30
330
1F
100
AcDbEntity
  8
AM_0
 48
0.5
100
AcDbLine
 10
-109.9999999999999
 20
-3.24999999999989
 30
0.0
 11
-109.9999999999999
 21
3.250000000000108
 31
0.0
  0
LINE
  5
C9F
330
1F
100
AcDbEntity
  8
AM_7
100
AcDbLine
 10
-111.7499999999999
 20
0.0000000000001073
 30
0.0
 11
2.086421120790586
 21
0.0000000000002041
 31
0.0
1001
GENIUS_GENODEF_13
1002
{
1000
HIER
1070
     0
1002
}
1002
{
1000
MANEDIT
1070
     0
1002
}
1002
{
1000
NOSEL
1070
     0
1002
}
1002
{
1000
BEHIND
1070
     0
1002
}
1002
{
1000
REACTOR
1002
}
1001
GENIUS_GENOBJ-N-CEN_13
1002
{
1000
OWNER
1000
GEN
1002
}
  0
DIMENSION
  5
CC6
330
1F
100
AcDbEntity
  8
AM_5
100
AcDbDimension
  2
*D5
 10
-0.9999821980835548
 20
-15.50000099999973
 30
0.0
 11
-55.49999109904174
 21
-13.80000099999973
 31
0.0
 70
    32
  1
<>
  3
AM_JIS$0
100
AcDbAlignedDimension
 13
-109.9999999999999
 23
-3.2937836659308
 33
0.0
 14
-0.9999821980835541
 24
-3.449999968210669
 34
0.0
 50
0.0000000000001132
100
AcDbRotatedDimension
1001
GENIUS_GENDTOL_13
1000

1000
h7
1000

1040
0.0
1001
ACAD
1000
DSTYLE
1002
{
1070
   271
1070
     0
1002
}
  0
DIMENSION
  5
DF5
330
1F
100
AcDbEntity
  8
AM_5
100
AcDbDimension
  2
*D6
 10
-0.9999821980835545
 20
-10.50000099999969
 30
0.0
 11
-28.99997774760342
 21
-8.800000999999697
 31
0.0
 70
    32
  1
<>
  3
AM_JIS$0
100
AcDbAlignedDimension
 13
-56.99997329712329
 23
-2.368879318237159
 33
0.0
 14
-0.9999821980835541
 24
-3.449999968210669
 34
0.0
 50
0.0000000000001527
100
AcDbRotatedDimension
1001
GENIUS_GENDTOL_13
1000

1000
h7
1000

1040
0.0
1001
ACAD
1000
DSTYLE
1002
{
1070
   271
1070
     0
1002
}
  0
ARC
  5
144A
330
1F
100
AcDbEntity
  8
AM_11
 48
0.5
100
AcDbCircle
 10
-56.11257425944014
 20
-15.45937617226442
 30
0.0
 40
17.09271208445208
100
AcDbArc
 50
64.74833051131179
 51
115.2516644797366
  0
ARC
  5
144B
330
1F
100
AcDbEntity
  8
AM_11
 48
0.5
100
AcDbCircle
 10
-56.11257425944011
 20
15.45938667054957
 30
0.0
 40
17.09271208445208
100
AcDbArc
 50
244.7482808787518
 51
295.2516148471758
  0
ARC
  5
144E
330
1F
100
AcDbEntity
  8
AM_11
 48
0.5
100
AcDbCircle
 10
-41.5292409261068
 20
-15.45937617226442
 30
0.0
 40
17.09271208445208
100
AcDbArc
 50
64.74833051131179
 51
115.2516644797366
  0
ARC
  5
144F
330
1F
100
AcDbEntity
  8
AM_11
 48
0.5
100
AcDbCircle
 10
-41.5292409261068
 20
15.45938667054957
 30
0.0
 40
17.09271208445208
100
AcDbArc
 50
244.7482808787518
 51
295.2516148471758
  0
ARC
  5
1450
330
1F
100
AcDbEntity
  8
AM_11
 48
0.5
100
AcDbCircle
 10
-26.94590759277755
 20
15.45938667054957
 30
0.0
 40
17.09271208445208
100
AcDbArc
 50
244.7482808787518
 51
295.2516148471758
  0
ARC
  5
1451
330
1F
100
AcDbEntity
  8
AM_11
 48
0.5
100
AcDbCircle
 10
-26.94590759277755
 20
-15.45937617226442
 30
0.0
 40
17.09271208445208
100
AcDbArc
 50
64.74833051131179
 51
115.2516644797366
  0
ARC
  5
1452
330
1F
100
AcDbEntity
  8
AM_11
 48
0.5
100
AcDbCircle
 10
-12.36257425944422
 20
-15.45937617226442
 30
0.0
 40
17.09271208445208
100
AcDbArc
 50
64.74833051131179
 51
115.2516644797366
  0
ARC
  5
1453
330
1F
100
AcDbEntity
  8
AM_11
 48
0.5
100
AcDbCircle
 10
-12.36257425944422
 20
15.45938667054957
 30
0.0
 40
17.09271208445208
100
AcDbArc
 50
244.7482808787518
 51
295.2516148471758
  0
ARC
  5
1454
330
1F
100
AcDbEntity
  8
AM_11
 48
0.5
100
AcDbCircle
 10
2.22075907388913
 20
15.45938667054957
 30
0.0
 40
17.09271208445208
100
AcDbArc
 50
244.7482808787518
 51
254.0147302238188
  0
TEXT
  5
19BD
330
1F
100
AcDbEntity
  8
AM_6
100
AcDbText
 10
-66.33332443237505
 20
-26.75000099999976
 30
0.0
 40
2.5
  1
MDW066LHK
 50
0.0000000000001527
 72
     4
 11
-55.49999109904171
 21
-25.50000099999973
 31
0.0
100
AcDbText
  0
ARC
  5
1C02
330
1F
100
AcDbEntity
  8
AM_11
 48
0.5
100
AcDbCircle
 10
-70.69587569257423
 20
15.45938667054953
 30
0.0
 40
17.09271208445208
100
AcDbArc
 50
244.7482808787518
 51
295.2516148471758
  0
ARC
  5
1C03
330
1F
100
AcDbEntity
  8
AM_11
 48
0.5
100
AcDbCircle
 10
-70.69587569257426
 20
-15.45937617226446
 30
0.0
 40
17.09271208445208
100
AcDbArc
 50
64.74833051131179
 51
115.2516644797366
  0
ARC
  5
1C04
330
1F
100
AcDbEntity
  8
AM_11
 48
0.5
100
AcDbCircle
 10
-85.27917712570831
 20
15.45938667054947
 30
0.0
 40
17.09271208445208
100
AcDbArc
 50
244.7482808787518
 51
295.2516148471758
  0
ARC
  5
1C05
330
1F
100
AcDbEntity
  8
AM_11
 48
0.5
100
AcDbCircle
 10
-85.27917712570831
 20
-15.45937617226452
 30
0.0
 40
17.09271208445208
100
AcDbArc
 50
64.74833051131179
 51
115.2516644797366
  0
LINE
  5
1CF0
330
1F
100
AcDbEntity
  8
AM_0
100
AcDbLine
 10
-109.7499999999999
 20
3.500000000000108
 30
0.0
 11
-56.9999732971233
 21
3.500000000000149
 31
0.0
1001
GENIUS_GENODEF_13
1002
{
1000
HIER
1070
     0
1002
}
1002
{
1000
MANEDIT
1070
     0
1002
}
1002
{
1000
NOSEL
1070
     0
1002
}
1002
{
1000
BEHIND
1070
     0
1002
}
1002
{
1000
REACTOR
1002
}
1001
GENIUS_GENOBJ-N-CEN_13
1002
{
1000
OWNER
1000
GEN
1002
}
  0
LINE
  5
1CF4
330
1F
100
AcDbEntity
  8
AM_0
100
AcDbLine
 10
-109.7499999999999
 20
-3.49999999999989
 30
0.0
 11
-56.99997329712329
 21
-3.499999999999845
 31
0.0
1001
GENIUS_GENODEF_13
1002
{
1000
HIER
1070
     0
1002
}
1002
{
1000
MANEDIT
1070
     0
1002
}
1002
{
1000
NOSEL
1070
     0
1002
}
1002
{
1000
BEHIND
1070
     0
1002
}
1002
{
1000
REACTOR
1002
}
1001
GENIUS_GENOBJ-N-CEN_13
1002
{
1000
OWNER
1000
GEN
1002
}
  0
LINE
  5
1CF9
330
1F
100
AcDbEntity
  8
AM_0
100
AcDbLine
 10
-109.9999999999999
 20
3.250000000000108
 30
0.0
 11
-109.7499999999999
 21
3.500000000000108
 31
0.0
1001
GENIUS_GENFIL_13
1070
     0
1040
0.25
1040
0.25
1040
20.0
1040
0.0
1002
{
1002
}
1001
GENIUS_GENODEF_13
1002
{
1000
HIER
1070
     0
1002
}
1002
{
1000
MANEDIT
1070
     0
1002
}
1002
{
1000
NOSEL
1070
     0
1002
}
1002
{
1000
BEHIND
1070
     0
1002
}
1002
{
1000
REACTOR
1002
}
1001
GENIUS_GENOBJ-N-CHA_13
1002
{
1000
OWNER
1000
GEN
1002
}
  0
LINE
  5
1CFD
330
1F
100
AcDbEntity
  8
AM_0
100
AcDbLine
 10
-109.9999999999999
 20
-3.24999999999989
 30
0.0
 11
-109.7499999999999
 21
-3.49999999999989
 31
0.0
1001
GENIUS_GENFIL_13
1070
     0
1040
0.25
1040
0.25
1040
20.0
1040
0.0
1002
{
1002
}
1001
GENIUS_GENODEF_13
1002
{
1000
HIER
1070
     0
1002
}
1002
{
1000
MANEDIT
1070
     0
1002
}
1002
{
1000
NOSEL
1070
     0
1002
}
1002
{
1000
BEHIND
1070
     0
1002
}
1002
{
1000
REACTOR
1002
}
1001
GENIUS_GENOBJ-N-CHA_13
1002
{
1000
OWNER
1000
GEN
1002
}
  0
LINE
  5
1CFE
330
1F
100
AcDbEntity
  8
AM_0
100
AcDbLine
 10
-109.7499999999999
 20
-3.49999999999989
 30
0.0
 11
-109.7499999999999
 21
3.500000000000108
 31
0.0
  0
ARC
  5
1CFF
330
1F
100
AcDbEntity
  8
AM_11
 48
0.5
100
AcDbCircle
 10
-99.8625247474024
 20
15.45939795783479
 30
0.0
 40
17.09271208445208
100
AcDbArc
 50
244.7482808787518
 51
295.2516148471758
  0
ARC
  5
1D00
330
1F
100
AcDbEntity
  8
AM_11
 48
0.5
100
AcDbCircle
 10
-99.8625247474024
 20
-15.4593648849792
 30
0.0
 40
17.09271208445208
100
AcDbArc
 50
64.74833051131179
 51
115.2516644797366
  0
ARC
  5
1D01
330
1F
100
AcDbEntity
  8
AM_11
 48
0.5
100
AcDbCircle
 10
-114.4457783189852
 20
15.45939795783475
 30
0.0
 40
17.09271208445208
100
AcDbArc
 50
285.0758705693279
 51
295.2516148471758
  0
ARC
  5
1D02
330
1F
100
AcDbEntity
  8
AM_11
 48
0.5
100
AcDbCircle
 10
-114.4457783189852
 20
-15.45936488497924
 30
0.0
 40
17.09271208445208
100
AcDbArc
 50
64.74833051131179
 51
74.92412943067197
  0
LINE
  5
1D1A
330
1F
100
AcDbEntity
  8
AM_0
100
AcDbLine
 10
-56.99997329712329
 20
-3.499999999999845
 30
0.0
 11
-56.9999732971233
 21
3.500000000000153
 31
0.0
  0
LINE
  5
1D86
330
1F
100
AcDbEntity
  8
AM_0
100
AcDbLine
 10
-56.99997329712329
 20
-3.499999999999845
 30
0.0
 11
-56.65356251184045
 21
-3.299999639866613
 31
0.0
  0
LINE
  5
1D87
330
1F
100
AcDbEntity
  8
AM_0
100
AcDbLine
 10
-56.9999732971233
 20
3.500000000000149
 30
0.0
 11
-56.65437578790581
 21
3.300469185022168
 31
0.0
  0
DIMENSION
  5
1ED0
330
1F
100
AcDbEntity
  8
AM_5
100
AcDbDimension
  2
*D8
 10
-118.7500009999999
 20
3.500000000000111
 30
0.0
 11
-118.7500009999999
 21
0.0000000000001017
 31
0.0
 70
   160
  1
%%c<>
 51
359.9999999999998
  3
AM_JIS$0
100
AcDbAlignedDimension
 13
-109.7499999999999
 23
-3.49999999999989
 33
0.0
 14
-109.7499999999999
 24
3.500000000000109
 34
0.0
 50
270.0000000000001
100
AcDbRotatedDimension
1001
ACAD
1000
DSTYLE
1002
{
1070
   271
1070
     0
1002
}
1001
GENIUS_GENDTOL_13
1000

1000
h7
1000

1040
0.0
  0
LINE
  5
207C
330
1F
100
AcDbEntity
  8
AM_0
 48
0.5
100
AcDbLine
 10
-49.32499122620044
 20
1.672049119593534
 30
0.0
 11
-56.99975522359628
 21
-0.2668863509873057
 31
0.0
  0
SPLINE
  5
207D
330
1F
100
AcDbEntity
  8
AM_0
 48
0.5
100
AcDbSpline
210
0.0
220
0.0
230
1.0
 70
     8
 71
     3
 72
    26
 73
    22
 74
     0
 42
0.0000000001
 43
0.0000000001
 40
0.0
 40
0.0
 40
0.0
 40
0.0
 40
0.5896004826229707
 40
1.179986252940122
 40
1.771921058539713
 40
2.366124101252007
 40
2.963249918804864
 40
3.563875140402651
 40
4.168477438229614
 40
4.777430274285771
 40
5.390993430623067
 40
6.009307092551945
 40
6.63239903939448
 40
7.260156758871202
 40
7.892403919481949
 40
8.528804729444196
 40
9.168960528521511
 40
9.812380715579642
 40
10.45850221961671
 40
11.10670238963151
 40
11.73624999718734
 40
11.73624999718734
 40
11.73624999718734
 40
11.73624999718734
 10
-45.81741650899684
 20
-3.299999639866693
 30
0.0
 10
-46.01396088047283
 20
-3.298036219899637
 30
0.0
 10
-46.40731140047697
 20
-3.294106764890431
 30
0.0
 10
-46.99719403230452
 20
-3.26243094348245
 30
0.0
 10
-47.58705148597899
 20
-3.212074669046188
 30
0.0
 10
-48.17687242681149
 20
-3.141498409895906
 30
0.0
 10
-48.76665100005196
 20
-3.051658720617313
 30
0.0
 10
-49.35637545502336
 20
-2.94295468577213
 30
0.0
 10
-49.94604539940819
 20
-2.81612075199722
 30
0.0
 10
-50.5356568116705
 20
-2.671927244727648
 30
0.0
 10
-51.12520829791177
 20
-2.511268860583977
 30
0.0
 10
-51.71470471016278
 20
-2.335145550712165
 30
0.0
 10
-52.30414360574293
 20
-2.144644819780141
 30
0.0
 10
-52.89353166316086
 20
-1.940935246510597
 30
0.0
 10
-53.48287676294116
 20
-1.725293251617931
 30
0.0
 10
-54.07218017843709
 20
-1.499026975014844
 30
0.0
 10
-54.66144630259601
 20
-1.263542157284613
 30
0.0
 10
-55.25068595659699
 20
-1.020291688911146
 30
0.0
 10
-55.83988940260053
 20
-0.7707405243126195
 30
0.0
 10
-56.42304044909817
 20
-0.5191675696324344
 30
0.0
 10
-56.80939995782718
 20
-0.3501590939977559
 30
0.0
 10
-56.9997596740767
 20
-0.2668884490706611
 30
0.0
  0
ELLIPSE
  5
207E
330
1F
100
AcDbEntity
  8
AM_0
 48
0.5
100
AcDbEllipse
 10
-55.83309300741006
 20
-2.199999639866631
 30
0.0
 11
1.166666666666663
 21
0.0000000000000133
 31
0.0
210
0.0
220
0.0
230
1.0
 40
0.9428571428571443
 41
3.14159265358977
 42
4.712388666468166
  0
ELLIPSE
  5
207F
330
1F
100
AcDbEntity
  8
AM_0
 48
0.5
100
AcDbEllipse
 10
-56.12497329712333
 20
-2.233514425633183
 30
0.0
 11
-0.8749999999999998
 21
0.0000000000000447
 31
0.0
210
0.0
220
0.0
230
1.0
 40
0.9428571428571455
 41
4.317028824483127
 42
6.283185307179632
  0
DIMENSION
  5
2080
330
1F
100
AcDbEntity
  8
AM_5
100
AcDbDimension
  2
*D9
 10
9.086422120790578
 20
3.300000360133031
 30
0.0
 11
9.086422120790578
 21
0.0000004541660578
 31
0.0
 70
   160
  1
%%c<>
  3
AM_JIS$0
100
AcDbAlignedDimension
 13
-0.9999999999999356
 23
-3.299999451800916
 33
0.0
 14
-0.9999999999999342
 24
3.300000360133034
 34
0.0
 50
89.99999999999969
100
AcDbRotatedDimension
1001
ACAD
1000
DSTYLE
1002
{
1070
   271
1070
     1
1002
}
1001
GENIUS_GENDTOL_13
1000

1000
h7
1000

1040
0.0
  0
LINE
  5
2092
330
1F
100
AcDbEntity
  8
AM_0
 48
0.5
100
AcDbLine
 10
-2.888810475671526
 20
3.300000360133048
 30
0.0
 11
-0.9999999999999342
 21
3.300000360133034
 31
0.0
  0
LINE
  5
2094
330
1F
100
AcDbEntity
  8
AM_0
 48
0.5
100
AcDbLine
 10
-2.88881047567158
 20
-3.299999639866951
 30
0.0
 11
-0.9999999999999342
 21
-3.299999451800919
 31
0.0
  0
LINE
  5
2095
330
1F
100
AcDbEntity
  8
AM_11
 48
0.5
100
AcDbLine
 10
-14.00068028768301
 20
3.300000360133134
 30
0.0
 11
-2.888810475671526
 21
3.300000360133048
 31
0.0
  0
LINE
  5
2096
330
1F
100
AcDbEntity
  8
AM_11
 48
0.5
100
AcDbLine
 10
-14.00068028768307
 20
-3.299999639866866
 30
0.0
 11
-2.88881047567158
 21
-3.299999639866951
 31
0.0
  0
LINE
  5
2097
330
1F
100
AcDbEntity
  8
AM_11
 48
0.5
100
AcDbLine
 10
-35.00038566670612
 20
-3.299999639866775
 30
0.0
 11
-23.88851585469605
 21
-3.300468464755638
 31
0.0
  0
LINE
  5
2098
330
1F
100
AcDbEntity
  8
AM_11
 48
0.5
100
AcDbLine
 10
-33.56005596177495
 20
3.300469185022072
 30
0.0
 11
-26.46888665947758
 21
3.300000360133227
 31
0.0
  0
LINE
  5
2099
330
1F
100
AcDbEntity
  8
AM_0
100
AcDbLine
 10
-54.55984233872832
 20
3.300469185022162
 30
0.0
 11
-56.65437578790581
 21
3.300469185022168
 31
0.0
  0
LINE
  5
209A
330
1F
100
AcDbEntity
  8
AM_0
100
AcDbLine
 10
-55.72535294210421
 20
-3.299999639866617
 30
0.0
 11
-56.65356251184045
 21
-3.299999639866613
 31
0.0
  0
LINE
  5
209B
330
1F
100
AcDbEntity
  8
AM_11
 48
0.5
100
AcDbLine
 10
-55.72725168864391
 20
-3.299999639866617
 30
0.0
 11
-47.46868260701917
 21
-3.299999639866678
 31
0.0
  0
LINE
  5
209C
330
1F
100
AcDbEntity
  8
AM_11
 48
0.5
100
AcDbLine
 10
-54.55984233872836
 20
3.300469185022162
 30
0.0
 11
-47.46868260701911
 21
3.300000360133322
 31
0.0
  0
LINE
  5
209D
330
1F
100
AcDbEntity
  8
AM_0
100
AcDbLine
 10
-47.46868260701911
 20
3.300000360133322
 30
0.0
 11
-33.56005596177495
 21
3.300469185022072
 31
0.0
  0
LINE
  5
209E
330
1F
100
AcDbEntity
  8
AM_0
 48
0.5
100
AcDbLine
 10
-47.46868705752
 20
-3.299999639866634
 30
0.0
 11
-35.99997329712332
 21
-3.299999639866697
 31
0.0
  0
LINE
  5
209F
330
1F
100
AcDbEntity
  8
AM_0
 48
0.5
100
AcDbLine
 10
-26.46889623006569
 20
3.300000360133227
 30
0.0
 11
-14.00068028768301
 21
3.300000360133134
 31
0.0
  0
LINE
  5
20A0
330
1F
100
AcDbEntity
  8
AM_0
 48
0.5
100
AcDbLine
 10
-23.88851585469604
 20
-3.299999639866858
 30
0.0
 11
-14.00068028768307
 21
-3.299999639866866
 31
0.0
  0
SPLINE
  5
20A4
330
1F
100
AcDbEntity
  8
AM_0
100
AcDbSpline
210
0.0
220
0.0
230
1.0
 70
     8
 71
     3
 72
    23
 73
    19
 74
     0
 42
0.0000000001
 43
0.0000000001
 40
16.03460024169435
 40
16.03460024169435
 40
16.03460024169435
 40
16.03460024169435
 40
16.35212704903564
 40
17.38177054169784
 40
18.41822485651776
 40
19.46214173629503
 40
20.51396345435107
 40
21.57393551351153
 40
22.64208202342361
 40
23.7182574881101
 40
24.80209208578934
 40
25.89306333925047
 40
26.99048218457928
 40
28.09348763352352
 40
29.20111863782268
 40
30.31232390128032
 40
31.42594612798585
 40
32.5407912310448
 40
32.5407912310486
 40
32.5407912310486
 40
32.5407912310486
 10
-33.56005596177495
 20
3.300469185022073
 30
0.0
 10
-33.49945277069053
 20
3.289328966150801
 30
0.0
 10
-33.24258981687388
 20
3.240816448449676
 30
0.0
 10
-32.79012295750139
 20
3.145763573957898
 30
0.0
 10
-32.20417719012479
 20
3.004420989076736
 30
0.0
 10
-31.61877567673793
 20
2.845716825678887
 30
0.0
 10
-31.03388382549855
 20
2.670569582514544
 30
0.0
 10
-30.44948087755834
 20
2.479955709385373
 30
0.0
 10
-29.8655330558275
 20
2.274964835574555
 30
0.0
 10
-29.28199969639921
 20
2.056789956548628
 30
0.0
 10
-28.69884764081218
 20
1.826666583927113
 30
0.0
 10
-28.11603013565155
 20
1.585933751995345
 30
0.0
 10
-27.53349995007594
 20
1.335990703980733
 30
0.0
 10
-26.95121827176057
 20
1.078274507626522
 30
0.0
 10
-26.36913638190462
 20
0.814283747321715
 30
0.0
 10
-25.78720036739742
 20
0.5455599354277969
 30
0.0
 10
-25.20536284222014
 20
0.2736602536668517
 30
0.0
 10
-24.81757534633948
 20
0.0913663843670749
 30
0.0
 10
-24.62357584635689
 20
0.0001682068121385
 30
0.0
  0
SPLINE
  5
20A5
330
1F
100
AcDbEntity
  8
AM_0
100
AcDbSpline
210
0.0
220
0.0
230
1.0
 70
     8
 71
     3
 72
    11
 73
     7
 74
     0
 42
0.0000000001
 43
0.0000000001
 40
11.27226913003534
 40
11.27226913003534
 40
11.27226913003534
 40
11.2722691300354
 40
12.28301561507924
 40
13.29510212255852
 40
14.30984805882082
 40
15.18258238371378
 40
15.18258238371378
 40
15.18258238371378
 40
15.18258238371378
 10
-35.00038566670751
 20
-3.299999639866775
 30
0.0
 10
-35.19618267711553
 20
-3.283848480893036
 30
0.0
 10
-35.58740738753781
 20
-3.244747227944753
 30
0.0
 10
-36.1722242417014
 20
-3.165870329076083
 30
0.0
 10
-36.72722574822955
 20
-3.07166052189212
 30
0.0
 10
-37.08616814471712
 20
-2.999238639246081
 30
0.0
 10
-37.25157902189398
 20
-2.963464229583416
 30
0.0
  0
SPLINE
  5
20A6
330
1F
100
AcDbEntity
  8
AM_0
100
AcDbSpline
210
0.0
220
0.0
230
1.0
 70
     8
 71
     3
 72
    17
 73
    13
 74
     0
 42
0.0000000001
 43
0.0000000001
 40
1.580019955310467
 40
1.580019955310467
 40
1.580019955310467
 40
1.580019955310467
 40
2.030549285115227
 40
3.082371838836284
 40
4.126290986361125
 40
5.162752068350215
 40
6.192395305374981
 40
7.216039564037012
 40
8.234688489606833
 40
9.249433870634691
 40
10.26152376260694
 40
11.27226744710342
 40
11.27226744710342
 40
11.27226744710342
 40
11.27226744710352
 10
-29.44401728998966
 20
-2.435496813615006
 30
0.0
 10
-29.52747583640741
 20
-2.460580411244812
 30
0.0
 10
-29.8062554203592
 20
-2.542795252869883
 30
0.0
 10
-30.28220130460858
 20
-2.671752173656883
 30
0.0
 10
-30.87173069106073
 20
-2.816166817632577
 30
0.0
 10
-31.46142237440103
 20
-2.94294370087336
 30
0.0
 10
-32.0511410772084
 20
-3.051657078111801
 30
0.0
 10
-32.64092402881153
 20
-3.141516162991786
 30
0.0
 10
-33.23074772682639
 20
-3.212008169338285
 30
0.0
 10
-33.82060815198619
 20
-3.262676285363253
 30
0.0
 10
-34.41049077165759
 20
-3.293194354519659
 30
0.0
 10
-34.80384129784813
 20
-3.29999965874955
 30
0.0
 10
-35.00038566670748
 20
-3.299999639866775
 30
0.0
  0
SPLINE
  5
20A7
330
1F
100
AcDbEntity
  8
AM_0
100
AcDbSpline
210
0.0
220
0.0
230
1.0
 70
     8
 71
     3
 72
    22
 73
    18
 74
     0
 42
0.0000000001
 43
0.0000000001
 40
17.17441611292
 40
17.17441611292
 40
17.17441611292
 40
17.17441611292
 40
17.38177636558528
 40
18.41823744757437
 40
19.46215659509824
 40
20.51397914882054
 40
21.57394542641293
 40
22.64209583141747
 40
23.71826625065247
 40
24.80210429862395
 40
25.8930771157021
 40
26.99048705697709
 40
28.09349309193389
 40
29.20112995599786
 40
30.31233024745139
 40
31.42594771747373
 40
32.5407895042663
 40
32.54078950426994
 40
32.54078950426994
 40
32.54078950426994
 10
-37.25183699790086
 20
-2.963423524108651
 30
0.0
 10
-37.29133637904737
 20
-2.955784347778492
 30
0.0
 10
-37.52811359715226
 20
-2.909253289768934
 30
0.0
 10
-37.9618761183773
 20
-2.815952462307734
 30
0.0
 10
-38.55148757739553
 20
-2.671759570945263
 30
0.0
 10
-39.14103895624375
 20
-2.511100767488554
 30
0.0
 10
-39.73053441712163
 20
-2.334978924024633
 30
0.0
 10
-40.3199731813467
 20
-2.144473927853346
 30
0.0
 10
-40.9093625042266
 20
-1.9407713795972
 30
0.0
 10
-41.49870511479959
 20
-1.725123169576337
 30
0.0
 10
-42.08800646588623
 20
-1.498859188485803
 30
0.0
 10
-42.67727311014396
 20
-1.26337534177093
 30
0.0
 10
-43.26651016205168
 20
-1.020119626726373
 30
0.0
 10
-43.855723553233
 20
-0.7705885936163658
 30
0.0
 10
-44.44491850655177
 20
-0.5163165758416472
 30
0.0
 10
-45.03410375041883
 20
-0.2588725691879459
 30
0.0
 10
-45.42681681299181
 20
-0.0862103348602018
 30
0.0
 10
-45.62328122538396
 20
0.0001682068134161
 30
0.0
  0
SPLINE
  5
20A8
330
1F
100
AcDbEntity
  8
AM_0
100
AcDbSpline
210
0.0
220
0.0
230
1.0
 70
     8
 71
     3
 72
    46
 73
    42
 74
     0
 42
0.0000000001
 43
0.0000000001
 40
0.0
 40
0.0
 40
0.0
 40
0.0
 40
1.179790541079198
 40
1.771725346678782
 40
2.365928389391083
 40
2.963054206943358
 40
3.56367942854171
 40
4.168281726368679
 40
4.777234562424272
 40
5.390806270667778
 40
6.009119932596676
 40
6.632207668849522
 40
7.259973746737163
 40
7.892212608053084
 40
8.52861341801536
 40
9.168769217093196
 40
9.812189404150775
 40
10.45831090818786
 40
11.10651107820319
 40
11.75612220391373
 40
12.40644563990894
 40
13.05676907590468
 40
13.70638020161522
 40
14.35458037163002
 40
15.0007018756671
 40
15.64412206272522
 40
16.2842778618023
 40
16.92067867176477
 40
17.55292168272609
 40
18.18068776061372
 40
18.80377549686656
 40
19.42208915879528
 40
20.03565231513328
 40
20.64460515118887
 40
21.24920744901584
 40
21.84983224434128
 40
22.44695841635482
 40
23.04117028960381
 40
23.63310489365484
 40
24.22349090745283
 40
24.81309134934786
 40
24.81309134934786
 40
24.81309134934786
 40
24.81309134934786
 10
-22.23724530619329
 20
-3.299999639866872
 30
0.0
 10
-22.63061504462946
 20
-3.292481984773851
 30
0.0
 10
-23.2213496809372
 20
-3.281192506165461
 30
0.0
 10
-24.00687528773164
 20
-3.211685260361188
 30
0.0
 10
-24.59670257067818
 20
-3.141603466843467
 30
0.0
 10
-25.18647943743312
 20
-3.051630348472476
 30
0.0
 10
-25.77620433432226
 20
-2.942962310392262
 30
0.0
 10
-26.36587423181314
 20
-2.816118878401395
 30
0.0
 10
-26.95548814229729
 20
-2.671926356939564
 30
0.0
 10
-27.54504344178451
 20
-2.511270109433607
 30
0.0
 10
-28.13454130865452
 20
-2.335146585508895
 30
0.0
 10
-28.72398015733726
 20
-2.144641824656053
 30
0.0
 10
-29.3133694574832
 20
-1.940939212943859
 30
0.0
 10
-29.90271207364216
 20
-1.725291018946994
 30
0.0
 10
-30.49201342536914
 20
-1.499027037898487
 30
0.0
 10
-31.08128006135257
 20
-1.263543174689681
 30
0.0
 10
-31.67051714595508
 20
-1.02028752607284
 30
0.0
 10
-32.25973041394022
 20
-0.7707562423367947
 30
0.0
 10
-32.8489261126483
 20
-0.5164850423177386
 30
0.0
 10
-33.43810962442051
 20
-0.2590375151587935
 30
0.0
 10
-34.02728818341209
 20
0.0000003600808052
 30
0.0
 10
-34.61646674227422
 20
0.2590382356351873
 30
0.0
 10
-35.20565025443467
 20
0.5164857618502419
 30
0.0
 10
-35.79484595172367
 20
0.7707569653187975
 30
0.0
 10
-36.38405922497082
 20
1.020288236261911
 30
0.0
 10
-36.97329629006228
 20
1.263543932313634
 30
0.0
 10
-37.56256299830181
 20
1.499027619854395
 30
0.0
 10
-38.15186536387063
 20
1.725292742588851
 30
0.0
 10
-38.74121026993068
 20
1.940938977312553
 30
0.0
 10
-39.33060062145679
 20
2.14464263354198
 30
0.0
 10
-39.92003945641572
 20
2.335147451080128
 30
0.0
 10
-40.50953490169545
 20
2.511269356580168
 30
0.0
 10
-41.09908627309698
 20
2.671928089302181
 30
0.0
 10
-41.68869777681669
 20
2.816121199806244
 30
0.0
 10
-42.2783673330376
 20
2.942956333033871
 30
0.0
 10
-42.86809266227693
 20
3.051655889127313
 30
0.0
 10
-43.45787329303335
 20
3.141500524731573
 30
0.0
 10
-44.04769753674942
 20
3.21207568102001
 30
0.0
 10
-44.63755827260445
 20
3.262427338817917
 30
0.0
 10
-45.22744041996539
 20
3.294111706690803
 30
0.0
 10
-45.62079110465311
 20
3.298038347034882
 30
0.0
 10
-45.81733551106782
 20
3.300000360133307
 30
0.0
  0
SPLINE
  5
20A9
330
1F
100
AcDbEntity
  8
AM_0
100
AcDbSpline
210
0.0
220
0.0
230
1.0
 70
     8
 71
     3
 72
    55
 73
    51
 74
     0
 42
0.0000000001
 43
0.0000000001
 40
0.0
 40
0.0
 40
0.0
 40
0.0
 40
1.010743684496582
 40
2.022833576467832
 40
3.037578957496688
 40
4.056212745003489
 40
5.079857003664532
 40
6.109500240690281
 40
7.145961322679372
 40
8.189895241603872
 40
9.241717795325891
 40
10.30168407291828
 40
11.36983447792315
 40
12.44600489715814
 40
13.52984294512926
 40
14.62081576220742
 40
15.7182257034828
 40
16.82123173843959
 40
17.92886860250316
 40
19.0400688939571
 40
20.15368796660465
 40
21.26852814259644
 40
22.38336992938901
 40
23.49698739941135
 40
24.6081876908653
 40
25.71582455492886
 40
26.81883757994213
 40
27.91624752121713
 40
29.00722033829659
 40
30.09105838626677
 40
31.16722880550176
 40
32.23537921050758
 40
33.29534548809967
 40
34.347168041821
 40
35.39108718934584
 40
36.42754827133493
 40
37.45720575381954
 40
38.48085062012849
 40
39.49948440763516
 40
40.51422944315121
 40
41.52631975251916
 40
42.53706336719636
 40
43.54780698187354
 40
44.55989729124051
 40
45.57464232675757
 40
46.59327611426424
 40
47.6169209805722
 40
48.64656348684535
 40
49.68302456883444
 40
50.58557219878025
 40
50.58557219878025
 40
50.58557219878025
 40
50.58557219878025
 10
-23.88851585469604
 20
-3.299999639866859
 30
0.0
 10
-24.0850602261484
 20
-3.298036219814244
 30
0.0
 10
-24.47841074610503
 20
-3.294106764633817
 30
0.0
 10
-25.06829337828817
 20
-3.262430944512443
 30
0.0
 10
-25.65815083060586
 20
-3.212074665166841
 30
0.0
 10
-26.2479717765383
 20
-3.141498424470473
 30
0.0
 10
-26.83775033060094
 20
-3.0516586657977
 30
0.0
 10
-27.42747485778154
 20
-2.942954892238403
 30
0.0
 10
-28.0171473306825
 20
-2.816119371156578
 30
0.0
 10
-28.60676252010071
 20
-2.671928782597195
 30
0.0
 10
-29.19631640968212
 20
-2.511268448026837
 30
0.0
 10
-29.78581193802697
 20
-2.335146815757929
 30
0.0
 10
-30.37525068392184
 20
-2.144641762254063
 30
0.0
 10
-30.96464001193172
 20
-1.940939229864884
 30
0.0
 10
-31.5539826205005
 20
-1.72529101429648
 30
0.0
 10
-32.1432839744477
 20
-1.499027039422284
 30
0.0
 10
-32.73255060920509
 20
-1.263543173276205
 30
0.0
 10
-33.32178769649127
 20
-1.020287530219438
 30
0.0
 10
-33.91100095491932
 20
-0.7707562270855625
 30
0.0
 10
-34.50019668932147
 20
-0.516485099399568
 30
0.0
 10
-35.08938006750518
 20
-0.2590373015581908
 30
0.0
 10
-35.67855940965238
 20
-0.0000003131866438
 30
0.0
 10
-36.26773610687731
 20
0.2590413380121278
 30
0.0
 10
-36.85692145987529
 20
0.5164851267103275
 30
0.0
 10
-37.44611646690741
 20
0.7707570240605499
 30
0.0
 10
-38.03533077589617
 20
1.020289277797469
 30
0.0
 10
-38.62457030762044
 20
1.263542844867862
 30
0.0
 10
-39.21383787239627
 20
1.499027905244791
 30
0.0
 10
-39.80313931141898
 20
1.725291696642231
 30
0.0
 10
-40.39248189854345
 20
1.940939957560644
 30
0.0
 10
-40.98187122806252
 20
2.1446424902478
 30
0.0
 10
-41.57130998897087
 20
2.335147498199034
 30
0.0
 10
-42.16080545647335
 20
2.511269310304331
 30
0.0
 10
-42.75035681236872
 20
2.671928226245997
 30
0.0
 10
-43.33996835569799
 20
2.81612070334234
 30
0.0
 10
-43.92964060986107
 20
2.94295877492693
 30
0.0
 10
-44.51936934787245
 20
3.051650133006318
 30
0.0
 10
-45.10914985039677
 20
3.141517698983583
 30
0.0
 10
-45.69897097117852
 20
3.212010280656067
 30
0.0
 10
-46.2888288333471
 20
3.262672355342186
 30
0.0
 10
-46.87871096538006
 20
3.293200000325275
 30
0.0
 10
-47.46860605971514
 20
3.30339827638332
 30
0.0
 10
-48.05850115318226
 20
3.293200000309293
 30
0.0
 10
-48.64838328782411
 20
3.262672355406343
 30
0.0
 10
-49.23824114038747
 20
3.212010280414329
 30
0.0
 10
-49.82806229718154
 20
3.141517699892022
 30
0.0
 10
-50.41783978902955
 20
3.051650567709283
 30
0.0
 10
-51.00756620373416
 20
2.942959886237346
 30
0.0
 10
-51.57042734019082
 20
2.821878348775573
 30
0.0
 10
-51.93561805556872
 20
2.733330275764453
 30
0.0
 10
-52.10504526264974
 20
2.690176480151
 30
0.0
  0
SPLINE
  5
20AA
330
1F
100
AcDbEntity
  8
AM_0
 48
0.5
100
AcDbSpline
210
0.0
220
0.0
230
1.0
 70
     8
 71
     3
 72
    22
 73
    18
 74
     0
 42
0.0000000001
 43
0.0000000001
 40
0.0
 40
0.0
 40
0.0
 40
0.0
 40
1.010743684496582
 40
2.022833993863546
 40
3.037578683882831
 40
4.056212471389632
 40
5.079857945358201
 40
6.109499720892564
 40
7.145961650132166
 40
8.189873411961459
 40
9.241710626092514
 40
10.30166235592959
 40
11.36982472628033
 40
12.44598212828784
 40
13.52983440361964
 40
14.62080578343036
 40
14.90544694398022
 40
14.90544694398022
 40
14.90544694398022
 40
14.90544694398022
 10
-47.46868705749958
 20
-3.299999639866679
 30
0.0
 10
-47.66523146650821
 20
-3.298036806389788
 30
0.0
 10
-48.05858214279218
 20
-3.294108524331509
 30
0.0
 10
-48.6484641568891
 20
-3.262423880545838
 30
0.0
 10
-49.23832224749495
 20
-3.212076078859151
 30
0.0
 10
-49.82814350705583
 20
-3.141499773101693
 30
0.0
 10
-50.41792045475791
 20
-3.0516516327703
 30
0.0
 10
-51.00764693787152
 20
-2.942956996691563
 30
0.0
 10
-51.59731431481066
 20
-2.816118453901878
 30
0.0
 10
-52.18692664033392
 20
-2.671922859005934
 30
0.0
 10
-52.77647860411459
 20
-2.511270545192027
 30
0.0
 10
-53.36597328709328
 20
-2.335139260538454
 30
0.0
 10
-53.95541448934475
 20
-2.144649808937675
 30
0.0
 10
-54.54480176812948
 20
-1.940934642115422
 30
0.0
 10
-55.13414616492382
 20
-1.725291517917084
 30
0.0
 10
-55.57707966511038
 20
-1.555233582763599
 30
0.0
 10
-55.82389766818604
 20
-1.458033933395141
 30
0.0
 10
-55.87493142389868
 20
-1.437836711434682
 30
0.0
  0
SPLINE
  5
20AB
330
1F
100
AcDbEntity
  8
AM_0
100
AcDbSpline
210
0.0
220
0.0
230
1.0
 70
     8
 71
     3
 72
    13
 73
     9
 74
     0
 42
0.0000000001
 43
0.0000000001
 40
16.03460056234195
 40
16.03460056234195
 40
16.03460056234195
 40
16.03460056234195
 40
16.35212717791071
 40
17.38177067057215
 40
18.41822498539278
 40
19.46214186516937
 40
20.5139635832251
 40
21.34083983469381
 40
21.34083983469381
 40
21.34083983469381
 40
21.34083983469381
 10
-55.72698525525769
 20
-3.300299760322739
 30
0.0
 10
-55.66638203961429
 20
-3.289159869541072
 30
0.0
 10
-55.40951887324881
 20
-3.240648682867017
 30
0.0
 10
-54.95705226052299
 20
-3.145594698610616
 30
0.0
 10
-54.37110641940776
 20
-3.004252505638586
 30
0.0
 10
-53.78570492599081
 20
-2.84554823610511
 30
0.0
 10
-53.24401596547262
 20
-2.683338228512741
 30
0.0
 10
-52.89842794775292
 20
-2.571645094398298
 30
0.0
 10
-52.74682055563357
 20
-2.521158780030545
 30
0.0
  0
SPLINE
  5
20AC
330
1F
100
AcDbEntity
  8
AM_0
100
AcDbSpline
210
0.0
220
0.0
230
1.0
 70
     8
 71
     3
 72
    23
 73
    19
 74
     0
 42
0.0000000001
 43
0.0000000001
 40
16.03460024169435
 40
16.03460024169435
 40
16.03460024169435
 40
16.03460024169435
 40
16.35212704903564
 40
17.38177054169784
 40
18.41822485651776
 40
19.46214173629503
 40
20.51396345435107
 40
21.57393551351153
 40
22.64208202342361
 40
23.7182574881101
 40
24.80209208578934
 40
25.89306333925047
 40
26.99048218457928
 40
28.09348763352352
 40
29.20111863782268
 40
30.31232390128032
 40
31.42594612798585
 40
32.5407912310448
 40
32.5407912310486
 40
32.5407912310486
 40
32.5407912310486
 10
-54.55984233872836
 20
3.300469185022162
 30
0.0
 10
-54.49923914764394
 20
3.289328966150892
 30
0.0
 10
-54.24237619382729
 20
3.240816448449766
 30
0.0
 10
-53.78990933445481
 20
3.145763573957988
 30
0.0
 10
-53.20396356707821
 20
3.004420989076824
 30
0.0
 10
-52.61856205369134
 20
2.845716825678977
 30
0.0
 10
-52.03367020245195
 20
2.670569582514635
 30
0.0
 10
-51.44926725451174
 20
2.479955709385463
 30
0.0
 10
-50.86531943278091
 20
2.274964835574646
 30
0.0
 10
-50.28178607335262
 20
2.056789956548718
 30
0.0
 10
-49.69863401776558
 20
1.826666583927203
 30
0.0
 10
-49.11581651260497
 20
1.585933751995435
 30
0.0
 10
-48.53328632702936
 20
1.335990703980823
 30
0.0
 10
-47.951004648714
 20
1.078274507626611
 30
0.0
 10
-47.36892275885804
 20
0.8142837473218047
 30
0.0
 10
-46.78698674435083
 20
0.5455599354278867
 30
0.0
 10
-46.20514921917354
 20
0.2736602536669415
 30
0.0
 10
-45.81736172329289
 20
0.0913663843671648
 30
0.0
 10
-45.6233622233103
 20
0.0001682068122283
 30
0.0
  0
SPLINE
  5
20AF
330
1F
100
AcDbEntity
  8
AM_0
 48
0.5
100
AcDbSpline
210
0.0
220
0.0
230
1.0
 70
     8
 71
     3
 72
    17
 73
    13
 74
     0
 42
0.0000000001
 43
0.0000000001
 40
0.0
 40
0.0
 40
0.0
 40
0.0
 40
1.010743614677189
 40
2.022833924044153
 40
3.037578959561199
 40
4.056212747067873
 40
5.079857613375832
 40
6.109500119648989
 40
7.14596120163808
 40
8.18989512056258
 40
9.241717674284874
 40
9.390416482324686
 40
9.390416482324686
 40
9.390416482324686
 40
9.390416482324686
 10
-2.888810475671526
 20
3.300000360133048
 30
0.0
 10
-3.085354882892615
 20
3.298038355016398
 30
0.0
 10
-3.478705569193976
 20
3.294111730646535
 30
0.0
 10
-4.068587704428096
 20
3.262427242739954
 30
0.0
 10
-4.658445554557108
 20
3.212076293216139
 30
0.0
 10
-5.248266720547705
 20
3.141499914010174
 30
0.0
 10
-5.838044177800683
 20
3.051655282822245
 30
0.0
 10
-6.427770722767411
 20
2.942958951516613
 30
0.0
 10
-7.017438440326526
 20
2.816110634325039
 30
0.0
 10
-7.607070211952461
 20
2.671964306787379
 30
0.0
 10
-8.026336248611261
 20
2.557579293084169
 30
0.0
 10
-8.249675104460324
 20
2.493513251407069
 30
0.0
 10
-8.27732354988842
 20
2.485532584414404
 30
0.0
  0
SPLINE
  5
20B3
330
1F
100
AcDbEntity
  8
AM_0
100
AcDbSpline
210
0.0
220
0.0
230
1.0
 70
     8
 71
     3
 72
    46
 73
    42
 74
     0
 42
0.0000000001
 43
0.0000000001
 40
0.0
 40
0.0
 40
0.0
 40
0.0
 40
1.1797905410792
 40
1.771725346678784
 40
2.365928389391084
 40
2.963054206943358
 40
3.563679428541708
 40
4.168281726368678
 40
4.777234562424272
 40
5.390806270667785
 40
6.009119932596676
 40
6.632207668849522
 40
7.259973746737163
 40
7.892212608053092
 40
8.52861341801536
 40
9.168769217093204
 40
9.81218940415078
 40
10.45831090818787
 40
11.1065110782032
 40
11.75612220391374
 40
12.40644563990895
 40
13.05676907590469
 40
13.70638020161522
 40
14.35458037163003
 40
15.0007018756671
 40
15.64412206272523
 40
16.28427786180231
 40
16.92067867176479
 40
17.5529216827261
 40
18.18068776061372
 40
18.80377549686657
 40
19.42208915879529
 40
20.03565231513329
 40
20.64460515118888
 40
21.24920744901585
 40
21.84983224434128
 40
22.44695841635484
 40
23.04117028960383
 40
23.63310489365486
 40
24.22349090745283
 40
24.81309134934788
 40
24.81309134934788
 40
24.81309134934788
 40
24.81309134934788
 10
-1.237539927168827
 20
-3.299999639866963
 30
0.0
 10
-1.630909665604992
 20
-3.292481984773943
 30
0.0
 10
-2.221644301912751
 20
-3.281192506165556
 30
0.0
 10
-3.007169908707177
 20
-3.211685260361279
 30
0.0
 10
-3.596997191653717
 20
-3.141603466843561
 30
0.0
 10
-4.186774058408659
 20
-3.051630348472567
 30
0.0
 10
-4.776498955297799
 20
-2.942962310392354
 30
0.0
 10
-5.366168852788675
 20
-2.816118878401489
 30
0.0
 10
-5.955782763272814
 20
-2.671926356939653
 30
0.0
 10
-6.545338062760064
 20
-2.511270109433701
 30
0.0
 10
-7.134835929630066
 20
-2.335146585508986
 30
0.0
 10
-7.724274778312802
 20
-2.144641824656146
 30
0.0
 10
-8.313664078458733
 20
-1.940939212943949
 30
0.0
 10
-8.903006694617699
 20
-1.725291018947091
 30
0.0
 10
-9.492308046344678
 20
-1.499027037898573
 30
0.0
 10
-10.0815746823281
 20
-1.263543174689777
 30
0.0
 10
-10.67081176693063
 20
-1.02028752607293
 30
0.0
 10
-11.26002503491577
 20
-0.7707562423368888
 30
0.0
 10
-11.84922073362384
 20
-0.5164850423178295
 30
0.0
 10
-12.43840424539605
 20
-0.2590375151588855
 30
0.0
 10
-13.02758280438762
 20
0.0000003600807128
 30
0.0
 10
-13.61676136324975
 20
0.2590382356350958
 30
0.0
 10
-14.2059448754102
 20
0.5164857618501501
 30
0.0
 10
-14.7951405726992
 20
0.7707569653187053
 30
0.0
 10
-15.38435384594636
 20
1.020288236261822
 30
0.0
 10
-15.97359091103781
 20
1.26354393231354
 30
0.0
 10
-16.56285761927733
 20
1.499027619854303
 30
0.0
 10
-17.15215998484618
 20
1.72529274258876
 30
0.0
 10
-17.74150489090623
 20
1.940938977312459
 30
0.0
 10
-18.33089524243234
 20
2.14464263354189
 30
0.0
 10
-18.92033407739128
 20
2.335147451080035
 30
0.0
 10
-19.50982952267101
 20
2.511269356580077
 30
0.0
 10
-20.0993808940725
 20
2.671928089302088
 30
0.0
 10
-20.68899239779223
 20
2.816121199806151
 30
0.0
 10
-21.27866195401313
 20
2.942956333033779
 30
0.0
 10
-21.86838728325247
 20
3.051655889127221
 30
0.0
 10
-22.45816791400889
 20
3.141500524731479
 30
0.0
 10
-23.04799215772497
 20
3.212075681019918
 30
0.0
 10
-23.63785289357999
 20
3.262427338817825
 30
0.0
 10
-24.22773504094094
 20
3.29411170669071
 30
0.0
 10
-24.62108572562865
 20
3.298038347034792
 30
0.0
 10
-24.81763013204337
 20
3.300000360133215
 30
0.0
  0
SPLINE
  5
20B4
330
1F
100
AcDbEntity
  8
AM_0
100
AcDbSpline
210
0.0
220
0.0
230
1.0
 70
     8
 71
     3
 72
    55
 73
    51
 74
     0
 42
0.0000000001
 43
0.0000000001
 40
0.0
 40
0.0
 40
0.0
 40
0.0
 40
1.010743684496582
 40
2.022833576467832
 40
3.037578957496688
 40
4.056212745003489
 40
5.079857003664532
 40
6.109500240690281
 40
7.145961322679372
 40
8.189895241603872
 40
9.241717795325891
 40
10.30168407291828
 40
11.36983447792315
 40
12.44600489715814
 40
13.52984294512926
 40
14.62081576220742
 40
15.7182257034828
 40
16.82123173843959
 40
17.92886860250316
 40
19.0400688939571
 40
20.15368796660465
 40
21.26852814259644
 40
22.38336992938901
 40
23.49698739941135
 40
24.6081876908653
 40
25.71582455492886
 40
26.81883757994213
 40
27.91624752121713
 40
29.00722033829659
 40
30.09105838626677
 40
31.16722880550176
 40
32.23537921050758
 40
33.29534548809967
 40
34.347168041821
 40
35.39108718934584
 40
36.42754827133493
 40
37.45720575381954
 40
38.48085062012849
 40
39.49948440763516
 40
40.51422944315121
 40
41.52631975251916
 40
42.53706336719636
 40
43.54780698187354
 40
44.55989729124051
 40
45.57464232675757
 40
46.59327611426424
 40
47.6169209805722
 40
48.64656348684535
 40
49.68302456883444
 40
50.58557219878025
 40
50.58557219878025
 40
50.58557219878025
 40
50.58557219878025
 10
-2.88881047567158
 20
-3.299999639866951
 30
0.0
 10
-3.085354847123941
 20
-3.298036219814337
 30
0.0
 10
-3.478705367080569
 20
-3.294106764633909
 30
0.0
 10
-4.068587999263703
 20
-3.262430944512537
 30
0.0
 10
-4.658445451581395
 20
-3.212074665166935
 30
0.0
 10
-5.248266397513839
 20
-3.141498424470565
 30
0.0
 10
-5.838044951576472
 20
-3.051658665797793
 30
0.0
 10
-6.427769478757074
 20
-2.942954892238494
 30
0.0
 10
-7.017441951658037
 20
-2.816119371156669
 30
0.0
 10
-7.607057141076239
 20
-2.671928782597289
 30
0.0
 10
-8.196611030657663
 20
-2.511268448026928
 30
0.0
 10
-8.786106559002519
 20
-2.335146815758022
 30
0.0
 10
-9.375545304897388
 20
-2.144641762254156
 30
0.0
 10
-9.964934632907265
 20
-1.940939229864976
 30
0.0
 10
-10.55427724147604
 20
-1.725291014296572
 30
0.0
 10
-11.14357859542325
 20
-1.499027039422376
 30
0.0
 10
-11.73284523018063
 20
-1.263543173276297
 30
0.0
 10
-12.32208231746682
 20
-1.02028753021953
 30
0.0
 10
-12.91129557589487
 20
-0.7707562270856547
 30
0.0
 10
-13.50049131029701
 20
-0.5164850993996596
 30
0.0
 10
-14.08967468848072
 20
-0.2590373015582826
 30
0.0
 10
-14.67885403062792
 20
-0.0000003131867357
 30
0.0
 10
-15.26803072785285
 20
0.2590413380120357
 30
0.0
 10
-15.85721608085082
 20
0.516485126710236
 30
0.0
 10
-16.44641108788295
 20
0.7707570240604578
 30
0.0
 10
-17.03562539687169
 20
1.020289277797376
 30
0.0
 10
-17.62486492859596
 20
1.263542844867771
 30
0.0
 10
-18.21413249337179
 20
1.499027905244699
 30
0.0
 10
-18.80343393239451
 20
1.725291696642139
 30
0.0
 10
-19.392776519519
 20
1.940939957560552
 30
0.0
 10
-19.98216584903807
 20
2.144642490247707
 30
0.0
 10
-20.57160460994642
 20
2.335147498198943
 30
0.0
 10
-21.16110007744889
 20
2.51126931030424
 30
0.0
 10
-21.75065143334426
 20
2.671928226245904
 30
0.0
 10
-22.34026297667353
 20
2.816120703342248
 30
0.0
 10
-22.92993523083661
 20
2.942958774926836
 30
0.0
 10
-23.51966396884799
 20
3.051650133006227
 30
0.0
 10
-24.1094444713723
 20
3.141517698983491
 30
0.0
 10
-24.69926559215406
 20
3.212010280655974
 30
0.0
 10
-25.28912345432264
 20
3.262672355342095
 30
0.0
 10
-25.8790055863556
 20
3.293200000325185
 30
0.0
 10
-26.46890068069068
 20
3.303398276383227
 30
0.0
 10
-27.0587957741578
 20
3.293200000309202
 30
0.0
 10
-27.64867790879965
 20
3.26267235540625
 30
0.0
 10
-28.23853576136301
 20
3.212010280414238
 30
0.0
 10
-28.82835691815708
 20
3.14151769989193
 30
0.0
 10
-29.41813441000509
 20
3.05165056770919
 30
0.0
 10
-30.0078608247097
 20
2.942959886237255
 30
0.0
 10
-30.57072196116635
 20
2.82187834877548
 30
0.0
 10
-30.93591267654427
 20
2.733330275764362
 30
0.0
 10
-31.10533988362528
 20
2.690176480150909
 30
0.0
  0
SPLINE
  5
20B5
330
1F
100
AcDbEntity
  8
AM_0
100
AcDbSpline
210
0.0
220
0.0
230
1.0
 70
     8
 71
     3
 72
    11
 73
     7
 74
     0
 42
0.0000000001
 43
0.0000000001
 40
11.27226913003534
 40
11.27226913003534
 40
11.27226913003534
 40
11.2722691300354
 40
12.28301561507924
 40
13.29510212255852
 40
14.30984805882082
 40
15.18258238371378
 40
15.18258238371378
 40
15.18258238371378
 40
15.18258238371378
 10
-14.00068028768305
 20
-3.299999639866866
 30
0.0
 10
-14.19647729809106
 20
-3.283848480893127
 30
0.0
 10
-14.58770200851335
 20
-3.244747227944845
 30
0.0
 10
-15.17251886267694
 20
-3.165870329076175
 30
0.0
 10
-15.72752036920509
 20
-3.071660521892213
 30
0.0
 10
-16.08646276569265
 20
-2.999238639246173
 30
0.0
 10
-16.25187364286952
 20
-2.963464229583508
 30
0.0
  0
SPLINE
  5
20B6
330
1F
100
AcDbEntity
  8
AM_0
100
AcDbSpline
210
0.0
220
0.0
230
1.0
 70
     8
 71
     3
 72
    22
 73
    18
 74
     0
 42
0.0000000001
 43
0.0000000001
 40
17.17441611292
 40
17.17441611292
 40
17.17441611292
 40
17.17441611292
 40
17.38177636558528
 40
18.41823744757437
 40
19.46215659509824
 40
20.51397914882054
 40
21.57394542641293
 40
22.64209583141747
 40
23.71826625065247
 40
24.80210429862395
 40
25.8930771157021
 40
26.99048705697709
 40
28.09349309193389
 40
29.20112995599786
 40
30.31233024745139
 40
31.42594771747373
 40
32.5407895042663
 40
32.54078950426994
 40
32.54078950426994
 40
32.54078950426994
 10
-16.25213161887639
 20
-2.963423524108742
 30
0.0
 10
-16.29163100002291
 20
-2.955784347778582
 30
0.0
 10
-16.5284082181278
 20
-2.909253289769026
 30
0.0
 10
-16.96217073935284
 20
-2.815952462307826
 30
0.0
 10
-17.55178219837107
 20
-2.671759570945356
 30
0.0
 10
-18.14133357721927
 20
-2.511100767488647
 30
0.0
 10
-18.73082903809716
 20
-2.334978924024724
 30
0.0
 10
-19.32026780232222
 20
-2.144473927853439
 30
0.0
 10
-19.90965712520213
 20
-1.940771379597292
 30
0.0
 10
-20.49899973577513
 20
-1.72512316957643
 30
0.0
 10
-21.08830108686178
 20
-1.498859188485896
 30
0.0
 10
-21.67756773111951
 20
-1.26337534177102
 30
0.0
 10
-22.26680478302724
 20
-1.020119626726464
 30
0.0
 10
-22.85601817420853
 20
-0.7705885936164579
 30
0.0
 10
-23.44521312752731
 20
-0.5163165758417387
 30
0.0
 10
-24.03439837139437
 20
-0.258872569188038
 30
0.0
 10
-24.42711143396736
 20
-0.0862103348602937
 30
0.0
 10
-24.6235758463595
 20
0.0001682068133241
 30
0.0
  0
SPLINE
  5
20B7
330
1F
100
AcDbEntity
  8
AM_0
100
AcDbSpline
210
0.0
220
0.0
230
1.0
 70
     8
 71
     3
 72
    17
 73
    13
 74
     0
 42
0.0000000001
 43
0.0000000001
 40
1.580019955310467
 40
1.580019955310467
 40
1.580019955310467
 40
1.580019955310467
 40
2.030549285115227
 40
3.082371838836284
 40
4.126290986361125
 40
5.162752068350215
 40
6.192395305374981
 40
7.216039564037012
 40
8.234688489606833
 40
9.249433870634691
 40
10.26152376260694
 40
11.27226744710342
 40
11.27226744710342
 40
11.27226744710342
 40
11.27226744710352
 10
-8.444311910965202
 20
-2.435496813615097
 30
0.0
 10
-8.527770457382956
 20
-2.460580411244905
 30
0.0
 10
-8.806550041334755
 20
-2.542795252869974
 30
0.0
 10
-9.282495925584115
 20
-2.671752173656974
 30
0.0
 10
-9.872025312036267
 20
-2.81616681763267
 30
0.0
 10
-10.46171699537656
 20
-2.942943700873451
 30
0.0
 10
-11.05143569818393
 20
-3.051657078111891
 30
0.0
 10
-11.64121864978707
 20
-3.141516162991879
 30
0.0
 10
-12.23104234780193
 20
-3.212008169338376
 30
0.0
 10
-12.82090277296173
 20
-3.262676285363347
 30
0.0
 10
-13.41078539263313
 20
-3.293194354519751
 30
0.0
 10
-13.80413591882367
 20
-3.299999658749642
 30
0.0
 10
-14.00068028768302
 20
-3.299999639866866
 30
0.0
  0
LINE
  5
20C9
330
1F
100
AcDbEntity
  8
AM_0
100
AcDbLine
 10
-56.65356251184045
 20
-3.299999639866613
 30
0.0
 11
-56.6536016954165
 21
-2.981989577572425
 31
0.0
  0
LINE
  5
20CA
330
1F
100
AcDbEntity
  8
AM_0
100
AcDbLine
 10
-56.65377490741492
 20
-1.576217977605917
 30
0.0
 11
-56.6539176113214
 21
-0.4180470611749719
 31
0.0
  0
LINE
  5
20CB
330
1F
100
AcDbEntity
  8
AM_0
100
AcDbLine
 10
-56.65394700114628
 20
-0.1795221234026769
 30
0.0
 11
-56.65437578790581
 21
3.300469185022168
 31
0.0
  0
SPLINE
  5
21BA
330
1F
100
AcDbEntity
  8
AM_0
 48
0.5
100
AcDbSpline
210
0.0
220
0.0
230
1.0
 70
     8
 71
     3
 72
    25
 73
    21
 74
     0
 42
0.0000000001
 43
0.0000000001
 40
6.846175049578289
 40
6.846175049578289
 40
6.846175049578289
 40
6.846175049578289
 40
7.604337694224321
 40
8.711974558287883
 40
9.814980593243754
 40
10.91239053451967
 40
12.0033633515982
 40
13.08720139956839
 40
14.16337181880432
 40
15.23152222380919
 40
16.29148850140128
 40
17.34331105512262
 40
18.38723020264746
 40
19.42369128463655
 40
20.45333379090873
 40
21.47697865721768
 40
22.49561244472435
 40
23.5103574802404
 40
24.52244778960836
 40
25.53320666051913
 40
25.53320666051913
 40
25.53320666051913
 40
25.53320666051913
 10
-3.529518546615191
 20
0.5973220293881111
 30
0.0
 10
-3.655862480212215
 20
0.6552641603597222
 30
0.0
 10
-3.967054338279153
 20
0.7972769702852686
 30
0.0
 10
-4.463556585010207
 20
1.020288204029602
 30
0.0
 10
-5.019122917875288
 20
1.263543987811428
 30
0.0
 10
-5.574717190532064
 20
1.499027816222697
 30
0.0
 10
-6.130344176570799
 20
1.725291802258586
 30
0.0
 10
-6.686010067047282
 20
1.940940010662001
 30
0.0
 10
-7.241720000125637
 20
2.144642560472101
 30
0.0
 10
-7.797476548450164
 20
2.335147552078365
 30
0.0
 10
-8.353286557515827
 20
2.511269412077692
 30
0.0
 10
-8.90914927468952
 20
2.671928154607419
 30
0.0
 10
-9.465068692616517
 20
2.816121270796285
 30
0.0
 10
-10.0210428494316
 20
2.942956371929619
 30
0.0
 10
-10.57706957321875
 20
3.051656049583738
 30
0.0
 10
-11.13314576995057
 20
3.141499791876183
 30
0.0
 10
-11.68926278730474
 20
3.212076408017745
 30
0.0
 10
-12.24541449630731
 20
3.262427292457148
 30
0.0
 10
-12.80159186894019
 20
3.294111964191086
 30
0.0
 10
-13.17246817401733
 20
3.298038466057961
 30
0.0
 10
-13.35778427124394
 20
3.300000424780472
 30
0.0
  0
ELLIPSE
  5
21BB
330
1F
100
AcDbEntity
  8
AM_0
 48
0.5
100
AcDbEllipse
 10
4.810503042141403
 20
3.993114975113799
 30
0.0
 11
0.9364133289766384
 21
6.332126318739477
 31
0.0
210
0.0
220
0.0
230
1.0
 40
0.8991184301885631
 41
1.890270824098471
 42
2.197796108596753
  0
ELLIPSE
  5
21BC
330
1F
100
AcDbEntity
  8
AM_0
 48
0.5
100
AcDbEllipse
 10
4.810503042141442
 20
-3.993114975113354
 30
0.0
 11
0.9364133289766991
 21
-6.332126318739466
 31
0.0
210
0.0
220
0.0
230
-1.0
 40
0.8991184301885631
 41
1.890270824098471
 42
2.197796108596753
  0
ELLIPSE
  5
21BD
330
1F
100
AcDbEntity
  8
AM_0
 48
0.5
100
AcDbEllipse
 10
-5.611341094974312
 20
5.538596768774262
 30
0.0
 11
5.626200914005655
 21
5.626200914005698
 31
0.0
210
0.0
220
0.0
230
1.0
 40
0.9999999999999122
 41
4.437574142215648
 42
4.526068919895139
  0
ELLIPSE
  5
21BE
330
1F
100
AcDbEntity
  8
AM_0
 48
0.5
100
AcDbEllipse
 10
2.207737731930075
 20
3.961853452124015
 30
0.0
 11
-4.702944357405449
 21
4.702944357405411
 31
0.0
210
0.0
220
0.0
230
0.9999999999999998
 40
0.9999999999999943
 41
1.315765716631529
 42
1.723886646826419
  0
ELLIPSE
  5
21BF
330
1F
100
AcDbEntity
  8
AM_0
 48
0.5
100
AcDbEllipse
 10
-0.8820846557654444
 20
-0.8600270791871929
 30
0.0
 11
-0.0955047422197442
 21
0.5416433420293235
 31
0.0
210
0.0
220
0.0
230
1.0
 40
0.4999981224495358
 41
1.805862328724633
 42
4.941204218436607
  0
ELLIPSE
  5
21C0
330
1F
100
AcDbEntity
  8
AM_0
 48
0.5
100
AcDbEllipse
 10
-0.8820846557654444
 20
-0.8600270791871929
 30
0.0
 11
-0.4763153343507243
 21
0.275000000824051
 31
0.0
210
0.0
220
0.0
230
1.0
 40
0.5000000000001405
 41
4.483836531792615
 42
7.627276873122125
  0
SPLINE
  5
21C1
330
1F
100
AcDbEntity
  8
AM_0
 48
0.5
100
AcDbSpline
210
0.0
220
0.0
230
1.0
 70
     8
 71
     3
 72
    10
 73
     6
 74
     0
 42
0.0000000001
 43
0.0000000001
 40
0.0
 40
0.0
 40
0.0
 40
0.0
 40
2.69986029516136
 40
4.147722969032201
 40
6.285750005020438
 40
6.285750005020438
 40
6.285750005020438
 40
6.285750005020438
 10
-3.529429626468827
 20
0.5972828344482521
 30
0.0
 10
-3.133588612215925
 20
0.290690030420476
 30
0.0
 10
-2.525468677327376
 20
-0.1803202724774403
 30
0.0
 10
-1.087346721537096
 20
0.047704066559818
 30
0.0
 10
-1.358186916168493
 20
0.8157202125483577
 30
0.0
 10
-1.537140812091754
 20
1.28384970778901
 30
0.0
  0
ELLIPSE
  5
21C2
330
1F
100
AcDbEntity
  8
AM_0
 48
0.5
100
AcDbEllipse
 10
-5.815528319331709
 20
6.276963624626351
 30
0.0
 11
-5.14506355317061
 21
6.974048681252695
 31
0.0
210
0.0
220
0.0
230
0.9999999999999998
 40
0.5700206404056102
 41
3.14653163117385
 42
3.335796059594246
  0
ELLIPSE
  5
21C3
330
1F
100
AcDbEntity
  8
AM_0
 48
0.5
100
AcDbEllipse
 10
3.514315032955162
 20
-0.7335441156248118
 30
0.0
 11
5.160558702520058
 21
1.166381708983105
 31
0.0
210
0.0
220
0.0
230
1.0
 40
0.8301252566846683
 41
3.027185400436083
 42
3.492101796470464
  0
LINE
  5
21C4
330
1F
100
AcDbEntity
  8
AM_0
100
AcDbLine
 10
0.0000000000000728
 20
0.0000000000002002
 30
0.0
 11
-0.3493184215012359
 21
-0.9597444752742584
 31
0.0
  0
LINE
  5
21C6
330
1F
100
AcDbEntity
  8
AM_0
 48
0.5
100
AcDbLine
 10
-0.8888464068941228
 20
-2.803743169597757
 30
0.0
 11
-0.9999999999999342
 21
-3.299999575219683
 31
0.0
  0
LINE
  5
21C7
330
1F
100
AcDbEntity
  8
AM_0
100
AcDbLine
 10
-0.349318421501243
 20
0.9597444752746588
 30
0.0
 11
0.0000000000000728
 21
0.0000000000002002
 31
0.0
  0
LINE
  5
21C8
330
1F
100
AcDbEntity
  8
AM_0
 48
0.5
100
AcDbLine
 10
0.0000000000001155
 20
0.0000000000001718
 30
0.0
 11
-1.520684623721928
 21
1.267100186742977
 31
0.0
  0
LINE
  5
21CA
330
1F
100
AcDbEntity
  8
AM_0
 48
0.5
100
AcDbLine
 10
-0.8888464068941477
 20
2.803743169598154
 30
0.0
 11
-0.9999999999999342
 21
3.300000424780312
 31
0.0
  0
DIMENSION
  5
2209
330
1F
100
AcDbEntity
  8
AM_5
100
AcDbDimension
  2
*D10
 10
-0.3493184215012359
 20
-0.9597444752742584
 30
0.0
 11
12.15487257203746
 21
0.0000000000002438
 31
0.0
 70
    34
  1
<>
 51
359.9999999999998
  3
AM_JIS$2
100
AcDb2LineAngularDimension
 13
-0.349318421501243
 23
0.9597444752746588
 33
0.0
 14
0.0000000000000728
 24
0.0000000000002002
 34
0.0
 15
0.0000000000000728
 25
0.0000000000002002
 35
0.0
 16
12.58403473838646
 26
-5.428222721928884
 36
0.0
1001
ACAD
1000
DSTYLE
1002
{
1070
   179
1070
     3
1002
}
1001
GENIUS_GENDTOL_13
1000

1000
h7
1000

1040
0.0
  0
VIEWPORT
  5
110
330
101
100
AcDbEntity
 67
     1
  8
0
100
AcDbViewport
 10
420.5
 20
297.0
 30
0.0
 40
948.9782706766916
 41
628.452
 68
     1
 69
     1
1001
ACAD
1000
MVIEW
1002
{
1070
    16
1010
0.0
1020
0.0
1030
0.0
1010
0.0
1020
0.0
1030
1.0
1040
0.0
1040
628.452
1040
420.5
1040
297.0
1040
50.0
1040
0.0
1040
0.0
1070
     0
1070
   100
1070
     1
1070
     1
1070
     0
1070
     0
1070
     0
1070
     0
1040
0.0
1040
0.0
1040
0.0
1040
10.0
1040
10.0
1040
10.0
1040
10.0
1070
     0
1002
{
1002
}
1002
}
  0
ENDSEC
  0
SECTION
  2
OBJECTS
  0
DICTIONARY
  5
C
330
0
100
AcDbDictionary
  3
ACAD_GROUP
350
D
  3
ACAD_LAYOUT
350
1A
  3
ACAD_MLINESTYLE
350
17
  3
ACAD_PLOTSETTINGS
350
19
  3
ACAD_PLOTSTYLENAME
350
E
  3
ACDBVARIABLEDICTIONARY
350
34
  3
ACMDICTIONARY
350
43
  3
AMG
350
2B
  3
AMGSNAPSETTINGS
350
6E
  3
DWGPROPS
350
232D
  3
ACDBHEADERROUNDTRIPXREC
350
233A
  0
DICTIONARY
  5
74
330
1F
100
AcDbDictionary
280
     1
  3
ACAD_INDEX
360
232F
  3
ACAD_LAYOUTSELFREF
360
235D
  0
DICTIONARY
  5
2362
330
101
100
AcDbDictionary
280
     1
  3
ACAD_LAYOUTSELFREF
360
2363
  0
DICTIONARY
  5
D
102
{ACAD_REACTORS
330
C
102
}
330
C
100
AcDbDictionary
  0
DICTIONARY
  5
1A
102
{ACAD_REACTORS
330
C
102
}
330
C
100
AcDbDictionary
  0
DICTIONARY
  5
17
102
{ACAD_REACTORS
330
C
102
}
330
C
100
AcDbDictionary
  3
STANDARD
350
18
  0
DICTIONARY
  5
19
102
{ACAD_REACTORS
330
C
102
}
330
C
100
AcDbDictionary
  0
ACDBDICTIONARYWDFLT
  5
E
102
{ACAD_REACTORS
330
C
102
}
330
C
100
AcDbDictionary
281
     1
  3
Normal
350
F
100
AcDbDictionaryWithDefault
340
F
  0
DICTIONARY
  5
34
102
{ACAD_REACTORS
330
C
102
}
330
C
100
AcDbDictionary
  3
INDEXCTL
350
35
  3
SORTENTS
350
B5E
  0
DICTIONARY
  5
43
102
{ACAD_REACTORS
330
C
102
}
330
C
100
AcDbDictionary
  3
ACMSTDDICTIONARY
350
260
  0
DICTIONARY
  5
2B
102
{ACAD_REACTORS
330
C
102
}
330
C
100
AcDbDictionary
  3
ACMGSETTINGS
350
2C
  0
DICTIONARY
  5
6E
102
{ACAD_REACTORS
330
C
102
}
330
C
100
AcDbDictionary
  0
XRECORD
  5
232D
102
{ACAD_REACTORS
330
C
102
}
330
C
100
AcDbXrecord
  1
DWGPROPS COOKIE
  2

  3

  4

  6

  7

  8

  9

300
AmdtFileType=82
301
=
302
=
303
=
304
=
305
=
306
=
307
=
308
=
309
=
 40
0.1352209837962963
 41
2452800.443498622
 42
2452948.545578704
  1

 90
        1
  0
DICTIONARY
  5
233A
102
{ACAD_REACTORS
330
C
102
}
330
C
100
AcDbDictionary
  3
TSTACKALIGN
350
233B
  3
TSTACKSIZE
350
233C
  3
HYPERLINKBASE
350
233D
  3
STYLESHEET
350
233E
  3
LAYOUTDICT
350
233F
  3
PLOTSETDICT
350
2340
  3
PLOTSTYLNAMDICT
350
2341
  3
LWETCUNION
350
2342
  3
INSUNITS
350
2343
  3
CEPSNTYPE
350
2344
  3
FINGERPRINTGUID
350
2345
  3
VERSIONGUID
350
2346
  3
PSVPSCALE
350
2347
  3
DIMSTYLEDATA
350
2348
  3
PUCSORTHOREF
350
2349
  3
PUCSORTHOVIEW
350
234A
  3
PUCSBASE
350
234B
  3
PUCSORGTOP
350
234C
  3
PUCSORGBOTTOM
350
234D
  3
PUCSORGLEFT
350
234E
  3
PUCSORGRIGHT
350
234F
  3
PUCSORGFRONT
350
2350
  3
PUCSORGBACK
350
2351
  3
UCSORTHOREF
350
2352
  3
UCSORTHOVIEW
350
2353
  3
UCSBASE
350
2354
  3
UCSORGTOP
350
2355
  3
UCSORGBOTTOM
350
2356
  3
UCSORGLEFT
350
2357
  3
UCSORGRIGHT
350
2358
  3
UCSORGFRONT
350
2359
  3
UCSORGBACK
350
235A
  0
DICTIONARY
  5
232F
102
{ACAD_REACTORS
330
74
102
}
330
74
100
AcDbDictionary
  3
*A1
350
2330
  0
XRECORD
  5
235D
102
{ACAD_REACTORS
330
74
102
}
330
74
100
AcDbXrecord
340
1F
  0
XRECORD
  5
2363
102
{ACAD_REACTORS
330
2362
102
}
330
2362
100
AcDbXrecord
340
101
  0
MLINESTYLE
  5
18
102
{ACAD_REACTORS
330
17
102
}
330
17
100
AcDbMlineStyle
  2
STANDARD
 70
     0
  3

 62
   256
 51
90.0
 52
90.0
 71
     2
 49
0.5
 62
   256
  6
BYLAYER
 49
-0.5
 62
   256
  6
BYLAYER
  0
ACDBPLACEHOLDER
  5
F
102
{ACAD_REACTORS
330
E
102
}
330
E
100
AcDbPlaceHolder
280
     0
  0
DICTIONARYVAR
  5
35
102
{ACAD_REACTORS
330
34
102
}
330
34
100
DictionaryVariables
280
     0
  1
1
  0
DICTIONARYVAR
  5
B5E
102
{ACAD_REACTORS
330
34
102
}
330
34
100
DictionaryVariables
280
     0
  1
96
  0
DICTIONARY
  5
260
102
{ACAD_REACTORS
330
43
102
}
330
43
100
AcDbDictionary
  0
DICTIONARY
  5
2C
102
{ACAD_REACTORS
330
2B
102
}
330
2B
100
AcDbDictionary
  3
DWGSETTINGS
350
2D
  0
XRECORD
  5
233B
102
{ACAD_REACTORS
330
233A
102
}
330
233A
100
AcDbXrecord
 90
        1
  0
XRECORD
  5
233C
102
{ACAD_REACTORS
330
233A
102
}
330
233A
100
AcDbXrecord
 90
       70
  0
XRECORD
  5
233D
102
{ACAD_REACTORS
330
233A
102
}
330
233A
100
AcDbXrecord
  1

  0
XRECORD
  5
233E
102
{ACAD_REACTORS
330
233A
102
}
330
233A
100
AcDbXrecord
  1
ASAMI.ctb
  0
XRECORD
  5
233F
102
{ACAD_REACTORS
330
233A
102
}
330
233A
100
AcDbXrecord
340
1A
  0
XRECORD
  5
2340
102
{ACAD_REACTORS
330
233A
102
}
330
233A
100
AcDbXrecord
340
19
  0
XRECORD
  5
2341
102
{ACAD_REACTORS
330
233A
102
}
330
233A
100
AcDbXrecord
340
E
  0
XRECORD
  5
2342
102
{ACAD_REACTORS
330
233A
102
}
330
233A
100
AcDbXrecord
 90
    10781
  0
XRECORD
  5
2343
102
{ACAD_REACTORS
330
233A
102
}
330
233A
100
AcDbXrecord
 90
        4
  0
XRECORD
  5
2344
102
{ACAD_REACTORS
330
233A
102
}
330
233A
100
AcDbXrecord
 90
        0
  0
XRECORD
  5
2345
102
{ACAD_REACTORS
330
233A
102
}
330
233A
100
AcDbXrecord
  1
{AFB28963-8C59-40AE-9337-C84526B81ACE}
  0
XRECORD
  5
2346
102
{ACAD_REACTORS
330
233A
102
}
330
233A
100
AcDbXrecord
  1
{8D143B43-6CB0-4594-8AA5-9EF932E21BDB}
  0
XRECORD
  5
2347
102
{ACAD_REACTORS
330
233A
102
}
330
233A
100
AcDbXrecord
 40
0.0
  0
XRECORD
  5
2348
102
{ACAD_REACTORS
330
233A
102
}
330
233A
100
AcDbXrecord
1000
DSTYLE
1002
{
1070
    79
 70
     2
1070
   341
340
59
1070
   342
340
59
1070
   371
 70
    -1
1070
   372
 70
    -1
1002
}
  0
XRECORD
  5
2349
102
{ACAD_REACTORS
330
233A
102
}
330
233A
100
AcDbXrecord
340
0
  0
XRECORD
  5
234A
102
{ACAD_REACTORS
330
233A
102
}
330
233A
100
AcDbXrecord
 70
     0
  0
XRECORD
  5
234B
102
{ACAD_REACTORS
330
233A
102
}
330
233A
100
AcDbXrecord
340
0
  0
XRECORD
  5
234C
102
{ACAD_REACTORS
330
233A
102
}
330
233A
100
AcDbXrecord
 10
0.0
 20
0.0
 30
0.0
  0
XRECORD
  5
234D
102
{ACAD_REACTORS
330
233A
102
}
330
233A
100
AcDbXrecord
 10
0.0
 20
0.0
 30
0.0
  0
XRECORD
  5
234E
102
{ACAD_REACTORS
330
233A
102
}
330
233A
100
AcDbXrecord
 10
0.0
 20
0.0
 30
0.0
  0
XRECORD
  5
234F
102
{ACAD_REACTORS
330
233A
102
}
330
233A
100
AcDbXrecord
 10
0.0
 20
0.0
 30
0.0
  0
XRECORD
  5
2350
102
{ACAD_REACTORS
330
233A
102
}
330
233A
100
AcDbXrecord
 10
0.0
 20
0.0
 30
0.0
  0
XRECORD
  5
2351
102
{ACAD_REACTORS
330
233A
102
}
330
233A
100
AcDbXrecord
 10
0.0
 20
0.0
 30
0.0
  0
XRECORD
  5
2352
102
{ACAD_REACTORS
330
233A
102
}
330
233A
100
AcDbXrecord
340
0
  0
XRECORD
  5
2353
102
{ACAD_REACTORS
330
233A
102
}
330
233A
100
AcDbXrecord
 70
     0
  0
XRECORD
  5
2354
102
{ACAD_REACTORS
330
233A
102
}
330
233A
100
AcDbXrecord
340
0
  0
XRECORD
  5
2355
102
{ACAD_REACTORS
330
233A
102
}
330
233A
100
AcDbXrecord
 10
0.0
 20
0.0
 30
0.0
  0
XRECORD
  5
2356
102
{ACAD_REACTORS
330
233A
102
}
330
233A
100
AcDbXrecord
 10
0.0
 20
0.0
 30
0.0
  0
XRECORD
  5
2357
102
{ACAD_REACTORS
330
233A
102
}
330
233A
100
AcDbXrecord
 10
0.0
 20
0.0
 30
0.0
  0
XRECORD
  5
2358
102
{ACAD_REACTORS
330
233A
102
}
330
233A
100
AcDbXrecord
 10
0.0
 20
0.0
 30
0.0
  0
XRECORD
  5
2359
102
{ACAD_REACTORS
330
233A
102
}
330
233A
100
AcDbXrecord
 10
0.0
 20
0.0
 30
0.0
  0
XRECORD
  5
235A
102
{ACAD_REACTORS
330
233A
102
}
330
233A
100
AcDbXrecord
 10
0.0
 20
0.0
 30
0.0
  0
LAYER_INDEX
  5
2330
102
{ACAD_REACTORS
330
232F
102
}
330
232F
100
AcDbIndex
 40
2453151.676259745
100
AcDbLayerIndex
  8
0
360
2331
 90
        0
  8
AM_0
360
2332
 90
       54
  8
AM_7
360
2333
 90
        1
  8
AM_11
360
2334
 90
       23
  8
AM_5
360
2335
 90
        5
  8
Defpoints
360
2336
 90
        0
  8
AM_6
360
2337
 90
        1
  8
AM_CL
360
2338
 90
        0
  0
XRECORD
  5
2D
102
{ACAD_REACTORS
330
2C
102
}
330
2C
100
AcDbXrecord
  1
VERSION
140
15.0
  1
PRODUCT
  2
AutoCAD Mechanical 2000
  0
IDBUFFER
  5
2331
330
0
100
AcDbIdBuffer
  0
IDBUFFER
  5
2332
330
0
100
AcDbIdBuffer
330
21C3
330
21C4
330
21C6
330
21C7
330
21C8
330
21CA
330
C30
330
1CF0
330
1CF4
330
1CF9
330
1CFD
330
1CFE
330
1D1A
330
1D86
330
1D87
330
207C
330
207D
330
207E
330
207F
330
2092
330
2094
330
2099
330
209A
330
209D
330
209E
330
209F
330
20A0
330
20A4
330
20A5
330
20A6
330
20A7
330
20A8
330
20A9
330
20AA
330
20AB
330
20AC
330
20AF
330
20B3
330
20B4
330
20B5
330
20B6
330
20B7
330
20C9
330
20CA
330
20CB
330
21BA
330
21BB
330
21BC
330
21BD
330
21BE
330
21BF
330
21C0
330
21C1
330
21C2
  0
IDBUFFER
  5
2333
330
0
100
AcDbIdBuffer
330
C9F
  0
IDBUFFER
  5
2334
330
0
100
AcDbIdBuffer
330
1D02
330
2095
330
2096
330
2097
330
2098
330
209B
330
209C
330
144A
330
144B
330
144E
330
144F
330
1450
330
1451
330
1452
330
1453
330
1454
330
1C02
330
1C03
330
1C04
330
1C05
330
1CFF
330
1D00
330
1D01
  0
IDBUFFER
  5
2335
330
0
100
AcDbIdBuffer
330
CC6
330
DF5
330
1ED0
330
2080
330
2209
  0
IDBUFFER
  5
2336
330
0
100
AcDbIdBuffer
  0
IDBUFFER
  5
2337
330
0
100
AcDbIdBuffer
330
19BD
  0
IDBUFFER
  5
2338
330
0
100
AcDbIdBuffer
  0
ENDSEC
  0
EOF
