  0
SECTION
  2
HEADER
  9
$ACADVER
  1
AC1014
  9
$ACADMAINTVER
 70
     9
  9
$DWGCODEPAGE
  3
ANSI_932
  9
$INSBASE
 10
0.0
 20
0.0
 30
0.0
  9
$EXTMIN
 10
-121.4000010000003
 20
-26.75000099999996
 30
-0.00000001
  9
$EXTMAX
 10
14.60375549899518
 20
14.19288758856094
 30
0.00000001
  9
$LIMMIN
 10
-125.6960993046355
 20
-45.11581923895377
  9
$LIMMAX
 10
17.87547643539494
 20
30.0267128472426
  9
$ORTHOMODE
 70
     0
  9
$REGENMODE
 70
     1
  9
$FILLMODE
 70
     1
  9
$QTEXTMODE
 70
     0
  9
$MIRRTEXT
 70
     0
  9
$DRAGMODE
 70
     2
  9
$LTSCALE
 40
1.0
  9
$OSMODE
 70
    55
  9
$ATTMODE
 70
     1
  9
$TEXTSIZE
 40
2.5
  9
$TRACEWID
 40
1.0
  9
$TEXTSTYLE
  7
STANDARD
  9
$CLAYER
  8
AM_0
  9
$CELTYPE
  6
BYLAYER
  9
$CECOLOR
 62
   256
  9
$CELTSCALE
 40
1.0
  9
$DELOBJ
 70
     1
  9
$DISPSILH
 70
     0
  9
$DIMSCALE
 40
0.5
  9
$DIMASZ
 40
2.5
  9
$DIMEXO
 40
1.0
  9
$DIMDLI
 40
12.0
  9
$DIMRND
 40
0.0
  9
$DIMDLE
 40
0.0
  9
$DIMEXE
 40
1.0
  9
$DIMTP
 40
0.1
  9
$DIMTM
 40
0.1
  9
$DIMTXT
 40
3.2
  9
$DIMCEN
 40
0.0
  9
$DIMTSZ
 40
0.0
  9
$DIMTOL
 70
     0
  9
$DIMLIM
 70
     0
  9
$DIMTIH
 70
     0
  9
$DIMTOH
 70
     0
  9
$DIMSE1
 70
     0
  9
$DIMSE2
 70
     0
  9
$DIMTAD
 70
     3
  9
$DIMZIN
 70
     8
  9
$DIMBLK
  1
OPEN30
  9
$DIMASO
 70
     1
  9
$DIMSHO
 70
     1
  9
$DIMPOST
  1

  9
$DIMAPOST
  1
"
  9
$DIMALT
 70
     0
  9
$DIMALTD
 70
     2
  9
$DIMALTF
 40
0.0393701
  9
$DIMLFAC
 40
1.0
  9
$DIMTOFL
 70
     1
  9
$DIMTVP
 40
0.0
  9
$DIMTIX
 70
     0
  9
$DIMSOXD
 70
     0
  9
$DIMSAH
 70
     0
  9
$DIMBLK1
  1

  9
$DIMBLK2
  1

  9
$DIMSTYLE
  2
AM_JIS
  9
$DIMCLRD
 70
   256
  9
$DIMCLRE
 70
   256
  9
$DIMCLRT
 70
     2
  9
$DIMTFAC
 40
0.71
  9
$DIMGAP
 40
1.5
  9
$DIMJUST
 70
     0
  9
$DIMSD1
 70
     0
  9
$DIMSD2
 70
     0
  9
$DIMTOLJ
 70
     0
  9
$DIMTZIN
 70
     0
  9
$DIMALTZ
 70
     0
  9
$DIMALTTZ
 70
     0
  9
$DIMFIT
 70
     3
  9
$DIMUPT
 70
     0
  9
$DIMUNIT
 70
     2
  9
$DIMDEC
 70
     3
  9
$DIMTDEC
 70
     3
  9
$DIMALTU
 70
     2
  9
$DIMALTTD
 70
     2
  9
$DIMTXSTY
  7
ASAMI
  9
$DIMAUNIT
 70
     0
  9
$LUNITS
 70
     2
  9
$LUPREC
 70
     2
  9
$SKETCHINC
 40
1.0
  9
$FILLETRAD
 40
2.5
  9
$AUNITS
 70
     0
  9
$AUPREC
 70
     0
  9
$MENU
  1
.
  9
$ELEVATION
 40
0.0
  9
$PELEVATION
 40
0.0
  9
$THICKNESS
 40
0.0
  9
$LIMCHECK
 70
     0
  9
$BLIPMODE
 70
     0
  9
$CHAMFERA
 40
0.25
  9
$CHAMFERB
 40
0.25
  9
$CHAMFERC
 40
20.0
  9
$CHAMFERD
 40
0.0
  9
$SKPOLY
 70
     0
  9
$TDCREATE
 40
2452800.443498622
  9
$TDUPDATE
 40
2453151.676634097
  9
$TDINDWG
 40
0.0897911111
  9
$TDUSRTIMER
 40
0.0897911111
  9
$USRTIMER
 70
     1
  9
$ANGBASE
 50
0.0
  9
$ANGDIR
 70
     0
  9
$PDMODE
 70
     3
  9
$PDSIZE
 40
0.0
  9
$PLINEWID
 40
0.0
  9
$COORDS
 70
     1
  9
$SPLFRAME
 70
     0
  9
$SPLINETYPE
 70
     6
  9
$SPLINESEGS
 70
     8
  9
$ATTDIA
 70
     1
  9
$ATTREQ
 70
     1
  9
$HANDLING
 70
 12289
  9
$HANDSEED
  5
2270
  9
$SURFTAB1
 70
     6
  9
$SURFTAB2
 70
     6
  9
$SURFTYPE
 70
     6
  9
$SURFU
 70
     6
  9
$SURFV
 70
     6
  9
$UCSNAME
  2

  9
$UCSORG
 10
0.0
 20
0.0
 30
0.0
  9
$UCSXDIR
 10
1.0
 20
0.000000000000002
 30
0.0
  9
$UCSYDIR
 10
-0.000000000000002
 20
1.0
 30
0.0
  9
$PUCSNAME
  2

  9
$PUCSORG
 10
0.0
 20
0.0
 30
0.0
  9
$PUCSXDIR
 10
1.0
 20
0.0
 30
0.0
  9
$PUCSYDIR
 10
0.0
 20
1.0
 30
0.0
  9
$USERI1
 70
     0
  9
$USERI2
 70
     0
  9
$USERI3
 70
     0
  9
$USERI4
 70
     0
  9
$USERI5
 70
     0
  9
$USERR1
 40
0.0
  9
$USERR2
 40
0.0
  9
$USERR3
 40
0.0
  9
$USERR4
 40
0.0
  9
$USERR5
 40
0.0
  9
$WORLDVIEW
 70
     1
  9
$SHADEDGE
 70
     3
  9
$SHADEDIF
 70
    70
  9
$TILEMODE
 70
     1
  9
$MAXACTVP
 70
    64
  9
$PINSBASE
 10
0.0
 20
0.0
 30
0.0
  9
$PLIMCHECK
 70
     0
  9
$PEXTMIN
 10
1.000000000000000E+20
 20
1.000000000000000E+20
 30
1.000000000000000E+20
  9
$PEXTMAX
 10
-1.000000000000000E+20
 20
-1.000000000000000E+20
 30
-1.000000000000000E+20
  9
$PLIMMIN
 10
0.0
 20
0.0
  9
$PLIMMAX
 10
841.0
 20
594.0
  9
$UNITMODE
 70
     0
  9
$VISRETAIN
 70
     1
  9
$PLINEGEN
 70
     0
  9
$PSLTSCALE
 70
     0
  9
$TREEDEPTH
 70
  3020
  9
$PICKSTYLE
 70
     0
  9
$CMLSTYLE
  2
STANDARD
  9
$CMLJUST
 70
     0
  9
$CMLSCALE
 40
20.0
  9
$PROXYGRAPHICS
 70
     1
  9
$MEASUREMENT
 70
     1
  0
ENDSEC
  0
SECTION
  2
CLASSES
  0
CLASS
  1
ACDBDICTIONARYWDFLT
  2
AcDbDictionaryWithDefault
  3
AutoCAD 2000
 90
        0
280
     0
281
     0
  0
CLASS
  1
ACDBPLACEHOLDER
  2
AcDbPlaceHolder
  3
AutoCAD 2000
 90
        0
280
     0
281
     0
  0
CLASS
  1
LAYOUT
  2
AcDbLayout
  3
AutoCAD 2000
 90
        0
280
     0
281
     0
  0
CLASS
  1
AMGSETTINGSOBJ
  2
AmgSettingsObj
  3
"AcadM|Product Description: AutoCAD Mechanical 2000|Company: Autodesk"
 90
        0
280
     0
281
     0
  0
CLASS
  1
ACME_DOCUMENT
  2
AcMeDbDoc
  3
AcMeServices
 90
        0
280
     0
281
     0
  0
CLASS
  1
ACMESCOPE
  2
AcMeScope
  3
AcMeServices
 90
        0
280
     0
281
     0
  0
CLASS
  1
ACMECOMMANDHISTORY
  2
AcMeCommandHistory
  3
AcMeServices
 90
        0
280
     0
281
     0
  0
CLASS
  1
DICTIONARYVAR
  2
AcDbDictionaryVar
  3
AutoCAD 2000
 90
        0
280
     0
281
     0
  0
CLASS
  1
ACIMSYSVARMAN
  2
AcImSysVarManager
  3
AcMeServices
 90
        0
280
     0
281
     0
  0
CLASS
  1
ACIMREALSYSVAR
  2
AcImRealSysVar
  3
AcMeServices
 90
        0
280
     0
281
     0
  0
CLASS
  1
ACIMINTSYSVAR
  2
AcImIntSysVar
  3
AcMeServices
 90
        0
280
     0
281
     0
  0
CLASS
  1
ACMEDRAWINGMAN
  2
AcMeDrawingMan
  3
AcMeServices
 90
        0
280
     0
281
     0
  0
CLASS
  1
ACMEVIEW
  2
AcMeView
  3
AcMeServices
 90
        0
280
     0
281
     0
  0
CLASS
  1
ACDBENTITYCACHE
  2
AcMeEntityCache
  3
AcMeServices
 90
        0
280
     0
281
     0
  0
CLASS
  1
GSMANAGER
  2
AcMeGSManager
  3
AcMeServices
 90
        0
280
     0
281
     0
  0
CLASS
  1
AmdtInternalReactor
  2
AmdtInternalReactor
  3
AcMeServices
 90
        0
280
     0
281
     0
  0
CLASS
  1
ACMESTATEMGR
  2
AcMeStateMgr
  3
AcMeServices
 90
        0
280
     0
281
     0
  0
CLASS
  1
ACME_DATABASE
  2
AcMeDbDatabase
  3
AcMeServices
 90
        0
280
     0
281
     0
  0
CLASS
  1
ACRFINSADJUSTERMGR
  2
AcRfInsAdjusterMgr
  3
AcMeServices
 90
        0
280
     0
281
     0
  0
CLASS
  1
ACMDATADICTIONARY
  2
AcmDataDictionary
  3
"AcmSymBB|Product Description: AutoCAD Mechanical 2000|Company: Autodesk"
 90
        0
280
     0
281
     0
  0
CLASS
  1
ACMDATAENTRYBLOCK
  2
AcmDataEntryBlock
  3
"AcmSymBB|Product Description: AutoCAD Mechanical 2000|Company: Autodesk"
 90
        0
280
     0
281
     0
  0
CLASS
  1
AMGOBJPROPCFG
  2
AmgObjPropCfg
  3
"AmgLay|Product Description: AutoCAD Mechanical 2000|Company: Autodesk"
 90
        1
280
     0
281
     0
  0
CLASS
  1
ACAMGFILTERDAT
  2
AcAmgFilterDat
  3
"AcadM|Product Description: AutoCAD Mechanical 2000|Company: Autodesk"
 90
        0
280
     0
281
     0
  0
CLASS
  1
LAYER_INDEX
  2
AcDbLayerIndex
  3
AutoCAD 2000
 90
        0
280
     0
281
     0
  0
CLASS
  1
IDBUFFER
  2
AcDbIdBuffer
  3
AutoCAD 2000
 90
        0
280
     0
281
     0
  0
CLASS
  1
ACIMSTRSYSVAR
  2
AcImStrSysVar
  3
AcMeServices
 90
        0
280
     0
281
     0
  0
CLASS
  1
ACMSTANDARDJIS
  2
AcmStandardJIS
  3
"AcmSymBB|Product Description: AutoCAD Mechanical 2000|Company: Autodesk"
 90
        0
280
     0
281
     0
  0
CLASS
  1
ACMSURFSTANDARDJIS
  2
AcmSurfTextStdJIS
  3
"AcmSymBB|Product Description: AutoCAD Mechanical 2000|Company: Autodesk"
 90
        0
280
     0
281
     0
  0
CLASS
  1
ACMFCFSTANDARDJIS
  2
AcmFCFStdJIS
  3
"AcmSymBB|Product Description: AutoCAD Mechanical 2000|Company: Autodesk"
 90
        0
280
     0
281
     0
  0
CLASS
  1
ACMWELDSTANDARDJIS
  2
AcmWeldingStdJIS
  3
"AcmSymBB|Product Description: AutoCAD Mechanical 2000|Company: Autodesk"
 90
        0
280
     0
281
     0
  0
CLASS
  1
ACMIDSTANDARDJIS
  2
AcmIdStdJIS
  3
"AcmSymBB|Product Description: AutoCAD Mechanical 2000|Company: Autodesk"
 90
        0
280
     0
281
     0
  0
CLASS
  1
ACMDATUMSTANDARDJIS
  2
AcmDatumStdJIS
  3
"AcmSymBB|Product Description: AutoCAD Mechanical 2000|Company: Autodesk"
 90
        0
280
     0
281
     0
  0
CLASS
  1
ACMBOMSTANDARDJIS
  2
AcmBOMStdJIS
  3
"AcmSymBB|Product Description: AutoCAD Mechanical 2000|Company: Autodesk"
 90
        0
280
     0
281
     0
  0
CLASS
  1
ACMSTANDARDANSI
  2
AcmStandardANSI
  3
"AcmSymBB|Product Description: AutoCAD Mechanical 2000|Company: Autodesk"
 90
        0
280
     0
281
     0
  0
CLASS
  1
ACMSURFSTANDARDANSI
  2
AcmSurfTextStdANSI
  3
"AcmSymBB|Product Description: AutoCAD Mechanical 2000|Company: Autodesk"
 90
        0
280
     0
281
     0
  0
CLASS
  1
ACMFCFSTANDARDANSI
  2
AcmFCFStdANSI
  3
"AcmSymBB|Product Description: AutoCAD Mechanical 2000|Company: Autodesk"
 90
        0
280
     0
281
     0
  0
CLASS
  1
ACMWELDSTANDARDANSI
  2
AcmWeldingStdANSI
  3
"AcmSymBB|Product Description: AutoCAD Mechanical 2000|Company: Autodesk"
 90
        0
280
     0
281
     0
  0
CLASS
  1
ACMIDSTANDARDANSI
  2
AcmIdStdANSI
  3
"AcmSymBB|Product Description: AutoCAD Mechanical 2000|Company: Autodesk"
 90
        0
280
     0
281
     0
  0
CLASS
  1
ACMDATUMSTANDARDANSI
  2
AcmDatumStdANSI
  3
"AcmSymBB|Product Description: AutoCAD Mechanical 2000|Company: Autodesk"
 90
        0
280
     0
281
     0
  0
CLASS
  1
ACMBOMSTANDARDANSI
  2
AcmBOMStdANSI
  3
"AcmSymBB|Product Description: AutoCAD Mechanical 2000|Company: Autodesk"
 90
        0
280
     0
281
     0
  0
CLASS
  1
ACMSTANDARDBSI
  2
AcmStandardBSI
  3
"AcmSymBB|Product Description: AutoCAD Mechanical 2000|Company: Autodesk"
 90
        0
280
     0
281
     0
  0
CLASS
  1
ACMSURFSTANDARDBSI
  2
AcmSurfTextStdBSI
  3
"AcmSymBB|Product Description: AutoCAD Mechanical 2000|Company: Autodesk"
 90
        0
280
     0
281
     0
  0
CLASS
  1
ACMFCFSTANDARDBSI
  2
AcmFCFStdBSI
  3
"AcmSymBB|Product Description: AutoCAD Mechanical 2000|Company: Autodesk"
 90
        0
280
     0
281
     0
  0
CLASS
  1
ACMWELDSTANDARDBSI
  2
AcmWeldingStdBSI
  3
"AcmSymBB|Product Description: AutoCAD Mechanical 2000|Company: Autodesk"
 90
        0
280
     0
281
     0
  0
CLASS
  1
ACMIDSTANDARDBSI
  2
AcmIdStdBSI
  3
"AcmSymBB|Product Description: AutoCAD Mechanical 2000|Company: Autodesk"
 90
        0
280
     0
281
     0
  0
CLASS
  1
ACMDATUMSTANDARDBSI
  2
AcmDatumStdBSI
  3
"AcmSymBB|Product Description: AutoCAD Mechanical 2000|Company: Autodesk"
 90
        0
280
     0
281
     0
  0
CLASS
  1
ACMBOMSTANDARDBSI
  2
AcmBOMStdBSI
  3
"AcmSymBB|Product Description: AutoCAD Mechanical 2000|Company: Autodesk"
 90
        0
280
     0
281
     0
  0
CLASS
  1
LONG_TRANSACTION
  2
AcDbLongTransaction
  3
AutoCAD 2000
 90
        0
280
     0
281
     0
  0
CLASS
  1
LWPOLYLINE
  2
AcDbPolyline
  3
AutoCAD 2000
 90
        0
280
     0
281
     1
  0
CLASS
  1
HATCH
  2
AcDbHatch
  3
AutoCAD 2000
 90
        0
280
     0
281
     1
  0
CLASS
  1
XRECORD
  2
AcDbXrecord
  3
AutoCAD 2000
 90
        0
280
     0
281
     0
  0
ENDSEC
  0
SECTION
  2
TABLES
  0
TABLE
  2
VPORT
  5
8
330
0
100
AcDbSymbolTable
 70
     3
  0
VPORT
  5
2245
330
8
100
AcDbSymbolTableRecord
100
AcDbViewportTableRecord
  2
*ACTIVE
 70
     0
 10
0.0
 20
0.0
 11
1.0
 21
1.0
 12
-50.88073268367764
 22
-6.280444107914348
 13
0.0
 23
0.0
 14
2.5
 24
2.5
 15
10.0
 25
10.0
 16
0.0
 26
0.0
 36
1.0
 17
0.0
 27
0.0
 37
0.0
 40
90.52019260035574
 41
1.56570841889117
 42
50.0
 43
0.0
 44
0.0
 50
0.0
 51
0.0
 71
     0
 72
   100
 73
     1
 74
     1
 75
     0
 76
     0
 77
     0
 78
     0
  0
ENDTAB
  0
TABLE
  2
LTYPE
  5
5
330
0
100
AcDbSymbolTable
 70
    10
  0
LTYPE
  5
14
330
5
100
AcDbSymbolTableRecord
100
AcDbLinetypeTableRecord
  2
BYBLOCK
 70
     0
  3

 72
    65
 73
     0
 40
0.0
  0
LTYPE
  5
15
330
5
100
AcDbSymbolTableRecord
100
AcDbLinetypeTableRecord
  2
BYLAYER
 70
     0
  3

 72
    65
 73
     0
 40
0.0
  0
LTYPE
  5
16
330
5
100
AcDbSymbolTableRecord
100
AcDbLinetypeTableRecord
  2
CONTINUOUS
 70
     0
  3
Solid line
 72
    65
 73
     0
 40
0.0
  0
LTYPE
  5
4B
330
5
100
AcDbSymbolTableRecord
100
AcDbLinetypeTableRecord
  2
AM_ISO02W050
 70
     0
  3
__ __ __ __ __ __ __ __ __ __ __ __ __ __ __
 72
    65
 73
     2
 40
7.5
 49
6.0
 74
     0
 49
-1.5
 74
     0
  0
LTYPE
  5
4C
330
5
100
AcDbSymbolTableRecord
100
AcDbLinetypeTableRecord
  2
AM_ISO08W050
 70
     0
  3
____ . ____ . ____ . ____ . ____ . ____ . ____
 72
    65
 73
     4
 40
18.0
 49
12.0
 74
     0
 49
-1.5
 74
     0
 49
3.0
 74
     0
 49
-1.5
 74
     0
  0
LTYPE
  5
4D
330
5
100
AcDbSymbolTableRecord
100
AcDbLinetypeTableRecord
  2
AM_ISO09W050
 70
     0
  3
_____ . . _____ . . _____ . . ____ .. ____
 72
    65
 73
     6
 40
22.5
 49
12.0
 74
     0
 49
-1.5
 74
     0
 49
3.0
 74
     0
 49
-1.5
 74
     0
 49
3.0
 74
     0
 49
-1.5
 74
     0
  0
LTYPE
  5
4E
330
5
100
AcDbSymbolTableRecord
100
AcDbLinetypeTableRecord
  2
AMCONSTR
 70
     0
  3
_______________________
 72
    65
 73
     2
 40
9999.0
 49
9999.0
 74
     0
 49
0.0
 74
     0
  0
LTYPE
  5
4F
330
5
100
AcDbSymbolTableRecord
100
AcDbLinetypeTableRecord
  2
AM_ISO02W050X2
 70
     0
  3
 _ _ _ _ _ _ _ _ _ _ _ _
 72
    65
 73
     2
 40
3.75
 49
3.0
 74
     0
 49
-0.75
 74
     0
  0
LTYPE
  5
50
330
5
100
AcDbSymbolTableRecord
100
AcDbLinetypeTableRecord
  2
AM_ISO08W050X2
 70
     0
  3
__ . __ . __ . __ . __ . __
 72
    65
 73
     4
 40
9.0
 49
6.0
 74
     0
 49
-0.75
 74
     0
 49
1.5
 74
     0
 49
-0.75
 74
     0
  0
LTYPE
  5
53
330
5
100
AcDbSymbolTableRecord
100
AcDbLinetypeTableRecord
  2
AMZIGZAG
 70
     0
  3
/\/-/\/-/\/-/\/-/\/-/\/
 72
    65
 73
     2
 40
11.00009999999999
 49
0.0001
 74
     4
 75
   135
340
52
 46
0.04
 50
0.0
 44
0.0
 45
0.0
 49
-11.0
 74
     0
  0
LTYPE
  5
166
330
5
100
AcDbSymbolTableRecord
100
AcDbLinetypeTableRecord
  2
ACJISTGL
 70
     0
  3
_ _ _ _ _
 72
    65
 73
     2
 40
3.0
 49
2.0
 74
     0
 49
-1.0
 74
     0
  0
LTYPE
  5
26A
330
5
100
AcDbSymbolTableRecord
100
AcDbLinetypeTableRecord
  2
ACJISTGB
 70
     0
  3
__ . . __ . .
 72
    65
 73
     6
 40
9.0
 49
4.0
 74
     0
 49
-1.0
 74
     0
 49
1.0
 74
     0
 49
-1.0
 74
     0
 49
1.0
 74
     0
 49
-1.0
 74
     0
  0
ENDTAB
  0
TABLE
  2
LAYER
  5
2
330
0
100
AcDbSymbolTable
 70
     8
  0
LAYER
  5
10
330
2
100
AcDbSymbolTableRecord
100
AcDbLayerTableRecord
  2
0
 70
     0
 62
     7
  6
CONTINUOUS
  0
LAYER
  5
3F9
330
2
100
AcDbSymbolTableRecord
100
AcDbLayerTableRecord
  2
AM_0
 70
     0
 62
     7
  6
CONTINUOUS
  0
LAYER
  5
C7C
330
2
100
AcDbSymbolTableRecord
100
AcDbLayerTableRecord
  2
AM_7
 70
     0
 62
     4
  6
AM_ISO08W050
  0
LAYER
  5
C97
330
2
100
AcDbSymbolTableRecord
100
AcDbLayerTableRecord
  2
AM_11
 70
     0
 62
     3
  6
AM_ISO09W050
  0
LAYER
  5
CC5
330
2
100
AcDbSymbolTableRecord
100
AcDbLayerTableRecord
  2
AM_5
 70
     0
 62
     3
  6
CONTINUOUS
  0
LAYER
  5
CC7
330
2
100
AcDbSymbolTableRecord
100
AcDbLayerTableRecord
  2
DEFPOINTS
 70
     0
 62
     7
  6
CONTINUOUS
  0
LAYER
  5
19BC
330
2
100
AcDbSymbolTableRecord
100
AcDbLayerTableRecord
  2
AM_6
 70
     0
 62
     2
  6
CONTINUOUS
  0
LAYER
  5
20B7
330
2
100
AcDbSymbolTableRecord
100
AcDbLayerTableRecord
  2
AM_CL
 70
     0
 62
     1
  6
AMCONSTR
  0
ENDTAB
  0
TABLE
  2
STYLE
  5
3
330
0
100
AcDbSymbolTable
 70
     5
  0
STYLE
  5
11
330
3
100
AcDbSymbolTableRecord
100
AcDbTextStyleTableRecord
  2
STANDARD
 70
     0
 40
0.0
 41
1.0
 50
0.0
 71
     0
 42
2.5
  3
simplex.shx
  4
EXTFONT.SHX
  0
STYLE
  5
52
330
3
100
AcDbSymbolTableRecord
100
AcDbTextStyleTableRecord
  2

 70
     1
 40
0.0
 41
1.0
 50
0.0
 71
     0
 42
2.5
  3
ltypeshp.shx
  4

  0
STYLE
  5
6B
330
3
100
AcDbSymbolTableRecord
100
AcDbTextStyleTableRecord
  2
ASAMI
 70
     0
 40
0.0
 41
1.0
 50
0.0
 71
     0
 42
2.5
  3
simplex.shx
  4
EXTFONT.SHX
  0
STYLE
  5
262
330
3
100
AcDbSymbolTableRecord
100
AcDbTextStyleTableRecord
  2
ACJISTS
 70
     0
 40
1.0
 41
1.0
 50
0.0
 71
     0
 42
2.5
  3
simplex.shx
  4
bigfont.shx
  0
STYLE
  5
269
330
3
100
AcDbSymbolTableRecord
100
AcDbTextStyleTableRecord
  2
ACJISGDT
 70
     0
 40
0.0
 41
1.0
 50
0.0
 71
     0
 42
2.5
  3
amgdtans.shx
  4

  0
ENDTAB
  0
TABLE
  2
VIEW
  5
6
330
0
100
AcDbSymbolTable
 70
     0
  0
ENDTAB
  0
TABLE
  2
UCS
  5
7
330
0
100
AcDbSymbolTable
 70
     0
  0
ENDTAB
  0
TABLE
  2
APPID
  5
9
330
0
100
AcDbSymbolTable
 70
    16
  0
APPID
  5
12
330
9
100
AcDbSymbolTableRecord
100
AcDbRegAppTableRecord
  2
ACAD
 70
     0
  0
APPID
  5
30
330
9
100
AcDbSymbolTableRecord
100
AcDbRegAppTableRecord
  2
MCAD_NO_VIS
 70
     0
  0
APPID
  5
31
330
9
100
AcDbSymbolTableRecord
100
AcDbRegAppTableRecord
  2
ACAD_TEMP_GRAPHIC
 70
     0
  0
APPID
  5
2C2
330
9
100
AcDbSymbolTableRecord
100
AcDbRegAppTableRecord
  2
GENIUS_GENDTOL_13
 70
     0
  0
APPID
  5
339
330
9
100
AcDbSymbolTableRecord
100
AcDbRegAppTableRecord
  2
GENIUS_GENODEF_13
 70
     0
  0
APPID
  5
33A
330
9
100
AcDbSymbolTableRecord
100
AcDbRegAppTableRecord
  2
GENIUS_GENOBJ-N-RSBK_13
 70
     0
  0
APPID
  5
33B
330
9
100
AcDbSymbolTableRecord
100
AcDbRegAppTableRecord
  2
GENIUS_GENOBJ-N-LIB_13
 70
     0
  0
APPID
  5
33C
330
9
100
AcDbSymbolTableRecord
100
AcDbRegAppTableRecord
  2
GENIUS_GENSCALE_13
 70
     0
  0
APPID
  5
378
330
9
100
AcDbSymbolTableRecord
100
AcDbRegAppTableRecord
  2
GENIUS_GENDIMSH_14
 70
     0
  0
APPID
  5
C82
330
9
100
AcDbSymbolTableRecord
100
AcDbRegAppTableRecord
  2
GENIUS_GENOBJ-N-CRS_13
 70
     0
  0
APPID
  5
C83
330
9
100
AcDbSymbolTableRecord
100
AcDbRegAppTableRecord
  2
GENIUS_GENOENT_13
 70
     0
  0
APPID
  5
C84
330
9
100
AcDbSymbolTableRecord
100
AcDbRegAppTableRecord
  2
GENIUS_GENOREF_13
 70
     0
  0
APPID
  5
C85
330
9
100
AcDbSymbolTableRecord
100
AcDbRegAppTableRecord
  2
GENIUS_GENOLIS_13
 70
     0
  0
APPID
  5
CA0
330
9
100
AcDbSymbolTableRecord
100
AcDbRegAppTableRecord
  2
GENIUS_GENOBJ-N-CEN_13
 70
     0
  0
APPID
  5
1CFA
330
9
100
AcDbSymbolTableRecord
100
AcDbRegAppTableRecord
  2
GENIUS_GENFIL_13
 70
     0
  0
APPID
  5
1CFB
330
9
100
AcDbSymbolTableRecord
100
AcDbRegAppTableRecord
  2
GENIUS_GENOBJ-N-CHA_13
 70
     0
  0
ENDTAB
  0
TABLE
  2
DIMSTYLE
  5
A
330
0
100
AcDbSymbolTable
 70
     9
  0
DIMSTYLE
105
58
330
A
100
AcDbSymbolTableRecord
100
AcDbDimStyleTableRecord
  2
AM_JIS
 70
     0
  3

  4
"
  5
OPEN30
  6

  7

 40
0.5
 41
2.5
 42
1.0
 43
12.0
 44
1.0
 45
0.0
 46
0.0
 47
0.1
 48
0.1
140
3.2
141
0.0
142
0.0
143
0.0393701
144
1.0
145
0.0
146
0.71
147
1.5
 71
     0
 72
     0
 73
     0
 74
     0
 75
     0
 76
     0
 77
     3
 78
     8
170
     0
171
     2
172
     1
173
     0
174
     0
175
     0
176
   256
177
   256
178
     2
270
     2
271
     3
272
     3
273
     2
274
     2
340
6B
275
     0
280
     0
281
     0
282
     0
283
     0
284
     0
285
     0
286
     0
287
     3
288
     0
  0
DIMSTYLE
105
5F
330
A
100
AcDbSymbolTableRecord
100
AcDbDimStyleTableRecord
  2
AM_JIS$3
 70
     0
  3

  4
"
  5
OPEN30
  6

  7

 40
0.5
 41
2.5
 42
1.0
 43
10.0
 44
1.0
 45
0.0
 46
0.0
 47
0.1
 48
0.1
140
3.2
141
0.0
142
0.0
143
0.0393701
144
1.0
145
0.0
146
0.71
147
1.5
 71
     0
 72
     0
 73
     0
 74
     1
 75
     0
 76
     0
 77
     3
 78
     8
170
     0
171
     2
172
     0
173
     0
174
     0
175
     0
176
   256
177
   256
178
     2
270
     2
271
     2
272
     3
273
     2
274
     2
340
6B
275
     0
280
     0
281
     0
282
     0
283
     0
284
     0
285
     0
286
     0
287
     0
288
     1
  0
DIMSTYLE
105
60
330
A
100
AcDbSymbolTableRecord
100
AcDbDimStyleTableRecord
  2
AM_JIS$4
 70
     0
  3

  4
"
  5
OPEN30
  6

  7

 40
0.5
 41
2.5
 42
1.0
 43
10.0
 44
1.0
 45
0.0
 46
0.0
 47
0.1
 48
0.1
140
3.2
141
0.0
142
0.0
143
0.0393701
144
1.0
145
0.0
146
0.71
147
1.5
 71
     0
 72
     0
 73
     0
 74
     1
 75
     0
 76
     0
 77
     3
 78
     8
170
     0
171
     2
172
     0
173
     0
174
     0
175
     0
176
   256
177
   256
178
     2
270
     2
271
     2
272
     3
273
     2
274
     2
340
6B
275
     0
280
     0
281
     0
282
     0
283
     0
284
     0
285
     0
286
     0
287
     0
288
     1
  0
DIMSTYLE
105
61
330
A
100
AcDbSymbolTableRecord
100
AcDbDimStyleTableRecord
  2
AM_JIS$6
 70
     0
  3

  4
"
  5
OPEN30
  6

  7

 40
0.5
 41
2.5
 42
1.0
 43
10.0
 44
1.0
 45
0.0
 46
0.0
 47
0.1
 48
0.1
140
3.2
141
0.0
142
0.0
143
0.0393701
144
1.0
145
0.0
146
0.71
147
1.5
 71
     0
 72
     0
 73
     0
 74
     0
 75
     0
 76
     0
 77
     0
 78
     8
170
     0
171
     2
172
     1
173
     0
174
     0
175
     0
176
   256
177
   256
178
     2
270
     2
271
     2
272
     2
273
     2
274
     2
340
6B
275
     0
280
     0
281
     0
282
     0
283
     0
284
     0
285
     0
286
     0
287
     3
288
     0
  0
DIMSTYLE
105
62
330
A
100
AcDbSymbolTableRecord
100
AcDbDimStyleTableRecord
  2
AM_JIS$7
 70
     0
  3

  4
"
  5
OPEN30
  6

  7

 40
0.5
 41
2.5
 42
1.0
 43
10.0
 44
1.0
 45
0.0
 46
0.0
 47
0.1
 48
0.1
140
3.2
141
0.0
142
0.0
143
0.0393701
144
1.0
145
0.0
146
0.71
147
1.5
 71
     0
 72
     0
 73
     0
 74
     0
 75
     0
 76
     0
 77
     3
 78
     8
170
     0
171
     2
172
     1
173
     0
174
     0
175
     0
176
   256
177
   256
178
     2
270
     2
271
     2
272
     3
273
     2
274
     2
340
6B
275
     0
280
     0
281
     0
282
     0
283
     0
284
     0
285
     0
286
     0
287
     3
288
     0
  0
DIMSTYLE
105
63
330
A
100
AcDbSymbolTableRecord
100
AcDbDimStyleTableRecord
  2
AM_JIS$SF
 70
     0
  3

  4
"
  5
OPEN30
  6

  7

 40
0.5
 41
2.5
 42
1.0
 43
10.0
 44
1.0
 45
0.0
 46
0.0
 47
0.1
 48
0.1
140
3.2
141
0.0
142
0.0
143
0.0393701
144
1.0
145
0.0
146
0.71
147
1.5
 71
     0
 72
     0
 73
     0
 74
     0
 75
     1
 76
     1
 77
     3
 78
     8
170
     0
171
     2
172
     1
173
     0
174
     0
175
     0
176
   256
177
   256
178
     2
270
     2
271
     2
272
     2
273
     2
274
     2
340
6B
275
     0
280
     0
281
     0
282
     0
283
     0
284
     0
285
     0
286
     0
287
     3
288
     0
  0
DIMSTYLE
105
68
330
A
100
AcDbSymbolTableRecord
100
AcDbDimStyleTableRecord
  2
AM_JIS$SH
 70
     0
  3

  4
"
  5

  6
GENAXEH
  7
OPEN30
 40
0.5
 41
2.5
 42
1.0
 43
10.0
 44
1.0
 45
0.0
 46
0.0
 47
0.1
 48
0.1
140
3.2
141
0.0
142
0.0
143
0.0393701
144
2.0
145
0.0
146
0.71
147
1.5
 71
     0
 72
     0
 73
     0
 74
     0
 75
     1
 76
     1
 77
     3
 78
     8
170
     0
171
     2
172
     1
173
     1
174
     0
175
     0
176
   256
177
   256
178
     2
270
     2
271
     2
272
     2
273
     2
274
     2
340
6B
275
     0
280
     0
281
     0
282
     0
283
     0
284
     0
285
     0
286
     0
287
     3
288
     0
  0
DIMSTYLE
105
B34
102
{ACAD_REACTORS
330
2119
102
}
330
A
100
AcDbSymbolTableRecord
100
AcDbDimStyleTableRecord
  2
AM_JIS$2
 70
     0
  3

  4
"
  5
OPEN30
  6

  7

 40
0.5
 41
2.5
 42
1.0
 43
12.0
 44
1.0
 45
0.0
 46
0.0
 47
0.1
 48
0.1
140
3.2
141
0.0
142
0.0
143
0.0393701
144
1.0
145
0.0
146
0.71
147
1.5
 71
     0
 72
     0
 73
     0
 74
     0
 75
     0
 76
     0
 77
     3
 78
     8
170
     0
171
     2
172
     1
173
     0
174
     0
175
     0
176
   256
177
   256
178
     2
270
     2
271
     3
272
     3
273
     2
274
     2
340
6B
275
     0
280
     0
281
     0
282
     0
283
     0
284
     0
285
     0
286
     0
287
     3
288
     0
  0
DIMSTYLE
105
BA5
102
{ACAD_REACTORS
330
CC6
330
DF5
330
1E80
330
1ED0
102
}
330
A
100
AcDbSymbolTableRecord
100
AcDbDimStyleTableRecord
  2
AM_JIS$0
 70
     0
  3

  4
"
  5
OPEN30
  6

  7

 40
0.5
 41
2.5
 42
0.0
 43
10.0
 44
1.0
 45
0.0
 46
0.0
 47
0.1
 48
0.1000000001
140
3.799999999999999
141
0.0
142
0.0
143
0.0393701
144
1.0
145
0.0
146
0.71
147
1.5
 71
     0
 72
     0
 73
     0
 74
     0
 75
     0
 76
     0
 77
     3
 78
     1
170
     0
171
     2
172
     1
173
     0
174
     0
175
     0
176
     3
177
     3
178
     2
270
     2
271
     2
272
     2
273
     2
274
     2
340
11
275
     1
280
     0
281
     0
282
     0
283
     0
284
     8
285
     0
286
     0
287
     0
288
     0
  0
ENDTAB
  0
TABLE
  2
BLOCK_RECORD
  5
1
330
0
100
AcDbSymbolTable
 70
    11
  0
BLOCK_RECORD
  5
1F
102
{ACAD_XDICTIONARY
360
74
102
}
330
1
100
AcDbSymbolTableRecord
100
AcDbBlockTableRecord
  2
*MODEL_SPACE
  0
BLOCK_RECORD
  5
101
102
{ACAD_XDICTIONARY
360
226E
102
}
330
1
100
AcDbSymbolTableRecord
100
AcDbBlockTableRecord
  2
*PAPER_SPACE
  0
BLOCK_RECORD
  5
59
330
1
100
AcDbSymbolTableRecord
100
AcDbBlockTableRecord
  2
_OPEN30
  0
BLOCK_RECORD
  5
64
330
1
100
AcDbSymbolTableRecord
100
AcDbBlockTableRecord
  2
GENAXEH
  0
BLOCK_RECORD
  5
CC8
330
1
100
AcDbSymbolTableRecord
100
AcDbBlockTableRecord
  2
*D5
  0
BLOCK_RECORD
  5
DF6
330
1
100
AcDbSymbolTableRecord
100
AcDbBlockTableRecord
  2
*D6
  0
BLOCK_RECORD
  5
1E81
330
1
100
AcDbSymbolTableRecord
100
AcDbBlockTableRecord
  2
*D8
  0
BLOCK_RECORD
  5
1ED1
330
1
100
AcDbSymbolTableRecord
100
AcDbBlockTableRecord
  2
*D9
  0
BLOCK_RECORD
  5
211A
330
1
100
AcDbSymbolTableRecord
100
AcDbBlockTableRecord
  2
*D10
  0
ENDTAB
  0
ENDSEC
  0
SECTION
  2
BLOCKS
  0
BLOCK
  5
20
330
1F
100
AcDbEntity
  8
0
100
AcDbBlockBegin
  2
*MODEL_SPACE
 70
     0
 10
0.0
 20
0.0
 30
0.0
  3
*MODEL_SPACE
  1

  0
ENDBLK
  5
21
330
1F
100
AcDbEntity
  8
0
100
AcDbBlockEnd
  0
BLOCK
  5
103
330
101
100
AcDbEntity
 67
     1
  8
0
100
AcDbBlockBegin
  2
*PAPER_SPACE
 70
     0
 10
0.0
 20
0.0
 30
0.0
  3
*PAPER_SPACE
  1

  0
ENDBLK
  5
104
330
101
100
AcDbEntity
 67
     1
  8
0
100
AcDbBlockEnd
  0
BLOCK
  5
5D
330
59
100
AcDbEntity
  8
0
100
AcDbBlockBegin
  2
_OPEN30
 70
     0
 10
0.0
 20
0.0
 30
0.0
  3
_OPEN30
  1

  0
LINE
  5
5A
330
59
100
AcDbEntity
  8
0
 62
     0
100
AcDbLine
 10
-1.0
 20
0.26794919
 30
0.0
 11
0.0
 21
0.0
 31
0.0
  0
LINE
  5
5B
330
59
100
AcDbEntity
  8
0
 62
     0
100
AcDbLine
 10
0.0
 20
0.0
 30
0.0
 11
-1.0
 21
-0.26794919
 31
0.0
  0
LINE
  5
5C
330
59
100
AcDbEntity
  8
0
 62
     0
100
AcDbLine
 10
0.0
 20
0.0
 30
0.0
 11
-1.0
 21
0.0
 31
0.0
  0
ENDBLK
  5
5E
330
59
100
AcDbEntity
  8
0
100
AcDbBlockEnd
  0
BLOCK
  5
66
330
64
100
AcDbEntity
  8
0
100
AcDbBlockBegin
  2
GENAXEH
 70
     0
 10
0.0
 20
0.0
 30
0.0
  3
GENAXEH
  1

  0
LINE
  5
65
330
64
100
AcDbEntity
  8
0
100
AcDbLine
 10
-1.0
 20
0.0
 30
0.0
 11
1.0
 21
0.0
 31
0.0
  0
ENDBLK
  5
67
330
64
100
AcDbEntity
  8
0
100
AcDbBlockEnd
  0
BLOCK
  5
CD2
330
CC8
100
AcDbEntity
  8
0
100
AcDbBlockBegin
  2
*D5
 70
     1
 10
0.0
 20
0.0
 30
0.0
  3
*D5
  1

  0
LINE
  5
21FB
330
CC8
100
AcDbEntity
  8
AM_5
 62
     3
100
AcDbLine
 10
-110.0000000000003
 20
-3.293783665931002
 30
0.0
 11
-110.0000000000003
 21
-16.00000099999993
 31
0.0
  0
LINE
  5
21FC
330
CC8
100
AcDbEntity
  8
AM_5
 62
     3
100
AcDbLine
 10
-1.000000000000326
 20
-3.399999562347547
 30
0.0
 11
-1.000000000000327
 21
-16.00000099999993
 31
0.0
  0
LINE
  5
21FD
330
CC8
100
AcDbEntity
  8
AM_5
 62
     3
100
AcDbLine
 10
-108.7500000000003
 20
-15.50000099999993
 30
0.0
 11
-2.250000000000327
 21
-15.50000099999993
 31
0.0
  0
INSERT
  5
21FE
330
CC8
100
AcDbEntity
  8
AM_5
 62
     3
100
AcDbBlockReference
  2
_OPEN30
 10
-110.0000000000003
 20
-15.50000099999993
 30
0.0
 41
1.25
 42
1.25
 43
1.25
 50
180.0
  0
INSERT
  5
21FF
330
CC8
100
AcDbEntity
  8
AM_5
 62
     3
100
AcDbBlockReference
  2
_OPEN30
 10
-1.000000000000327
 20
-15.50000099999993
 30
0.0
 41
1.25
 42
1.25
 43
1.25
  0
MTEXT
  5
2200
330
CC8
100
AcDbEntity
  8
AM_5
 62
     2
100
AcDbMText
 10
-55.50000000000032
 20
-13.80000099999993
 30
0.0
 40
1.9
 41
0.0
 71
     5
 72
     1
  1
109
1001
ACAD
1000
MTEXTBEGIN
1070
    73
1070
     1
1070
    44
1040
1.0
1070
    74
1070
     0
1000
MTEXTEND
  0
POINT
  5
2201
330
CC8
100
AcDbEntity
  8
DEFPOINTS
 62
     0
100
AcDbPoint
 10
-110.0000000000003
 20
-3.293783665931002
 30
0.0
  0
POINT
  5
2202
330
CC8
100
AcDbEntity
  8
DEFPOINTS
 62
     0
100
AcDbPoint
 10
-1.000000000000326
 20
-3.399999562347547
 30
0.0
  0
POINT
  5
2203
330
CC8
100
AcDbEntity
  8
DEFPOINTS
 62
     0
100
AcDbPoint
 10
-1.000000000000327
 20
-15.50000099999993
 30
0.0
  0
ENDBLK
  5
CD3
330
CC8
100
AcDbEntity
  8
0
100
AcDbBlockEnd
  0
BLOCK
  5
E00
330
DF6
100
AcDbEntity
  8
0
100
AcDbBlockBegin
  2
*D6
 70
     1
 10
0.0
 20
0.0
 30
0.0
  3
*D6
  1

  0
LINE
  5
2204
330
DF6
100
AcDbEntity
  8
AM_5
 62
     3
100
AcDbLine
 10
-56.99997329712368
 20
-2.368879318237361
 30
0.0
 11
-56.99997329712368
 21
-11.00000099999989
 31
0.0
  0
LINE
  5
2205
330
DF6
100
AcDbEntity
  8
AM_5
 62
     3
100
AcDbLine
 10
-1.000000000000326
 20
-3.399999562347547
 30
0.0
 11
-1.000000000000327
 21
-11.00000099999989
 31
0.0
  0
LINE
  5
2206
330
DF6
100
AcDbEntity
  8
AM_5
 62
     3
100
AcDbLine
 10
-55.74997329712368
 20
-10.5000009999999
 30
0.0
 11
-2.250000000000327
 21
-10.5000009999999
 31
0.0
  0
INSERT
  5
2207
330
DF6
100
AcDbEntity
  8
AM_5
 62
     3
100
AcDbBlockReference
  2
_OPEN30
 10
-56.99997329712368
 20
-10.5000009999999
 30
0.0
 41
1.25
 42
1.25
 43
1.25
 50
180.0
  0
INSERT
  5
2208
330
DF6
100
AcDbEntity
  8
AM_5
 62
     3
100
AcDbBlockReference
  2
_OPEN30
 10
-1.000000000000327
 20
-10.5000009999999
 30
0.0
 41
1.25
 42
1.25
 43
1.25
  0
MTEXT
  5
2209
330
DF6
100
AcDbEntity
  8
AM_5
 62
     2
100
AcDbMText
 10
-28.999986648562
 20
-8.8000009999999
 30
0.0
 40
1.9
 41
0.0
 71
     5
 72
     1
  1
56
1001
ACAD
1000
MTEXTBEGIN
1070
    73
1070
     1
1070
    44
1040
1.0
1070
    74
1070
     0
1000
MTEXTEND
  0
POINT
  5
220A
330
DF6
100
AcDbEntity
  8
DEFPOINTS
 62
     0
100
AcDbPoint
 10
-56.99997329712368
 20
-2.368879318237361
 30
0.0
  0
POINT
  5
220B
330
DF6
100
AcDbEntity
  8
DEFPOINTS
 62
     0
100
AcDbPoint
 10
-1.000000000000326
 20
-3.399999562347547
 30
0.0
  0
POINT
  5
220C
330
DF6
100
AcDbEntity
  8
DEFPOINTS
 62
     0
100
AcDbPoint
 10
-1.000000000000327
 20
-10.5000009999999
 30
0.0
  0
ENDBLK
  5
E01
330
DF6
100
AcDbEntity
  8
0
100
AcDbBlockEnd
  0
BLOCK
  5
1E8D
330
1E81
100
AcDbEntity
  8
0
100
AcDbBlockBegin
  2
*D8
 70
     1
 10
0.0
 20
0.0
 30
0.0
  3
*D8
  1

  0
LINE
  5
2221
330
1E81
100
AcDbEntity
  8
AM_5
 62
     3
100
AcDbLine
 10
-1.000000000000326
 20
-3.399999858762971
 30
0.0
 11
9.586422120790185
 21
-3.399999858762974
 31
0.0
  0
LINE
  5
2222
330
1E81
100
AcDbEntity
  8
AM_5
 62
     3
100
AcDbLine
 10
-1.000000000000326
 20
3.400000141237029
 30
0.0
 11
9.586422120790185
 21
3.400000141237025
 31
0.0
  0
LINE
  5
2223
330
1E81
100
AcDbEntity
  8
AM_5
 62
     3
100
AcDbLine
 10
9.086422120790185
 20
-2.149999858762974
 30
0.0
 11
9.086422120790185
 21
2.150000141237025
 31
0.0
  0
INSERT
  5
2224
330
1E81
100
AcDbEntity
  8
AM_5
 62
     3
100
AcDbBlockReference
  2
_OPEN30
 10
9.086422120790185
 20
-3.399999858762974
 30
0.0
 41
1.25
 42
1.25
 43
1.25
 50
270.0
  0
INSERT
  5
2225
330
1E81
100
AcDbEntity
  8
AM_5
 62
     3
100
AcDbBlockReference
  2
_OPEN30
 10
9.086422120790185
 20
3.400000141237025
 30
0.0
 41
1.25
 42
1.25
 43
1.25
 50
90.0
  0
MTEXT
  5
2226
330
1E81
100
AcDbEntity
  8
AM_5
 62
     2
100
AcDbMText
 10
7.386422120790185
 20
0.0000001412370277
 30
0.0
 40
1.9
 41
0.0
 71
     5
 72
     1
  1
%%c6.8
 11
0.0000000000000001
 21
1.0
 31
0.0
1001
ACAD
1000
MTEXTBEGIN
1070
    73
1070
     1
1070
    44
1040
1.0
1070
    74
1070
     0
1000
MTEXTEND
  0
POINT
  5
2227
330
1E81
100
AcDbEntity
  8
DEFPOINTS
 62
     0
100
AcDbPoint
 10
-1.000000000000326
 20
-3.399999858762971
 30
0.0
  0
POINT
  5
2228
330
1E81
100
AcDbEntity
  8
DEFPOINTS
 62
     0
100
AcDbPoint
 10
-1.000000000000326
 20
3.400000141237029
 30
0.0
  0
POINT
  5
2229
330
1E81
100
AcDbEntity
  8
DEFPOINTS
 62
     0
100
AcDbPoint
 10
9.086422120790185
 20
3.400000141237025
 30
0.0
  0
ENDBLK
  5
1E8E
330
1E81
100
AcDbEntity
  8
0
100
AcDbBlockEnd
  0
BLOCK
  5
1EDD
330
1ED1
100
AcDbEntity
  8
0
100
AcDbBlockBegin
  2
*D9
 70
     1
 10
0.0
 20
0.0
 30
0.0
  3
*D9
  1

  0
LINE
  5
220D
330
1ED1
100
AcDbEntity
  8
AM_5
 62
     3
100
AcDbLine
 10
-109.7500000000003
 20
-3.500000000000337
 30
0.0
 11
-119.2500010000003
 21
-3.500000000000355
 31
0.0
  0
LINE
  5
220E
330
1ED1
100
AcDbEntity
  8
AM_5
 62
     3
100
AcDbLine
 10
-109.7500000000003
 20
3.499999999999662
 30
0.0
 11
-119.2500010000003
 21
3.499999999999644
 31
0.0
  0
LINE
  5
220F
330
1ED1
100
AcDbEntity
  8
AM_5
 62
     3
100
AcDbLine
 10
-118.7500010000003
 20
-2.250000000000354
 30
0.0
 11
-118.7500010000003
 21
2.249999999999645
 31
0.0
  0
INSERT
  5
2210
330
1ED1
100
AcDbEntity
  8
AM_5
 62
     3
100
AcDbBlockReference
  2
_OPEN30
 10
-118.7500010000003
 20
-3.500000000000354
 30
0.0
 41
1.25
 42
1.25
 43
1.25
 50
270.0000000000001
  0
INSERT
  5
2211
330
1ED1
100
AcDbEntity
  8
AM_5
 62
     3
100
AcDbBlockReference
  2
_OPEN30
 10
-118.7500010000003
 20
3.499999999999645
 30
0.0
 41
1.25
 42
1.25
 43
1.25
 50
90.0000000000001
  0
MTEXT
  5
2212
330
1ED1
100
AcDbEntity
  8
AM_5
 62
     2
100
AcDbMText
 10
-120.4500010000003
 20
-0.0000000000003439
 30
0.0
 40
1.9
 41
0.0
 71
     5
 72
     1
  1
%%c7
 11
-0.000000000000002
 21
1.0
 31
0.0
1001
ACAD
1000
MTEXTBEGIN
1070
    73
1070
     1
1070
    44
1040
1.0
1070
    74
1070
     0
1000
MTEXTEND
  0
POINT
  5
2213
330
1ED1
100
AcDbEntity
  8
DEFPOINTS
 62
     0
100
AcDbPoint
 10
-109.7500000000003
 20
-3.500000000000093
 30
0.0
  0
POINT
  5
2214
330
1ED1
100
AcDbEntity
  8
DEFPOINTS
 62
     0
100
AcDbPoint
 10
-109.7500000000003
 20
3.499999999999906
 30
0.0
  0
POINT
  5
2215
330
1ED1
100
AcDbEntity
  8
DEFPOINTS
 62
     0
100
AcDbPoint
 10
-118.7500010000003
 20
3.499999999999908
 30
0.0
  0
ENDBLK
  5
1EDE
330
1ED1
100
AcDbEntity
  8
0
100
AcDbBlockEnd
  0
BLOCK
  5
212A
330
211A
100
AcDbEntity
  8
0
100
AcDbBlockBegin
  2
*D10
 70
     1
 10
0.0
 20
0.0
 30
0.0
  3
*D10
  1

  0
LINE
  5
2216
330
211A
100
AcDbEntity
  8
AM_5
100
AcDbLine
 10
0.1710100716625774
 20
-0.4698463103927426
 30
0.0
 11
5.165788620521767
 21
-14.19288758856044
 31
0.0
  0
LINE
  5
2217
330
211A
100
AcDbEntity
  8
AM_5
100
AcDbLine
 10
0.1710100716625709
 20
0.4698463103931742
 30
0.0
 11
5.165788620521571
 21
14.19288758856094
 31
0.0
  0
ARC
  5
2218
330
211A
100
AcDbEntity
  8
AM_5
100
AcDbCircle
 10
-0.0000000000002487
 20
0.0000000000002146
 30
0.0
 40
14.6037554989954
100
AcDbArc
 50
294.9056974122361
 51
65.0943025877647
  0
INSERT
  5
2219
330
211A
100
AcDbEntity
  8
AM_5
100
AcDbBlockReference
  2
_OPEN30
 10
4.994778548858941
 20
-13.72304127816748
 30
0.0
 41
1.25
 42
1.25
 43
1.25
 50
202.4528487061175
  0
INSERT
  5
221A
330
211A
100
AcDbEntity
  8
AM_5
100
AcDbBlockReference
  2
_OPEN30
 10
4.994778548858751
 20
13.72304127816798
 30
0.0
 41
1.25
 42
1.25
 43
1.25
 50
157.5471512938832
  0
MTEXT
  5
221B
330
211A
100
AcDbEntity
  8
AM_5
 62
     2
100
AcDbMText
 10
13.05375549899515
 20
0.0000000000003154
 30
0.0
 40
1.6
 41
0.0
 71
     5
 72
     1
  1
140°
  7
ASAMI
 11
-0.000000000000002
 21
1.0
 31
0.0
1001
ACAD
1000
MTEXTBEGIN
1070
    73
1070
     1
1070
    44
1040
1.0
1070
    74
1070
     0
1000
MTEXTEND
  0
POINT
  5
221C
330
211A
100
AcDbEntity
  8
DEFPOINTS
 62
     0
100
AcDbPoint
 10
13.40940352011868
 20
-5.784252061334985
 30
0.0
  0
POINT
  5
221D
330
211A
100
AcDbEntity
  8
DEFPOINTS
 62
     0
100
AcDbPoint
 10
-0.0000000000002487
 20
0.0000000000002146
 30
0.0
  0
POINT
  5
221E
330
211A
100
AcDbEntity
  8
DEFPOINTS
 62
     0
100
AcDbPoint
 10
-0.3599038282137243
 20
0.9888276411920756
 30
0.0
  0
POINT
  5
221F
330
211A
100
AcDbEntity
  8
DEFPOINTS
 62
     0
100
AcDbPoint
 10
-0.0000000000002487
 20
0.0000000000002146
 30
0.0
  0
POINT
  5
2220
330
211A
100
AcDbEntity
  8
DEFPOINTS
 62
     0
100
AcDbPoint
 10
-0.3599038282137172
 20
-0.9888276411916571
 30
0.0
  0
ENDBLK
  5
212B
330
211A
100
AcDbEntity
  8
0
100
AcDbBlockEnd
  0
ENDSEC
  0
SECTION
  2
ENTITIES
  0
LINE
  5
C30
330
1F
100
AcDbEntity
  8
AM_0
 48
0.5
100
AcDbLine
 10
-110.0000000000003
 20
-3.250000000000093
 30
0.0
 11
-110.0000000000003
 21
3.249999999999906
 31
0.0
  0
LINE
  5
C9F
330
1F
100
AcDbEntity
  8
AM_7
100
AcDbLine
 10
-111.7500000000003
 20
-0.0000000000000951
 30
0.0
 11
2.086421120790194
 21
0.0000000000000018
 31
0.0
1001
GENIUS_GENODEF_13
1002
{
1000
HIER
1070
     0
1002
}
1002
{
1000
MANEDIT
1070
     0
1002
}
1002
{
1000
NOSEL
1070
     0
1002
}
1002
{
1000
BEHIND
1070
     0
1002
}
1002
{
1000
REACTOR
1002
}
1001
GENIUS_GENOBJ-N-CEN_13
1002
{
1000
OWNER
1000
GEN
1002
}
  0
DIMENSION
  5
CC6
330
1F
100
AcDbEntity
  8
AM_5
100
AcDbDimension
  2
*D5
 10
-1.000000000000327
 20
-15.50000099999993
 30
0.0
 11
-55.50000000000032
 21
-13.80000099999993
 31
0.0
 70
    32
  1
<>
  3
AM_JIS$0
100
AcDbAlignedDimension
 13
-110.0000000000003
 23
-3.293783665931002
 33
0.0
 14
-1.000000000000326
 24
-3.399999562347547
 34
0.0
 50
0.0000000000001132
100
AcDbRotatedDimension
1001
GENIUS_GENDTOL_13
1000

1000
h7
1000

1040
0.0
1001
ACAD
1000
DSTYLE
1002
{
1070
   271
1070
     0
1002
}
  0
DIMENSION
  5
DF5
330
1F
100
AcDbEntity
  8
AM_5
100
AcDbDimension
  2
*D6
 10
-1.000000000000327
 20
-10.5000009999999
 30
0.0
 11
-28.999986648562
 21
-8.8000009999999
 31
0.0
 70
    32
  1
<>
  3
AM_JIS$0
100
AcDbAlignedDimension
 13
-56.99997329712368
 23
-2.368879318237361
 33
0.0
 14
-1.000000000000326
 24
-3.399999562347547
 34
0.0
 50
0.0000000000001527
100
AcDbRotatedDimension
1001
GENIUS_GENDTOL_13
1000

1000
h7
1000

1040
0.0
1001
ACAD
1000
DSTYLE
1002
{
1070
   271
1070
     0
1002
}
  0
ARC
  5
144A
330
1F
100
AcDbEntity
  8
AM_11
 48
0.5
100
AcDbCircle
 10
-56.11257425944053
 20
-15.45937617226463
 30
0.0
 40
17.09271208445208
100
AcDbArc
 50
64.74833051131179
 51
115.2516644797366
  0
ARC
  5
144B
330
1F
100
AcDbEntity
  8
AM_11
 48
0.5
100
AcDbCircle
 10
-56.1125742594405
 20
15.45938667054936
 30
0.0
 40
17.09271208445208
100
AcDbArc
 50
244.7482808787518
 51
295.2516148471758
  0
ARC
  5
144E
330
1F
100
AcDbEntity
  8
AM_11
 48
0.5
100
AcDbCircle
 10
-41.52924092610719
 20
-15.45937617226463
 30
0.0
 40
17.09271208445208
100
AcDbArc
 50
64.74833051131179
 51
115.2516644797366
  0
ARC
  5
144F
330
1F
100
AcDbEntity
  8
AM_11
 48
0.5
100
AcDbCircle
 10
-41.52924092610719
 20
15.45938667054936
 30
0.0
 40
17.09271208445208
100
AcDbArc
 50
244.7482808787518
 51
295.2516148471758
  0
ARC
  5
1450
330
1F
100
AcDbEntity
  8
AM_11
 48
0.5
100
AcDbCircle
 10
-26.94590759277794
 20
15.45938667054936
 30
0.0
 40
17.09271208445208
100
AcDbArc
 50
244.7482808787518
 51
295.2516148471758
  0
ARC
  5
1451
330
1F
100
AcDbEntity
  8
AM_11
 48
0.5
100
AcDbCircle
 10
-26.94590759277794
 20
-15.45937617226463
 30
0.0
 40
17.09271208445208
100
AcDbArc
 50
64.74833051131179
 51
115.2516644797366
  0
ARC
  5
1452
330
1F
100
AcDbEntity
  8
AM_11
 48
0.5
100
AcDbCircle
 10
-12.36257425944461
 20
-15.45937617226463
 30
0.0
 40
17.09271208445208
100
AcDbArc
 50
64.74833051131179
 51
115.2516644797366
  0
ARC
  5
1453
330
1F
100
AcDbEntity
  8
AM_11
 48
0.5
100
AcDbCircle
 10
-12.36257425944461
 20
15.45938667054936
 30
0.0
 40
17.09271208445208
100
AcDbArc
 50
244.7482808787518
 51
295.2516148471758
  0
ARC
  5
1454
330
1F
100
AcDbEntity
  8
AM_11
 48
0.5
100
AcDbCircle
 10
2.220759073888737
 20
15.45938667054936
 30
0.0
 40
17.09271208445208
100
AcDbArc
 50
244.7482808787518
 51
254.0147302238188
  0
TEXT
  5
19BD
330
1F
100
AcDbEntity
  8
AM_6
100
AcDbText
 10
-66.33332443237543
 20
-26.75000099999996
 30
0.0
 40
2.5
  1
MDW068LHK
 50
0.0000000000001527
 72
     4
 11
-55.49999109904209
 21
-25.50000099999993
 31
0.0
100
AcDbText
  0
ARC
  5
1C02
330
1F
100
AcDbEntity
  8
AM_11
 48
0.5
100
AcDbCircle
 10
-70.69587569257463
 20
15.45938667054933
 30
0.0
 40
17.09271208445208
100
AcDbArc
 50
244.7482808787518
 51
295.2516148471758
  0
ARC
  5
1C03
330
1F
100
AcDbEntity
  8
AM_11
 48
0.5
100
AcDbCircle
 10
-70.69587569257466
 20
-15.45937617226466
 30
0.0
 40
17.09271208445208
100
AcDbArc
 50
64.74833051131179
 51
115.2516644797366
  0
ARC
  5
1C04
330
1F
100
AcDbEntity
  8
AM_11
 48
0.5
100
AcDbCircle
 10
-85.2791771257087
 20
15.45938667054926
 30
0.0
 40
17.09271208445208
100
AcDbArc
 50
244.7482808787518
 51
295.2516148471758
  0
ARC
  5
1C05
330
1F
100
AcDbEntity
  8
AM_11
 48
0.5
100
AcDbCircle
 10
-85.27917712570872
 20
-15.45937617226473
 30
0.0
 40
17.09271208445208
100
AcDbArc
 50
64.74833051131179
 51
115.2516644797366
  0
LINE
  5
1CF0
330
1F
100
AcDbEntity
  8
AM_0
100
AcDbLine
 10
-109.7500000000003
 20
3.499999999999906
 30
0.0
 11
-56.9999732971237
 21
3.499999999999947
 31
0.0
1001
GENIUS_GENODEF_13
1002
{
1000
HIER
1070
     0
1002
}
1002
{
1000
MANEDIT
1070
     0
1002
}
1002
{
1000
NOSEL
1070
     0
1002
}
1002
{
1000
BEHIND
1070
     0
1002
}
1002
{
1000
REACTOR
1002
}
1001
GENIUS_GENOBJ-N-CEN_13
1002
{
1000
OWNER
1000
GEN
1002
}
  0
LINE
  5
1CF4
330
1F
100
AcDbEntity
  8
AM_0
100
AcDbLine
 10
-109.7500000000003
 20
-3.500000000000093
 30
0.0
 11
-56.99997329712368
 21
-3.500000000000048
 31
0.0
1001
GENIUS_GENODEF_13
1002
{
1000
HIER
1070
     0
1002
}
1002
{
1000
MANEDIT
1070
     0
1002
}
1002
{
1000
NOSEL
1070
     0
1002
}
1002
{
1000
BEHIND
1070
     0
1002
}
1002
{
1000
REACTOR
1002
}
1001
GENIUS_GENOBJ-N-CEN_13
1002
{
1000
OWNER
1000
GEN
1002
}
  0
LINE
  5
1CF9
330
1F
100
AcDbEntity
  8
AM_0
100
AcDbLine
 10
-110.0000000000003
 20
3.249999999999906
 30
0.0
 11
-109.7500000000003
 21
3.499999999999906
 31
0.0
1001
GENIUS_GENFIL_13
1070
     0
1040
0.25
1040
0.25
1040
20.0
1040
0.0
1002
{
1002
}
1001
GENIUS_GENODEF_13
1002
{
1000
HIER
1070
     0
1002
}
1002
{
1000
MANEDIT
1070
     0
1002
}
1002
{
1000
NOSEL
1070
     0
1002
}
1002
{
1000
BEHIND
1070
     0
1002
}
1002
{
1000
REACTOR
1002
}
1001
GENIUS_GENOBJ-N-CHA_13
1002
{
1000
OWNER
1000
GEN
1002
}
  0
LINE
  5
1CFD
330
1F
100
AcDbEntity
  8
AM_0
100
AcDbLine
 10
-110.0000000000003
 20
-3.250000000000093
 30
0.0
 11
-109.7500000000003
 21
-3.500000000000093
 31
0.0
1001
GENIUS_GENFIL_13
1070
     0
1040
0.25
1040
0.25
1040
20.0
1040
0.0
1002
{
1002
}
1001
GENIUS_GENODEF_13
1002
{
1000
HIER
1070
     0
1002
}
1002
{
1000
MANEDIT
1070
     0
1002
}
1002
{
1000
NOSEL
1070
     0
1002
}
1002
{
1000
BEHIND
1070
     0
1002
}
1002
{
1000
REACTOR
1002
}
1001
GENIUS_GENOBJ-N-CHA_13
1002
{
1000
OWNER
1000
GEN
1002
}
  0
LINE
  5
1CFE
330
1F
100
AcDbEntity
  8
AM_0
100
AcDbLine
 10
-109.7500000000003
 20
-3.500000000000093
 30
0.0
 11
-109.7500000000003
 21
3.499999999999906
 31
0.0
  0
ARC
  5
1CFF
330
1F
100
AcDbEntity
  8
AM_11
 48
0.5
100
AcDbCircle
 10
-99.86252474740279
 20
15.45939795783459
 30
0.0
 40
17.09271208445208
100
AcDbArc
 50
244.7482808787518
 51
295.2516148471758
  0
ARC
  5
1D00
330
1F
100
AcDbEntity
  8
AM_11
 48
0.5
100
AcDbCircle
 10
-99.86252474740281
 20
-15.4593648849794
 30
0.0
 40
17.09271208445208
100
AcDbArc
 50
64.74833051131179
 51
115.2516644797366
  0
ARC
  5
1D01
330
1F
100
AcDbEntity
  8
AM_11
 48
0.5
100
AcDbCircle
 10
-114.4457783189856
 20
15.45939795783455
 30
0.0
 40
17.09271208445208
100
AcDbArc
 50
285.0758705693279
 51
295.2516148471758
  0
ARC
  5
1D02
330
1F
100
AcDbEntity
  8
AM_11
 48
0.5
100
AcDbCircle
 10
-114.4457783189856
 20
-15.45936488497944
 30
0.0
 40
17.09271208445208
100
AcDbArc
 50
64.74833051131179
 51
74.92412943067197
  0
LINE
  5
1D1A
330
1F
100
AcDbEntity
  8
AM_0
100
AcDbLine
 10
-56.99997329712368
 20
-3.500000000000048
 30
0.0
 11
-56.9999732971237
 21
3.499999999999951
 31
0.0
  0
LINE
  5
1D86
330
1F
100
AcDbEntity
  8
AM_0
100
AcDbLine
 10
-56.99997329712368
 20
-3.500000000000048
 30
0.0
 11
-56.82676797173675
 21
-3.399999858762829
 31
0.0
  0
LINE
  5
1D87
330
1F
100
AcDbEntity
  8
AM_0
100
AcDbLine
 10
-56.9999732971237
 20
3.499999999999947
 30
0.0
 11
-56.82760509644914
 21
3.400483172940765
 31
0.0
  0
LINE
  5
1E7A
330
1F
100
AcDbEntity
  8
AM_0
100
AcDbLine
 10
-54.55984233872872
 20
3.400483172940766
 30
0.0
 11
-56.82760509644914
 21
3.400483172940765
 31
0.0
  0
LINE
  5
1E7B
330
1F
100
AcDbEntity
  8
AM_0
100
AcDbLine
 10
-55.72535294210459
 20
-3.399999858762829
 30
0.0
 11
-56.82676797173675
 21
-3.399999858762829
 31
0.0
  0
ELLIPSE
  5
1E7C
330
1F
100
AcDbEntity
  8
AM_0
 48
0.5
100
AcDbEllipse
 10
-55.83309300741043
 20
-2.266666525429511
 30
0.0
 11
1.166666666666664
 21
0.0000000000000951
 31
0.0
210
0.0
220
0.0
230
1.0
 40
0.9714285714285734
 41
3.141592653589704
 42
4.712388666468097
  0
ELLIPSE
  5
1E7D
330
1F
100
AcDbEntity
  8
AM_0
 48
0.5
100
AcDbEllipse
 10
-56.1249732971237
 20
-2.301196910764748
 30
0.0
 11
-0.8749999999999998
 21
0.0000000000000651
 31
0.0
210
0.0
220
0.0
230
1.0
 40
0.9714285714285752
 41
4.317028824483151
 42
6.283185307179658
  0
LINE
  5
1E7E
330
1F
100
AcDbEntity
  8
AM_0
 48
0.5
100
AcDbLine
 10
-49.32499122620083
 20
1.722717044923412
 30
0.0
 11
-56.99975522359667
 21
-0.2749740459780896
 31
0.0
  0
SPLINE
  5
1E7F
330
1F
100
AcDbEntity
  8
AM_0
 48
0.5
100
AcDbSpline
210
0.0
220
0.0
230
1.0
 70
     8
 71
     3
 72
    26
 73
    22
 74
     0
 42
0.0000000001
 43
0.0000000001
 40
0.0
 40
0.0
 40
0.0
 40
0.0
 40
0.5896004826229707
 40
1.179986252940122
 40
1.771921058539713
 40
2.366124101252007
 40
2.963249918804864
 40
3.563875140402651
 40
4.168477438229614
 40
4.777430274285771
 40
5.390993430623067
 40
6.009307092551945
 40
6.63239903939448
 40
7.260156758871202
 40
7.892403919481949
 40
8.528804729444196
 40
9.168960528521511
 40
9.812380715579642
 40
10.45850221961671
 40
11.10670238963151
 40
11.73624999718734
 40
11.73624999718734
 40
11.73624999718734
 40
11.73624999718734
 10
-45.81741650899721
 20
-3.399999858762868
 30
0.0
 10
-46.01396088047321
 20
-3.397976941221054
 30
0.0
 10
-46.40731140047735
 20
-3.393928411817632
 30
0.0
 10
-46.99719403230489
 20
-3.361292717033653
 30
0.0
 10
-47.58705148597936
 20
-3.309410494887204
 30
0.0
 10
-48.17687242681187
 20
-3.236695561217219
 30
0.0
 10
-48.76665100005233
 20
-3.144133457112004
 30
0.0
 10
-49.35637545502373
 20
-3.032135360604848
 30
0.0
 10
-49.94604539940858
 20
-2.901457974291307
 30
0.0
 10
-50.53565681167087
 20
-2.752894966801446
 30
0.0
 10
-51.12520829791215
 20
-2.587368146774637
 30
0.0
 10
-51.71470471016316
 20
-2.405907766906712
 30
0.0
 10
-52.30414360574331
 20
-2.209634286552508
 30
0.0
 10
-52.89353166316124
 20
-1.999751695911161
 30
0.0
 10
-53.48287676294155
 20
-1.77757509511266
 30
0.0
 10
-54.07218017843748
 20
-1.544452264673117
 30
0.0
 10
-54.6614463025964
 20
-1.301831543375306
 30
0.0
 10
-55.25068595659738
 20
-1.051209848687494
 30
0.0
 10
-55.83988940260092
 20
-0.7940965275859842
 30
0.0
 10
-56.42304044909856
 20
-0.5349001500367051
 30
0.0
 10
-56.80939995782757
 20
-0.3607702054434013
 30
0.0
 10
-56.99975967407709
 20
-0.2749762076397286
 30
0.0
  0
DIMENSION
  5
1E80
330
1F
100
AcDbEntity
  8
AM_5
100
AcDbDimension
  2
*D8
 10
9.086422120790185
 20
3.400000141237025
 30
0.0
 11
9.086422120790185
 21
0.0000001412370275
 31
0.0
 70
   160
  1
%%c<>
  3
AM_JIS$0
100
AcDbAlignedDimension
 13
-1.000000000000326
 23
-3.399999858762971
 33
0.0
 14
-1.000000000000326
 24
3.400000141237029
 34
0.0
 50
89.99999999999991
100
AcDbRotatedDimension
1001
ACAD
1000
DSTYLE
1002
{
1070
   271
1070
     1
1002
}
1001
GENIUS_GENDTOL_13
1000

1000
h7
1000

1040
0.0
  0
LINE
  5
1E92
330
1F
100
AcDbEntity
  8
AM_0
 48
0.5
100
AcDbLine
 10
-2.888810475671932
 20
3.400000141237036
 30
0.0
 11
-1.000000000000326
 21
3.400000141237029
 31
0.0
  0
LINE
  5
1E94
330
1F
100
AcDbEntity
  8
AM_0
 48
0.5
100
AcDbLine
 10
-2.888810475671959
 20
-3.399999858762964
 30
0.0
 11
-1.000000000000326
 21
-3.399999858762971
 31
0.0
  0
LINE
  5
1E95
330
1F
100
AcDbEntity
  8
AM_11
 48
0.5
100
AcDbLine
 10
-14.00068028768342
 20
3.40000014123708
 30
0.0
 11
-2.888810475671932
 21
3.400000141237036
 31
0.0
  0
LINE
  5
1E96
330
1F
100
AcDbEntity
  8
AM_11
 48
0.5
100
AcDbLine
 10
-14.00068028768345
 20
-3.39999985876292
 30
0.0
 11
-2.888810475671959
 21
-3.399999858762964
 31
0.0
  0
LINE
  5
1E97
330
1F
100
AcDbEntity
  8
AM_11
 48
0.5
100
AcDbLine
 10
-35.00038566670649
 20
-3.39999985876291
 30
0.0
 11
-23.88851585469642
 21
-3.400482890466544
 31
0.0
  0
LINE
  5
1E98
330
1F
100
AcDbEntity
  8
AM_11
 48
0.5
100
AcDbLine
 10
-33.56005596177535
 20
3.400483172940756
 30
0.0
 11
-26.46888665947799
 21
3.400000141237127
 31
0.0
  0
LINE
  5
1E99
330
1F
100
AcDbEntity
  8
AM_11
 48
0.5
100
AcDbLine
 10
-55.72725168864429
 20
-3.399999858762829
 30
0.0
 11
-47.46868260701954
 21
-3.399999858762861
 31
0.0
  0
LINE
  5
1E9A
330
1F
100
AcDbEntity
  8
AM_11
 48
0.5
100
AcDbLine
 10
-54.55984233872876
 20
3.400483172940766
 30
0.0
 11
-47.46868260701951
 21
3.40000014123714
 31
0.0
  0
LINE
  5
1E9B
330
1F
100
AcDbEntity
  8
AM_0
100
AcDbLine
 10
-47.46868260701951
 20
3.40000014123714
 30
0.0
 11
-33.56005596177535
 21
3.400483172940756
 31
0.0
  0
LINE
  5
1E9C
330
1F
100
AcDbEntity
  8
AM_0
 48
0.5
100
AcDbLine
 10
-47.46868705752038
 20
-3.399999858762815
 30
0.0
 11
-35.9999732971237
 21
-3.399999858762835
 31
0.0
  0
LINE
  5
1E9D
330
1F
100
AcDbEntity
  8
AM_0
 48
0.5
100
AcDbLine
 10
-26.4688962300661
 20
3.400000141237127
 30
0.0
 11
-14.00068028768342
 21
3.40000014123708
 31
0.0
  0
LINE
  5
1E9E
330
1F
100
AcDbEntity
  8
AM_0
 48
0.5
100
AcDbLine
 10
-23.88851585469642
 20
-3.399999858762952
 30
0.0
 11
-14.00068028768345
 21
-3.39999985876292
 31
0.0
  0
SPLINE
  5
1EA4
330
1F
100
AcDbEntity
  8
AM_0
100
AcDbSpline
210
0.0
220
0.0
230
1.0
 70
     8
 71
     3
 72
    23
 73
    19
 74
     0
 42
0.0000000001
 43
0.0000000001
 40
16.03460024169435
 40
16.03460024169435
 40
16.03460024169435
 40
16.03460024169435
 40
16.35212704903564
 40
17.38177054169784
 40
18.41822485651776
 40
19.46214173629503
 40
20.51396345435107
 40
21.57393551351153
 40
22.64208202342361
 40
23.7182574881101
 40
24.80209208578934
 40
25.89306333925047
 40
26.99048218457928
 40
28.09348763352352
 40
29.20111863782268
 40
30.31232390128032
 40
31.42594612798585
 40
32.5407912310448
 40
32.5407912310486
 40
32.5407912310486
 40
32.5407912310486
 10
-33.56005596177535
 20
3.400483172940757
 30
0.0
 10
-33.49945277069094
 20
3.389005371679448
 30
0.0
 10
-33.24258981687428
 20
3.33902277768435
 30
0.0
 10
-32.7901229575018
 20
3.241089513056459
 30
0.0
 10
-32.20417719012519
 20
3.095463819542537
 30
0.0
 10
-31.61877567673833
 20
2.931950439072029
 30
0.0
 10
-31.03388382549896
 20
2.751495703690587
 30
0.0
 10
-30.44948087755874
 20
2.555105652587807
 30
0.0
 10
-29.8655330558279
 20
2.343902934116058
 30
0.0
 10
-29.28199969639962
 20
2.11911669511965
 30
0.0
 10
-28.69884764081259
 20
1.882019886964152
 30
0.0
 10
-28.11603013565195
 20
1.633992120731423
 30
0.0
 10
-27.53349995007634
 20
1.376475040958795
 30
0.0
 10
-26.95121827176097
 20
1.110949262896883
 30
0.0
 10
-26.36913638190502
 20
0.8389587825828417
 30
0.0
 10
-25.78720036739781
 20
0.5620918248739586
 30
0.0
 10
-25.20536284222053
 20
0.2819527588172295
 30
0.0
 10
-24.81757534633987
 20
0.0941348328720065
 30
0.0
 10
-24.62357584635728
 20
0.0001730741790424
 30
0.0
  0
SPLINE
  5
1EA5
330
1F
100
AcDbEntity
  8
AM_0
100
AcDbSpline
210
0.0
220
0.0
230
1.0
 70
     8
 71
     3
 72
    11
 73
     7
 74
     0
 42
0.0000000001
 43
0.0000000001
 40
11.27226913003534
 40
11.27226913003534
 40
11.27226913003534
 40
11.2722691300354
 40
12.28301561507924
 40
13.29510212255852
 40
14.30984805882082
 40
15.18258238371378
 40
15.18258238371378
 40
15.18258238371378
 40
15.18258238371378
 10
-35.00038566670789
 20
-3.39999985876291
 30
0.0
 10
-35.19618267711591
 20
-3.383359270729362
 30
0.0
 10
-35.58740738753819
 20
-3.343073131328102
 30
0.0
 10
-36.17222424170178
 20
-3.261806023402808
 30
0.0
 10
-36.72722574822993
 20
-3.164741373576909
 30
0.0
 10
-37.08616814471749
 20
-3.090124888426446
 30
0.0
 10
-37.25157902189435
 20
-3.053266405743701
 30
0.0
  0
SPLINE
  5
1EA6
330
1F
100
AcDbEntity
  8
AM_0
100
AcDbSpline
210
0.0
220
0.0
230
1.0
 70
     8
 71
     3
 72
    17
 73
    13
 74
     0
 42
0.0000000001
 43
0.0000000001
 40
1.580019955310467
 40
1.580019955310467
 40
1.580019955310467
 40
1.580019955310467
 40
2.030549285115227
 40
3.082371838836284
 40
4.126290986361125
 40
5.162752068350215
 40
6.192395305374981
 40
7.216039564037012
 40
8.234688489606833
 40
9.249433870634691
 40
10.26152376260694
 40
11.27226744710342
 40
11.27226744710342
 40
11.27226744710342
 40
11.27226744710352
 10
-29.44401728999004
 20
-2.509299977170156
 30
0.0
 10
-29.5274758364078
 20
-2.535143683819048
 30
0.0
 10
-29.80625542035959
 20
-2.619849884281243
 30
0.0
 10
-30.28220130460896
 20
-2.752714590546639
 30
0.0
 10
-30.87173069106111
 20
-2.901505435854933
 30
0.0
 10
-31.46142237440141
 20
-3.032124042830286
 30
0.0
 10
-32.05114107720877
 20
-3.144131764833531
 30
0.0
 10
-32.64092402881191
 20
-3.23671385228564
 30
0.0
 10
-33.23074772682677
 20
-3.30934198003658
 30
0.0
 10
-33.82060815198657
 20
-3.361545493516853
 30
0.0
 10
-34.41049077165796
 20
-3.392988352647697
 30
0.0
 10
-34.8038412978485
 20
-3.39999987821789
 30
0.0
 10
-35.00038566670785
 20
-3.39999985876291
 30
0.0
  0
SPLINE
  5
1EA7
330
1F
100
AcDbEntity
  8
AM_0
100
AcDbSpline
210
0.0
220
0.0
230
1.0
 70
     8
 71
     3
 72
    22
 73
    18
 74
     0
 42
0.0000000001
 43
0.0000000001
 40
17.17441611292
 40
17.17441611292
 40
17.17441611292
 40
17.17441611292
 40
17.38177636558528
 40
18.41823744757437
 40
19.46215659509824
 40
20.51397914882054
 40
21.57394542641293
 40
22.64209583141747
 40
23.71826625065247
 40
24.80210429862395
 40
25.8930771157021
 40
26.99048705697709
 40
28.09349309193389
 40
29.20112995599786
 40
30.31233024745139
 40
31.42594771747373
 40
32.5407895042663
 40
32.54078950426994
 40
32.54078950426994
 40
32.54078950426994
 10
-37.25183699790123
 20
-3.0532244667697
 30
0.0
 10
-37.29133637904775
 20
-3.045353800247718
 30
0.0
 10
-37.52811359715264
 20
-2.997412710177266
 30
0.0
 10
-37.96187611837768
 20
-2.901284584914213
 30
0.0
 10
-38.55148757739591
 20
-2.752722211995306
 30
0.0
 10
-39.14103895624412
 20
-2.587194959949002
 30
0.0
 10
-39.73053441712201
 20
-2.40573609092557
 30
0.0
 10
-40.31997318134707
 20
-2.209458216082429
 30
0.0
 10
-40.90936250422698
 20
-1.999582863333674
 30
0.0
 10
-41.49870511479998
 20
-1.777399859069757
 30
0.0
 10
-42.08800646588662
 20
-1.544279393703755
 30
0.0
 10
-42.67727311014435
 20
-1.301659672846009
 30
0.0
 10
-43.26651016205207
 20
-1.051032572497073
 30
0.0
 10
-43.85572355323339
 20
-0.7939399929291902
 30
0.0
 10
-44.44491850655216
 20
-0.5319627624946339
 30
0.0
 10
-45.03410375041922
 20
-0.2667174223059744
 30
0.0
 10
-45.4268168129922
 20
-0.0888229990592092
 30
0.0
 10
-45.62328122538435
 20
0.0001730741802751
 30
0.0
  0
SPLINE
  5
1EA8
330
1F
100
AcDbEntity
  8
AM_0
100
AcDbSpline
210
0.0
220
0.0
230
1.0
 70
     8
 71
     3
 72
    46
 73
    42
 74
     0
 42
0.0000000001
 43
0.0000000001
 40
0.0
 40
0.0
 40
0.0
 40
0.0
 40
1.179790541079198
 40
1.771725346678782
 40
2.365928389391083
 40
2.963054206943358
 40
3.56367942854171
 40
4.168281726368679
 40
4.777234562424272
 40
5.390806270667778
 40
6.009119932596676
 40
6.632207668849522
 40
7.259973746737163
 40
7.892212608053084
 40
8.52861341801536
 40
9.168769217093196
 40
9.812189404150775
 40
10.45831090818786
 40
11.10651107820319
 40
11.75612220391373
 40
12.40644563990894
 40
13.05676907590468
 40
13.70638020161522
 40
14.35458037163002
 40
15.0007018756671
 40
15.64412206272522
 40
16.2842778618023
 40
16.92067867176477
 40
17.55292168272609
 40
18.18068776061372
 40
18.80377549686656
 40
19.42208915879528
 40
20.03565231513328
 40
20.64460515118887
 40
21.24920744901584
 40
21.84983224434128
 40
22.44695841635482
 40
23.04117028960381
 40
23.63310489365484
 40
24.22349090745283
 40
24.81309134934786
 40
24.81309134934786
 40
24.81309134934786
 40
24.81309134934786
 10
-22.23724530619367
 20
-3.39999985876296
 30
0.0
 10
-22.63061504462983
 20
-3.392254395939849
 30
0.0
 10
-23.22134968093759
 20
-3.380622811919085
 30
0.0
 10
-24.00687528773202
 20
-3.309009285938929
 30
0.0
 10
-24.59670257067855
 20
-3.236803801708552
 30
0.0
 10
-25.18647943743351
 20
-3.144104225205108
 30
0.0
 10
-25.77620433432264
 20
-3.032143216273981
 30
0.0
 10
-26.36587423181352
 20
-2.901456043919757
 30
0.0
 10
-26.95548814229766
 20
-2.7528940521106
 30
0.0
 10
-27.5450434417849
 20
-2.587369433468101
 30
0.0
 10
-28.13454130865491
 20
-2.405908833060825
 30
0.0
 10
-28.72398015733764
 20
-2.20963120066699
 30
0.0
 10
-29.31336945748358
 20
-1.999755782539277
 30
0.0
 10
-29.90271207364254
 20
-1.777572794784933
 30
0.0
 10
-30.49201342536953
 20
-1.544452329462231
 30
0.0
 10
-31.08128006135295
 20
-1.301832591610736
 30
0.0
 10
-31.67051714595547
 20
-1.051205559702479
 30
0.0
 10
-32.25973041394061
 20
-0.7941127219138285
 30
0.0
 10
-32.84892611264869
 20
-0.5321363340154094
 30
0.0
 10
-33.4381096244209
 20
-0.2668873666395287
 30
0.0
 10
-34.02728818341248
 20
0.0000001411830859
 30
0.0
 10
-34.61646674227461
 20
0.2668876493300227
 30
0.0
 10
-35.20565025443506
 20
0.5321366157334099
 30
0.0
 10
-35.79484595172406
 20
0.7941130071858588
 30
0.0
 10
-36.38405922497121
 20
1.051205831793913
 30
0.0
 10
-36.97329629006267
 20
1.301832912574474
 30
0.0
 10
-37.5625629983022
 20
1.544452469434649
 30
0.0
 10
-38.15186536387102
 20
1.777574111039845
 30
0.0
 10
-38.74121026993108
 20
1.99975508014911
 30
0.0
 10
-39.33060062145719
 20
2.209631574446094
 30
0.0
 10
-39.92003945641613
 20
2.40590926524297
 30
0.0
 10
-40.50953490169585
 20
2.587368198182404
 30
0.0
 10
-41.09908627309738
 20
2.752895377350536
 30
0.0
 10
-41.68869777681709
 20
2.901457976051689
 30
0.0
 10
-42.27836733303801
 20
3.032136598165
 30
0.0
 10
-42.86809266227733
 20
3.144130080200666
 30
0.0
 10
-43.45787329303376
 20
3.236697280520203
 30
0.0
 10
-44.04769753674982
 20
3.309411077908287
 30
0.0
 10
-44.63755827260486
 20
3.36128854351825
 30
0.0
 10
-45.2274404199658
 20
3.393933043750918
 30
0.0
 10
-45.62079110465351
 20
3.397978673196332
 30
0.0
 10
-45.81733551106823
 20
3.400000141237132
 30
0.0
  0
SPLINE
  5
1EA9
330
1F
100
AcDbEntity
  8
AM_0
100
AcDbSpline
210
0.0
220
0.0
230
1.0
 70
     8
 71
     3
 72
    55
 73
    51
 74
     0
 42
0.0000000001
 43
0.0000000001
 40
0.0
 40
0.0
 40
0.0
 40
0.0
 40
1.010743684496582
 40
2.022833576467832
 40
3.037578957496688
 40
4.056212745003489
 40
5.079857003664532
 40
6.109500240690281
 40
7.145961322679372
 40
8.189895241603872
 40
9.241717795325891
 40
10.30168407291828
 40
11.36983447792315
 40
12.44600489715814
 40
13.52984294512926
 40
14.62081576220742
 40
15.7182257034828
 40
16.82123173843959
 40
17.92886860250316
 40
19.0400688939571
 40
20.15368796660465
 40
21.26852814259644
 40
22.38336992938901
 40
23.49698739941135
 40
24.6081876908653
 40
25.71582455492886
 40
26.81883757994213
 40
27.91624752121713
 40
29.00722033829659
 40
30.09105838626677
 40
31.16722880550176
 40
32.23537921050758
 40
33.29534548809967
 40
34.347168041821
 40
35.39108718934584
 40
36.42754827133493
 40
37.45720575381954
 40
38.48085062012849
 40
39.49948440763516
 40
40.51422944315121
 40
41.52631975251916
 40
42.53706336719636
 40
43.54780698187354
 40
44.55989729124051
 40
45.57464232675757
 40
46.59327611426424
 40
47.6169209805722
 40
48.64656348684535
 40
49.68302456883444
 40
50.58557219878025
 40
50.58557219878025
 40
50.58557219878025
 40
50.58557219878025
 10
-23.88851585469642
 20
-3.399999858762952
 30
0.0
 10
-24.08506022614878
 20
-3.397976941132986
 30
0.0
 10
-24.47841074610541
 20
-3.393928411553154
 30
0.0
 10
-25.06829337828854
 20
-3.361292718094771
 30
0.0
 10
-25.65815083060624
 20
-3.309410490890214
 30
0.0
 10
-26.24797177653868
 20
-3.236695576233353
 30
0.0
 10
-26.83775033060132
 20
-3.144133400631104
 30
0.0
 10
-27.42747485778192
 20
-3.032135573327587
 30
0.0
 10
-28.01714733068288
 20
-2.901456551606922
 30
0.0
 10
-28.60676252010108
 20
-2.752896551273015
 30
0.0
 10
-29.1963164096825
 20
-2.587367721715678
 30
0.0
 10
-29.78581193802735
 20
-2.405909070287109
 30
0.0
 10
-30.37525068392223
 20
-2.209631136374037
 30
0.0
 10
-30.96464001193211
 20
-1.999755799973067
 30
0.0
 10
-31.55398262050089
 20
-1.777572789993502
 30
0.0
 10
-32.14328397444809
 20
-1.544452331032211
 30
0.0
 10
-32.73255060920548
 20
-1.301832590154435
 30
0.0
 10
-33.32178769649166
 20
-1.051205563974738
 30
0.0
 10
-33.91100095491971
 20
-0.7941127062004442
 30
0.0
 10
-34.50019668932186
 20
-0.5321363928269976
 30
0.0
 10
-35.08938006750558
 20
-0.266887146566187
 30
0.0
 10
-35.67855940965277
 20
-0.0000005524864136
 30
0.0
 10
-36.2677361068777
 20
0.2668908457183789
 30
0.0
 10
-36.85692145987568
 20
0.5321359613468248
 30
0.0
 10
-37.4461164669078
 20
0.7941130677076577
 30
0.0
 10
-38.03533077589656
 20
1.051206904891147
 30
0.0
 10
-38.62457030762083
 20
1.301831792175794
 30
0.0
 10
-39.21383787239666
 20
1.544452763473233
 30
0.0
 10
-39.80313931141937
 20
1.777573033397866
 30
0.0
 10
-40.39248189854386
 20
1.999756090101682
 30
0.0
 10
-40.98187122806293
 20
2.209631426809659
 30
0.0
 10
-41.57130998897127
 20
2.405909313789717
 30
0.0
 10
-42.16080545647375
 20
2.587368150504262
 30
0.0
 10
-42.75035681236913
 20
2.752895518444157
 30
0.0
 10
-43.3399683556984
 20
2.901457464543418
 30
0.0
 10
-43.92964060986147
 20
3.032139114054811
 30
0.0
 10
-44.51936934787286
 20
3.144124149651755
 30
0.0
 10
-45.10914985039717
 20
3.236714975204086
 30
0.0
 10
-45.69897097117893
 20
3.309343695715127
 30
0.0
 10
-46.28882883334751
 20
3.361540984785673
 30
0.0
 10
-46.87871096538046
 20
3.392993709919762
 30
0.0
 10
-47.46860605971554
 20
3.403501024646229
 30
0.0
 10
-48.05850115318267
 20
3.39299370990329
 30
0.0
 10
-48.64838328782452
 20
3.361540984851764
 30
0.0
 10
-49.23824114038787
 20
3.309343695466051
 30
0.0
 10
-49.82806229718195
 20
3.236714976140034
 30
0.0
 10
-50.41783978902996
 20
3.144124597527513
 30
0.0
 10
-51.00756620373456
 20
3.032140259041272
 30
0.0
 10
-51.57042734019122
 20
2.907389584080656
 30
0.0
 10
-51.93561805556913
 20
2.816158236129804
 30
0.0
 10
-52.10504526265015
 20
2.771696749740184
 30
0.0
  0
SPLINE
  5
1EAA
330
1F
100
AcDbEntity
  8
AM_0
 48
0.5
100
AcDbSpline
210
0.0
220
0.0
230
1.0
 70
     8
 71
     3
 72
    22
 73
    18
 74
     0
 42
0.0000000001
 43
0.0000000001
 40
0.0
 40
0.0
 40
0.0
 40
0.0
 40
1.010743684496582
 40
2.022833993863546
 40
3.037578683882831
 40
4.056212471389632
 40
5.079857945358201
 40
6.109499720892564
 40
7.145961650132166
 40
8.189873411961459
 40
9.241710626092514
 40
10.30166235592959
 40
11.36982472628033
 40
12.44598212828784
 40
13.52983440361964
 40
14.62080578343036
 40
14.90544694398022
 40
14.90544694398022
 40
14.90544694398022
 40
14.90544694398022
 10
-47.46868705749995
 20
-3.399999858762861
 30
0.0
 10
-47.66523146650859
 20
-3.39797754548364
 30
0.0
 10
-48.05858214279257
 20
-3.393930224575112
 30
0.0
 10
-48.64846415688948
 20
-3.361285440068666
 30
0.0
 10
-49.23832224749532
 20
-3.309411947421778
 30
0.0
 10
-49.8281435070562
 20
-3.236696965732278
 30
0.0
 10
-50.41792045475828
 20
-3.144126154481755
 30
0.0
 10
-51.00764693787191
 20
-3.032137741552149
 30
0.0
 10
-51.59731431481104
 20
-2.901455606556719
 30
0.0
 10
-52.18692664033429
 20
-2.752890448179083
 30
0.0
 10
-52.77647860411496
 20
-2.587369882431422
 30
0.0
 10
-53.36597328709366
 20
-2.405901286121683
 30
0.0
 10
-53.95541448934512
 20
-2.209639426896639
 30
0.0
 10
-54.54480176812985
 20
-1.999751073200988
 30
0.0
 10
-55.13414616492421
 20
-1.777573308875429
 30
0.0
 10
-55.57707966511077
 20
-1.602362102959719
 30
0.0
 10
-55.82389766818643
 20
-1.502217009671006
 30
0.0
 10
-55.87493142389907
 20
-1.481407750681442
 30
0.0
  0
SPLINE
  5
1EAB
330
1F
100
AcDbEntity
  8
AM_0
100
AcDbSpline
210
0.0
220
0.0
230
1.0
 70
     8
 71
     3
 72
    13
 73
     9
 74
     0
 42
0.0000000001
 43
0.0000000001
 40
16.03460056234195
 40
16.03460056234195
 40
16.03460056234195
 40
16.03460056234195
 40
16.35212717791071
 40
17.38177067057215
 40
18.41822498539278
 40
19.46214186516937
 40
20.5139635832251
 40
21.34083983469381
 40
21.34083983469381
 40
21.34083983469381
 40
21.34083983469381
 10
-55.72698525525806
 20
-3.400309073778228
 30
0.0
 10
-55.66638203961467
 20
-3.388831610548632
 30
0.0
 10
-55.40951887324919
 20
-3.338850387914756
 30
0.0
 10
-54.95705226052336
 20
-3.240915979893008
 30
0.0
 10
-54.37110641940814
 20
-3.095290690164246
 30
0.0
 10
-53.78570492599119
 20
-2.931777200341875
 30
0.0
 10
-53.244015965473
 20
-2.764651737973978
 30
0.0
 10
-52.8984279477533
 20
-2.649573963431824
 30
0.0
 10
-52.74682055563395
 20
-2.597557760749896
 30
0.0
  0
SPLINE
  5
1EAC
330
1F
100
AcDbEntity
  8
AM_0
100
AcDbSpline
210
0.0
220
0.0
230
1.0
 70
     8
 71
     3
 72
    23
 73
    19
 74
     0
 42
0.0000000001
 43
0.0000000001
 40
16.03460024169435
 40
16.03460024169435
 40
16.03460024169435
 40
16.03460024169435
 40
16.35212704903564
 40
17.38177054169784
 40
18.41822485651776
 40
19.46214173629503
 40
20.51396345435107
 40
21.57393551351153
 40
22.64208202342361
 40
23.7182574881101
 40
24.80209208578934
 40
25.89306333925047
 40
26.99048218457928
 40
28.09348763352352
 40
29.20111863782268
 40
30.31232390128032
 40
31.42594612798585
 40
32.5407912310448
 40
32.5407912310486
 40
32.5407912310486
 40
32.5407912310486
 10
-54.55984233872876
 20
3.400483172940766
 30
0.0
 10
-54.49923914764435
 20
3.389005371679457
 30
0.0
 10
-54.2423761938277
 20
3.339022777684359
 30
0.0
 10
-53.78990933445521
 20
3.241089513056468
 30
0.0
 10
-53.20396356707861
 20
3.095463819542545
 30
0.0
 10
-52.61856205369175
 20
2.931950439072037
 30
0.0
 10
-52.03367020245236
 20
2.751495703690597
 30
0.0
 10
-51.44926725451214
 20
2.555105652587815
 30
0.0
 10
-50.86531943278131
 20
2.343902934116067
 30
0.0
 10
-50.28178607335302
 20
2.119116695119659
 30
0.0
 10
-49.69863401776599
 20
1.882019886964161
 30
0.0
 10
-49.11581651260537
 20
1.633992120731432
 30
0.0
 10
-48.53328632702975
 20
1.376475040958804
 30
0.0
 10
-47.95100464871439
 20
1.110949262896892
 30
0.0
 10
-47.36892275885843
 20
0.8389587825828504
 30
0.0
 10
-46.78698674435122
 20
0.5620918248739676
 30
0.0
 10
-46.20514921917393
 20
0.2819527588172384
 30
0.0
 10
-45.81736172329328
 20
0.0941348328720155
 30
0.0
 10
-45.62336222331069
 20
0.0001730741790514
 30
0.0
  0
SPLINE
  5
1EAF
330
1F
100
AcDbEntity
  8
AM_0
 48
0.5
100
AcDbSpline
210
0.0
220
0.0
230
1.0
 70
     8
 71
     3
 72
    17
 73
    13
 74
     0
 42
0.0000000001
 43
0.0000000001
 40
0.0
 40
0.0
 40
0.0
 40
0.0
 40
1.010743614677189
 40
2.022833924044153
 40
3.037578959561199
 40
4.056212747067873
 40
5.079857613375832
 40
6.109500119648989
 40
7.14596120163808
 40
8.18989512056258
 40
9.241717674284874
 40
9.693948937866434
 40
9.693948937866434
 40
9.693948937866434
 40
9.693948937866434
 10
-2.888810475671932
 20
3.400000141237036
 30
0.0
 10
-3.085354882893021
 20
3.397978681419881
 30
0.0
 10
-3.478705569194382
 20
3.393933068432748
 30
0.0
 10
-4.068587704428501
 20
3.361288444528996
 30
0.0
 10
-4.658445554557513
 20
3.309411708655971
 30
0.0
 10
-5.24826672054811
 20
3.236696651292247
 30
0.0
 10
-5.838044177801088
 20
3.144129455522864
 30
0.0
 10
-6.427770722767816
 20
3.032139295995847
 30
0.0
 10
-7.017438440326929
 20
2.901447090404525
 30
0.0
 10
-7.607070211952864
 20
2.752932692335419
 30
0.0
 10
-8.083036353410978
 20
2.619143669340807
 30
0.0
 10
-8.362551578083969
 20
2.535506290265827
 30
0.0
 10
-8.44644705235361
 20
2.509905448424166
 30
0.0
  0
SPLINE
  5
1EB3
330
1F
100
AcDbEntity
  8
AM_0
100
AcDbSpline
210
0.0
220
0.0
230
1.0
 70
     8
 71
     3
 72
    46
 73
    42
 74
     0
 42
0.0000000001
 43
0.0000000001
 40
0.0
 40
0.0
 40
0.0
 40
0.0
 40
1.1797905410792
 40
1.771725346678784
 40
2.365928389391084
 40
2.963054206943358
 40
3.563679428541708
 40
4.168281726368678
 40
4.777234562424272
 40
5.390806270667785
 40
6.009119932596676
 40
6.632207668849522
 40
7.259973746737163
 40
7.892212608053092
 40
8.52861341801536
 40
9.168769217093204
 40
9.81218940415078
 40
10.45831090818787
 40
11.1065110782032
 40
11.75612220391374
 40
12.40644563990895
 40
13.05676907590469
 40
13.70638020161522
 40
14.35458037163003
 40
15.0007018756671
 40
15.64412206272523
 40
16.28427786180231
 40
16.92067867176479
 40
17.5529216827261
 40
18.18068776061372
 40
18.80377549686657
 40
19.42208915879529
 40
20.03565231513329
 40
20.64460515118888
 40
21.24920744901585
 40
21.84983224434128
 40
22.44695841635484
 40
23.04117028960383
 40
23.63310489365486
 40
24.22349090745283
 40
24.81309134934788
 40
24.81309134934788
 40
24.81309134934788
 40
24.81309134934788
 10
-1.237539927169206
 20
-3.39999985876297
 30
0.0
 10
-1.630909665605371
 20
-3.39225439593986
 30
0.0
 10
-2.22164430191313
 20
-3.380622811919099
 30
0.0
 10
-3.007169908707556
 20
-3.309009285938939
 30
0.0
 10
-3.596997191654097
 20
-3.236803801708564
 30
0.0
 10
-4.18677405840904
 20
-3.144104225205119
 30
0.0
 10
-4.776498955298179
 20
-3.032143216273993
 30
0.0
 10
-5.366168852789057
 20
-2.90145604391977
 30
0.0
 10
-5.955782763273196
 20
-2.752894052110609
 30
0.0
 10
-6.545338062760446
 20
-2.587369433468115
 30
0.0
 10
-7.134835929630449
 20
-2.405908833060835
 30
0.0
 10
-7.724274778313187
 20
-2.209631200667002
 30
0.0
 10
-8.313664078459119
 20
-1.999755782539286
 30
0.0
 10
-8.903006694618085
 20
-1.777572794784949
 30
0.0
 10
-9.492308046345064
 20
-1.544452329462236
 30
0.0
 10
-10.08157468232849
 20
-1.301832591610752
 30
0.0
 10
-10.67081176693102
 20
-1.051205559702488
 30
0.0
 10
-11.26002503491616
 20
-0.7941127219138418
 30
0.0
 10
-11.84922073362423
 20
-0.5321363340154192
 30
0.0
 10
-12.43840424539644
 20
-0.2668873666395399
 30
0.0
 10
-13.02758280438801
 20
0.0000001411830743
 30
0.0
 10
-13.61676136325014
 20
0.266887649330012
 30
0.0
 10
-14.20594487541059
 20
0.5321366157333989
 30
0.0
 10
-14.79514057269959
 20
0.7941130071858471
 30
0.0
 10
-15.38435384594676
 20
1.051205831793905
 30
0.0
 10
-15.97359091103821
 20
1.30183291257446
 30
0.0
 10
-16.56285761927773
 20
1.544452469434638
 30
0.0
 10
-17.15215998484658
 20
1.777574111039834
 30
0.0
 10
-17.74150489090663
 20
1.999755080149098
 30
0.0
 10
-18.33089524243274
 20
2.209631574446084
 30
0.0
 10
-18.92033407739168
 20
2.405909265242959
 30
0.0
 10
-19.50982952267141
 20
2.587368198182394
 30
0.0
 10
-20.09938089407291
 20
2.752895377350524
 30
0.0
 10
-20.68899239779264
 20
2.901457976051678
 30
0.0
 10
-21.27866195401354
 20
3.032136598164989
 30
0.0
 10
-21.86838728325287
 20
3.144130080200654
 30
0.0
 10
-22.4581679140093
 20
3.236697280520191
 30
0.0
 10
-23.04799215772538
 20
3.309411077908277
 30
0.0
 10
-23.6378528935804
 20
3.361288543518238
 30
0.0
 10
-24.22773504094135
 20
3.393933043750906
 30
0.0
 10
-24.62108572562906
 20
3.397978673196321
 30
0.0
 10
-24.81763013204377
 20
3.400000141237121
 30
0.0
  0
SPLINE
  5
1EB4
330
1F
100
AcDbEntity
  8
AM_0
100
AcDbSpline
210
0.0
220
0.0
230
1.0
 70
     8
 71
     3
 72
    55
 73
    51
 74
     0
 42
0.0000000001
 43
0.0000000001
 40
0.0
 40
0.0
 40
0.0
 40
0.0
 40
1.010743684496582
 40
2.022833576467832
 40
3.037578957496688
 40
4.056212745003489
 40
5.079857003664532
 40
6.109500240690281
 40
7.145961322679372
 40
8.189895241603872
 40
9.241717795325891
 40
10.30168407291828
 40
11.36983447792315
 40
12.44600489715814
 40
13.52984294512926
 40
14.62081576220742
 40
15.7182257034828
 40
16.82123173843959
 40
17.92886860250316
 40
19.0400688939571
 40
20.15368796660465
 40
21.26852814259644
 40
22.38336992938901
 40
23.49698739941135
 40
24.6081876908653
 40
25.71582455492886
 40
26.81883757994213
 40
27.91624752121713
 40
29.00722033829659
 40
30.09105838626677
 40
31.16722880550176
 40
32.23537921050758
 40
33.29534548809967
 40
34.347168041821
 40
35.39108718934584
 40
36.42754827133493
 40
37.45720575381954
 40
38.48085062012849
 40
39.49948440763516
 40
40.51422944315121
 40
41.52631975251916
 40
42.53706336719636
 40
43.54780698187354
 40
44.55989729124051
 40
45.57464232675757
 40
46.59327611426424
 40
47.6169209805722
 40
48.64656348684535
 40
49.68302456883444
 40
50.58557219878025
 40
50.58557219878025
 40
50.58557219878025
 40
50.58557219878025
 10
-2.888810475671959
 20
-3.399999858762964
 30
0.0
 10
-3.085354847124321
 20
-3.397976941132998
 30
0.0
 10
-3.478705367080948
 20
-3.393928411553165
 30
0.0
 10
-4.068587999264083
 20
-3.361292718094784
 30
0.0
 10
-4.658445451581775
 20
-3.309410490890226
 30
0.0
 10
-5.248266397514219
 20
-3.236695576233364
 30
0.0
 10
-5.838044951576852
 20
-3.144133400631116
 30
0.0
 10
-6.427769478757454
 20
-3.032135573327598
 30
0.0
 10
-7.017441951658419
 20
-2.901456551606932
 30
0.0
 10
-7.607057141076621
 20
-2.752896551273027
 30
0.0
 10
-8.196611030658045
 20
-2.587367721715688
 30
0.0
 10
-8.786106559002901
 20
-2.405909070287121
 30
0.0
 10
-9.375545304897773
 20
-2.209631136374049
 30
0.0
 10
-9.964934632907651
 20
-1.999755799973078
 30
0.0
 10
-10.55427724147642
 20
-1.777572789993513
 30
0.0
 10
-11.14357859542363
 20
-1.544452331032222
 30
0.0
 10
-11.73284523018102
 20
-1.301832590154446
 30
0.0
 10
-12.32208231746721
 20
-1.051205563974749
 30
0.0
 10
-12.91129557589525
 20
-0.7941127062004555
 30
0.0
 10
-13.5004913102974
 20
-0.5321363928270086
 30
0.0
 10
-14.08967468848111
 20
-0.266887146566198
 30
0.0
 10
-14.67885403062831
 20
-0.0000005524864247
 30
0.0
 10
-15.26803072785324
 20
0.2668908457183678
 30
0.0
 10
-15.85721608085122
 20
0.532135961346814
 30
0.0
 10
-16.44641108788334
 20
0.7941130677076465
 30
0.0
 10
-17.03562539687209
 20
1.051206904891136
 30
0.0
 10
-17.62486492859637
 20
1.301831792175783
 30
0.0
 10
-18.2141324933722
 20
1.544452763473221
 30
0.0
 10
-18.80343393239492
 20
1.777573033397854
 30
0.0
 10
-19.3927765195194
 20
1.999756090101671
 30
0.0
 10
-19.98216584903847
 20
2.209631426809647
 30
0.0
 10
-20.57160460994682
 20
2.405909313789706
 30
0.0
 10
-21.1611000774493
 20
2.587368150504252
 30
0.0
 10
-21.75065143334466
 20
2.752895518444146
 30
0.0
 10
-22.34026297667394
 20
2.901457464543407
 30
0.0
 10
-22.92993523083702
 20
3.032139114054799
 30
0.0
 10
-23.5196639688484
 20
3.144124149651744
 30
0.0
 10
-24.10944447137271
 20
3.236714975204075
 30
0.0
 10
-24.69926559215447
 20
3.309343695715116
 30
0.0
 10
-25.28912345432305
 20
3.361540984785662
 30
0.0
 10
-25.87900558635601
 20
3.392993709919752
 30
0.0
 10
-26.46890068069108
 20
3.403501024646218
 30
0.0
 10
-27.05879577415821
 20
3.39299370990328
 30
0.0
 10
-27.64867790880006
 20
3.361540984851752
 30
0.0
 10
-28.23853576136341
 20
3.30934369546604
 30
0.0
 10
-28.82835691815749
 20
3.236714976140023
 30
0.0
 10
-29.4181344100055
 20
3.144124597527501
 30
0.0
 10
-30.00786082471011
 20
3.032140259041262
 30
0.0
 10
-30.57072196116676
 20
2.907389584080645
 30
0.0
 10
-30.93591267654467
 20
2.816158236129793
 30
0.0
 10
-31.10533988362569
 20
2.771696749740174
 30
0.0
  0
SPLINE
  5
1EB5
330
1F
100
AcDbEntity
  8
AM_0
100
AcDbSpline
210
0.0
220
0.0
230
1.0
 70
     8
 71
     3
 72
    11
 73
     7
 74
     0
 42
0.0000000001
 43
0.0000000001
 40
11.27226913003534
 40
11.27226913003534
 40
11.27226913003534
 40
11.2722691300354
 40
12.28301561507924
 40
13.29510212255852
 40
14.30984805882082
 40
15.18258238371378
 40
15.18258238371378
 40
15.18258238371378
 40
15.18258238371378
 10
-14.00068028768343
 20
-3.39999985876292
 30
0.0
 10
-14.19647729809144
 20
-3.383359270729372
 30
0.0
 10
-14.58770200851373
 20
-3.343073131328114
 30
0.0
 10
-15.17251886267732
 20
-3.261806023402819
 30
0.0
 10
-15.72752036920547
 20
-3.16474137357692
 30
0.0
 10
-16.08646276569303
 20
-3.090124888426457
 30
0.0
 10
-16.2518736428699
 20
-3.053266405743712
 30
0.0
  0
SPLINE
  5
1EB6
330
1F
100
AcDbEntity
  8
AM_0
100
AcDbSpline
210
0.0
220
0.0
230
1.0
 70
     8
 71
     3
 72
    22
 73
    18
 74
     0
 42
0.0000000001
 43
0.0000000001
 40
17.17441611292
 40
17.17441611292
 40
17.17441611292
 40
17.17441611292
 40
17.38177636558528
 40
18.41823744757437
 40
19.46215659509824
 40
20.51397914882054
 40
21.57394542641293
 40
22.64209583141747
 40
23.71826625065247
 40
24.80210429862395
 40
25.8930771157021
 40
26.99048705697709
 40
28.09349309193389
 40
29.20112995599786
 40
30.31233024745139
 40
31.42594771747373
 40
32.5407895042663
 40
32.54078950426994
 40
32.54078950426994
 40
32.54078950426994
 10
-16.25213161887677
 20
-3.053224466769711
 30
0.0
 10
-16.29163100002329
 20
-3.045353800247728
 30
0.0
 10
-16.52840821812818
 20
-2.997412710177277
 30
0.0
 10
-16.96217073935322
 20
-2.901284584914225
 30
0.0
 10
-17.55178219837145
 20
-2.752722211995318
 30
0.0
 10
-18.14133357721965
 20
-2.587194959949014
 30
0.0
 10
-18.73082903809755
 20
-2.405736090925581
 30
0.0
 10
-19.3202678023226
 20
-2.20945821608244
 30
0.0
 10
-19.90965712520251
 20
-1.999582863333685
 30
0.0
 10
-20.49899973577551
 20
-1.777399859069769
 30
0.0
 10
-21.08830108686218
 20
-1.544279393703766
 30
0.0
 10
-21.6775677311199
 20
-1.301659672846019
 30
0.0
 10
-22.26680478302762
 20
-1.051032572497085
 30
0.0
 10
-22.85601817420892
 20
-0.7939399929292014
 30
0.0
 10
-23.4452131275277
 20
-0.5319627624946448
 30
0.0
 10
-24.03439837139476
 20
-0.2667174223059856
 30
0.0
 10
-24.42711143396775
 20
-0.0888229990592203
 30
0.0
 10
-24.62357584635989
 20
0.000173074180264
 30
0.0
  0
SPLINE
  5
1EB7
330
1F
100
AcDbEntity
  8
AM_0
100
AcDbSpline
210
0.0
220
0.0
230
1.0
 70
     8
 71
     3
 72
    17
 73
    13
 74
     0
 42
0.0000000001
 43
0.0000000001
 40
1.580019955310467
 40
1.580019955310467
 40
1.580019955310467
 40
1.580019955310467
 40
2.030549285115227
 40
3.082371838836284
 40
4.126290986361125
 40
5.162752068350215
 40
6.192395305374981
 40
7.216039564037012
 40
8.234688489606833
 40
9.249433870634691
 40
10.26152376260694
 40
11.27226744710342
 40
11.27226744710342
 40
11.27226744710342
 40
11.27226744710352
 10
-8.444311910965584
 20
-2.509299977170166
 30
0.0
 10
-8.527770457383338
 20
-2.53514368381906
 30
0.0
 10
-8.806550041335137
 20
-2.619849884281254
 30
0.0
 10
-9.282495925584496
 20
-2.752714590546649
 30
0.0
 10
-9.872025312036649
 20
-2.901505435854944
 30
0.0
 10
-10.46171699537694
 20
-3.032124042830298
 30
0.0
 10
-11.05143569818431
 20
-3.144131764833541
 30
0.0
 10
-11.64121864978745
 20
-3.236713852285651
 30
0.0
 10
-12.23104234780231
 20
-3.30934198003659
 30
0.0
 10
-12.82090277296211
 20
-3.361545493516865
 30
0.0
 10
-13.4107853926335
 20
-3.392988352647708
 30
0.0
 10
-13.80413591882404
 20
-3.3999998782179
 30
0.0
 10
-14.00068028768339
 20
-3.39999985876292
 30
0.0
  0
LINE
  5
1EC6
330
1F
100
AcDbEntity
  8
AM_0
100
AcDbLine
 10
-56.82676797173675
 20
-3.399999858762829
 30
0.0
 11
-56.82676797173675
 21
-2.860527417474329
 31
0.0
  0
LINE
  5
1EC7
330
1F
100
AcDbEntity
  8
AM_0
100
AcDbLine
 10
-56.82676797173675
 20
-1.79352975699487
 30
0.0
 11
-56.82676797173676
 21
-0.352926294650275
 31
0.0
  0
LINE
  5
1EC8
330
1F
100
AcDbEntity
  8
AM_0
100
AcDbLine
 10
-56.82676797173675
 20
-0.2299465908019608
 30
0.0
 11
-56.82676797173677
 21
3.400483172940765
 31
0.0
  0
DIMENSION
  5
1ED0
330
1F
100
AcDbEntity
  8
AM_5
100
AcDbDimension
  2
*D9
 10
-118.7500010000003
 20
3.499999999999908
 30
0.0
 11
-118.7500010000003
 21
-0.0000000000001006
 31
0.0
 70
   160
  1
%%c<>
 51
359.9999999999998
  3
AM_JIS$0
100
AcDbAlignedDimension
 13
-109.7500000000003
 23
-3.500000000000093
 33
0.0
 14
-109.7500000000003
 24
3.499999999999906
 34
0.0
 50
270.0000000000001
100
AcDbRotatedDimension
1001
ACAD
1000
DSTYLE
1002
{
1070
   271
1070
     0
1002
}
1001
GENIUS_GENDTOL_13
1000

1000
h7
1000

1040
0.0
  0
ELLIPSE
  5
20A3
330
1F
100
AcDbEntity
  8
AM_0
 48
0.5
100
AcDbEllipse
 10
3.620809427892872
 20
-0.7557727251891894
 30
0.0
 11
5.31992877925547
 21
1.202402293885534
 31
0.0
210
0.0
220
0.0
230
1.0
 40
0.7964637814652935
 41
3.022394888556169
 42
3.509030118868635
  0
ELLIPSE
  5
20A4
330
1F
100
AcDbEntity
  8
AM_0
 48
0.5
100
AcDbEllipse
 10
-5.991756450220883
 20
6.467174643554415
 30
0.0
 11
-5.300974569933369
 21
7.185383489775492
 31
0.0
210
0.0
220
0.0
230
1.0
 40
0.5700206404056103
 41
3.14653163117385
 42
3.335796059594246
  0
SPLINE
  5
20A5
330
1F
100
AcDbEntity
  8
AM_0
 48
0.5
100
AcDbSpline
210
0.0
220
0.0
230
1.0
 70
     8
 71
     3
 72
    10
 73
     6
 74
     0
 42
0.0000000001
 43
0.0000000001
 40
0.0
 40
0.0
 40
0.0
 40
0.0
 40
2.69986029516136
 40
4.147722969032201
 40
6.285750005020438
 40
6.285750005020438
 40
6.285750005020438
 40
6.285750005020438
 10
-3.636382039392451
 20
0.6153823142800153
 30
0.0
 10
-3.22854584288946
 20
0.2994988192210922
 30
0.0
 10
-2.601998031186113
 20
-0.1857845231585781
 30
0.0
 10
-1.120296622190068
 20
0.0491496443343597
 30
0.0
 10
-1.39934409544665
 20
0.8404390068680061
 30
0.0
 10
-1.583720836700919
 20
1.322754244388679
 30
0.0
  0
ELLIPSE
  5
20A6
330
1F
100
AcDbEntity
  8
AM_0
 48
0.5
100
AcDbEllipse
 10
-0.908814493819257
 20
-0.8860885058292286
 30
0.0
 11
-0.4907491323613529
 21
0.2833333341823545
 31
0.0
210
0.0
220
0.0
230
1.0
 40
0.5000000000001404
 41
4.483836531792615
 42
7.627276873122125
  0
ELLIPSE
  5
20A7
330
1F
100
AcDbEntity
  8
AM_0
 48
0.5
100
AcDbEllipse
 10
-0.908814493819257
 20
-0.8860885058292286
 30
0.0
 11
-0.0983988253173133
 21
0.5580567766362724
 31
0.0
210
0.0
220
0.0
230
0.9999999999999998
 40
0.4999981224495357
 41
1.805862328724633
 42
4.941204218436607
  0
ELLIPSE
  5
20A8
330
1F
100
AcDbEntity
  8
AM_0
 48
0.5
100
AcDbEllipse
 10
2.274638875321556
 20
4.081909617339903
 30
0.0
 11
-4.845457822781381
 21
4.845457822781322
 31
0.0
210
0.0
220
0.0
230
1.0
 40
0.9999999999999943
 41
1.315765716631529
 42
1.723886646826419
  0
ELLIPSE
  5
20A9
330
1F
100
AcDbEntity
  8
AM_0
 48
0.5
100
AcDbEllipse
 10
-5.781381734216296
 20
5.706433034494686
 30
0.0
 11
5.79669185079369
 21
5.796691850793761
 31
0.0
210
0.0
220
0.0
230
1.0
 40
0.9999999999999122
 41
4.437574142215648
 42
4.526068919895139
  0
ELLIPSE
  5
20AA
330
1F
100
AcDbEntity
  8
AM_0
 48
0.5
100
AcDbEllipse
 10
4.956275861599955
 20
-4.114118459207681
 30
0.0
 11
0.9647894904608545
 21
-6.524008934458843
 31
0.0
210
0.0
220
0.0
230
-1.0
 40
0.8991184301885631
 41
1.890270824098471
 42
2.197796108596753
  0
ELLIPSE
  5
20AB
330
1F
100
AcDbEntity
  8
AM_0
 48
0.5
100
AcDbEllipse
 10
4.956275861599898
 20
4.114118459208171
 30
0.0
 11
0.9647894904607662
 21
6.524008934458856
 31
0.0
210
0.0
220
0.0
230
0.9999999999999998
 40
0.8991184301885631
 41
1.890270824098471
 42
2.197796108596753
  0
SPLINE
  5
20AC
330
1F
100
AcDbEntity
  8
AM_0
 48
0.5
100
AcDbSpline
210
0.0
220
0.0
230
1.0
 70
     8
 71
     3
 72
    25
 73
    21
 74
     0
 42
0.0000000001
 43
0.0000000001
 40
6.846175049578289
 40
6.846175049578289
 40
6.846175049578289
 40
6.846175049578289
 40
7.604337694224321
 40
8.711974558287883
 40
9.814980593243754
 40
10.91239053451967
 40
12.0033633515982
 40
13.08720139956839
 40
14.16337181880432
 40
15.23152222380919
 40
16.29148850140128
 40
17.34331105512262
 40
18.38723020264746
 40
19.42369128463655
 40
20.45333379090873
 40
21.47697865721768
 40
22.49561244472435
 40
23.5103574802404
 40
24.52244778960836
 40
25.53320666051913
 40
25.53320666051913
 40
25.53320666051913
 40
25.53320666051913
 10
-3.636473654088703
 20
0.615422696945323
 30
0.0
 10
-3.766646191734125
 20
0.6751206500675903
 30
0.0
 10
-4.087268106106115
 20
0.8214368784757258
 30
0.0
 10
-4.59881587546539
 20
1.05120602839413
 30
0.0
 10
-5.171217551750622
 20
1.301833199563283
 30
0.0
 10
-5.743648014487916
 20
1.54445290156277
 30
0.0
 10
-6.316112181921759
 20
1.77757337202399
 30
0.0
 10
-6.888616432715707
 20
1.999756374621444
 30
0.0
 10
-7.461166060735834
 20
2.209631728971245
 30
0.0
 10
-8.033763716585347
 20
2.405909599111029
 30
0.0
 10
-8.606416453198455
 20
2.58736848517094
 30
0.0
 10
-9.179123495134987
 20
2.75289567444399
 30
0.0
 10
-9.751888956029468
 20
2.901458279002216
 30
0.0
 10
-10.32471081456622
 20
3.03213686804868
 30
0.0
 10
-10.89758683301359
 20
3.144130475328679
 30
0.0
 10
-11.47051382358577
 20
3.23669675526635
 30
0.0
 10
-12.04348287176886
 20
3.309412056745535
 30
0.0
 10
-12.61648766286241
 20
3.361288725561883
 30
0.0
 10
-13.18951889527203
 20
3.393933538863521
 30
0.0
 10
-13.57163387626061
 20
3.39797902563545
 30
0.0
 10
-13.76256561279712
 20
3.400000437652582
 30
0.0
  0
LINE
  5
20AD
330
1F
100
AcDbEntity
  8
AM_0
 48
0.5
100
AcDbLine
 10
-0.9157811464972951
 20
-2.888705083827986
 30
0.0
 11
-1.000000000000325
 21
-3.399999562347547
 31
0.0
  0
LINE
  5
20AE
330
1F
100
AcDbEntity
  8
AM_0
 48
0.5
100
AcDbLine
 10
-0.0000000000002061
 20
0.0000000000001826
 30
0.0
 11
-1.566765975956251
 21
1.305497162098827
 31
0.0
  0
LINE
  5
20AF
330
1F
100
AcDbEntity
  8
AM_0
100
AcDbLine
 10
-0.3599038282137243
 20
0.9888276411920756
 30
0.0
 11
-0.0000000000002487
 21
0.0000000000002146
 31
0.0
  0
LINE
  5
20B0
330
1F
100
AcDbEntity
  8
AM_0
100
AcDbLine
 10
-0.0000000000002487
 20
0.0000000000002146
 30
0.0
 11
-0.3599038282137172
 21
-0.9888276411916571
 31
0.0
  0
LINE
  5
20B1
330
1F
100
AcDbEntity
  8
AM_0
 48
0.5
100
AcDbLine
 10
-0.9157811464973235
 20
2.888705083828405
 30
0.0
 11
-1.000000000000326
 21
3.400000437652447
 31
0.0
  0
DIMENSION
  5
2119
330
1F
100
AcDbEntity
  8
AM_5
100
AcDbDimension
  2
*D10
 10
-0.3599038282137172
 20
-0.9888276411916571
 30
0.0
 11
13.05375549899515
 21
0.000000000000287
 31
0.0
 70
    34
  1
<>
 51
359.9999999999998
  3
AM_JIS$2
100
AcDb2LineAngularDimension
 13
-0.3599038282137243
 23
0.9888276411920756
 33
0.0
 14
-0.0000000000002487
 24
0.0000000000002146
 34
0.0
 15
-0.0000000000002487
 25
0.0000000000002146
 35
0.0
 16
13.40940352011868
 26
-5.784252061334985
 36
0.0
1001
ACAD
1000
DSTYLE
1002
{
1070
   179
1070
     3
1002
}
1001
GENIUS_GENDTOL_13
1000

1000
h7
1000

1040
0.0
  0
VIEWPORT
  5
110
330
101
100
AcDbEntity
 67
     1
  8
0
100
AcDbViewport
 10
420.5
 20
297.0
 30
0.0
 40
948.9782706766916
 41
628.452
 68
     1
 69
     1
1001
ACAD
1000
MVIEW
1002
{
1070
    16
1010
0.0
1020
0.0
1030
0.0
1010
0.0
1020
0.0
1030
1.0
1040
0.0
1040
628.452
1040
420.5
1040
297.0
1040
50.0
1040
0.0
1040
0.0
1070
     0
1070
   100
1070
     1
1070
     1
1070
     0
1070
     0
1070
     0
1070
     0
1040
0.0
1040
0.0
1040
0.0
1040
10.0
1040
10.0
1040
10.0
1040
10.0
1070
     0
1002
{
1002
}
1002
}
  0
ENDSEC
  0
SECTION
  2
OBJECTS
  0
DICTIONARY
  5
C
330
0
100
AcDbDictionary
  3
ACAD_GROUP
350
D
  3
ACAD_LAYOUT
350
1A
  3
ACAD_MLINESTYLE
350
17
  3
ACAD_PLOTSETTINGS
350
19
  3
ACAD_PLOTSTYLENAME
350
E
  3
ACDBVARIABLEDICTIONARY
350
34
  3
ACMDICTIONARY
350
43
  3
AMG
350
2B
  3
AMGSNAPSETTINGS
350
6E
  3
DWGPROPS
350
2239
  3
ACDBHEADERROUNDTRIPXREC
350
2246
  0
DICTIONARY
  5
74
330
1F
100
AcDbDictionary
280
     1
  3
ACAD_INDEX
360
223B
  3
ACAD_LAYOUTSELFREF
360
2269
  0
DICTIONARY
  5
226E
330
101
100
AcDbDictionary
280
     1
  3
ACAD_LAYOUTSELFREF
360
226F
  0
DICTIONARY
  5
D
102
{ACAD_REACTORS
330
C
102
}
330
C
100
AcDbDictionary
  0
DICTIONARY
  5
1A
102
{ACAD_REACTORS
330
C
102
}
330
C
100
AcDbDictionary
  0
DICTIONARY
  5
17
102
{ACAD_REACTORS
330
C
102
}
330
C
100
AcDbDictionary
  3
STANDARD
350
18
  0
DICTIONARY
  5
19
102
{ACAD_REACTORS
330
C
102
}
330
C
100
AcDbDictionary
  0
ACDBDICTIONARYWDFLT
  5
E
102
{ACAD_REACTORS
330
C
102
}
330
C
100
AcDbDictionary
281
     1
  3
Normal
350
F
100
AcDbDictionaryWithDefault
340
F
  0
DICTIONARY
  5
34
102
{ACAD_REACTORS
330
C
102
}
330
C
100
AcDbDictionary
  3
INDEXCTL
350
35
  3
SORTENTS
350
B5E
  0
DICTIONARY
  5
43
102
{ACAD_REACTORS
330
C
102
}
330
C
100
AcDbDictionary
  3
ACMSTDDICTIONARY
350
260
  0
DICTIONARY
  5
2B
102
{ACAD_REACTORS
330
C
102
}
330
C
100
AcDbDictionary
  3
ACMGSETTINGS
350
2C
  0
DICTIONARY
  5
6E
102
{ACAD_REACTORS
330
C
102
}
330
C
100
AcDbDictionary
  0
XRECORD
  5
2239
102
{ACAD_REACTORS
330
C
102
}
330
C
100
AcDbXrecord
  1
DWGPROPS COOKIE
  2

  3

  4

  6

  7

  8

  9

300
AmdtFileType=82
301
=
302
=
303
=
304
=
305
=
306
=
307
=
308
=
309
=
 40
0.0896361226851852
 41
2452800.443498622
 42
2452948.545345405
  1

 90
        1
  0
DICTIONARY
  5
2246
102
{ACAD_REACTORS
330
C
102
}
330
C
100
AcDbDictionary
  3
TSTACKALIGN
350
2247
  3
TSTACKSIZE
350
2248
  3
HYPERLINKBASE
350
2249
  3
STYLESHEET
350
224A
  3
LAYOUTDICT
350
224B
  3
PLOTSETDICT
350
224C
  3
PLOTSTYLNAMDICT
350
224D
  3
LWETCUNION
350
224E
  3
INSUNITS
350
224F
  3
CEPSNTYPE
350
2250
  3
FINGERPRINTGUID
350
2251
  3
VERSIONGUID
350
2252
  3
PSVPSCALE
350
2253
  3
DIMSTYLEDATA
350
2254
  3
PUCSORTHOREF
350
2255
  3
PUCSORTHOVIEW
350
2256
  3
PUCSBASE
350
2257
  3
PUCSORGTOP
350
2258
  3
PUCSORGBOTTOM
350
2259
  3
PUCSORGLEFT
350
225A
  3
PUCSORGRIGHT
350
225B
  3
PUCSORGFRONT
350
225C
  3
PUCSORGBACK
350
225D
  3
UCSORTHOREF
350
225E
  3
UCSORTHOVIEW
350
225F
  3
UCSBASE
350
2260
  3
UCSORGTOP
350
2261
  3
UCSORGBOTTOM
350
2262
  3
UCSORGLEFT
350
2263
  3
UCSORGRIGHT
350
2264
  3
UCSORGFRONT
350
2265
  3
UCSORGBACK
350
2266
  0
DICTIONARY
  5
223B
102
{ACAD_REACTORS
330
74
102
}
330
74
100
AcDbDictionary
  3
*A1
350
223C
  0
XRECORD
  5
2269
102
{ACAD_REACTORS
330
74
102
}
330
74
100
AcDbXrecord
340
1F
  0
XRECORD
  5
226F
102
{ACAD_REACTORS
330
226E
102
}
330
226E
100
AcDbXrecord
340
101
  0
MLINESTYLE
  5
18
102
{ACAD_REACTORS
330
17
102
}
330
17
100
AcDbMlineStyle
  2
STANDARD
 70
     0
  3

 62
   256
 51
90.0
 52
90.0
 71
     2
 49
0.5
 62
   256
  6
BYLAYER
 49
-0.5
 62
   256
  6
BYLAYER
  0
ACDBPLACEHOLDER
  5
F
102
{ACAD_REACTORS
330
E
102
}
330
E
100
AcDbPlaceHolder
280
     0
  0
DICTIONARYVAR
  5
35
102
{ACAD_REACTORS
330
34
102
}
330
34
100
DictionaryVariables
280
     0
  1
1
  0
DICTIONARYVAR
  5
B5E
102
{ACAD_REACTORS
330
34
102
}
330
34
100
DictionaryVariables
280
     0
  1
96
  0
DICTIONARY
  5
260
102
{ACAD_REACTORS
330
43
102
}
330
43
100
AcDbDictionary
  0
DICTIONARY
  5
2C
102
{ACAD_REACTORS
330
2B
102
}
330
2B
100
AcDbDictionary
  3
DWGSETTINGS
350
2D
  0
XRECORD
  5
2247
102
{ACAD_REACTORS
330
2246
102
}
330
2246
100
AcDbXrecord
 90
        1
  0
XRECORD
  5
2248
102
{ACAD_REACTORS
330
2246
102
}
330
2246
100
AcDbXrecord
 90
       70
  0
XRECORD
  5
2249
102
{ACAD_REACTORS
330
2246
102
}
330
2246
100
AcDbXrecord
  1

  0
XRECORD
  5
224A
102
{ACAD_REACTORS
330
2246
102
}
330
2246
100
AcDbXrecord
  1
ASAMI.ctb
  0
XRECORD
  5
224B
102
{ACAD_REACTORS
330
2246
102
}
330
2246
100
AcDbXrecord
340
1A
  0
XRECORD
  5
224C
102
{ACAD_REACTORS
330
2246
102
}
330
2246
100
AcDbXrecord
340
19
  0
XRECORD
  5
224D
102
{ACAD_REACTORS
330
2246
102
}
330
2246
100
AcDbXrecord
340
E
  0
XRECORD
  5
224E
102
{ACAD_REACTORS
330
2246
102
}
330
2246
100
AcDbXrecord
 90
    10781
  0
XRECORD
  5
224F
102
{ACAD_REACTORS
330
2246
102
}
330
2246
100
AcDbXrecord
 90
        4
  0
XRECORD
  5
2250
102
{ACAD_REACTORS
330
2246
102
}
330
2246
100
AcDbXrecord
 90
        0
  0
XRECORD
  5
2251
102
{ACAD_REACTORS
330
2246
102
}
330
2246
100
AcDbXrecord
  1
{AFB28963-8C59-40AE-9337-C84526B81ACE}
  0
XRECORD
  5
2252
102
{ACAD_REACTORS
330
2246
102
}
330
2246
100
AcDbXrecord
  1
{279BC142-23FD-4062-AC01-BF776ECEC48F}
  0
XRECORD
  5
2253
102
{ACAD_REACTORS
330
2246
102
}
330
2246
100
AcDbXrecord
 40
0.0
  0
XRECORD
  5
2254
102
{ACAD_REACTORS
330
2246
102
}
330
2246
100
AcDbXrecord
1000
DSTYLE
1002
{
1070
    79
 70
     2
1070
   341
340
59
1070
   342
340
59
1070
   371
 70
    -1
1070
   372
 70
    -1
1002
}
  0
XRECORD
  5
2255
102
{ACAD_REACTORS
330
2246
102
}
330
2246
100
AcDbXrecord
340
0
  0
XRECORD
  5
2256
102
{ACAD_REACTORS
330
2246
102
}
330
2246
100
AcDbXrecord
 70
     0
  0
XRECORD
  5
2257
102
{ACAD_REACTORS
330
2246
102
}
330
2246
100
AcDbXrecord
340
0
  0
XRECORD
  5
2258
102
{ACAD_REACTORS
330
2246
102
}
330
2246
100
AcDbXrecord
 10
0.0
 20
0.0
 30
0.0
  0
XRECORD
  5
2259
102
{ACAD_REACTORS
330
2246
102
}
330
2246
100
AcDbXrecord
 10
0.0
 20
0.0
 30
0.0
  0
XRECORD
  5
225A
102
{ACAD_REACTORS
330
2246
102
}
330
2246
100
AcDbXrecord
 10
0.0
 20
0.0
 30
0.0
  0
XRECORD
  5
225B
102
{ACAD_REACTORS
330
2246
102
}
330
2246
100
AcDbXrecord
 10
0.0
 20
0.0
 30
0.0
  0
XRECORD
  5
225C
102
{ACAD_REACTORS
330
2246
102
}
330
2246
100
AcDbXrecord
 10
0.0
 20
0.0
 30
0.0
  0
XRECORD
  5
225D
102
{ACAD_REACTORS
330
2246
102
}
330
2246
100
AcDbXrecord
 10
0.0
 20
0.0
 30
0.0
  0
XRECORD
  5
225E
102
{ACAD_REACTORS
330
2246
102
}
330
2246
100
AcDbXrecord
340
0
  0
XRECORD
  5
225F
102
{ACAD_REACTORS
330
2246
102
}
330
2246
100
AcDbXrecord
 70
     0
  0
XRECORD
  5
2260
102
{ACAD_REACTORS
330
2246
102
}
330
2246
100
AcDbXrecord
340
0
  0
XRECORD
  5
2261
102
{ACAD_REACTORS
330
2246
102
}
330
2246
100
AcDbXrecord
 10
0.0
 20
0.0
 30
0.0
  0
XRECORD
  5
2262
102
{ACAD_REACTORS
330
2246
102
}
330
2246
100
AcDbXrecord
 10
0.0
 20
0.0
 30
0.0
  0
XRECORD
  5
2263
102
{ACAD_REACTORS
330
2246
102
}
330
2246
100
AcDbXrecord
 10
0.0
 20
0.0
 30
0.0
  0
XRECORD
  5
2264
102
{ACAD_REACTORS
330
2246
102
}
330
2246
100
AcDbXrecord
 10
0.0
 20
0.0
 30
0.0
  0
XRECORD
  5
2265
102
{ACAD_REACTORS
330
2246
102
}
330
2246
100
AcDbXrecord
 10
0.0
 20
0.0
 30
0.0
  0
XRECORD
  5
2266
102
{ACAD_REACTORS
330
2246
102
}
330
2246
100
AcDbXrecord
 10
0.0
 20
0.0
 30
0.0
  0
LAYER_INDEX
  5
223C
102
{ACAD_REACTORS
330
223B
102
}
330
223B
100
AcDbIndex
 40
2453151.676634097
100
AcDbLayerIndex
  8
0
360
223D
 90
        0
  8
AM_0
360
223E
 90
       54
  8
AM_7
360
223F
 90
        1
  8
AM_11
360
2240
 90
       23
  8
AM_5
360
2241
 90
        5
  8
Defpoints
360
2242
 90
        0
  8
AM_6
360
2243
 90
        1
  8
AM_CL
360
2244
 90
        0
  0
XRECORD
  5
2D
102
{ACAD_REACTORS
330
2C
102
}
330
2C
100
AcDbXrecord
  1
VERSION
140
15.0
  1
PRODUCT
  2
AutoCAD Mechanical 2000
  0
IDBUFFER
  5
223D
330
0
100
AcDbIdBuffer
  0
IDBUFFER
  5
223E
330
0
100
AcDbIdBuffer
330
20AC
330
20AD
330
20AE
330
20AF
330
20B0
330
20B1
330
C30
330
1CF0
330
1CF4
330
1CF9
330
1CFD
330
1CFE
330
1D1A
330
1D86
330
1D87
330
1E7A
330
1E7B
330
1E7C
330
1E7D
330
1E7E
330
1E7F
330
1E92
330
1E94
330
1E9B
330
1E9C
330
1E9D
330
1E9E
330
1EA4
330
1EA5
330
1EA6
330
1EA7
330
1EA8
330
1EA9
330
1EAA
330
1EAB
330
1EAC
330
1EAF
330
1EB3
330
1EB4
330
1EB5
330
1EB6
330
1EB7
330
1EC6
330
1EC7
330
1EC8
330
20A3
330
20A4
330
20A5
330
20A6
330
20A7
330
20A8
330
20A9
330
20AA
330
20AB
  0
IDBUFFER
  5
223F
330
0
100
AcDbIdBuffer
330
C9F
  0
IDBUFFER
  5
2240
330
0
100
AcDbIdBuffer
330
1D02
330
1E95
330
1E96
330
1E97
330
1E98
330
1E99
330
1E9A
330
144A
330
144B
330
144E
330
144F
330
1450
330
1451
330
1452
330
1453
330
1454
330
1C02
330
1C03
330
1C04
330
1C05
330
1CFF
330
1D00
330
1D01
  0
IDBUFFER
  5
2241
330
0
100
AcDbIdBuffer
330
CC6
330
DF5
330
1E80
330
1ED0
330
2119
  0
IDBUFFER
  5
2242
330
0
100
AcDbIdBuffer
  0
IDBUFFER
  5
2243
330
0
100
AcDbIdBuffer
330
19BD
  0
IDBUFFER
  5
2244
330
0
100
AcDbIdBuffer
  0
ENDSEC
  0
EOF
