  0
SECTION
  2
HEADER
  9
$ACADVER
  1
AC1014
  9
$ACADMAINTVER
 70
     9
  9
$DWGCODEPAGE
  3
ANSI_932
  9
$INSBASE
 10
0.0
 20
0.0
 30
0.0
  9
$EXTMIN
 10
-100.400001
 20
-26.75001206798985
 30
-0.00000001
  9
$EXTMAX
 10
14.56429417212128
 20
14.155829656515
 30
0.00000001
  9
$LIMMIN
 10
-126.9722917054209
 20
-47.01556391205523
  9
$LIMMAX
 10
22.8581825236518
 20
32.61046322322207
  9
$ORTHOMODE
 70
     0
  9
$REGENMODE
 70
     1
  9
$FILLMODE
 70
     1
  9
$QTEXTMODE
 70
     0
  9
$MIRRTEXT
 70
     0
  9
$DRAGMODE
 70
     2
  9
$LTSCALE
 40
1.0
  9
$OSMODE
 70
    55
  9
$ATTMODE
 70
     1
  9
$TEXTSIZE
 40
2.5
  9
$TRACEWID
 40
1.0
  9
$TEXTSTYLE
  7
STANDARD
  9
$CLAYER
  8
AM_0
  9
$CELTYPE
  6
BYLAYER
  9
$CECOLOR
 62
   256
  9
$CELTSCALE
 40
1.0
  9
$DELOBJ
 70
     1
  9
$DISPSILH
 70
     0
  9
$DIMSCALE
 40
0.5
  9
$DIMASZ
 40
2.5
  9
$DIMEXO
 40
1.0
  9
$DIMDLI
 40
12.0
  9
$DIMRND
 40
0.0
  9
$DIMDLE
 40
0.0
  9
$DIMEXE
 40
1.0
  9
$DIMTP
 40
0.1
  9
$DIMTM
 40
0.1
  9
$DIMTXT
 40
3.2
  9
$DIMCEN
 40
0.0
  9
$DIMTSZ
 40
0.0
  9
$DIMTOL
 70
     0
  9
$DIMLIM
 70
     0
  9
$DIMTIH
 70
     0
  9
$DIMTOH
 70
     0
  9
$DIMSE1
 70
     0
  9
$DIMSE2
 70
     0
  9
$DIMTAD
 70
     3
  9
$DIMZIN
 70
     8
  9
$DIMBLK
  1
OPEN30
  9
$DIMASO
 70
     1
  9
$DIMSHO
 70
     1
  9
$DIMPOST
  1

  9
$DIMAPOST
  1
"
  9
$DIMALT
 70
     0
  9
$DIMALTD
 70
     2
  9
$DIMALTF
 40
0.0393701
  9
$DIMLFAC
 40
1.0
  9
$DIMTOFL
 70
     1
  9
$DIMTVP
 40
0.0
  9
$DIMTIX
 70
     0
  9
$DIMSOXD
 70
     0
  9
$DIMSAH
 70
     0
  9
$DIMBLK1
  1

  9
$DIMBLK2
  1

  9
$DIMSTYLE
  2
AM_JIS
  9
$DIMCLRD
 70
   256
  9
$DIMCLRE
 70
   256
  9
$DIMCLRT
 70
     2
  9
$DIMTFAC
 40
0.71
  9
$DIMGAP
 40
1.5
  9
$DIMJUST
 70
     0
  9
$DIMSD1
 70
     0
  9
$DIMSD2
 70
     0
  9
$DIMTOLJ
 70
     0
  9
$DIMTZIN
 70
     0
  9
$DIMALTZ
 70
     0
  9
$DIMALTTZ
 70
     0
  9
$DIMFIT
 70
     3
  9
$DIMUPT
 70
     0
  9
$DIMUNIT
 70
     2
  9
$DIMDEC
 70
     3
  9
$DIMTDEC
 70
     3
  9
$DIMALTU
 70
     2
  9
$DIMALTTD
 70
     2
  9
$DIMTXSTY
  7
ASAMI
  9
$DIMAUNIT
 70
     0
  9
$LUNITS
 70
     2
  9
$LUPREC
 70
     2
  9
$SKETCHINC
 40
1.0
  9
$FILLETRAD
 40
2.5
  9
$AUNITS
 70
     0
  9
$AUPREC
 70
     0
  9
$MENU
  1
.
  9
$ELEVATION
 40
0.0
  9
$PELEVATION
 40
0.0
  9
$THICKNESS
 40
0.0
  9
$LIMCHECK
 70
     0
  9
$BLIPMODE
 70
     0
  9
$CHAMFERA
 40
0.5
  9
$CHAMFERB
 40
0.5
  9
$CHAMFERC
 40
20.0
  9
$CHAMFERD
 40
0.0
  9
$SKPOLY
 70
     0
  9
$TDCREATE
 40
2452800.443498622
  9
$TDUPDATE
 40
2453151.569224884
  9
$TDINDWG
 40
0.0795408333
  9
$TDUSRTIMER
 40
0.0795408333
  9
$USRTIMER
 70
     1
  9
$ANGBASE
 50
0.0
  9
$ANGDIR
 70
     0
  9
$PDMODE
 70
     3
  9
$PDSIZE
 40
0.0
  9
$PLINEWID
 40
0.0
  9
$COORDS
 70
     1
  9
$SPLFRAME
 70
     0
  9
$SPLINETYPE
 70
     6
  9
$SPLINESEGS
 70
     8
  9
$ATTDIA
 70
     1
  9
$ATTREQ
 70
     1
  9
$HANDLING
 70
 12289
  9
$HANDSEED
  5
2FE0
  9
$SURFTAB1
 70
     6
  9
$SURFTAB2
 70
     6
  9
$SURFTYPE
 70
     6
  9
$SURFU
 70
     6
  9
$SURFV
 70
     6
  9
$UCSNAME
  2

  9
$UCSORG
 10
0.0
 20
0.0
 30
0.0
  9
$UCSXDIR
 10
1.0
 20
0.000000000000002
 30
0.0
  9
$UCSYDIR
 10
-0.000000000000002
 20
1.0
 30
0.0
  9
$PUCSNAME
  2

  9
$PUCSORG
 10
0.0
 20
0.0
 30
0.0
  9
$PUCSXDIR
 10
1.0
 20
0.0
 30
0.0
  9
$PUCSYDIR
 10
0.0
 20
1.0
 30
0.0
  9
$USERI1
 70
     0
  9
$USERI2
 70
     0
  9
$USERI3
 70
     0
  9
$USERI4
 70
     0
  9
$USERI5
 70
     0
  9
$USERR1
 40
0.0
  9
$USERR2
 40
0.0
  9
$USERR3
 40
0.0
  9
$USERR4
 40
0.0
  9
$USERR5
 40
0.0
  9
$WORLDVIEW
 70
     1
  9
$SHADEDGE
 70
     3
  9
$SHADEDIF
 70
    70
  9
$TILEMODE
 70
     1
  9
$MAXACTVP
 70
    64
  9
$PINSBASE
 10
0.0
 20
0.0
 30
0.0
  9
$PLIMCHECK
 70
     0
  9
$PEXTMIN
 10
1.000000000000000E+20
 20
1.000000000000000E+20
 30
1.000000000000000E+20
  9
$PEXTMAX
 10
-1.000000000000000E+20
 20
-1.000000000000000E+20
 30
-1.000000000000000E+20
  9
$PLIMMIN
 10
0.0
 20
0.0
  9
$PLIMMAX
 10
841.0
 20
594.0
  9
$UNITMODE
 70
     0
  9
$VISRETAIN
 70
     1
  9
$PLINEGEN
 70
     0
  9
$PSLTSCALE
 70
     0
  9
$TREEDEPTH
 70
  3020
  9
$PICKSTYLE
 70
     0
  9
$CMLSTYLE
  2
STANDARD
  9
$CMLJUST
 70
     0
  9
$CMLSCALE
 40
20.0
  9
$PROXYGRAPHICS
 70
     1
  9
$MEASUREMENT
 70
     1
  0
ENDSEC
  0
SECTION
  2
CLASSES
  0
CLASS
  1
ACDBDICTIONARYWDFLT
  2
AcDbDictionaryWithDefault
  3
AutoCAD 2000
 90
        0
280
     0
281
     0
  0
CLASS
  1
ACDBPLACEHOLDER
  2
AcDbPlaceHolder
  3
AutoCAD 2000
 90
        0
280
     0
281
     0
  0
CLASS
  1
LAYOUT
  2
AcDbLayout
  3
AutoCAD 2000
 90
        0
280
     0
281
     0
  0
CLASS
  1
AMGSETTINGSOBJ
  2
AmgSettingsObj
  3
"AcadM|Product Description: AutoCAD Mechanical 2000|Company: Autodesk"
 90
        0
280
     0
281
     0
  0
CLASS
  1
ACME_DOCUMENT
  2
AcMeDbDoc
  3
AcMeServices
 90
        0
280
     0
281
     0
  0
CLASS
  1
ACMESCOPE
  2
AcMeScope
  3
AcMeServices
 90
        0
280
     0
281
     0
  0
CLASS
  1
ACMECOMMANDHISTORY
  2
AcMeCommandHistory
  3
AcMeServices
 90
        0
280
     0
281
     0
  0
CLASS
  1
DICTIONARYVAR
  2
AcDbDictionaryVar
  3
AutoCAD 2000
 90
        0
280
     0
281
     0
  0
CLASS
  1
ACIMSYSVARMAN
  2
AcImSysVarManager
  3
AcMeServices
 90
        0
280
     0
281
     0
  0
CLASS
  1
ACIMREALSYSVAR
  2
AcImRealSysVar
  3
AcMeServices
 90
        0
280
     0
281
     0
  0
CLASS
  1
ACIMINTSYSVAR
  2
AcImIntSysVar
  3
AcMeServices
 90
        0
280
     0
281
     0
  0
CLASS
  1
ACMEDRAWINGMAN
  2
AcMeDrawingMan
  3
AcMeServices
 90
        0
280
     0
281
     0
  0
CLASS
  1
ACMEVIEW
  2
AcMeView
  3
AcMeServices
 90
        0
280
     0
281
     0
  0
CLASS
  1
ACDBENTITYCACHE
  2
AcMeEntityCache
  3
AcMeServices
 90
        0
280
     0
281
     0
  0
CLASS
  1
GSMANAGER
  2
AcMeGSManager
  3
AcMeServices
 90
        0
280
     0
281
     0
  0
CLASS
  1
AmdtInternalReactor
  2
AmdtInternalReactor
  3
AcMeServices
 90
        0
280
     0
281
     0
  0
CLASS
  1
ACMESTATEMGR
  2
AcMeStateMgr
  3
AcMeServices
 90
        0
280
     0
281
     0
  0
CLASS
  1
ACME_DATABASE
  2
AcMeDbDatabase
  3
AcMeServices
 90
        0
280
     0
281
     0
  0
CLASS
  1
ACRFINSADJUSTERMGR
  2
AcRfInsAdjusterMgr
  3
AcMeServices
 90
        0
280
     0
281
     0
  0
CLASS
  1
ACMDATADICTIONARY
  2
AcmDataDictionary
  3
"AcmSymBB|Product Description: AutoCAD Mechanical 2000|Company: Autodesk"
 90
        0
280
     0
281
     0
  0
CLASS
  1
ACMDATAENTRYBLOCK
  2
AcmDataEntryBlock
  3
"AcmSymBB|Product Description: AutoCAD Mechanical 2000|Company: Autodesk"
 90
        0
280
     0
281
     0
  0
CLASS
  1
AMGOBJPROPCFG
  2
AmgObjPropCfg
  3
"AmgLay|Product Description: AutoCAD Mechanical 2000|Company: Autodesk"
 90
        1
280
     0
281
     0
  0
CLASS
  1
ACAMGFILTERDAT
  2
AcAmgFilterDat
  3
"AcadM|Product Description: AutoCAD Mechanical 2000|Company: Autodesk"
 90
        0
280
     0
281
     0
  0
CLASS
  1
LAYER_INDEX
  2
AcDbLayerIndex
  3
AutoCAD 2000
 90
        0
280
     0
281
     0
  0
CLASS
  1
IDBUFFER
  2
AcDbIdBuffer
  3
AutoCAD 2000
 90
        0
280
     0
281
     0
  0
CLASS
  1
ACIMSTRSYSVAR
  2
AcImStrSysVar
  3
AcMeServices
 90
        0
280
     0
281
     0
  0
CLASS
  1
ACMSTANDARDJIS
  2
AcmStandardJIS
  3
"AcmSymBB|Product Description: AutoCAD Mechanical 2000|Company: Autodesk"
 90
        0
280
     0
281
     0
  0
CLASS
  1
ACMSURFSTANDARDJIS
  2
AcmSurfTextStdJIS
  3
"AcmSymBB|Product Description: AutoCAD Mechanical 2000|Company: Autodesk"
 90
        0
280
     0
281
     0
  0
CLASS
  1
ACMFCFSTANDARDJIS
  2
AcmFCFStdJIS
  3
"AcmSymBB|Product Description: AutoCAD Mechanical 2000|Company: Autodesk"
 90
        0
280
     0
281
     0
  0
CLASS
  1
ACMWELDSTANDARDJIS
  2
AcmWeldingStdJIS
  3
"AcmSymBB|Product Description: AutoCAD Mechanical 2000|Company: Autodesk"
 90
        0
280
     0
281
     0
  0
CLASS
  1
ACMIDSTANDARDJIS
  2
AcmIdStdJIS
  3
"AcmSymBB|Product Description: AutoCAD Mechanical 2000|Company: Autodesk"
 90
        0
280
     0
281
     0
  0
CLASS
  1
ACMDATUMSTANDARDJIS
  2
AcmDatumStdJIS
  3
"AcmSymBB|Product Description: AutoCAD Mechanical 2000|Company: Autodesk"
 90
        0
280
     0
281
     0
  0
CLASS
  1
ACMBOMSTANDARDJIS
  2
AcmBOMStdJIS
  3
"AcmSymBB|Product Description: AutoCAD Mechanical 2000|Company: Autodesk"
 90
        0
280
     0
281
     0
  0
CLASS
  1
ACMSTANDARDANSI
  2
AcmStandardANSI
  3
"AcmSymBB|Product Description: AutoCAD Mechanical 2000|Company: Autodesk"
 90
        0
280
     0
281
     0
  0
CLASS
  1
ACMSURFSTANDARDANSI
  2
AcmSurfTextStdANSI
  3
"AcmSymBB|Product Description: AutoCAD Mechanical 2000|Company: Autodesk"
 90
        0
280
     0
281
     0
  0
CLASS
  1
ACMFCFSTANDARDANSI
  2
AcmFCFStdANSI
  3
"AcmSymBB|Product Description: AutoCAD Mechanical 2000|Company: Autodesk"
 90
        0
280
     0
281
     0
  0
CLASS
  1
ACMWELDSTANDARDANSI
  2
AcmWeldingStdANSI
  3
"AcmSymBB|Product Description: AutoCAD Mechanical 2000|Company: Autodesk"
 90
        0
280
     0
281
     0
  0
CLASS
  1
ACMIDSTANDARDANSI
  2
AcmIdStdANSI
  3
"AcmSymBB|Product Description: AutoCAD Mechanical 2000|Company: Autodesk"
 90
        0
280
     0
281
     0
  0
CLASS
  1
ACMDATUMSTANDARDANSI
  2
AcmDatumStdANSI
  3
"AcmSymBB|Product Description: AutoCAD Mechanical 2000|Company: Autodesk"
 90
        0
280
     0
281
     0
  0
CLASS
  1
ACMBOMSTANDARDANSI
  2
AcmBOMStdANSI
  3
"AcmSymBB|Product Description: AutoCAD Mechanical 2000|Company: Autodesk"
 90
        0
280
     0
281
     0
  0
CLASS
  1
ACMSTANDARDBSI
  2
AcmStandardBSI
  3
"AcmSymBB|Product Description: AutoCAD Mechanical 2000|Company: Autodesk"
 90
        0
280
     0
281
     0
  0
CLASS
  1
ACMSURFSTANDARDBSI
  2
AcmSurfTextStdBSI
  3
"AcmSymBB|Product Description: AutoCAD Mechanical 2000|Company: Autodesk"
 90
        0
280
     0
281
     0
  0
CLASS
  1
ACMFCFSTANDARDBSI
  2
AcmFCFStdBSI
  3
"AcmSymBB|Product Description: AutoCAD Mechanical 2000|Company: Autodesk"
 90
        0
280
     0
281
     0
  0
CLASS
  1
ACMWELDSTANDARDBSI
  2
AcmWeldingStdBSI
  3
"AcmSymBB|Product Description: AutoCAD Mechanical 2000|Company: Autodesk"
 90
        0
280
     0
281
     0
  0
CLASS
  1
ACMIDSTANDARDBSI
  2
AcmIdStdBSI
  3
"AcmSymBB|Product Description: AutoCAD Mechanical 2000|Company: Autodesk"
 90
        0
280
     0
281
     0
  0
CLASS
  1
ACMDATUMSTANDARDBSI
  2
AcmDatumStdBSI
  3
"AcmSymBB|Product Description: AutoCAD Mechanical 2000|Company: Autodesk"
 90
        0
280
     0
281
     0
  0
CLASS
  1
ACMBOMSTANDARDBSI
  2
AcmBOMStdBSI
  3
"AcmSymBB|Product Description: AutoCAD Mechanical 2000|Company: Autodesk"
 90
        0
280
     0
281
     0
  0
CLASS
  1
LONG_TRANSACTION
  2
AcDbLongTransaction
  3
AutoCAD 2000
 90
        0
280
     0
281
     0
  0
CLASS
  1
LWPOLYLINE
  2
AcDbPolyline
  3
AutoCAD 2000
 90
        0
280
     0
281
     1
  0
CLASS
  1
HATCH
  2
AcDbHatch
  3
AutoCAD 2000
 90
        0
280
     0
281
     1
  0
CLASS
  1
XRECORD
  2
AcDbXrecord
  3
AutoCAD 2000
 90
        0
280
     0
281
     0
  0
ENDSEC
  0
SECTION
  2
TABLES
  0
TABLE
  2
VPORT
  5
8
330
0
100
AcDbSymbolTable
 70
     3
  0
VPORT
  5
2FAA
330
8
100
AcDbSymbolTableRecord
100
AcDbViewportTableRecord
  2
*ACTIVE
 70
     0
 10
0.0
 20
0.0
 11
1.0
 21
1.0
 12
-40.78720038490659
 22
-6.297377577772138
 13
0.0
 23
0.0
 14
2.5
 24
2.5
 15
10.0
 25
10.0
 16
0.0
 26
0.0
 36
1.0
 17
0.0
 27
0.0
 37
0.0
 40
76.52710482944943
 41
1.56570841889117
 42
50.0
 43
0.0
 44
0.0
 50
0.0
 51
0.0
 71
     0
 72
   100
 73
     1
 74
     1
 75
     0
 76
     0
 77
     0
 78
     0
  0
ENDTAB
  0
TABLE
  2
LTYPE
  5
5
330
0
100
AcDbSymbolTable
 70
    10
  0
LTYPE
  5
14
330
5
100
AcDbSymbolTableRecord
100
AcDbLinetypeTableRecord
  2
BYBLOCK
 70
     0
  3

 72
    65
 73
     0
 40
0.0
  0
LTYPE
  5
15
330
5
100
AcDbSymbolTableRecord
100
AcDbLinetypeTableRecord
  2
BYLAYER
 70
     0
  3

 72
    65
 73
     0
 40
0.0
  0
LTYPE
  5
16
330
5
100
AcDbSymbolTableRecord
100
AcDbLinetypeTableRecord
  2
CONTINUOUS
 70
     0
  3
Solid line
 72
    65
 73
     0
 40
0.0
  0
LTYPE
  5
4B
330
5
100
AcDbSymbolTableRecord
100
AcDbLinetypeTableRecord
  2
AM_ISO02W050
 70
     0
  3
__ __ __ __ __ __ __ __ __ __ __ __ __ __ __
 72
    65
 73
     2
 40
7.5
 49
6.0
 74
     0
 49
-1.5
 74
     0
  0
LTYPE
  5
4C
330
5
100
AcDbSymbolTableRecord
100
AcDbLinetypeTableRecord
  2
AM_ISO08W050
 70
     0
  3
____ . ____ . ____ . ____ . ____ . ____ . ____
 72
    65
 73
     4
 40
18.0
 49
12.0
 74
     0
 49
-1.5
 74
     0
 49
3.0
 74
     0
 49
-1.5
 74
     0
  0
LTYPE
  5
4D
330
5
100
AcDbSymbolTableRecord
100
AcDbLinetypeTableRecord
  2
AM_ISO09W050
 70
     0
  3
_____ . . _____ . . _____ . . ____ .. ____
 72
    65
 73
     6
 40
22.5
 49
12.0
 74
     0
 49
-1.5
 74
     0
 49
3.0
 74
     0
 49
-1.5
 74
     0
 49
3.0
 74
     0
 49
-1.5
 74
     0
  0
LTYPE
  5
4E
330
5
100
AcDbSymbolTableRecord
100
AcDbLinetypeTableRecord
  2
AMCONSTR
 70
     0
  3
_______________________
 72
    65
 73
     2
 40
9999.0
 49
9999.0
 74
     0
 49
0.0
 74
     0
  0
LTYPE
  5
4F
330
5
100
AcDbSymbolTableRecord
100
AcDbLinetypeTableRecord
  2
AM_ISO02W050X2
 70
     0
  3
 _ _ _ _ _ _ _ _ _ _ _ _
 72
    65
 73
     2
 40
3.75
 49
3.0
 74
     0
 49
-0.75
 74
     0
  0
LTYPE
  5
50
330
5
100
AcDbSymbolTableRecord
100
AcDbLinetypeTableRecord
  2
AM_ISO08W050X2
 70
     0
  3
__ . __ . __ . __ . __ . __
 72
    65
 73
     4
 40
9.0
 49
6.0
 74
     0
 49
-0.75
 74
     0
 49
1.5
 74
     0
 49
-0.75
 74
     0
  0
LTYPE
  5
53
330
5
100
AcDbSymbolTableRecord
100
AcDbLinetypeTableRecord
  2
AMZIGZAG
 70
     0
  3
/\/-/\/-/\/-/\/-/\/-/\/
 72
    65
 73
     2
 40
11.00009999999999
 49
0.0001
 74
     4
 75
   135
340
52
 46
0.04
 50
0.0
 44
0.0
 45
0.0
 49
-11.0
 74
     0
  0
LTYPE
  5
166
330
5
100
AcDbSymbolTableRecord
100
AcDbLinetypeTableRecord
  2
ACJISTGL
 70
     0
  3
_ _ _ _ _
 72
    65
 73
     2
 40
3.0
 49
2.0
 74
     0
 49
-1.0
 74
     0
  0
LTYPE
  5
26A
330
5
100
AcDbSymbolTableRecord
100
AcDbLinetypeTableRecord
  2
ACJISTGB
 70
     0
  3
__ . . __ . .
 72
    65
 73
     6
 40
9.0
 49
4.0
 74
     0
 49
-1.0
 74
     0
 49
1.0
 74
     0
 49
-1.0
 74
     0
 49
1.0
 74
     0
 49
-1.0
 74
     0
  0
ENDTAB
  0
TABLE
  2
LAYER
  5
2
330
0
100
AcDbSymbolTable
 70
     7
  0
LAYER
  5
10
330
2
100
AcDbSymbolTableRecord
100
AcDbLayerTableRecord
  2
0
 70
     0
 62
     7
  6
CONTINUOUS
  0
LAYER
  5
3F9
330
2
100
AcDbSymbolTableRecord
100
AcDbLayerTableRecord
  2
AM_0
 70
     0
 62
     7
  6
CONTINUOUS
  0
LAYER
  5
C7C
330
2
100
AcDbSymbolTableRecord
100
AcDbLayerTableRecord
  2
AM_7
 70
     0
 62
     4
  6
AM_ISO08W050
  0
LAYER
  5
C97
330
2
100
AcDbSymbolTableRecord
100
AcDbLayerTableRecord
  2
AM_11
 70
     0
 62
     3
  6
AM_ISO09W050
  0
LAYER
  5
CC5
330
2
100
AcDbSymbolTableRecord
100
AcDbLayerTableRecord
  2
AM_5
 70
     0
 62
     3
  6
CONTINUOUS
  0
LAYER
  5
CC7
330
2
100
AcDbSymbolTableRecord
100
AcDbLayerTableRecord
  2
DEFPOINTS
 70
     0
 62
     7
  6
CONTINUOUS
  0
LAYER
  5
19BC
330
2
100
AcDbSymbolTableRecord
100
AcDbLayerTableRecord
  2
AM_6
 70
     0
 62
     2
  6
CONTINUOUS
  0
ENDTAB
  0
TABLE
  2
STYLE
  5
3
330
0
100
AcDbSymbolTable
 70
     5
  0
STYLE
  5
11
330
3
100
AcDbSymbolTableRecord
100
AcDbTextStyleTableRecord
  2
STANDARD
 70
     0
 40
0.0
 41
1.0
 50
0.0
 71
     0
 42
2.5
  3
simplex.shx
  4
EXTFONT.SHX
  0
STYLE
  5
52
330
3
100
AcDbSymbolTableRecord
100
AcDbTextStyleTableRecord
  2

 70
     1
 40
0.0
 41
1.0
 50
0.0
 71
     0
 42
2.5
  3
ltypeshp.shx
  4

  0
STYLE
  5
6B
330
3
100
AcDbSymbolTableRecord
100
AcDbTextStyleTableRecord
  2
ASAMI
 70
     0
 40
0.0
 41
1.0
 50
0.0
 71
     0
 42
2.5
  3
simplex.shx
  4
EXTFONT.SHX
  0
STYLE
  5
262
330
3
100
AcDbSymbolTableRecord
100
AcDbTextStyleTableRecord
  2
ACJISTS
 70
     0
 40
1.0
 41
1.0
 50
0.0
 71
     0
 42
2.5
  3
simplex.shx
  4
bigfont.shx
  0
STYLE
  5
269
330
3
100
AcDbSymbolTableRecord
100
AcDbTextStyleTableRecord
  2
ACJISGDT
 70
     0
 40
0.0
 41
1.0
 50
0.0
 71
     0
 42
2.5
  3
amgdtans.shx
  4

  0
ENDTAB
  0
TABLE
  2
VIEW
  5
6
330
0
100
AcDbSymbolTable
 70
     0
  0
ENDTAB
  0
TABLE
  2
UCS
  5
7
330
0
100
AcDbSymbolTable
 70
     0
  0
ENDTAB
  0
TABLE
  2
APPID
  5
9
330
0
100
AcDbSymbolTable
 70
    16
  0
APPID
  5
12
330
9
100
AcDbSymbolTableRecord
100
AcDbRegAppTableRecord
  2
ACAD
 70
     0
  0
APPID
  5
30
330
9
100
AcDbSymbolTableRecord
100
AcDbRegAppTableRecord
  2
MCAD_NO_VIS
 70
     0
  0
APPID
  5
31
330
9
100
AcDbSymbolTableRecord
100
AcDbRegAppTableRecord
  2
ACAD_TEMP_GRAPHIC
 70
     0
  0
APPID
  5
2C2
330
9
100
AcDbSymbolTableRecord
100
AcDbRegAppTableRecord
  2
GENIUS_GENDTOL_13
 70
     0
  0
APPID
  5
339
330
9
100
AcDbSymbolTableRecord
100
AcDbRegAppTableRecord
  2
GENIUS_GENODEF_13
 70
     0
  0
APPID
  5
33A
330
9
100
AcDbSymbolTableRecord
100
AcDbRegAppTableRecord
  2
GENIUS_GENOBJ-N-RSBK_13
 70
     0
  0
APPID
  5
33B
330
9
100
AcDbSymbolTableRecord
100
AcDbRegAppTableRecord
  2
GENIUS_GENOBJ-N-LIB_13
 70
     0
  0
APPID
  5
33C
330
9
100
AcDbSymbolTableRecord
100
AcDbRegAppTableRecord
  2
GENIUS_GENSCALE_13
 70
     0
  0
APPID
  5
378
330
9
100
AcDbSymbolTableRecord
100
AcDbRegAppTableRecord
  2
GENIUS_GENDIMSH_14
 70
     0
  0
APPID
  5
C82
330
9
100
AcDbSymbolTableRecord
100
AcDbRegAppTableRecord
  2
GENIUS_GENOBJ-N-CRS_13
 70
     0
  0
APPID
  5
C83
330
9
100
AcDbSymbolTableRecord
100
AcDbRegAppTableRecord
  2
GENIUS_GENOENT_13
 70
     0
  0
APPID
  5
C84
330
9
100
AcDbSymbolTableRecord
100
AcDbRegAppTableRecord
  2
GENIUS_GENOREF_13
 70
     0
  0
APPID
  5
C85
330
9
100
AcDbSymbolTableRecord
100
AcDbRegAppTableRecord
  2
GENIUS_GENOLIS_13
 70
     0
  0
APPID
  5
CA0
330
9
100
AcDbSymbolTableRecord
100
AcDbRegAppTableRecord
  2
GENIUS_GENOBJ-N-CEN_13
 70
     0
  0
APPID
  5
1CFA
330
9
100
AcDbSymbolTableRecord
100
AcDbRegAppTableRecord
  2
GENIUS_GENFIL_13
 70
     0
  0
APPID
  5
1CFB
330
9
100
AcDbSymbolTableRecord
100
AcDbRegAppTableRecord
  2
GENIUS_GENOBJ-N-CHA_13
 70
     0
  0
ENDTAB
  0
TABLE
  2
DIMSTYLE
  5
A
330
0
100
AcDbSymbolTable
 70
     9
  0
DIMSTYLE
105
58
330
A
100
AcDbSymbolTableRecord
100
AcDbDimStyleTableRecord
  2
AM_JIS
 70
     0
  3

  4
"
  5
OPEN30
  6

  7

 40
0.5
 41
2.5
 42
1.0
 43
12.0
 44
1.0
 45
0.0
 46
0.0
 47
0.1
 48
0.1
140
3.2
141
0.0
142
0.0
143
0.0393701
144
1.0
145
0.0
146
0.71
147
1.5
 71
     0
 72
     0
 73
     0
 74
     0
 75
     0
 76
     0
 77
     3
 78
     8
170
     0
171
     2
172
     1
173
     0
174
     0
175
     0
176
   256
177
   256
178
     2
270
     2
271
     3
272
     3
273
     2
274
     2
340
6B
275
     0
280
     0
281
     0
282
     0
283
     0
284
     0
285
     0
286
     0
287
     3
288
     0
  0
DIMSTYLE
105
5F
330
A
100
AcDbSymbolTableRecord
100
AcDbDimStyleTableRecord
  2
AM_JIS$3
 70
     0
  3

  4
"
  5
OPEN30
  6

  7

 40
0.5
 41
2.5
 42
1.0
 43
10.0
 44
1.0
 45
0.0
 46
0.0
 47
0.1
 48
0.1
140
3.2
141
0.0
142
0.0
143
0.0393701
144
1.0
145
0.0
146
0.71
147
1.5
 71
     0
 72
     0
 73
     0
 74
     1
 75
     0
 76
     0
 77
     3
 78
     8
170
     0
171
     2
172
     0
173
     0
174
     0
175
     0
176
   256
177
   256
178
     2
270
     2
271
     2
272
     3
273
     2
274
     2
340
6B
275
     0
280
     0
281
     0
282
     0
283
     0
284
     0
285
     0
286
     0
287
     0
288
     1
  0
DIMSTYLE
105
60
330
A
100
AcDbSymbolTableRecord
100
AcDbDimStyleTableRecord
  2
AM_JIS$4
 70
     0
  3

  4
"
  5
OPEN30
  6

  7

 40
0.5
 41
2.5
 42
1.0
 43
10.0
 44
1.0
 45
0.0
 46
0.0
 47
0.1
 48
0.1
140
3.2
141
0.0
142
0.0
143
0.0393701
144
1.0
145
0.0
146
0.71
147
1.5
 71
     0
 72
     0
 73
     0
 74
     1
 75
     0
 76
     0
 77
     3
 78
     8
170
     0
171
     2
172
     0
173
     0
174
     0
175
     0
176
   256
177
   256
178
     2
270
     2
271
     2
272
     3
273
     2
274
     2
340
6B
275
     0
280
     0
281
     0
282
     0
283
     0
284
     0
285
     0
286
     0
287
     0
288
     1
  0
DIMSTYLE
105
61
330
A
100
AcDbSymbolTableRecord
100
AcDbDimStyleTableRecord
  2
AM_JIS$6
 70
     0
  3

  4
"
  5
OPEN30
  6

  7

 40
0.5
 41
2.5
 42
1.0
 43
10.0
 44
1.0
 45
0.0
 46
0.0
 47
0.1
 48
0.1
140
3.2
141
0.0
142
0.0
143
0.0393701
144
1.0
145
0.0
146
0.71
147
1.5
 71
     0
 72
     0
 73
     0
 74
     0
 75
     0
 76
     0
 77
     0
 78
     8
170
     0
171
     2
172
     1
173
     0
174
     0
175
     0
176
   256
177
   256
178
     2
270
     2
271
     2
272
     2
273
     2
274
     2
340
6B
275
     0
280
     0
281
     0
282
     0
283
     0
284
     0
285
     0
286
     0
287
     3
288
     0
  0
DIMSTYLE
105
62
330
A
100
AcDbSymbolTableRecord
100
AcDbDimStyleTableRecord
  2
AM_JIS$7
 70
     0
  3

  4
"
  5
OPEN30
  6

  7

 40
0.5
 41
2.5
 42
1.0
 43
10.0
 44
1.0
 45
0.0
 46
0.0
 47
0.1
 48
0.1
140
3.2
141
0.0
142
0.0
143
0.0393701
144
1.0
145
0.0
146
0.71
147
1.5
 71
     0
 72
     0
 73
     0
 74
     0
 75
     0
 76
     0
 77
     3
 78
     8
170
     0
171
     2
172
     1
173
     0
174
     0
175
     0
176
   256
177
   256
178
     2
270
     2
271
     2
272
     3
273
     2
274
     2
340
6B
275
     0
280
     0
281
     0
282
     0
283
     0
284
     0
285
     0
286
     0
287
     3
288
     0
  0
DIMSTYLE
105
63
330
A
100
AcDbSymbolTableRecord
100
AcDbDimStyleTableRecord
  2
AM_JIS$SF
 70
     0
  3

  4
"
  5
OPEN30
  6

  7

 40
0.5
 41
2.5
 42
1.0
 43
10.0
 44
1.0
 45
0.0
 46
0.0
 47
0.1
 48
0.1
140
3.2
141
0.0
142
0.0
143
0.0393701
144
1.0
145
0.0
146
0.71
147
1.5
 71
     0
 72
     0
 73
     0
 74
     0
 75
     1
 76
     1
 77
     3
 78
     8
170
     0
171
     2
172
     1
173
     0
174
     0
175
     0
176
   256
177
   256
178
     2
270
     2
271
     2
272
     2
273
     2
274
     2
340
6B
275
     0
280
     0
281
     0
282
     0
283
     0
284
     0
285
     0
286
     0
287
     3
288
     0
  0
DIMSTYLE
105
68
330
A
100
AcDbSymbolTableRecord
100
AcDbDimStyleTableRecord
  2
AM_JIS$SH
 70
     0
  3

  4
"
  5

  6
GENAXEH
  7
OPEN30
 40
0.5
 41
2.5
 42
1.0
 43
10.0
 44
1.0
 45
0.0
 46
0.0
 47
0.1
 48
0.1
140
3.2
141
0.0
142
0.0
143
0.0393701
144
2.0
145
0.0
146
0.71
147
1.5
 71
     0
 72
     0
 73
     0
 74
     0
 75
     1
 76
     1
 77
     3
 78
     8
170
     0
171
     2
172
     1
173
     1
174
     0
175
     0
176
   256
177
   256
178
     2
270
     2
271
     2
272
     2
273
     2
274
     2
340
6B
275
     0
280
     0
281
     0
282
     0
283
     0
284
     0
285
     0
286
     0
287
     3
288
     0
  0
DIMSTYLE
105
B34
102
{ACAD_REACTORS
330
2577
102
}
330
A
100
AcDbSymbolTableRecord
100
AcDbDimStyleTableRecord
  2
AM_JIS$2
 70
     0
  3

  4
"
  5
OPEN30
  6

  7

 40
0.5
 41
2.5
 42
1.0
 43
12.0
 44
1.0
 45
0.0
 46
0.0
 47
0.1
 48
0.1
140
3.2
141
0.0
142
0.0
143
0.0393701
144
1.0
145
0.0
146
0.71
147
1.5
 71
     0
 72
     0
 73
     0
 74
     0
 75
     0
 76
     0
 77
     3
 78
     8
170
     0
171
     2
172
     1
173
     0
174
     0
175
     0
176
   256
177
   256
178
     2
270
     2
271
     3
272
     3
273
     2
274
     2
340
6B
275
     0
280
     0
281
     0
282
     0
283
     0
284
     0
285
     0
286
     0
287
     3
288
     0
  0
DIMSTYLE
105
BA5
102
{ACAD_REACTORS
330
CC6
330
DF5
330
1F93
330
2CA4
102
}
330
A
100
AcDbSymbolTableRecord
100
AcDbDimStyleTableRecord
  2
AM_JIS$0
 70
     0
  3

  4
"
  5
OPEN30
  6

  7

 40
0.5
 41
2.5
 42
0.0
 43
10.0
 44
1.0
 45
0.0
 46
0.0
 47
0.1
 48
0.1000000001
140
3.799999999999999
141
0.0
142
0.0
143
0.0393701
144
1.0
145
0.0
146
0.71
147
1.5
 71
     0
 72
     0
 73
     0
 74
     0
 75
     0
 76
     0
 77
     3
 78
     1
170
     0
171
     2
172
     1
173
     0
174
     0
175
     0
176
     3
177
     3
178
     2
270
     2
271
     2
272
     2
273
     2
274
     2
340
11
275
     1
280
     0
281
     0
282
     0
283
     0
284
     8
285
     0
286
     0
287
     0
288
     0
  0
ENDTAB
  0
TABLE
  2
BLOCK_RECORD
  5
1
330
0
100
AcDbSymbolTable
 70
    10
  0
BLOCK_RECORD
  5
1F
102
{ACAD_XDICTIONARY
360
74
102
}
330
1
100
AcDbSymbolTableRecord
100
AcDbBlockTableRecord
  2
*MODEL_SPACE
  0
BLOCK_RECORD
  5
101
102
{ACAD_XDICTIONARY
360
2FD3
102
}
330
1
100
AcDbSymbolTableRecord
100
AcDbBlockTableRecord
  2
*PAPER_SPACE
  0
BLOCK_RECORD
  5
59
330
1
100
AcDbSymbolTableRecord
100
AcDbBlockTableRecord
  2
_OPEN30
  0
BLOCK_RECORD
  5
64
330
1
100
AcDbSymbolTableRecord
100
AcDbBlockTableRecord
  2
GENAXEH
  0
BLOCK_RECORD
  5
CC8
330
1
100
AcDbSymbolTableRecord
100
AcDbBlockTableRecord
  2
*D5
  0
BLOCK_RECORD
  5
DF6
330
1
100
AcDbSymbolTableRecord
100
AcDbBlockTableRecord
  2
*D6
  0
BLOCK_RECORD
  5
1F94
330
1
100
AcDbSymbolTableRecord
100
AcDbBlockTableRecord
  2
*D7
  0
BLOCK_RECORD
  5
2578
330
1
100
AcDbSymbolTableRecord
100
AcDbBlockTableRecord
  2
*D8
  0
BLOCK_RECORD
  5
2CA5
330
1
100
AcDbSymbolTableRecord
100
AcDbBlockTableRecord
  2
*D9
  0
ENDTAB
  0
ENDSEC
  0
SECTION
  2
BLOCKS
  0
BLOCK
  5
20
330
1F
100
AcDbEntity
  8
0
100
AcDbBlockBegin
  2
*MODEL_SPACE
 70
     0
 10
0.0
 20
0.0
 30
0.0
  3
*MODEL_SPACE
  1

  0
ENDBLK
  5
21
330
1F
100
AcDbEntity
  8
0
100
AcDbBlockEnd
  0
BLOCK
  5
103
330
101
100
AcDbEntity
 67
     1
  8
0
100
AcDbBlockBegin
  2
*PAPER_SPACE
 70
     0
 10
0.0
 20
0.0
 30
0.0
  3
*PAPER_SPACE
  1

  0
ENDBLK
  5
104
330
101
100
AcDbEntity
 67
     1
  8
0
100
AcDbBlockEnd
  0
BLOCK
  5
5D
330
59
100
AcDbEntity
  8
0
100
AcDbBlockBegin
  2
_OPEN30
 70
     0
 10
0.0
 20
0.0
 30
0.0
  3
_OPEN30
  1

  0
LINE
  5
5A
330
59
100
AcDbEntity
  8
0
 62
     0
100
AcDbLine
 10
-1.0
 20
0.26794919
 30
0.0
 11
0.0
 21
0.0
 31
0.0
  0
LINE
  5
5B
330
59
100
AcDbEntity
  8
0
 62
     0
100
AcDbLine
 10
0.0
 20
0.0
 30
0.0
 11
-1.0
 21
-0.26794919
 31
0.0
  0
LINE
  5
5C
330
59
100
AcDbEntity
  8
0
 62
     0
100
AcDbLine
 10
0.0
 20
0.0
 30
0.0
 11
-1.0
 21
0.0
 31
0.0
  0
ENDBLK
  5
5E
330
59
100
AcDbEntity
  8
0
100
AcDbBlockEnd
  0
BLOCK
  5
66
330
64
100
AcDbEntity
  8
0
100
AcDbBlockBegin
  2
GENAXEH
 70
     0
 10
0.0
 20
0.0
 30
0.0
  3
GENAXEH
  1

  0
LINE
  5
65
330
64
100
AcDbEntity
  8
0
100
AcDbLine
 10
-1.0
 20
0.0
 30
0.0
 11
1.0
 21
0.0
 31
0.0
  0
ENDBLK
  5
67
330
64
100
AcDbEntity
  8
0
100
AcDbBlockEnd
  0
BLOCK
  5
CD2
330
CC8
100
AcDbEntity
  8
0
100
AcDbBlockBegin
  2
*D5
 70
     1
 10
0.0
 20
0.0
 30
0.0
  3
*D5
  1

  0
LINE
  5
2F58
330
CC8
100
AcDbEntity
  8
AM_5
 62
     3
100
AcDbLine
 10
-89.0
 20
-3.000000000000206
 30
0.0
 11
-89.0
 21
-16.00001206798981
 31
0.0
  0
LINE
  5
2F59
330
CC8
100
AcDbEntity
  8
AM_5
 62
     3
100
AcDbLine
 10
-1.000000000000055
 20
-3.400012796555078
 30
0.0
 11
-1.000000000000056
 21
-16.00001206798982
 31
0.0
  0
LINE
  5
2F5A
330
CC8
100
AcDbEntity
  8
AM_5
 62
     3
100
AcDbLine
 10
-87.75
 20
-15.50001206798982
 30
0.0
 11
-2.250000000000056
 21
-15.50001206798982
 31
0.0
  0
INSERT
  5
2F5B
330
CC8
100
AcDbEntity
  8
AM_5
 62
     3
100
AcDbBlockReference
  2
_OPEN30
 10
-89.0
 20
-15.50001206798982
 30
0.0
 41
1.25
 42
1.25
 43
1.25
 50
180.0
  0
INSERT
  5
2F5C
330
CC8
100
AcDbEntity
  8
AM_5
 62
     3
100
AcDbBlockReference
  2
_OPEN30
 10
-1.000000000000056
 20
-15.50001206798982
 30
0.0
 41
1.25
 42
1.25
 43
1.25
  0
MTEXT
  5
2F5D
330
CC8
100
AcDbEntity
  8
AM_5
 62
     2
100
AcDbMText
 10
-45.00000000000002
 20
-13.80001206798982
 30
0.0
 40
1.9
 41
0.0
 71
     5
 72
     1
  1
88
1001
ACAD
1000
MTEXTBEGIN
1070
    73
1070
     1
1070
    44
1040
1.0
1070
    74
1070
     0
1000
MTEXTEND
  0
POINT
  5
2F5E
330
CC8
100
AcDbEntity
  8
DEFPOINTS
 62
     0
100
AcDbPoint
 10
-89.0
 20
-3.000000000000206
 30
0.0
  0
POINT
  5
2F5F
330
CC8
100
AcDbEntity
  8
DEFPOINTS
 62
     0
100
AcDbPoint
 10
-1.000000000000055
 20
-3.400012796555078
 30
0.0
  0
POINT
  5
2F60
330
CC8
100
AcDbEntity
  8
DEFPOINTS
 62
     0
100
AcDbPoint
 10
-1.000000000000056
 20
-15.50001206798982
 30
0.0
  0
ENDBLK
  5
CD3
330
CC8
100
AcDbEntity
  8
0
100
AcDbBlockEnd
  0
BLOCK
  5
E00
330
DF6
100
AcDbEntity
  8
0
100
AcDbBlockBegin
  2
*D6
 70
     1
 10
0.0
 20
0.0
 30
0.0
  3
*D6
  1

  0
LINE
  5
2F75
330
DF6
100
AcDbEntity
  8
AM_5
 62
     3
100
AcDbLine
 10
-36.00000000000001
 20
-3.500000000000061
 30
0.0
 11
-36.00000000000001
 21
-11.00001206798978
 31
0.0
  0
LINE
  5
2F76
330
DF6
100
AcDbEntity
  8
AM_5
 62
     3
100
AcDbLine
 10
-1.000000000000055
 20
-3.400012796555078
 30
0.0
 11
-1.000000000000056
 21
-11.00001206798978
 31
0.0
  0
LINE
  5
2F77
330
DF6
100
AcDbEntity
  8
AM_5
 62
     3
100
AcDbLine
 10
-34.75000000000001
 20
-10.50001206798978
 30
0.0
 11
-2.250000000000055
 21
-10.50001206798978
 31
0.0
  0
INSERT
  5
2F78
330
DF6
100
AcDbEntity
  8
AM_5
 62
     3
100
AcDbBlockReference
  2
_OPEN30
 10
-36.00000000000001
 20
-10.50001206798978
 30
0.0
 41
1.25
 42
1.25
 43
1.25
 50
180.0
  0
INSERT
  5
2F79
330
DF6
100
AcDbEntity
  8
AM_5
 62
     3
100
AcDbBlockReference
  2
_OPEN30
 10
-1.000000000000056
 20
-10.50001206798978
 30
0.0
 41
1.25
 42
1.25
 43
1.25
  0
MTEXT
  5
2F7A
330
DF6
100
AcDbEntity
  8
AM_5
 62
     2
100
AcDbMText
 10
-18.50000000000003
 20
-8.800012067989783
 30
0.0
 40
1.9
 41
0.0
 71
     5
 72
     1
  1
35
1001
ACAD
1000
MTEXTBEGIN
1070
    73
1070
     1
1070
    44
1040
1.0
1070
    74
1070
     0
1000
MTEXTEND
  0
POINT
  5
2F7B
330
DF6
100
AcDbEntity
  8
DEFPOINTS
 62
     0
100
AcDbPoint
 10
-36.00000000000001
 20
-3.500000000000061
 30
0.0
  0
POINT
  5
2F7C
330
DF6
100
AcDbEntity
  8
DEFPOINTS
 62
     0
100
AcDbPoint
 10
-1.000000000000055
 20
-3.400012796555078
 30
0.0
  0
POINT
  5
2F7D
330
DF6
100
AcDbEntity
  8
DEFPOINTS
 62
     0
100
AcDbPoint
 10
-1.000000000000056
 20
-10.50001206798978
 30
0.0
  0
ENDBLK
  5
E01
330
DF6
100
AcDbEntity
  8
0
100
AcDbBlockEnd
  0
BLOCK
  5
1FA0
330
1F94
100
AcDbEntity
  8
0
100
AcDbBlockBegin
  2
*D7
 70
     1
 10
0.0
 20
0.0
 30
0.0
  3
*D7
  1

  0
LINE
  5
2F61
330
1F94
100
AcDbEntity
  8
AM_5
 62
     3
100
AcDbLine
 10
-88.50000000000001
 20
-3.500000000000203
 30
0.0
 11
-98.25000100000002
 21
-3.500000000000222
 31
0.0
  0
LINE
  5
2F62
330
1F94
100
AcDbEntity
  8
AM_5
 62
     3
100
AcDbLine
 10
-88.49999999999999
 20
3.499999999999796
 30
0.0
 11
-98.25000100000002
 21
3.499999999999777
 31
0.0
  0
LINE
  5
2F63
330
1F94
100
AcDbEntity
  8
AM_5
 62
     3
100
AcDbLine
 10
-97.75000100000001
 20
-2.250000000000221
 30
0.0
 11
-97.75000100000001
 21
2.249999999999777
 31
0.0
  0
INSERT
  5
2F64
330
1F94
100
AcDbEntity
  8
AM_5
 62
     3
100
AcDbBlockReference
  2
_OPEN30
 10
-97.75000100000001
 20
-3.500000000000221
 30
0.0
 41
1.25
 42
1.25
 43
1.25
 50
270.0000000000001
  0
INSERT
  5
2F65
330
1F94
100
AcDbEntity
  8
AM_5
 62
     3
100
AcDbBlockReference
  2
_OPEN30
 10
-97.75000100000001
 20
3.499999999999777
 30
0.0
 41
1.25
 42
1.25
 43
1.25
 50
90.0000000000001
  0
MTEXT
  5
2F66
330
1F94
100
AcDbEntity
  8
AM_5
 62
     2
100
AcDbMText
 10
-99.45000100000001
 20
-0.0000000000004048
 30
0.0
 40
1.9
 41
0.0
 71
     5
 72
     1
  1
%%c7
 11
-0.000000000000002
 21
1.0
 31
0.0
1001
ACAD
1000
MTEXTBEGIN
1070
    73
1070
     1
1070
    44
1040
1.0
1070
    74
1070
     0
1000
MTEXTEND
  0
POINT
  5
2F67
330
1F94
100
AcDbEntity
  8
DEFPOINTS
 62
     0
100
AcDbPoint
 10
-88.50000000000001
 20
-3.500000000000007
 30
0.0
  0
POINT
  5
2F68
330
1F94
100
AcDbEntity
  8
DEFPOINTS
 62
     0
100
AcDbPoint
 10
-88.49999999999999
 20
3.499999999999992
 30
0.0
  0
POINT
  5
2F69
330
1F94
100
AcDbEntity
  8
DEFPOINTS
 62
     0
100
AcDbPoint
 10
-97.75000100000001
 20
3.499999999999995
 30
0.0
  0
ENDBLK
  5
1FA1
330
1F94
100
AcDbEntity
  8
0
100
AcDbBlockEnd
  0
BLOCK
  5
2586
330
2578
100
AcDbEntity
  8
0
100
AcDbBlockBegin
  2
*D8
 70
     1
 10
0.0
 20
0.0
 30
0.0
  3
*D8
  1

  0
LINE
  5
2FD5
330
2578
100
AcDbEntity
  8
AM_5
100
AcDbLine
 10
0.1710079208341409
 20
-0.4698470932250125
 30
0.0
 11
5.15222725041692
 21
-14.15582965651496
 31
0.0
  0
LINE
  5
2FD6
330
2578
100
AcDbEntity
  8
AM_5
100
AcDbLine
 10
0.1710079208341369
 20
0.469847093225014
 30
0.0
 11
5.1522272504168
 21
14.155829656515
 31
0.0
  0
ARC
  5
2FD7
330
2578
100
AcDbEntity
  8
AM_5
100
AcDbCircle
 10
-0.0000000000000142
 20
0.0
 30
0.0
 40
14.56429417212128
100
AcDbArc
 50
294.918735062585
 51
65.08126493741549
  0
INSERT
  5
2FD8
330
2578
100
AcDbEntity
  8
AM_5
100
AcDbBlockReference
  2
_OPEN30
 10
4.981219329582771
 20
-13.68598256328996
 30
0.0
 41
1.25
 42
1.25
 43
1.25
 50
202.4592363891502
  0
INSERT
  5
2FD9
330
2578
100
AcDbEntity
  8
AM_5
100
AcDbBlockReference
  2
_OPEN30
 10
4.981219329582653
 20
13.68598256329
 30
0.0
 41
1.25
 42
1.25
 43
1.25
 50
157.5407636108502
  0
MTEXT
  5
2FDA
330
2578
100
AcDbEntity
  8
AM_5
 62
     2
100
AcDbMText
 10
13.01429417212127
 20
0.0000000000000617
 30
0.0
 40
1.6
 41
0.0
 71
     5
 72
     1
  1
140°
  7
ASAMI
 11
-0.000000000000002
 21
1.0
 31
0.0
  0
POINT
  5
2FDB
330
2578
100
AcDbEntity
  8
DEFPOINTS
 62
     0
100
AcDbPoint
 10
13.37316069178122
 20
-5.768642634440378
 30
0.0
  0
POINT
  5
2FDC
330
2578
100
AcDbEntity
  8
DEFPOINTS
 62
     0
100
AcDbPoint
 10
-0.0000000000000093
 20
0.0000000000000134
 30
0.0
  0
POINT
  5
2FDD
330
2578
100
AcDbEntity
  8
DEFPOINTS
 62
     0
100
AcDbPoint
 10
-0.0000000000000093
 20
-0.0000000000000134
 30
0.0
  0
POINT
  5
2FDE
330
2578
100
AcDbEntity
  8
DEFPOINTS
 62
     0
100
AcDbPoint
 10
-0.272532631331442
 20
0.748787915877995
 30
0.0
  0
POINT
  5
2FDF
330
2578
100
AcDbEntity
  8
DEFPOINTS
 62
     0
100
AcDbPoint
 10
-0.272532631331439
 20
-0.7487879158779962
 30
0.0
  0
ENDBLK
  5
2587
330
2578
100
AcDbEntity
  8
0
100
AcDbBlockEnd
  0
BLOCK
  5
2CAF
330
2CA5
100
AcDbEntity
  8
0
100
AcDbBlockBegin
  2
*D9
 70
     1
 10
0.0
 20
0.0
 30
0.0
  3
*D9
  1

  0
LINE
  5
2F7E
330
2CA5
100
AcDbEntity
  8
AM_5
 62
     3
100
AcDbLine
 10
-1.000000000000064
 20
-3.400012796555062
 30
0.0
 11
9.586422120790526
 21
-3.400012796555065
 31
0.0
  0
LINE
  5
2F7F
330
2CA5
100
AcDbEntity
  8
AM_5
 62
     3
100
AcDbLine
 10
-1.000000000000038
 20
3.399987203444918
 30
0.0
 11
9.586422120790526
 21
3.399987203444915
 31
0.0
  0
LINE
  5
2F80
330
2CA5
100
AcDbEntity
  8
AM_5
 62
     3
100
AcDbLine
 10
9.086422120790526
 20
-2.150012796555065
 30
0.0
 11
9.086422120790526
 21
2.149987203444915
 31
0.0
  0
INSERT
  5
2F81
330
2CA5
100
AcDbEntity
  8
AM_5
 62
     3
100
AcDbBlockReference
  2
_OPEN30
 10
9.086422120790526
 20
-3.400012796555065
 30
0.0
 41
1.25
 42
1.25
 43
1.25
 50
270.0
  0
INSERT
  5
2F82
330
2CA5
100
AcDbEntity
  8
AM_5
 62
     3
100
AcDbBlockReference
  2
_OPEN30
 10
9.086422120790526
 20
3.399987203444915
 30
0.0
 41
1.25
 42
1.25
 43
1.25
 50
90.0
  0
MTEXT
  5
2F83
330
2CA5
100
AcDbEntity
  8
AM_5
 62
     2
100
AcDbMText
 10
7.386422120790526
 20
-0.0000127965550733
 30
0.0
 40
1.9
 41
0.0
 71
     5
 72
     1
  1
%%c6.8
 11
0.0000000000000001
 21
1.0
 31
0.0
1001
ACAD
1000
MTEXTBEGIN
1070
    73
1070
     1
1070
    44
1040
1.0
1070
    74
1070
     0
1000
MTEXTEND
  0
POINT
  5
2F84
330
2CA5
100
AcDbEntity
  8
DEFPOINTS
 62
     0
100
AcDbPoint
 10
-1.000000000000064
 20
-3.400012796555062
 30
0.0
  0
POINT
  5
2F85
330
2CA5
100
AcDbEntity
  8
DEFPOINTS
 62
     0
100
AcDbPoint
 10
-1.000000000000038
 20
3.399987203444918
 30
0.0
  0
POINT
  5
2F86
330
2CA5
100
AcDbEntity
  8
DEFPOINTS
 62
     0
100
AcDbPoint
 10
9.086422120790526
 20
3.399987203444915
 30
0.0
  0
ENDBLK
  5
2CB0
330
2CA5
100
AcDbEntity
  8
0
100
AcDbBlockEnd
  0
ENDSEC
  0
SECTION
  2
ENTITIES
  0
LINE
  5
C1D
330
1F
100
AcDbEntity
  8
AM_0
 48
0.5
100
AcDbLine
 10
-0.0000000000000093
 20
-0.0000000000000134
 30
0.0
 11
-0.272532631331442
 21
0.748787915877995
 31
0.0
  0
DIMENSION
  5
CC6
330
1F
100
AcDbEntity
  8
AM_5
100
AcDbDimension
  2
*D5
 10
-1.000000000000056
 20
-15.50001206798982
 30
0.0
 11
-45.00000000000002
 21
-13.80001206798982
 31
0.0
 70
    32
  1
<>
  3
AM_JIS$0
100
AcDbAlignedDimension
 13
-89.0
 23
-3.000000000000206
 33
0.0
 14
-1.000000000000055
 24
-3.400012796555078
 34
0.0
 50
0.0000000000001132
100
AcDbRotatedDimension
1001
GENIUS_GENDTOL_13
1000

1000
h7
1000

1040
0.0
1001
ACAD
1000
DSTYLE
1002
{
1070
   271
1070
     0
1002
}
  0
DIMENSION
  5
DF5
330
1F
100
AcDbEntity
  8
AM_5
100
AcDbDimension
  2
*D6
 10
-1.000000000000056
 20
-10.50001206798978
 30
0.0
 11
-18.50000000000003
 21
-8.800012067989783
 31
0.0
 70
    32
  1
<>
  3
AM_JIS$0
100
AcDbAlignedDimension
 13
-36.00000000000001
 23
-3.500000000000061
 33
0.0
 14
-1.000000000000055
 24
-3.400012796555078
 34
0.0
 50
0.0000000000001527
100
AcDbRotatedDimension
1001
GENIUS_GENDTOL_13
1000

1000
h7
1000

1040
0.0
1001
ACAD
1000
DSTYLE
1002
{
1070
   271
1070
     0
1002
}
  0
ARC
  5
144A
330
1F
100
AcDbEntity
  8
AM_11
 48
0.5
100
AcDbCircle
 10
-56.11257425944018
 20
-15.45937617226463
 30
0.0
 40
17.09271208445208
100
AcDbArc
 50
64.74833051131179
 51
115.2516644797366
  0
ARC
  5
144B
330
1F
100
AcDbEntity
  8
AM_11
 48
0.5
100
AcDbCircle
 10
-56.11257425944017
 20
15.45938667054937
 30
0.0
 40
17.09271208445208
100
AcDbArc
 50
244.7482808787518
 51
295.2516148471758
  0
TEXT
  5
19BD
330
1F
100
AcDbEntity
  8
AM_6
100
AcDbText
 10
-56.24999109904178
 20
-26.75001206798985
 30
0.0
 40
2.5
  1
MDW068MHK
 50
0.0000000000001527
 72
     4
 11
-44.99999109904178
 21
-25.50001206798982
 31
0.0
100
AcDbText
  0
LINE
  5
1D14
330
1F
100
AcDbEntity
  8
AM_7
100
AcDbLine
 10
-90.74999999999999
 20
-0.0000000000000486
 30
0.0
 11
2.086421120790532
 21
0.0000000000000011
 31
0.0
1001
GENIUS_GENODEF_13
1002
{
1000
HIER
1070
     0
1002
}
1002
{
1000
MANEDIT
1070
     0
1002
}
1002
{
1000
NOSEL
1070
     0
1002
}
1002
{
1000
BEHIND
1070
     0
1002
}
1002
{
1000
REACTOR
1002
}
1001
GENIUS_GENOBJ-N-CEN_13
1002
{
1000
OWNER
1000
GEN
1002
}
  0
LINE
  5
1D9D
330
1F
100
AcDbEntity
  8
AM_0
100
AcDbLine
 10
-88.50000000000001
 20
-3.500000000000007
 30
0.0
 11
-88.49999999999999
 21
3.499999999999992
 31
0.0
  0
LINE
  5
1D9E
330
1F
100
AcDbEntity
  8
AM_0
 48
0.5
100
AcDbLine
 10
-89.0
 20
-3.000000000000206
 30
0.0
 11
-89.00000000000002
 21
2.999999999999793
 31
0.0
  0
LINE
  5
1DA2
330
1F
100
AcDbEntity
  8
AM_0
100
AcDbLine
 10
-36.00000000000001
 20
-3.500000000000061
 30
0.0
 11
-36.00000000000004
 21
3.499999999999938
 31
0.0
  0
LINE
  5
1DA4
330
1F
100
AcDbEntity
  8
AM_0
100
AcDbLine
 10
-88.50000000000001
 20
3.499999999999794
 30
0.0
 11
-36.00000000000001
 21
3.499999999999964
 31
0.0
  0
LINE
  5
1DA5
330
1F
100
AcDbEntity
  8
AM_0
100
AcDbLine
 10
-88.49999999999999
 20
-3.500000000000205
 30
0.0
 11
-36.00000000000001
 21
-3.500000000000035
 31
0.0
  0
LINE
  5
1F71
330
1F
100
AcDbEntity
  8
AM_0
100
AcDbLine
 10
-36.00000000000004
 20
3.499999999999938
 30
0.0
 11
-35.8267727549586
 21
3.399987203444285
 31
0.0
  0
LINE
  5
1F72
330
1F
100
AcDbEntity
  8
AM_0
100
AcDbLine
 10
-36.00000000000001
 20
-3.500000000000061
 30
0.0
 11
-35.82681708352574
 21
-3.400012796554602
 31
0.0
  0
ARC
  5
1F77
330
1F
100
AcDbEntity
  8
AM_11
 48
0.5
100
AcDbCircle
 10
-70.69590759277339
 20
15.45938667054932
 30
0.0
 40
17.09271208445208
100
AcDbArc
 50
244.7482808787518
 51
295.2516148471758
  0
ARC
  5
1F78
330
1F
100
AcDbEntity
  8
AM_11
 48
0.5
100
AcDbCircle
 10
-70.69590759277343
 20
-15.45937617226467
 30
0.0
 40
17.09271208445208
100
AcDbArc
 50
64.74833051131179
 51
115.2516644797366
  0
ARC
  5
1F79
330
1F
100
AcDbEntity
  8
AM_11
 48
0.5
100
AcDbCircle
 10
-85.27924092610662
 20
15.45938667054929
 30
0.0
 40
17.09271208445208
100
AcDbArc
 50
257.4271351938719
 51
295.2516148471758
  0
ARC
  5
1F7A
330
1F
100
AcDbEntity
  8
AM_11
 48
0.5
100
AcDbCircle
 10
-85.27924092610666
 20
-15.45937617226471
 30
0.0
 40
17.09271208445208
100
AcDbArc
 50
64.74833051131179
 51
102.5728648061279
  0
DIMENSION
  5
1F93
330
1F
100
AcDbEntity
  8
AM_5
100
AcDbDimension
  2
*D7
 10
-97.75000100000001
 20
3.499999999999995
 30
0.0
 11
-97.75000100000001
 21
-0.000000000000204
 31
0.0
 70
   160
  1
%%c<>
 51
359.9999999999998
  3
AM_JIS$0
100
AcDbAlignedDimension
 13
-88.50000000000001
 23
-3.500000000000007
 33
0.0
 14
-88.49999999999999
 24
3.499999999999992
 34
0.0
 50
270.0000000000002
100
AcDbRotatedDimension
1001
ACAD
1000
DSTYLE
1002
{
1070
   271
1070
     0
1002
}
1001
GENIUS_GENDTOL_13
1000

1000
h7
1000

1040
0.0
  0
ELLIPSE
  5
231A
330
1F
100
AcDbEntity
  8
AM_11
 48
0.5
100
AcDbEllipse
 10
2.220759073889107
 20
15.21399958054064
 30
0.0
 11
-17.09271208445214
 21
0.0000000000021758
 31
0.0
210
0.0
220
0.0
230
1.0
 40
0.9841269841269811
 41
1.130070686340432
 42
1.291800737381121
  0
ELLIPSE
  5
2324
330
1F
100
AcDbEntity
  8
AM_11
 48
0.5
100
AcDbEllipse
 10
-41.52924092610688
 20
-15.21398924889526
 30
0.0
 11
-17.09271208445209
 21
0.0000000000000504
 31
0.0
210
0.0
220
0.0
230
1.0
 40
0.9841269841269831
 41
4.271664206181688
 42
5.153113667164995
  0
ELLIPSE
  5
2325
330
1F
100
AcDbEntity
  8
AM_11
 48
0.5
100
AcDbEllipse
 10
-41.52924092610682
 20
15.21399958054073
 30
0.0
 11
-17.09271208445209
 21
0.000000000000001
 31
0.0
210
0.0
220
0.0
230
1.0
 40
0.9841269841269829
 41
1.130070686340305
 42
2.011520147323597
  0
ELLIPSE
  5
2327
330
1F
100
AcDbEntity
  8
AM_11
 48
0.5
100
AcDbEllipse
 10
-26.94590759277757
 20
15.2139995805407
 30
0.0
 11
17.09271208445209
 21
0.0000000000000162
 31
0.0
210
0.0
220
0.0
230
1.0
 40
0.9841269841269825
 41
4.271663339930097
 42
5.153112800913389
  0
ELLIPSE
  5
2328
330
1F
100
AcDbEntity
  8
AM_11
 48
0.5
100
AcDbEllipse
 10
-26.94590759277764
 20
-15.21398924889529
 30
0.0
 11
-17.09271208445208
 21
0.000000000000001
 31
0.0
210
0.0
220
0.0
230
1.0
 40
0.9841269841269834
 41
4.271664206181685
 42
5.153113667164991
  0
ELLIPSE
  5
232D
330
1F
100
AcDbEntity
  8
AM_11
 48
0.5
100
AcDbEllipse
 10
-12.3625742594443
 20
-15.21398924889532
 30
0.0
 11
-17.09271208445209
 21
0.0000000000000162
 31
0.0
210
0.0
220
0.0
230
1.0
 40
0.9841269841269831
 41
4.271664206181686
 42
5.153113667164992
  0
ELLIPSE
  5
232E
330
1F
100
AcDbEntity
  8
AM_11
 48
0.5
100
AcDbEllipse
 10
-12.36257425944424
 20
15.21399958054067
 30
0.0
 11
17.09271208445209
 21
0.0000000000000162
 31
0.0
210
0.0
220
0.0
230
1.0
 40
0.9841269841269829
 41
4.271663339930097
 42
5.153112800913389
  0
LINE
  5
2398
330
1F
100
AcDbEntity
  8
AM_0
100
AcDbLine
 10
-35.82681708352574
 20
-3.400012796554599
 30
0.0
 11
-35.82681362132767
 21
-2.868911783590144
 31
0.0
  0
ELLIPSE
  5
23D5
330
1F
100
AcDbEntity
  8
AM_0
 48
0.5
100
AcDbEllipse
 10
4.537164231286258
 20
3.856893983336729
 30
0.0
 11
4.694067341354348
 21
3.2852998629697
 31
0.0
210
0.0
220
0.0
230
1.0
 40
0.753929342490717
 41
2.621800558379187
 42
3.092617221329952
  0
LINE
  5
2500
330
1F
100
AcDbEntity
  8
AM_0
 48
0.5
100
AcDbLine
 10
-88.50000000000001
 20
3.499999999999794
 30
0.0
 11
-89.00000000000002
 21
2.999999999999793
 31
0.0
1001
GENIUS_GENFIL_13
1070
     0
1040
0.5
1040
0.5
1040
20.0
1040
0.0
1002
{
1002
}
1001
GENIUS_GENODEF_13
1002
{
1000
HIER
1070
     0
1002
}
1002
{
1000
MANEDIT
1070
     0
1002
}
1002
{
1000
NOSEL
1070
     0
1002
}
1002
{
1000
BEHIND
1070
     0
1002
}
1002
{
1000
REACTOR
1002
}
1001
GENIUS_GENOBJ-N-CHA_13
1002
{
1000
OWNER
1000
GEN
1002
}
  0
LINE
  5
2503
330
1F
100
AcDbEntity
  8
AM_0
100
AcDbLine
 10
-89.0
 20
-3.000000000000206
 30
0.0
 11
-88.49999999999999
 21
-3.500000000000205
 31
0.0
1001
GENIUS_GENFIL_13
1070
     0
1040
0.5
1040
0.5
1040
20.0
1040
0.0
1002
{
1002
}
1001
GENIUS_GENODEF_13
1002
{
1000
HIER
1070
     0
1002
}
1002
{
1000
MANEDIT
1070
     0
1002
}
1002
{
1000
NOSEL
1070
     0
1002
}
1002
{
1000
BEHIND
1070
     0
1002
}
1002
{
1000
REACTOR
1002
}
1001
GENIUS_GENOBJ-N-CHA_13
1002
{
1000
OWNER
1000
GEN
1002
}
  0
ELLIPSE
  5
2567
330
1F
100
AcDbEntity
  8
AM_0
 48
0.5
100
AcDbEllipse
 10
4.537164231286273
 20
-3.856893983336711
 30
0.0
 11
4.645458860676204
 21
-3.357654964305418
 31
0.0
210
0.0
220
0.0
230
-1.0
 40
0.7713757486121493
 41
2.613281070465999
 42
3.074038162807732
  0
LINE
  5
2568
330
1F
100
AcDbEntity
  8
AM_0
 48
0.5
100
AcDbLine
 10
-0.7804932361520427
 20
-2.763326247473123
 30
0.0
 11
-1.000000000000064
 21
-3.400012796555062
 31
0.0
  0
LINE
  5
2569
330
1F
100
AcDbEntity
  8
AM_0
 48
0.5
100
AcDbLine
 10
-0.0000000000000093
 20
0.0000000000000134
 30
0.0
 11
-0.272532631331439
 21
-0.7487879158779962
 31
0.0
  0
DIMENSION
  5
2577
330
1F
100
AcDbEntity
  8
AM_5
100
AcDbDimension
  2
*D8
 10
-0.272532631331439
 20
-0.7487879158779962
 30
0.0
 11
13.01429417212127
 21
0.0000000000000333
 31
0.0
 70
    34
  1
<>
 51
359.9999999999998
  3
AM_JIS$2
100
AcDb2LineAngularDimension
 13
-0.0000000000000093
 23
-0.0000000000000134
 33
0.0
 14
-0.272532631331442
 24
0.748787915877995
 34
0.0
 15
-0.0000000000000093
 25
0.0000000000000134
 35
0.0
 16
13.37316069178122
 26
-5.768642634440378
 36
0.0
1001
GENIUS_GENDTOL_13
1000

1000
h7
1000

1040
0.0
1001
ACAD
1000
DSTYLE
1002
{
1070
   271
1070
     0
1002
}
  0
DIMENSION
  5
2CA4
330
1F
100
AcDbEntity
  8
AM_5
100
AcDbDimension
  2
*D9
 10
9.086422120790526
 20
3.399987203444915
 30
0.0
 11
9.086422120790526
 21
-0.0000127965550735
 31
0.0
 70
   160
  1
%%c<>
  3
AM_JIS$0
100
AcDbAlignedDimension
 13
-1.000000000000064
 23
-3.400012796555062
 33
0.0
 14
-1.000000000000038
 24
3.399987203444918
 34
0.0
 50
89.99999999999932
100
AcDbRotatedDimension
1001
ACAD
1000
DSTYLE
1002
{
1070
   271
1070
     1
1002
}
1001
GENIUS_GENDTOL_13
1000

1000
h7
1000

1040
0.0
  0
LINE
  5
2E35
330
1F
100
AcDbEntity
  8
AM_0
 48
0.5
100
AcDbLine
 10
-0.7671897959189156
 20
2.763326247473122
 30
0.0
 11
-1.000000000000038
 21
3.399987203444918
 31
0.0
  0
LINE
  5
2E5B
330
1F
100
AcDbEntity
  8
AM_0
100
AcDbLine
 10
-35.82680656840067
 20
-1.786993132317325
 30
0.0
 11
-35.82679723576367
 21
-0.3553670787453484
 31
0.0
  0
LINE
  5
2E5C
330
1F
100
AcDbEntity
  8
AM_0
100
AcDbLine
 10
-35.82679643948646
 20
-0.233218196824827
 30
0.0
 11
-35.8267727549586
 21
3.399987203444275
 31
0.0
  0
LINE
  5
2F03
330
1F
100
AcDbEntity
  8
AM_0
100
AcDbLine
 10
-34.86608547574781
 20
-3.400012796554611
 30
0.0
 11
-35.82681708352574
 21
-3.400012796554599
 31
0.0
  0
ELLIPSE
  5
2F04
330
1F
100
AcDbEntity
  8
AM_0
 48
0.5
100
AcDbEllipse
 10
-34.86572331293594
 20
-2.266856552219225
 30
0.0
 11
1.131119284496869
 21
0.0855951020308749
 31
0.0
210
0.0
220
0.0
230
0.9999999999999998
 40
0.9989387110621663
 41
3.077232275451778
 42
4.636939547932108
  0
ELLIPSE
  5
2F05
330
1F
100
AcDbEntity
  8
AM_0
 48
0.5
100
AcDbEllipse
 10
-35.14951812538015
 20
-2.301386937554456
 30
0.0
 11
-0.8507613211315081
 21
0.000000000013937
 31
0.0
210
0.0
220
0.0
230
1.0
 40
0.9991051295908849
 41
4.317028824499404
 42
6.257553905085715
  0
LINE
  5
2F06
330
1F
100
AcDbEntity
  8
AM_11
 48
0.5
100
AcDbLine
 10
-34.86608547574781
 20
-3.400012796554611
 30
0.0
 11
-26.71237757744153
 21
-3.400012796554746
 31
0.0
  0
SPLINE
  5
2F07
330
1F
100
AcDbEntity
  8
AM_0
 48
0.5
100
AcDbSpline
210
0.0
220
0.0
230
1.0
 70
     8
 71
     3
 72
    22
 73
    18
 74
     0
 42
0.0000000001
 43
0.0000000001
 40
0.0
 40
0.0
 40
0.0
 40
0.0
 40
1.010743684496582
 40
2.022833993863546
 40
3.037578683882831
 40
4.056212471389632
 40
5.079857945358201
 40
6.109499720892564
 40
7.145961650132166
 40
8.189873411961459
 40
9.241710626092514
 40
10.30166235592959
 40
11.36982472628033
 40
12.44598212828784
 40
13.52983440361964
 40
14.62080578343036
 40
14.90544694398022
 40
14.90544694398022
 40
14.90544694398022
 40
14.90544694398022
 10
-26.71237757744153
 20
-3.400012796554746
 30
0.0
 10
-26.92383877238143
 20
-3.398167572273716
 30
0.0
 10
-27.30629310497952
 20
-3.394120251365163
 30
0.0
 10
-27.87983459255072
 20
-3.361475466858693
 30
0.0
 10
-28.4533528193438
 20
-3.309601974211777
 30
0.0
 10
-29.02683523536145
 20
-3.236886992522262
 30
0.0
 10
-29.60027456701851
 20
-3.144316181271707
 30
0.0
 10
-30.17366483202422
 20
-3.03232776834208
 30
0.0
 10
-30.74699762817606
 20
-2.901645633346626
 30
0.0
 10
-31.32027689791043
 20
-2.753080474968953
 30
0.0
 10
-31.89349747800382
 20
-2.587559909221273
 30
0.0
 10
-32.46666236405061
 20
-2.406091312911506
 30
0.0
 10
-33.03977525085837
 20
-2.209829453686441
 30
0.0
 10
-33.61283570795206
 20
-1.999941099990764
 30
0.0
 10
-34.18585447094426
 20
-1.77776333566518
 30
0.0
 10
-34.61651811642097
 20
-1.602552129749453
 30
0.0
 10
-34.85649892827893
 20
-1.502407036460722
 30
0.0
 10
-34.82185541118482
 20
-1.516957711025127
 30
0.0
  0
SPLINE
  5
2F08
330
1F
100
AcDbEntity
  8
AM_0
100
AcDbSpline
210
0.0
220
0.0
230
1.0
 70
     8
 71
     3
 72
    13
 73
     9
 74
     0
 42
0.0000000001
 43
0.0000000001
 40
16.03460056234195
 40
16.03460056234195
 40
16.03460056234195
 40
16.03460056234195
 40
16.35212717791071
 40
17.38177067057215
 40
18.41822498539278
 40
19.46214186516937
 40
20.5139635832251
 40
21.34083983469381
 40
21.34083983469381
 40
21.34083983469381
 40
21.34083983469381
 10
-34.86572366902668
 20
-3.400012796554628
 30
0.0
 10
-34.70334669483609
 20
-3.389021637338359
 30
0.0
 10
-34.4535989842451
 20
-3.339040414704498
 30
0.0
 10
-34.01366630629022
 20
-3.241106006682763
 30
0.0
 10
-33.44395195440598
 20
-3.095480716954025
 30
0.0
 10
-32.87476687105539
 20
-2.931967227131683
 30
0.0
 10
-32.34808342454928
 20
-2.764841764763807
 30
0.0
 10
-32.01206866052367
 20
-2.649763990221672
 30
0.0
 10
-31.86466099742337
 20
-2.597747787539752
 30
0.0
  0
SPLINE
  5
2F09
330
1F
100
AcDbEntity
  8
AM_0
 48
0.5
100
AcDbSpline
210
0.0
220
0.0
230
1.0
 70
     8
 71
     3
 72
    26
 73
    22
 74
     0
 42
0.0000000001
 43
0.0000000001
 40
0.0
 40
0.0
 40
0.0
 40
0.0
 40
0.2526859211241313
 40
0.5057083941171959
 40
0.7593947393741639
 40
1.01405318625086
 40
1.26996425091637
 40
1.527375060172565
 40
1.786490330669834
 40
2.047470117551047
 40
2.310425755981314
 40
2.575417325379407
 40
2.842456731169063
 40
3.111495753801943
 40
3.382458822635121
 40
3.655202026904655
 40
3.929554512223505
 40
4.205306020962704
 40
4.482215236978595
 40
4.76001530984208
 40
5.029821427366006
 40
5.029821427366006
 40
5.029821427366006
 40
5.029821427366006
 10
-25.12721077871407
 20
-3.400189885553025
 30
0.0
 10
-25.31831060630024
 20
-3.398166968011206
 30
0.0
 10
-25.70076478694765
 20
-3.394118438607766
 30
0.0
 10
-26.27430687513749
 20
-3.361482743823763
 30
0.0
 10
-26.84782448264305
 20
-3.309600521677287
 30
0.0
 10
-27.42130658876154
 20
-3.236885588007277
 30
0.0
 10
-27.99474750092737
 20
-3.144323483902023
 30
0.0
 10
-28.56813579397314
 20
-3.032325387394851
 30
0.0
 10
-29.14147108644899
 20
-2.901648001081275
 30
0.0
 10
-29.71474946822097
 20
-2.753084993591394
 30
0.0
 10
-30.28796958400342
 20
-2.58755817356455
 30
0.0
 10
-30.86113615141935
 20
-2.406097793696621
 30
0.0
 10
-31.43424679545374
 20
-2.209824313342374
 30
0.0
 10
-32.00730800961143
 20
-1.999941722701012
 30
0.0
 10
-32.58032745611596
 20
-1.777765121902485
 30
0.0
 10
-33.15330637304698
 20
-1.544642291462917
 30
0.0
 10
-33.72624903166122
 20
-1.302021570165077
 30
0.0
 10
-34.29916595337652
 20
-1.051399875477238
 30
0.0
 10
-34.8720476701048
 20
-0.7942865543757117
 30
0.0
 10
-35.43904464694771
 20
-0.5350901768264015
 30
0.0
 10
-35.81470147675115
 20
-0.3609602322330752
 30
0.0
 10
-36.00000000000005
 20
-0.2751640727677516
 30
0.0
  0
LINE
  5
2F0A
330
1F
100
AcDbEntity
  8
AM_0
 48
0.5
100
AcDbLine
 10
-28.17453805471123
 20
1.619980894113465
 30
0.0
 11
-36.00000000000003
 21
-0.2751640727677556
 31
0.0
  0
LINE
  5
2F0B
330
1F
100
AcDbEntity
  8
AM_0
100
AcDbLine
 10
-33.74962041915738
 20
3.39998720344535
 30
0.0
 11
-35.82677275496051
 21
3.399987203445383
 31
0.0
  0
LINE
  5
2F0C
330
1F
100
AcDbEntity
  8
AM_0
 48
0.5
100
AcDbLine
 10
-2.914762823713097
 20
3.399987203445023
 30
0.0
 11
-1.000000000000038
 21
3.399987203444918
 31
0.0
  0
LINE
  5
2F0D
330
1F
100
AcDbEntity
  8
AM_11
 48
0.5
100
AcDbLine
 10
-33.74962041915738
 20
3.39998720344535
 30
0.0
 11
-26.13107690398956
 21
3.399987203445251
 31
0.0
  0
LINE
  5
2F0E
330
1F
100
AcDbEntity
  8
AM_0
100
AcDbLine
 10
-26.13107690398956
 20
3.399987203445251
 30
0.0
 11
-13.82250787338273
 21
3.39998720344528
 31
0.0
  0
LINE
  5
2F0F
330
1F
100
AcDbEntity
  8
AM_11
 48
0.5
100
AcDbLine
 10
-13.82230155119626
 20
3.399985041793518
 30
0.0
 11
-3.299408254419568
 21
3.399985041792998
 31
0.0
  0
SPLINE
  5
2F10
330
1F
100
AcDbEntity
  8
AM_0
 48
0.5
100
AcDbSpline
210
0.0
220
0.0
230
1.0
 70
     8
 71
     3
 72
    17
 73
    13
 74
     0
 42
0.0000000001
 43
0.0000000001
 40
0.0
 40
0.0
 40
0.0
 40
0.0
 40
1.010743614677189
 40
2.022833924044153
 40
3.037578959561199
 40
4.056212747067873
 40
5.079857613375832
 40
6.109500119648989
 40
7.14596120163808
 40
8.18989512056258
 40
9.241717674284874
 40
9.693948937866434
 40
9.693948937866434
 40
9.693948937866434
 40
9.693948937866434
 10
-2.914762823713097
 20
3.399987203445023
 30
0.0
 10
-3.107696715234085
 20
3.397965743627876
 30
0.0
 10
-3.493821559555962
 20
3.393920130640745
 30
0.0
 10
-4.072867575153928
 20
3.361275506737005
 30
0.0
 10
-4.651889751763533
 20
3.309398770863991
 30
0.0
 10
-5.230875918121403
 20
3.236683713500279
 30
0.0
 10
-5.809819178670059
 20
3.144116517730908
 30
0.0
 10
-6.388712462189831
 20
3.032126358203905
 30
0.0
 10
-6.967547998959962
 20
2.901434152612593
 30
0.0
 10
-7.546348250122765
 20
2.752919754543496
 30
0.0
 10
-8.013570905817328
 20
2.619130731548891
 30
0.0
 10
-8.287951443009941
 20
2.535493352473924
 30
0.0
 10
-8.370305759577355
 20
2.50989251063226
 30
0.0
  0
LINE
  5
2F11
330
1F
100
AcDbEntity
  8
AM_0
 48
0.5
100
AcDbLine
 10
-3.204200599399671
 20
-3.400012796555071
 30
0.0
 11
-1.000000000000051
 21
-3.400012796555062
 31
0.0
  0
LINE
  5
2F12
330
1F
100
AcDbEntity
  8
AM_0
 48
0.5
100
AcDbLine
 10
-26.71237757744153
 20
-3.400012796554746
 30
0.0
 11
-14.00825664683757
 21
-3.400012796554918
 31
0.0
  0
LINE
  5
2F13
330
1F
100
AcDbEntity
  8
AM_11
 48
0.5
100
AcDbLine
 10
-14.00825664683757
 20
-3.400012796554918
 30
0.0
 11
-3.204200599399671
 21
-3.400012796555071
 31
0.0
  0
ELLIPSE
  5
2F14
330
1F
100
AcDbEntity
  8
AM_0
 48
0.5
100
AcDbEllipse
 10
-0.8249556344998367
 20
-0.7075766572382789
 30
0.0
 11
-0.4652683051036897
 21
0.2898597488600483
 31
0.0
210
0.0
220
0.0
230
0.9999999999999998
 40
0.5107364999741167
 41
4.510859150890722
 42
7.654299492220232
  0
ELLIPSE
  5
2F15
330
1F
100
AcDbEntity
  8
AM_0
 48
0.5
100
AcDbEllipse
 10
-0.8249556344998367
 20
-0.7075766572382789
 30
0.0
 11
-0.0914925017913609
 21
0.558503435367257
 31
0.0
210
0.0
220
0.0
230
0.9999999999999998
 40
0.4791521171568693
 41
1.81546389025909
 42
4.950805779971067
  0
ELLIPSE
  5
2F16
330
1F
100
AcDbEntity
  8
AM_0
 48
0.5
100
AcDbEllipse
 10
-5.683936326839631
 20
5.706419800287224
 30
0.0
 11
-3.966210482516084
 21
7.06114035784125
 31
0.0
210
0.0
220
0.0
230
0.9999999999999996
 40
0.6718500572366541
 41
3.150293851966936
 42
3.289372981340791
  0
ELLIPSE
  5
2F17
330
1F
100
AcDbEntity
  8
AM_0
 48
0.5
100
AcDbEllipse
 10
3.663565270375152
 20
-0.9671556199069755
 30
0.0
 11
-3.033773619561384
 21
8.659920347509055
 31
0.0
210
0.0
220
0.0
230
0.9999999999999998
 40
0.5692414936676708
 41
1.4152052319184
 42
1.653078121975955
  0
ELLIPSE
  5
2F18
330
1F
100
AcDbEntity
  8
AM_0
 48
0.5
100
AcDbEllipse
 10
-5.885029805373417
 20
6.46716140934695
 30
0.0
 11
-1.483254118469917
 21
8.751569265723382
 31
0.0
210
0.0
220
0.0
230
1.0
 40
0.9514686269784425
 41
3.642270873622967
 42
3.734847308143026
  0
SPLINE
  5
2F19
330
1F
100
AcDbEntity
  8
AM_0
100
AcDbSpline
210
0.0
220
0.0
230
1.0
 70
     8
 71
     3
 72
    22
 73
    18
 74
     0
 42
0.0000000001
 43
0.0000000001
 40
17.17441611292
 40
17.17441611292
 40
17.17441611292
 40
17.17441611292
 40
17.38177636558528
 40
18.41823744757437
 40
19.46215659509824
 40
20.51397914882054
 40
21.57394542641293
 40
22.64209583141747
 40
23.71826625065247
 40
24.80210429862395
 40
25.8930771157021
 40
26.99048705697709
 40
28.09349309193389
 40
29.20112995599786
 40
30.31233024745139
 40
31.42594771747373
 40
32.5407895042663
 40
32.54078950426994
 40
32.54078950426994
 40
32.54078950426994
 10
-16.19733974282535
 20
-3.053239566213211
 30
0.0
 10
-16.23574493789745
 20
-3.045368899691226
 30
0.0
 10
-16.46596310805603
 20
-2.997427809620769
 30
0.0
 10
-16.88770982304431
 20
-2.901299684357693
 30
0.0
 10
-17.46098825027701
 20
-2.752737311438762
 30
0.0
 10
-18.03420826164136
 20
-2.587210059392436
 30
0.0
 10
-18.6073739040385
 20
-2.405751190368975
 30
0.0
 10
-19.18048442035649
 20
-2.209473315525813
 30
0.0
 10
-19.75354686492116
 20
-1.999597962777027
 30
0.0
 10
-20.32656389117278
 20
-1.77741495851309
 30
0.0
 10
-20.89954080088144
 20
-1.544294493147063
 30
0.0
 10
-21.47248396518707
 20
-1.301674772289281
 30
0.0
 10
-22.04539835689063
 20
-1.051047671940323
 30
0.0
 10
-22.61828974330178
 20
-0.7939550923724241
 30
0.0
 10
-23.19116320260405
 20
-0.5319778619378353
 30
0.0
 10
-23.76402722141955
 20
-0.2667325217491516
 30
0.0
 10
-24.14586160306547
 20
-0.0888380985023731
 30
0.0
 10
-24.33688368654212
 20
0.0001579747371178
 30
0.0
  0
SPLINE
  5
2F1A
330
1F
100
AcDbEntity
  8
AM_0
100
AcDbSpline
210
0.0
220
0.0
230
1.0
 70
     8
 71
     3
 72
    17
 73
    13
 74
     0
 42
0.0000000001
 43
0.0000000001
 40
1.580019955310467
 40
1.580019955310467
 40
1.580019955310467
 40
1.580019955310467
 40
2.030549285115227
 40
3.082371838836284
 40
4.126290986361125
 40
5.162752068350215
 40
6.192395305374981
 40
7.216039564037012
 40
8.234688489606833
 40
9.249433870634691
 40
10.26152376260694
 40
11.27226744710342
 40
11.27226744710342
 40
11.27226744710342
 40
11.27226744710352
 10
-8.60580716012922
 20
-2.509315076614009
 30
0.0
 10
-8.686953792369312
 20
-2.535158783262889
 30
0.0
 10
-8.958010806251969
 20
-2.61986498372508
 30
0.0
 10
-9.420772348276081
 20
-2.752729689990451
 30
0.0
 10
-9.993970976463366
 20
-2.90152053529872
 30
0.0
 10
-10.56732740569631
 20
-3.032139142274043
 30
0.0
 10
-11.14071010592075
 20
-3.144146864277262
 30
0.0
 10
-11.7141552751627
 20
-3.236728951729352
 30
0.0
 10
-12.28764006208592
 20
-3.309357079480262
 30
0.0
 10
-12.86116055876267
 20
-3.36156059296052
 30
0.0
 10
-13.4347026351331
 20
-3.393003452091338
 30
0.0
 10
-13.81715682179555
 20
-3.400014977661507
 30
0.0
 10
-14.00825664683754
 20
-3.400012796554918
 30
0.0
  0
SPLINE
  5
2F1B
330
1F
100
AcDbEntity
  8
AM_0
100
AcDbSpline
210
0.0
220
0.0
230
1.0
 70
     8
 71
     3
 72
    11
 73
     7
 74
     0
 42
0.0000000001
 43
0.0000000001
 40
11.27226913003534
 40
11.27226913003534
 40
11.27226913003534
 40
11.2722691300354
 40
12.28301561507924
 40
13.29510212255852
 40
14.30984805882082
 40
15.18258238371378
 40
15.18258238371378
 40
15.18258238371378
 40
15.18258238371378
 10
-14.00825664683757
 20
-3.400012796554918
 30
0.0
 10
-14.19862981626422
 20
-3.383374370172954
 30
0.0
 10
-14.57901707511925
 20
-3.343088230771685
 30
0.0
 10
-15.14763371451146
 20
-3.261821122846367
 30
0.0
 10
-15.68726093156729
 20
-3.164756473020454
 30
0.0
 10
-16.03626014007685
 20
-3.090139987869962
 30
0.0
 10
-16.19708891310143
 20
-3.053281505187211
 30
0.0
  0
ELLIPSE
  5
2F1C
330
1F
100
AcDbEntity
  8
AM_0
 48
0.5
100
AcDbEllipse
 10
2.353078204780469
 20
4.081896383132311
 30
0.0
 11
-18.51130967775983
 21
18.70454436879465
 31
0.0
210
0.0
220
0.0
230
1.0
 40
0.253719809156368
 41
1.505516896663162
 42
1.609296933625331
  0
SPLINE
  5
2F1D
330
1F
100
AcDbEntity
  8
AM_0
 48
0.5
100
AcDbSpline
210
0.0
220
0.0
230
1.0
 70
     8
 71
     3
 72
    25
 73
    21
 74
     0
 42
0.0000000001
 43
0.0000000001
 40
6.846175049578289
 40
6.846175049578289
 40
6.846175049578289
 40
6.846175049578289
 40
7.604337694224321
 40
8.711974558287883
 40
9.814980593243754
 40
10.91239053451967
 40
12.0033633515982
 40
13.08720139956839
 40
14.16337181880432
 40
15.23152222380919
 40
16.29148850140128
 40
17.34331105512262
 40
18.38723020264746
 40
19.42369128463655
 40
20.45333379090873
 40
21.47697865721768
 40
22.49561244472435
 40
23.5103574802404
 40
24.52244778960836
 40
25.53320666051913
 40
25.53320666051913
 40
25.53320666051913
 40
25.53320666051913
 10
-3.590076789404556
 20
0.6154094627378895
 30
0.0
 10
-3.721616333575676
 20
0.6751074158601539
 30
0.0
 10
-4.045605258049453
 20
0.8214236442682963
 30
0.0
 10
-4.562525044821676
 20
1.051192794186711
 30
0.0
 10
-5.140937795646551
 20
1.301819965355873
 30
0.0
 10
-5.719379635224341
 20
1.544439667355365
 30
0.0
 10
-6.297855533448442
 20
1.777560137816584
 30
0.0
 10
-6.876371935967959
 20
1.99974314041405
 30
0.0
 10
-7.454934192242443
 20
2.209618494763867
 30
0.0
 10
-8.033544980710427
 20
2.405896364903651
 30
0.0
 10
-8.612211428372486
 20
2.587355250963574
 30
0.0
 10
-9.190932751645163
 20
2.752882440236626
 30
0.0
 10
-9.769713107362306
 20
2.901445044794858
 30
0.0
 10
-10.3485504529814
 20
3.032123633841338
 30
0.0
 10
-10.92744252727124
 20
3.144117241121341
 30
0.0
 10
-11.50638610896954
 20
3.236683521059028
 30
0.0
 10
-12.0853721899466
 20
3.309398822538217
 30
0.0
 10
-12.6643943891882
 20
3.361275491354575
 30
0.0
 10
-13.24344330741928
 20
3.393920304656215
 30
0.0
 10
-13.62957106776998
 20
3.397965791428156
 30
0.0
 10
-13.82250787338271
 20
3.39998720344528
 30
0.0
  0
SPLINE
  5
2F1E
330
1F
100
AcDbEntity
  8
AM_0
100
AcDbSpline
210
0.0
220
0.0
230
1.0
 70
     8
 71
     3
 72
    46
 73
    42
 74
     0
 42
0.0000000001
 43
0.0000000001
 40
0.0
 40
0.0
 40
0.0
 40
0.0
 40
0.5056245176053715
 40
0.759310862862336
 40
1.013969309739036
 40
1.269880374404297
 40
1.527291183660732
 40
1.786406454158005
 40
2.047386241038974
 40
2.310345544571907
 40
2.575337113970003
 40
2.842374715221223
 40
3.111417320030211
 40
3.382376832022752
 40
3.655120036292296
 40
3.929472521611371
 40
4.205224030350333
 40
4.482133246366229
 40
4.759933319229942
 40
5.038338087391601
 40
5.317048131389549
 40
5.595758175387723
 40
5.874162943549383
 40
6.151963016412869
 40
6.428872232428759
 40
6.704623741167955
 40
6.978976226486705
 40
7.251719430756336
 40
7.522680721168327
 40
7.791723325977311
 40
8.058760927228529
 40
8.32375249662655
 40
8.586708135057122
 40
8.84768792193809
 40
9.106803192435362
 40
9.364213819003406
 40
9.620125035580644
 40
9.87478726697307
 40
10.12847352585208
 40
10.38149610319407
 40
10.63418200686337
 40
10.63418200686337
 40
10.63418200686337
 40
10.63418200686337
 10
-1.598672469811393
 20
-3.400014958207122
 30
0.0
 10
-1.981145336514358
 20
-3.392269495384001
 30
0.0
 10
-2.555515827512466
 20
-3.380637911363218
 30
0.0
 10
-3.319281316677087
 20
-3.309024385383014
 30
0.0
 10
-3.892769589224518
 20
-3.236818901152609
 30
0.0
 10
-4.466208842176777
 20
-3.144119324649148
 30
0.0
 10
-5.039597564898557
 20
-3.032158315717999
 30
0.0
 10
-5.612932811779475
 20
-2.901471143363744
 30
0.0
 10
-6.186213622569191
 20
-2.752909151554559
 30
0.0
 10
-6.75943744596556
 20
-2.587384532912037
 30
0.0
 10
-7.33260542770558
 20
-2.40592393250473
 30
0.0
 10
-7.905716026141664
 20
-2.209646300110878
 30
0.0
 10
-8.478778448602167
 20
-1.999770881983139
 30
0.0
 10
-9.051795480285004
 20
-1.777587894228772
 30
0.0
 10
-9.624772390616218
 20
-1.54446742890604
 30
0.0
 10
-10.19771554687675
 20
-1.301847691054522
 30
0.0
 10
-10.77062997036946
 20
-1.051220659146239
 30
0.0
 10
-11.34352123699718
 20
-0.7941278213575549
 30
0.0
 10
-11.91639542104044
 20
-0.532151433459114
 30
0.0
 10
-12.48925775574239
 20
-0.2669024660832094
 30
0.0
 10
-13.06211527486241
 20
-0.0000149582605646
 30
0.0
 10
-13.63497279385661
 20
0.2668725498863817
 30
0.0
 10
-14.20783512893605
 20
0.5321215162898179
 30
0.0
 10
-14.78070931159954
 20
0.7940979077422846
 30
0.0
 10
-15.35360058334351
 20
1.051190732350353
 30
0.0
 10
-15.92651498786566
 20
1.301817813130943
 30
0.0
 10
-16.49945821438069
 20
1.544437369991138
 30
0.0
 10
-17.07243611046899
 20
1.777559011596362
 30
0.0
 10
-17.64545536861957
 20
1.999739980705662
 30
0.0
 10
-18.21851881333557
 20
2.209616475002664
 30
0.0
 10
-18.79162939842803
 20
2.405894165799568
 30
0.0
 10
-19.3647950256591
 20
2.587353098739029
 30
0.0
 10
-19.93801502978302
 20
2.752880277907182
 30
0.0
 10
-20.51129350047891
 20
2.901442876608367
 30
0.0
 10
-21.0846284155435
 20
3.032121498721705
 30
0.0
 10
-21.65801755863878
 20
3.144114980757394
 30
0.0
 10
-22.23146047132461
 20
3.236682181076955
 30
0.0
 10
-22.80494578883236
 20
3.309395978465074
 30
0.0
 10
-23.37846658759764
 20
3.361273444075054
 30
0.0
 10
-23.95200820474129
 20
3.39391794430774
 30
0.0
 10
-24.33446254551031
 20
3.397963573753182
 30
0.0
 10
-24.52556240706733
 20
3.399985041793989
 30
0.0
  0
SPLINE
  5
2F1F
330
1F
100
AcDbEntity
  8
AM_0
100
AcDbSpline
210
0.0
220
0.0
230
1.0
 70
     8
 71
     3
 72
    55
 73
    51
 74
     0
 42
0.0000000001
 43
0.0000000001
 40
0.0
 40
0.0
 40
0.0
 40
0.0
 40
1.010743684496582
 40
2.022833576467832
 40
3.037578957496688
 40
4.056212745003489
 40
5.079857003664532
 40
6.109500240690281
 40
7.145961322679372
 40
8.189895241603872
 40
9.241717795325891
 40
10.30168407291828
 40
11.36983447792315
 40
12.44600489715814
 40
13.52984294512926
 40
14.62081576220742
 40
15.7182257034828
 40
16.82123173843959
 40
17.92886860250316
 40
19.0400688939571
 40
20.15368796660465
 40
21.26852814259644
 40
22.38336992938901
 40
23.49698739941135
 40
24.6081876908653
 40
25.71582455492886
 40
26.81883757994213
 40
27.91624752121713
 40
29.00722033829659
 40
30.09105838626677
 40
31.16722880550176
 40
32.23537921050758
 40
33.29534548809967
 40
34.347168041821
 40
35.39108718934584
 40
36.42754827133493
 40
37.45720575381954
 40
38.48085062012849
 40
39.49948440763516
 40
40.51422944315121
 40
41.52631975251916
 40
42.53706336719636
 40
43.54780698187354
 40
44.55989729124051
 40
45.57464232675757
 40
46.59327611426424
 40
47.6169209805722
 40
48.64656348684535
 40
49.68302456883444
 40
50.58557219878025
 40
50.58557219878025
 40
50.58557219878025
 40
50.58557219878025
 10
-3.204200599399671
 20
-3.400012796555063
 30
0.0
 10
-3.395300426962827
 20
-3.397992040577066
 30
0.0
 10
-3.777754607564046
 20
-3.393943510997222
 30
0.0
 10
-4.351296696099644
 20
-3.361307817538808
 30
0.0
 10
-4.924814302286016
 20
-3.309425590334222
 30
0.0
 10
-5.498296413363164
 20
-3.23671067567735
 30
0.0
 10
-6.071737306882431
 20
-3.144148500075072
 30
0.0
 10
-6.645125670137087
 20
-3.032150672771518
 30
0.0
 10
-7.21846342108579
 20
-2.901471651050832
 30
0.0
 10
-7.791745475381343
 20
-2.752911650716909
 30
0.0
 10
-8.364967927928216
 20
-2.587382821159529
 30
0.0
 10
-8.938133635923382
 20
-2.405924169730935
 30
0.0
 10
-9.511244134418927
 20
-2.209646235817848
 30
0.0
 10
-10.0843065839715
 20
-1.99977089941686
 30
0.0
 10
-10.65732360827441
 20
-1.777587889437266
 30
0.0
 10
-11.23030052076437
 20
-1.544467430475945
 30
0.0
 10
-11.80324367583282
 20
-1.301847689598153
 30
0.0
 10
-12.37615810193484
 20
-1.05122066341843
 30
0.0
 10
-12.9490493592702
 20
-0.794127805644107
 30
0.0
 10
-13.52192357801876
 20
-0.5321514922706285
 30
0.0
 10
-14.09478578283281
 20
-0.2669022460097954
 30
0.0
 10
-14.667644063414
 20
-0.0000156519299984
 30
0.0
 10
-15.24049977234084
 20
0.2668757462748069
 30
0.0
 10
-15.81336389726411
 20
0.5321208619033042
 30
0.0
 10
-16.38623740879181
 20
0.7940979682641571
 30
0.0
 10
-16.95912968758593
 20
1.05119180544767
 30
0.0
 10
-17.53204649041181
 20
1.301816692732335
 30
0.0
 10
-18.10499054973597
 20
1.544437664029807
 30
0.0
 10
-18.67796754494471
 20
1.777557933954456
 30
0.0
 10
-19.25098454839736
 20
1.999740990658291
 30
0.0
 10
-19.8240469994173
 20
2.209616327366302
 30
0.0
 10
-20.39715751251047
 20
2.40589421434639
 30
0.0
 10
-20.97032316134869
 20
2.587353051060971
 30
0.0
 10
-21.543543150396
 20
2.752880419000878
 30
0.0
 10
-22.11682165960423
 20
2.901442365100166
 30
0.0
 10
-22.69015919787437
 20
3.032124014611586
 30
0.0
 10
-23.26355165531409
 20
3.144109050208551
 30
0.0
 10
-23.83699444332001
 20
3.236699875760908
 30
0.0
 10
-24.41047672440296
 20
3.30932859627197
 30
0.0
 10
-24.98399472908674
 20
3.361525885342548
 30
0.0
 10
-25.557536331327
 20
3.392978610476667
 30
0.0
 10
-26.13109053679615
 20
3.403485925203152
 30
0.0
 10
-26.70464474142139
 20
3.392978610460239
 30
0.0
 10
-27.27818634619827
 20
3.361525885408747
 30
0.0
 10
-27.85170434154295
 20
3.309328596023048
 30
0.0
 10
-28.4251866576406
 20
3.236699876697064
 30
0.0
 10
-28.99862651837
 20
3.144109498084576
 30
0.0
 10
-29.57201671686174
 20
3.03212515959836
 30
0.0
 10
-30.11928584150796
 20
2.907374484637757
 30
0.0
 10
-30.47436028205638
 20
2.816143136686926
 30
0.0
 10
-30.63909412723567
 20
2.771681650297306
 30
0.0
  0
SPLINE
  5
2F20
330
1F
100
AcDbEntity
  8
AM_0
 48
0.5
100
AcDbSpline
210
0.0
220
0.0
230
1.0
 70
     8
 71
     3
 72
    10
 73
     6
 74
     0
 42
0.0000000001
 43
0.0000000001
 40
0.0
 40
0.0
 40
0.0
 40
0.0
 40
2.69986029516136
 40
4.147722969032201
 40
6.285750005020438
 40
6.285750005020438
 40
6.285750005020438
 40
6.285750005020438
 10
-3.590076789404548
 20
0.6153690800725153
 30
0.0
 10
-2.984703080747229
 20
0.2994855850135871
 30
0.0
 10
-2.385797084266087
 20
-0.1857977573660913
 30
0.0
 10
-0.9694648550786846
 20
0.0491364101268183
 30
0.0
 10
-1.236201410397475
 20
0.8404257726604742
 30
0.0
 10
-1.412443883655219
 20
1.322741010181142
 30
0.0
  0
SPLINE
  5
2F21
330
1F
100
AcDbEntity
  8
AM_0
100
AcDbSpline
210
0.0
220
0.0
230
1.0
 70
     8
 71
     3
 72
    23
 73
    19
 74
     0
 42
0.0000000001
 43
0.0000000001
 40
16.03460024169435
 40
16.03460024169435
 40
16.03460024169435
 40
16.03460024169435
 40
16.35212704903564
 40
17.38177054169784
 40
18.41822485651776
 40
19.46214173629503
 40
20.51396345435107
 40
21.57393551351153
 40
22.64208202342361
 40
23.7182574881101
 40
24.80209208578934
 40
25.89306333925047
 40
26.99048218457928
 40
28.09348763352352
 40
29.20111863782268
 40
30.31232390128032
 40
31.42594612798585
 40
32.5407912310448
 40
32.5407912310486
 40
32.5407912310486
 40
32.5407912310486
 10
-33.74962041915739
 20
3.39998720344535
 30
0.0
 10
-33.02315084911661
 20
3.355521879517934
 30
0.0
 10
-32.68718254240027
 20
3.308143080492278
 30
0.0
 10
-32.27720644009375
 20
3.24107441361368
 30
0.0
 10
-31.70749215990544
 20
3.095448720099724
 30
0.0
 10
-31.13830705713818
 20
2.931935339629181
 30
0.0
 10
-30.56961749819026
 20
2.75148060424773
 30
0.0
 10
-30.00140329926137
 20
2.555090553144923
 30
0.0
 10
-29.43363161893268
 20
2.34388783467315
 30
0.0
 10
-28.86626291974238
 20
2.1191015956767
 30
0.0
 10
-28.29926496176321
 20
1.882004787521192
 30
0.0
 10
-27.73259228671291
 20
1.633977021288435
 30
0.0
 10
-27.16619897210801
 20
1.376459941515788
 30
0.0
 10
-26.60004728077747
 20
1.110934163453841
 30
0.0
 10
-26.03408984349687
 20
0.8389436831397688
 30
0.0
 10
-25.46827424062124
 20
0.5620767254308782
 30
0.0
 10
-24.90255439878843
 20
0.2819376593741191
 30
0.0
 10
-24.52550913900133
 20
0.0941197334288633
 30
0.0
 10
-24.33688368653957
 20
0.0001579747359059
 30
0.0
  0
LINE
  5
2F22
330
1F
100
AcDbEntity
  8
AM_0
 48
0.5
100
AcDbLine
 10
-0.0000000000000033
 20
-0.0000000000000079
 30
0.0
 11
-1.412443883655219
 21
1.322741010181142
 31
0.0
  0
VIEWPORT
  5
110
330
101
100
AcDbEntity
 67
     1
  8
0
100
AcDbViewport
 10
420.5
 20
297.0
 30
0.0
 40
948.9782706766916
 41
628.452
 68
     1
 69
     1
1001
ACAD
1000
MVIEW
1002
{
1070
    16
1010
0.0
1020
0.0
1030
0.0
1010
0.0
1020
0.0
1030
1.0
1040
0.0
1040
628.452
1040
420.5
1040
297.0
1040
50.0
1040
0.0
1040
0.0
1070
     0
1070
   100
1070
     1
1070
     1
1070
     0
1070
     0
1070
     0
1070
     0
1040
0.0
1040
0.0
1040
0.0
1040
10.0
1040
10.0
1040
10.0
1040
10.0
1070
     0
1002
{
1002
}
1002
}
  0
ENDSEC
  0
SECTION
  2
OBJECTS
  0
DICTIONARY
  5
C
330
0
100
AcDbDictionary
  3
ACAD_GROUP
350
D
  3
ACAD_LAYOUT
350
1A
  3
ACAD_MLINESTYLE
350
17
  3
ACAD_PLOTSETTINGS
350
19
  3
ACAD_PLOTSTYLENAME
350
E
  3
ACDBVARIABLEDICTIONARY
350
34
  3
ACMDICTIONARY
350
43
  3
AMG
350
2B
  3
AMGSNAPSETTINGS
350
6E
  3
DWGPROPS
350
2F9F
  3
ACDBHEADERROUNDTRIPXREC
350
2FAB
  0
DICTIONARY
  5
74
330
1F
100
AcDbDictionary
280
     1
  3
ACAD_INDEX
360
2FA1
  3
ACAD_LAYOUTSELFREF
360
2FCE
  0
DICTIONARY
  5
2FD3
330
101
100
AcDbDictionary
280
     1
  3
ACAD_LAYOUTSELFREF
360
2FD4
  0
DICTIONARY
  5
D
102
{ACAD_REACTORS
330
C
102
}
330
C
100
AcDbDictionary
  0
DICTIONARY
  5
1A
102
{ACAD_REACTORS
330
C
102
}
330
C
100
AcDbDictionary
  0
DICTIONARY
  5
17
102
{ACAD_REACTORS
330
C
102
}
330
C
100
AcDbDictionary
  3
STANDARD
350
18
  0
DICTIONARY
  5
19
102
{ACAD_REACTORS
330
C
102
}
330
C
100
AcDbDictionary
  0
ACDBDICTIONARYWDFLT
  5
E
102
{ACAD_REACTORS
330
C
102
}
330
C
100
AcDbDictionary
281
     1
  3
Normal
350
F
100
AcDbDictionaryWithDefault
340
F
  0
DICTIONARY
  5
34
102
{ACAD_REACTORS
330
C
102
}
330
C
100
AcDbDictionary
  3
INDEXCTL
350
35
  3
SORTENTS
350
B5E
  0
DICTIONARY
  5
43
102
{ACAD_REACTORS
330
C
102
}
330
C
100
AcDbDictionary
  3
ACMSTDDICTIONARY
350
260
  0
DICTIONARY
  5
2B
102
{ACAD_REACTORS
330
C
102
}
330
C
100
AcDbDictionary
  3
ACMGSETTINGS
350
2C
  0
DICTIONARY
  5
6E
102
{ACAD_REACTORS
330
C
102
}
330
C
100
AcDbDictionary
  0
XRECORD
  5
2F9F
102
{ACAD_REACTORS
330
C
102
}
330
C
100
AcDbXrecord
  1
DWGPROPS COOKIE
  2

  3

  4

  6

  7

  8

  9

300
AmdtFileType=82
301
=
302
=
303
=
304
=
305
=
306
=
307
=
308
=
309
=
 40
0.0794596296296296
 41
2452800.443498622
 42
2452946.608571678
  1

 90
        1
  0
DICTIONARY
  5
2FAB
102
{ACAD_REACTORS
330
C
102
}
330
C
100
AcDbDictionary
  3
TSTACKALIGN
350
2FAC
  3
TSTACKSIZE
350
2FAD
  3
HYPERLINKBASE
350
2FAE
  3
STYLESHEET
350
2FAF
  3
LAYOUTDICT
350
2FB0
  3
PLOTSETDICT
350
2FB1
  3
PLOTSTYLNAMDICT
350
2FB2
  3
LWETCUNION
350
2FB3
  3
INSUNITS
350
2FB4
  3
CEPSNTYPE
350
2FB5
  3
FINGERPRINTGUID
350
2FB6
  3
VERSIONGUID
350
2FB7
  3
PSVPSCALE
350
2FB8
  3
DIMSTYLEDATA
350
2FB9
  3
PUCSORTHOREF
350
2FBA
  3
PUCSORTHOVIEW
350
2FBB
  3
PUCSBASE
350
2FBC
  3
PUCSORGTOP
350
2FBD
  3
PUCSORGBOTTOM
350
2FBE
  3
PUCSORGLEFT
350
2FBF
  3
PUCSORGRIGHT
350
2FC0
  3
PUCSORGFRONT
350
2FC1
  3
PUCSORGBACK
350
2FC2
  3
UCSORTHOREF
350
2FC3
  3
UCSORTHOVIEW
350
2FC4
  3
UCSBASE
350
2FC5
  3
UCSORGTOP
350
2FC6
  3
UCSORGBOTTOM
350
2FC7
  3
UCSORGLEFT
350
2FC8
  3
UCSORGRIGHT
350
2FC9
  3
UCSORGFRONT
350
2FCA
  3
UCSORGBACK
350
2FCB
  0
DICTIONARY
  5
2FA1
102
{ACAD_REACTORS
330
74
102
}
330
74
100
AcDbDictionary
  3
*A1
350
2FA2
  0
XRECORD
  5
2FCE
102
{ACAD_REACTORS
330
74
102
}
330
74
100
AcDbXrecord
340
1F
  0
XRECORD
  5
2FD4
102
{ACAD_REACTORS
330
2FD3
102
}
330
2FD3
100
AcDbXrecord
340
101
  0
MLINESTYLE
  5
18
102
{ACAD_REACTORS
330
17
102
}
330
17
100
AcDbMlineStyle
  2
STANDARD
 70
     0
  3

 62
   256
 51
90.0
 52
90.0
 71
     2
 49
0.5
 62
   256
  6
BYLAYER
 49
-0.5
 62
   256
  6
BYLAYER
  0
ACDBPLACEHOLDER
  5
F
102
{ACAD_REACTORS
330
E
102
}
330
E
100
AcDbPlaceHolder
280
     0
  0
DICTIONARYVAR
  5
35
102
{ACAD_REACTORS
330
34
102
}
330
34
100
DictionaryVariables
280
     0
  1
1
  0
DICTIONARYVAR
  5
B5E
102
{ACAD_REACTORS
330
34
102
}
330
34
100
DictionaryVariables
280
     0
  1
96
  0
DICTIONARY
  5
260
102
{ACAD_REACTORS
330
43
102
}
330
43
100
AcDbDictionary
  0
DICTIONARY
  5
2C
102
{ACAD_REACTORS
330
2B
102
}
330
2B
100
AcDbDictionary
  3
DWGSETTINGS
350
2D
  0
XRECORD
  5
2FAC
102
{ACAD_REACTORS
330
2FAB
102
}
330
2FAB
100
AcDbXrecord
 90
        1
  0
XRECORD
  5
2FAD
102
{ACAD_REACTORS
330
2FAB
102
}
330
2FAB
100
AcDbXrecord
 90
       70
  0
XRECORD
  5
2FAE
102
{ACAD_REACTORS
330
2FAB
102
}
330
2FAB
100
AcDbXrecord
  1

  0
XRECORD
  5
2FAF
102
{ACAD_REACTORS
330
2FAB
102
}
330
2FAB
100
AcDbXrecord
  1
ASAMI.ctb
  0
XRECORD
  5
2FB0
102
{ACAD_REACTORS
330
2FAB
102
}
330
2FAB
100
AcDbXrecord
340
1A
  0
XRECORD
  5
2FB1
102
{ACAD_REACTORS
330
2FAB
102
}
330
2FAB
100
AcDbXrecord
340
19
  0
XRECORD
  5
2FB2
102
{ACAD_REACTORS
330
2FAB
102
}
330
2FAB
100
AcDbXrecord
340
E
  0
XRECORD
  5
2FB3
102
{ACAD_REACTORS
330
2FAB
102
}
330
2FAB
100
AcDbXrecord
 90
    10781
  0
XRECORD
  5
2FB4
102
{ACAD_REACTORS
330
2FAB
102
}
330
2FAB
100
AcDbXrecord
 90
        4
  0
XRECORD
  5
2FB5
102
{ACAD_REACTORS
330
2FAB
102
}
330
2FAB
100
AcDbXrecord
 90
        0
  0
XRECORD
  5
2FB6
102
{ACAD_REACTORS
330
2FAB
102
}
330
2FAB
100
AcDbXrecord
  1
{AFB28963-8C59-40AE-9337-C84526B81ACE}
  0
XRECORD
  5
2FB7
102
{ACAD_REACTORS
330
2FAB
102
}
330
2FAB
100
AcDbXrecord
  1
{76195B25-07CE-43EE-B340-122047322B74}
  0
XRECORD
  5
2FB8
102
{ACAD_REACTORS
330
2FAB
102
}
330
2FAB
100
AcDbXrecord
 40
0.0
  0
XRECORD
  5
2FB9
102
{ACAD_REACTORS
330
2FAB
102
}
330
2FAB
100
AcDbXrecord
1000
DSTYLE
1002
{
1070
    79
 70
     2
1070
   341
340
59
1070
   342
340
59
1070
   371
 70
    -1
1070
   372
 70
    -1
1002
}
  0
XRECORD
  5
2FBA
102
{ACAD_REACTORS
330
2FAB
102
}
330
2FAB
100
AcDbXrecord
340
0
  0
XRECORD
  5
2FBB
102
{ACAD_REACTORS
330
2FAB
102
}
330
2FAB
100
AcDbXrecord
 70
     0
  0
XRECORD
  5
2FBC
102
{ACAD_REACTORS
330
2FAB
102
}
330
2FAB
100
AcDbXrecord
340
0
  0
XRECORD
  5
2FBD
102
{ACAD_REACTORS
330
2FAB
102
}
330
2FAB
100
AcDbXrecord
 10
0.0
 20
0.0
 30
0.0
  0
XRECORD
  5
2FBE
102
{ACAD_REACTORS
330
2FAB
102
}
330
2FAB
100
AcDbXrecord
 10
0.0
 20
0.0
 30
0.0
  0
XRECORD
  5
2FBF
102
{ACAD_REACTORS
330
2FAB
102
}
330
2FAB
100
AcDbXrecord
 10
0.0
 20
0.0
 30
0.0
  0
XRECORD
  5
2FC0
102
{ACAD_REACTORS
330
2FAB
102
}
330
2FAB
100
AcDbXrecord
 10
0.0
 20
0.0
 30
0.0
  0
XRECORD
  5
2FC1
102
{ACAD_REACTORS
330
2FAB
102
}
330
2FAB
100
AcDbXrecord
 10
0.0
 20
0.0
 30
0.0
  0
XRECORD
  5
2FC2
102
{ACAD_REACTORS
330
2FAB
102
}
330
2FAB
100
AcDbXrecord
 10
0.0
 20
0.0
 30
0.0
  0
XRECORD
  5
2FC3
102
{ACAD_REACTORS
330
2FAB
102
}
330
2FAB
100
AcDbXrecord
340
0
  0
XRECORD
  5
2FC4
102
{ACAD_REACTORS
330
2FAB
102
}
330
2FAB
100
AcDbXrecord
 70
     0
  0
XRECORD
  5
2FC5
102
{ACAD_REACTORS
330
2FAB
102
}
330
2FAB
100
AcDbXrecord
340
0
  0
XRECORD
  5
2FC6
102
{ACAD_REACTORS
330
2FAB
102
}
330
2FAB
100
AcDbXrecord
 10
0.0
 20
0.0
 30
0.0
  0
XRECORD
  5
2FC7
102
{ACAD_REACTORS
330
2FAB
102
}
330
2FAB
100
AcDbXrecord
 10
0.0
 20
0.0
 30
0.0
  0
XRECORD
  5
2FC8
102
{ACAD_REACTORS
330
2FAB
102
}
330
2FAB
100
AcDbXrecord
 10
0.0
 20
0.0
 30
0.0
  0
XRECORD
  5
2FC9
102
{ACAD_REACTORS
330
2FAB
102
}
330
2FAB
100
AcDbXrecord
 10
0.0
 20
0.0
 30
0.0
  0
XRECORD
  5
2FCA
102
{ACAD_REACTORS
330
2FAB
102
}
330
2FAB
100
AcDbXrecord
 10
0.0
 20
0.0
 30
0.0
  0
XRECORD
  5
2FCB
102
{ACAD_REACTORS
330
2FAB
102
}
330
2FAB
100
AcDbXrecord
 10
0.0
 20
0.0
 30
0.0
  0
LAYER_INDEX
  5
2FA2
102
{ACAD_REACTORS
330
2FA1
102
}
330
2FA1
100
AcDbIndex
 40
2453151.569224884
100
AcDbLayerIndex
  8
0
360
2FA3
 90
        0
  8
AM_0
360
2FA4
 90
       46
  8
AM_7
360
2FA5
 90
        1
  8
AM_11
360
2FA6
 90
       17
  8
AM_5
360
2FA7
 90
        5
  8
Defpoints
360
2FA8
 90
        0
  8
AM_6
360
2FA9
 90
        1
  0
XRECORD
  5
2D
102
{ACAD_REACTORS
330
2C
102
}
330
2C
100
AcDbXrecord
  1
VERSION
140
15.0
  1
PRODUCT
  2
AutoCAD Mechanical 2000
  0
IDBUFFER
  5
2FA3
330
0
100
AcDbIdBuffer
  0
IDBUFFER
  5
2FA4
330
0
100
AcDbIdBuffer
330
2E5B
330
2E5C
330
2F03
330
2F04
330
2F05
330
2F07
330
2F08
330
2F09
330
2F0A
330
2F0B
330
2F0C
330
2F0E
330
2F10
330
2F11
330
2F12
330
2F14
330
2F15
330
2F16
330
2F17
330
2F18
330
2F19
330
2F1A
330
2F1B
330
2F1C
330
2F1D
330
2F1E
330
2F1F
330
2F20
330
2F21
330
2F22
330
C1D
330
1D9D
330
1D9E
330
1DA2
330
1DA4
330
1DA5
330
1F71
330
1F72
330
2398
330
23D5
330
2500
330
2503
330
2567
330
2568
330
2569
330
2E35
  0
IDBUFFER
  5
2FA5
330
0
100
AcDbIdBuffer
330
1D14
  0
IDBUFFER
  5
2FA6
330
0
100
AcDbIdBuffer
330
2F13
330
144A
330
144B
330
1F77
330
1F78
330
1F79
330
1F7A
330
231A
330
2324
330
2325
330
2327
330
2328
330
232D
330
232E
330
2F06
330
2F0D
330
2F0F
  0
IDBUFFER
  5
2FA7
330
0
100
AcDbIdBuffer
330
CC6
330
DF5
330
1F93
330
2577
330
2CA4
  0
IDBUFFER
  5
2FA8
330
0
100
AcDbIdBuffer
  0
IDBUFFER
  5
2FA9
330
0
100
AcDbIdBuffer
330
19BD
  0
ENDSEC
  0
EOF
