  0
SECTION
  2
HEADER
  9
$ACADVER
  1
AC1014
  9
$ACADMAINTVER
 70
     9
  9
$DWGCODEPAGE
  3
ANSI_932
  9
$INSBASE
 10
0.0
 20
0.0
 30
0.0
  9
$EXTMIN
 10
-118.0119014600295
 20
-48.21121795816978
 30
-0.00000001
  9
$EXTMAX
 10
22.92088102153688
 20
26.42331848374567
 30
0.00000001
  9
$LIMMIN
 10
-137.5523786436874
 20
-68.37184242125957
  9
$LIMMAX
 10
36.95983656968434
 20
44.21400200856396
  9
$ORTHOMODE
 70
     0
  9
$REGENMODE
 70
     1
  9
$FILLMODE
 70
     1
  9
$QTEXTMODE
 70
     0
  9
$MIRRTEXT
 70
     0
  9
$DRAGMODE
 70
     2
  9
$LTSCALE
 40
0.5
  9
$OSMODE
 70
    55
  9
$ATTMODE
 70
     1
  9
$TEXTSIZE
 40
2.5
  9
$TRACEWID
 40
1.0
  9
$TEXTSTYLE
  7
STANDARD
  9
$CLAYER
  8
AM_0
  9
$CELTYPE
  6
BYLAYER
  9
$CECOLOR
 62
   256
  9
$CELTSCALE
 40
1.0
  9
$DELOBJ
 70
     1
  9
$DISPSILH
 70
     0
  9
$DIMSCALE
 40
0.5
  9
$DIMASZ
 40
2.5
  9
$DIMEXO
 40
1.0
  9
$DIMDLI
 40
12.0
  9
$DIMRND
 40
0.0
  9
$DIMDLE
 40
0.0
  9
$DIMEXE
 40
1.0
  9
$DIMTP
 40
0.1
  9
$DIMTM
 40
0.1
  9
$DIMTXT
 40
3.2
  9
$DIMCEN
 40
0.0
  9
$DIMTSZ
 40
0.0
  9
$DIMTOL
 70
     0
  9
$DIMLIM
 70
     0
  9
$DIMTIH
 70
     0
  9
$DIMTOH
 70
     0
  9
$DIMSE1
 70
     0
  9
$DIMSE2
 70
     0
  9
$DIMTAD
 70
     3
  9
$DIMZIN
 70
     8
  9
$DIMBLK
  1
OPEN30
  9
$DIMASO
 70
     1
  9
$DIMSHO
 70
     1
  9
$DIMPOST
  1

  9
$DIMAPOST
  1
"
  9
$DIMALT
 70
     0
  9
$DIMALTD
 70
     2
  9
$DIMALTF
 40
0.0393701
  9
$DIMLFAC
 40
1.0
  9
$DIMTOFL
 70
     1
  9
$DIMTVP
 40
0.0
  9
$DIMTIX
 70
     0
  9
$DIMSOXD
 70
     0
  9
$DIMSAH
 70
     0
  9
$DIMBLK1
  1

  9
$DIMBLK2
  1

  9
$DIMSTYLE
  2
AM_JIS
  9
$DIMCLRD
 70
   256
  9
$DIMCLRE
 70
   256
  9
$DIMCLRT
 70
     2
  9
$DIMTFAC
 40
0.71
  9
$DIMGAP
 40
1.5
  9
$DIMJUST
 70
     0
  9
$DIMSD1
 70
     0
  9
$DIMSD2
 70
     0
  9
$DIMTOLJ
 70
     0
  9
$DIMTZIN
 70
     0
  9
$DIMALTZ
 70
     0
  9
$DIMALTTZ
 70
     0
  9
$DIMFIT
 70
     3
  9
$DIMUPT
 70
     0
  9
$DIMUNIT
 70
     2
  9
$DIMDEC
 70
     3
  9
$DIMTDEC
 70
     3
  9
$DIMALTU
 70
     2
  9
$DIMALTTD
 70
     2
  9
$DIMTXSTY
  7
ASAMI
  9
$DIMAUNIT
 70
     0
  9
$LUNITS
 70
     2
  9
$LUPREC
 70
     2
  9
$SKETCHINC
 40
1.0
  9
$FILLETRAD
 40
2.5
  9
$AUNITS
 70
     0
  9
$AUPREC
 70
     0
  9
$MENU
  1
.
  9
$ELEVATION
 40
0.0
  9
$PELEVATION
 40
0.0
  9
$THICKNESS
 40
0.0
  9
$LIMCHECK
 70
     0
  9
$BLIPMODE
 70
     0
  9
$CHAMFERA
 40
2.5
  9
$CHAMFERB
 40
2.5
  9
$CHAMFERC
 40
20.0
  9
$CHAMFERD
 40
0.0
  9
$SKPOLY
 70
     0
  9
$TDCREATE
 40
2452800.443498622
  9
$TDUPDATE
 40
2453151.588399872
  9
$TDINDWG
 40
0.2947648148
  9
$TDUSRTIMER
 40
0.2947648148
  9
$USRTIMER
 70
     1
  9
$ANGBASE
 50
0.0
  9
$ANGDIR
 70
     0
  9
$PDMODE
 70
     0
  9
$PDSIZE
 40
0.0
  9
$PLINEWID
 40
0.0
  9
$COORDS
 70
     1
  9
$SPLFRAME
 70
     0
  9
$SPLINETYPE
 70
     6
  9
$SPLINESEGS
 70
     8
  9
$ATTDIA
 70
     1
  9
$ATTREQ
 70
     1
  9
$HANDLING
 70
 12289
  9
$HANDSEED
  5
3C3E
  9
$SURFTAB1
 70
     6
  9
$SURFTAB2
 70
     6
  9
$SURFTYPE
 70
     6
  9
$SURFU
 70
     6
  9
$SURFV
 70
     6
  9
$UCSNAME
  2

  9
$UCSORG
 10
0.0
 20
0.0
 30
0.0
  9
$UCSXDIR
 10
1.0
 20
0.0000000000000027
 30
0.0
  9
$UCSYDIR
 10
-0.0000000000000027
 20
1.0
 30
0.0
  9
$PUCSNAME
  2

  9
$PUCSORG
 10
0.0
 20
0.0
 30
0.0
  9
$PUCSXDIR
 10
1.0
 20
0.0
 30
0.0
  9
$PUCSYDIR
 10
0.0
 20
1.0
 30
0.0
  9
$USERI1
 70
     0
  9
$USERI2
 70
     0
  9
$USERI3
 70
     0
  9
$USERI4
 70
     0
  9
$USERI5
 70
     0
  9
$USERR1
 40
0.0
  9
$USERR2
 40
0.0
  9
$USERR3
 40
0.0
  9
$USERR4
 40
0.0
  9
$USERR5
 40
0.0
  9
$WORLDVIEW
 70
     1
  9
$SHADEDGE
 70
     3
  9
$SHADEDIF
 70
    70
  9
$TILEMODE
 70
     1
  9
$MAXACTVP
 70
    64
  9
$PINSBASE
 10
0.0
 20
0.0
 30
0.0
  9
$PLIMCHECK
 70
     0
  9
$PEXTMIN
 10
1.000000000000000E+20
 20
1.000000000000000E+20
 30
1.000000000000000E+20
  9
$PEXTMAX
 10
-1.000000000000000E+20
 20
-1.000000000000000E+20
 30
-1.000000000000000E+20
  9
$PLIMMIN
 10
0.0
 20
0.0
  9
$PLIMMAX
 10
841.0
 20
594.0
  9
$UNITMODE
 70
     0
  9
$VISRETAIN
 70
     1
  9
$PLINEGEN
 70
     0
  9
$PSLTSCALE
 70
     0
  9
$TREEDEPTH
 70
  3020
  9
$PICKSTYLE
 70
     0
  9
$CMLSTYLE
  2
STANDARD
  9
$CMLJUST
 70
     0
  9
$CMLSCALE
 40
20.0
  9
$PROXYGRAPHICS
 70
     1
  9
$MEASUREMENT
 70
     1
  0
ENDSEC
  0
SECTION
  2
CLASSES
  0
CLASS
  1
ACDBDICTIONARYWDFLT
  2
AcDbDictionaryWithDefault
  3
AutoCAD 2000
 90
        0
280
     0
281
     0
  0
CLASS
  1
ACDBPLACEHOLDER
  2
AcDbPlaceHolder
  3
AutoCAD 2000
 90
        0
280
     0
281
     0
  0
CLASS
  1
LAYOUT
  2
AcDbLayout
  3
AutoCAD 2000
 90
        0
280
     0
281
     0
  0
CLASS
  1
AMGSETTINGSOBJ
  2
AmgSettingsObj
  3
"AcadM|Product Description: AutoCAD Mechanical 2000|Company: Autodesk"
 90
        0
280
     0
281
     0
  0
CLASS
  1
ACME_DOCUMENT
  2
AcMeDbDoc
  3
AcMeServices
 90
        0
280
     0
281
     0
  0
CLASS
  1
ACMESCOPE
  2
AcMeScope
  3
AcMeServices
 90
        0
280
     0
281
     0
  0
CLASS
  1
ACMECOMMANDHISTORY
  2
AcMeCommandHistory
  3
AcMeServices
 90
        0
280
     0
281
     0
  0
CLASS
  1
DICTIONARYVAR
  2
AcDbDictionaryVar
  3
AutoCAD 2000
 90
        0
280
     0
281
     0
  0
CLASS
  1
ACIMSYSVARMAN
  2
AcImSysVarManager
  3
AcMeServices
 90
        0
280
     0
281
     0
  0
CLASS
  1
ACIMREALSYSVAR
  2
AcImRealSysVar
  3
AcMeServices
 90
        0
280
     0
281
     0
  0
CLASS
  1
ACIMINTSYSVAR
  2
AcImIntSysVar
  3
AcMeServices
 90
        0
280
     0
281
     0
  0
CLASS
  1
ACMEDRAWINGMAN
  2
AcMeDrawingMan
  3
AcMeServices
 90
        0
280
     0
281
     0
  0
CLASS
  1
ACMEVIEW
  2
AcMeView
  3
AcMeServices
 90
        0
280
     0
281
     0
  0
CLASS
  1
ACDBENTITYCACHE
  2
AcMeEntityCache
  3
AcMeServices
 90
        0
280
     0
281
     0
  0
CLASS
  1
GSMANAGER
  2
AcMeGSManager
  3
AcMeServices
 90
        0
280
     0
281
     0
  0
CLASS
  1
AmdtInternalReactor
  2
AmdtInternalReactor
  3
AcMeServices
 90
        0
280
     0
281
     0
  0
CLASS
  1
ACMESTATEMGR
  2
AcMeStateMgr
  3
AcMeServices
 90
        0
280
     0
281
     0
  0
CLASS
  1
ACME_DATABASE
  2
AcMeDbDatabase
  3
AcMeServices
 90
        0
280
     0
281
     0
  0
CLASS
  1
ACRFINSADJUSTERMGR
  2
AcRfInsAdjusterMgr
  3
AcMeServices
 90
        0
280
     0
281
     0
  0
CLASS
  1
ACMDATADICTIONARY
  2
AcmDataDictionary
  3
"AcmSymBB|Product Description: AutoCAD Mechanical 2000|Company: Autodesk"
 90
        0
280
     0
281
     0
  0
CLASS
  1
ACMDATAENTRYBLOCK
  2
AcmDataEntryBlock
  3
"AcmSymBB|Product Description: AutoCAD Mechanical 2000|Company: Autodesk"
 90
        0
280
     0
281
     0
  0
CLASS
  1
AMGOBJPROPCFG
  2
AmgObjPropCfg
  3
"AmgLay|Product Description: AutoCAD Mechanical 2000|Company: Autodesk"
 90
        1
280
     0
281
     0
  0
CLASS
  1
ACAMGFILTERDAT
  2
AcAmgFilterDat
  3
"AcadM|Product Description: AutoCAD Mechanical 2000|Company: Autodesk"
 90
        0
280
     0
281
     0
  0
CLASS
  1
LAYER_INDEX
  2
AcDbLayerIndex
  3
AutoCAD 2000
 90
        0
280
     0
281
     0
  0
CLASS
  1
IDBUFFER
  2
AcDbIdBuffer
  3
AutoCAD 2000
 90
        0
280
     0
281
     0
  0
CLASS
  1
ACIMSTRSYSVAR
  2
AcImStrSysVar
  3
AcMeServices
 90
        0
280
     0
281
     0
  0
CLASS
  1
ACMSTANDARDJIS
  2
AcmStandardJIS
  3
"AcmSymBB|Product Description: AutoCAD Mechanical 2000|Company: Autodesk"
 90
        0
280
     0
281
     0
  0
CLASS
  1
ACMSURFSTANDARDJIS
  2
AcmSurfTextStdJIS
  3
"AcmSymBB|Product Description: AutoCAD Mechanical 2000|Company: Autodesk"
 90
        0
280
     0
281
     0
  0
CLASS
  1
ACMFCFSTANDARDJIS
  2
AcmFCFStdJIS
  3
"AcmSymBB|Product Description: AutoCAD Mechanical 2000|Company: Autodesk"
 90
        0
280
     0
281
     0
  0
CLASS
  1
ACMWELDSTANDARDJIS
  2
AcmWeldingStdJIS
  3
"AcmSymBB|Product Description: AutoCAD Mechanical 2000|Company: Autodesk"
 90
        0
280
     0
281
     0
  0
CLASS
  1
ACMIDSTANDARDJIS
  2
AcmIdStdJIS
  3
"AcmSymBB|Product Description: AutoCAD Mechanical 2000|Company: Autodesk"
 90
        0
280
     0
281
     0
  0
CLASS
  1
ACMDATUMSTANDARDJIS
  2
AcmDatumStdJIS
  3
"AcmSymBB|Product Description: AutoCAD Mechanical 2000|Company: Autodesk"
 90
        0
280
     0
281
     0
  0
CLASS
  1
ACMBOMSTANDARDJIS
  2
AcmBOMStdJIS
  3
"AcmSymBB|Product Description: AutoCAD Mechanical 2000|Company: Autodesk"
 90
        0
280
     0
281
     0
  0
CLASS
  1
ACMSTANDARDANSI
  2
AcmStandardANSI
  3
"AcmSymBB|Product Description: AutoCAD Mechanical 2000|Company: Autodesk"
 90
        0
280
     0
281
     0
  0
CLASS
  1
ACMSURFSTANDARDANSI
  2
AcmSurfTextStdANSI
  3
"AcmSymBB|Product Description: AutoCAD Mechanical 2000|Company: Autodesk"
 90
        0
280
     0
281
     0
  0
CLASS
  1
ACMFCFSTANDARDANSI
  2
AcmFCFStdANSI
  3
"AcmSymBB|Product Description: AutoCAD Mechanical 2000|Company: Autodesk"
 90
        0
280
     0
281
     0
  0
CLASS
  1
ACMWELDSTANDARDANSI
  2
AcmWeldingStdANSI
  3
"AcmSymBB|Product Description: AutoCAD Mechanical 2000|Company: Autodesk"
 90
        0
280
     0
281
     0
  0
CLASS
  1
ACMIDSTANDARDANSI
  2
AcmIdStdANSI
  3
"AcmSymBB|Product Description: AutoCAD Mechanical 2000|Company: Autodesk"
 90
        0
280
     0
281
     0
  0
CLASS
  1
ACMDATUMSTANDARDANSI
  2
AcmDatumStdANSI
  3
"AcmSymBB|Product Description: AutoCAD Mechanical 2000|Company: Autodesk"
 90
        0
280
     0
281
     0
  0
CLASS
  1
ACMBOMSTANDARDANSI
  2
AcmBOMStdANSI
  3
"AcmSymBB|Product Description: AutoCAD Mechanical 2000|Company: Autodesk"
 90
        0
280
     0
281
     0
  0
CLASS
  1
ACMSTANDARDBSI
  2
AcmStandardBSI
  3
"AcmSymBB|Product Description: AutoCAD Mechanical 2000|Company: Autodesk"
 90
        0
280
     0
281
     0
  0
CLASS
  1
ACMSURFSTANDARDBSI
  2
AcmSurfTextStdBSI
  3
"AcmSymBB|Product Description: AutoCAD Mechanical 2000|Company: Autodesk"
 90
        0
280
     0
281
     0
  0
CLASS
  1
ACMFCFSTANDARDBSI
  2
AcmFCFStdBSI
  3
"AcmSymBB|Product Description: AutoCAD Mechanical 2000|Company: Autodesk"
 90
        0
280
     0
281
     0
  0
CLASS
  1
ACMWELDSTANDARDBSI
  2
AcmWeldingStdBSI
  3
"AcmSymBB|Product Description: AutoCAD Mechanical 2000|Company: Autodesk"
 90
        0
280
     0
281
     0
  0
CLASS
  1
ACMIDSTANDARDBSI
  2
AcmIdStdBSI
  3
"AcmSymBB|Product Description: AutoCAD Mechanical 2000|Company: Autodesk"
 90
        0
280
     0
281
     0
  0
CLASS
  1
ACMDATUMSTANDARDBSI
  2
AcmDatumStdBSI
  3
"AcmSymBB|Product Description: AutoCAD Mechanical 2000|Company: Autodesk"
 90
        0
280
     0
281
     0
  0
CLASS
  1
ACMBOMSTANDARDBSI
  2
AcmBOMStdBSI
  3
"AcmSymBB|Product Description: AutoCAD Mechanical 2000|Company: Autodesk"
 90
        0
280
     0
281
     0
  0
CLASS
  1
LONG_TRANSACTION
  2
AcDbLongTransaction
  3
AutoCAD 2000
 90
        0
280
     0
281
     0
  0
CLASS
  1
LWPOLYLINE
  2
AcDbPolyline
  3
AutoCAD 2000
 90
        0
280
     0
281
     1
  0
CLASS
  1
HATCH
  2
AcDbHatch
  3
AutoCAD 2000
 90
        0
280
     0
281
     1
  0
CLASS
  1
XRECORD
  2
AcDbXrecord
  3
AutoCAD 2000
 90
        0
280
     0
281
     0
  0
ENDSEC
  0
SECTION
  2
TABLES
  0
TABLE
  2
VPORT
  5
8
330
0
100
AcDbSymbolTable
 70
     3
  0
VPORT
  5
3C13
330
8
100
AcDbSymbolTableRecord
100
AcDbViewportTableRecord
  2
*ACTIVE
 70
     0
 10
0.0
 20
0.0
 11
1.0
 21
1.0
 12
-34.49187994383891
 22
15.29623628714914
 13
0.0
 23
0.0
 14
2.5
 24
2.5
 15
10.0
 25
10.0
 16
0.0
 26
0.0
 36
1.0
 17
0.0
 27
0.0
 37
0.0
 40
202.0922095689253
 41
1.56570841889117
 42
50.0
 43
0.0
 44
0.0
 50
0.0
 51
0.0
 71
     0
 72
   100
 73
     1
 74
     1
 75
     0
 76
     0
 77
     0
 78
     0
  0
ENDTAB
  0
TABLE
  2
LTYPE
  5
5
330
0
100
AcDbSymbolTable
 70
    10
  0
LTYPE
  5
14
330
5
100
AcDbSymbolTableRecord
100
AcDbLinetypeTableRecord
  2
BYBLOCK
 70
     0
  3

 72
    65
 73
     0
 40
0.0
  0
LTYPE
  5
15
330
5
100
AcDbSymbolTableRecord
100
AcDbLinetypeTableRecord
  2
BYLAYER
 70
     0
  3

 72
    65
 73
     0
 40
0.0
  0
LTYPE
  5
16
330
5
100
AcDbSymbolTableRecord
100
AcDbLinetypeTableRecord
  2
CONTINUOUS
 70
     0
  3
Solid line
 72
    65
 73
     0
 40
0.0
  0
LTYPE
  5
4B
330
5
100
AcDbSymbolTableRecord
100
AcDbLinetypeTableRecord
  2
AM_ISO02W050
 70
     0
  3
__ __ __ __ __ __ __ __ __ __ __ __ __ __ __
 72
    65
 73
     2
 40
7.5
 49
6.0
 74
     0
 49
-1.5
 74
     0
  0
LTYPE
  5
4C
330
5
100
AcDbSymbolTableRecord
100
AcDbLinetypeTableRecord
  2
AM_ISO08W050
 70
     0
  3
____ . ____ . ____ . ____ . ____ . ____ . ____
 72
    65
 73
     4
 40
18.0
 49
12.0
 74
     0
 49
-1.5
 74
     0
 49
3.0
 74
     0
 49
-1.5
 74
     0
  0
LTYPE
  5
4D
330
5
100
AcDbSymbolTableRecord
100
AcDbLinetypeTableRecord
  2
AM_ISO09W050
 70
     0
  3
_____ . . _____ . . _____ . . ____ .. ____
 72
    65
 73
     6
 40
22.5
 49
12.0
 74
     0
 49
-1.5
 74
     0
 49
3.0
 74
     0
 49
-1.5
 74
     0
 49
3.0
 74
     0
 49
-1.5
 74
     0
  0
LTYPE
  5
4E
330
5
100
AcDbSymbolTableRecord
100
AcDbLinetypeTableRecord
  2
AMCONSTR
 70
     0
  3
_______________________
 72
    65
 73
     2
 40
9999.0
 49
9999.0
 74
     0
 49
0.0
 74
     0
  0
LTYPE
  5
4F
330
5
100
AcDbSymbolTableRecord
100
AcDbLinetypeTableRecord
  2
AM_ISO02W050X2
 70
     0
  3
 _ _ _ _ _ _ _ _ _ _ _ _
 72
    65
 73
     2
 40
3.75
 49
3.0
 74
     0
 49
-0.75
 74
     0
  0
LTYPE
  5
50
330
5
100
AcDbSymbolTableRecord
100
AcDbLinetypeTableRecord
  2
AM_ISO08W050X2
 70
     0
  3
__ . __ . __ . __ . __ . __
 72
    65
 73
     4
 40
9.0
 49
6.0
 74
     0
 49
-0.75
 74
     0
 49
1.5
 74
     0
 49
-0.75
 74
     0
  0
LTYPE
  5
53
330
5
100
AcDbSymbolTableRecord
100
AcDbLinetypeTableRecord
  2
AMZIGZAG
 70
     0
  3
/\/-/\/-/\/-/\/-/\/-/\/
 72
    65
 73
     2
 40
11.00009999999999
 49
0.0001
 74
     4
 75
   135
340
52
 46
0.04
 50
0.0
 44
0.0
 45
0.0
 49
-11.0
 74
     0
  0
LTYPE
  5
166
330
5
100
AcDbSymbolTableRecord
100
AcDbLinetypeTableRecord
  2
ACJISTGL
 70
     0
  3
_ _ _ _ _
 72
    65
 73
     2
 40
3.0
 49
2.0
 74
     0
 49
-1.0
 74
     0
  0
LTYPE
  5
26A
330
5
100
AcDbSymbolTableRecord
100
AcDbLinetypeTableRecord
  2
ACJISTGB
 70
     0
  3
__ . . __ . .
 72
    65
 73
     6
 40
9.0
 49
4.0
 74
     0
 49
-1.0
 74
     0
 49
1.0
 74
     0
 49
-1.0
 74
     0
 49
1.0
 74
     0
 49
-1.0
 74
     0
  0
ENDTAB
  0
TABLE
  2
LAYER
  5
2
330
0
100
AcDbSymbolTable
 70
    10
  0
LAYER
  5
10
330
2
100
AcDbSymbolTableRecord
100
AcDbLayerTableRecord
  2
0
 70
     0
 62
     7
  6
CONTINUOUS
  0
LAYER
  5
3F9
330
2
100
AcDbSymbolTableRecord
100
AcDbLayerTableRecord
  2
AM_0
 70
     0
 62
     7
  6
CONTINUOUS
  0
LAYER
  5
BA4
330
2
100
AcDbSymbolTableRecord
100
AcDbLayerTableRecord
  2
PV0001_1
 70
     0
 62
     7
  6
CONTINUOUS
  0
LAYER
  5
C6C
330
2
100
AcDbSymbolTableRecord
100
AcDbLayerTableRecord
  2
AM_CL
 70
     0
 62
     1
  6
AMCONSTR
  0
LAYER
  5
C7C
330
2
100
AcDbSymbolTableRecord
100
AcDbLayerTableRecord
  2
AM_7
 70
     0
 62
     4
  6
AM_ISO08W050
  0
LAYER
  5
C97
330
2
100
AcDbSymbolTableRecord
100
AcDbLayerTableRecord
  2
AM_11
 70
     0
 62
     3
  6
AM_ISO09W050
  0
LAYER
  5
CC5
330
2
100
AcDbSymbolTableRecord
100
AcDbLayerTableRecord
  2
AM_5
 70
     0
 62
     3
  6
CONTINUOUS
  0
LAYER
  5
CC7
330
2
100
AcDbSymbolTableRecord
100
AcDbLayerTableRecord
  2
DEFPOINTS
 70
     0
 62
     7
  6
CONTINUOUS
  0
LAYER
  5
19BC
330
2
100
AcDbSymbolTableRecord
100
AcDbLayerTableRecord
  2
AM_6
 70
     0
 62
     2
  6
CONTINUOUS
  0
LAYER
  5
1F8E
330
2
100
AcDbSymbolTableRecord
100
AcDbLayerTableRecord
  2
AM_4
 70
     0
 62
     3
  6
CONTINUOUS
  0
ENDTAB
  0
TABLE
  2
STYLE
  5
3
330
0
100
AcDbSymbolTable
 70
     5
  0
STYLE
  5
11
330
3
100
AcDbSymbolTableRecord
100
AcDbTextStyleTableRecord
  2
STANDARD
 70
     0
 40
0.0
 41
1.0
 50
0.0
 71
     0
 42
2.5
  3
simplex.shx
  4
EXTFONT.SHX
  0
STYLE
  5
52
330
3
100
AcDbSymbolTableRecord
100
AcDbTextStyleTableRecord
  2

 70
     1
 40
0.0
 41
1.0
 50
0.0
 71
     0
 42
2.5
  3
ltypeshp.shx
  4

  0
STYLE
  5
6B
330
3
100
AcDbSymbolTableRecord
100
AcDbTextStyleTableRecord
  2
ASAMI
 70
     0
 40
0.0
 41
1.0
 50
0.0
 71
     0
 42
2.5
  3
simplex.shx
  4
EXTFONT.SHX
  0
STYLE
  5
262
330
3
100
AcDbSymbolTableRecord
100
AcDbTextStyleTableRecord
  2
ACJISTS
 70
     0
 40
1.0
 41
1.0
 50
0.0
 71
     0
 42
2.5
  3
simplex.shx
  4
bigfont.shx
  0
STYLE
  5
269
330
3
100
AcDbSymbolTableRecord
100
AcDbTextStyleTableRecord
  2
ACJISGDT
 70
     0
 40
0.0
 41
1.0
 50
0.0
 71
     0
 42
2.5
  3
amgdtans.shx
  4

  0
ENDTAB
  0
TABLE
  2
VIEW
  5
6
330
0
100
AcDbSymbolTable
 70
     0
  0
ENDTAB
  0
TABLE
  2
UCS
  5
7
330
0
100
AcDbSymbolTable
 70
     0
  0
ENDTAB
  0
TABLE
  2
APPID
  5
9
330
0
100
AcDbSymbolTable
 70
    16
  0
APPID
  5
12
330
9
100
AcDbSymbolTableRecord
100
AcDbRegAppTableRecord
  2
ACAD
 70
     0
  0
APPID
  5
30
330
9
100
AcDbSymbolTableRecord
100
AcDbRegAppTableRecord
  2
MCAD_NO_VIS
 70
     0
  0
APPID
  5
31
330
9
100
AcDbSymbolTableRecord
100
AcDbRegAppTableRecord
  2
ACAD_TEMP_GRAPHIC
 70
     0
  0
APPID
  5
2C2
330
9
100
AcDbSymbolTableRecord
100
AcDbRegAppTableRecord
  2
GENIUS_GENDTOL_13
 70
     0
  0
APPID
  5
339
330
9
100
AcDbSymbolTableRecord
100
AcDbRegAppTableRecord
  2
GENIUS_GENODEF_13
 70
     0
  0
APPID
  5
33A
330
9
100
AcDbSymbolTableRecord
100
AcDbRegAppTableRecord
  2
GENIUS_GENOBJ-N-RSBK_13
 70
     0
  0
APPID
  5
33B
330
9
100
AcDbSymbolTableRecord
100
AcDbRegAppTableRecord
  2
GENIUS_GENOBJ-N-LIB_13
 70
     0
  0
APPID
  5
33C
330
9
100
AcDbSymbolTableRecord
100
AcDbRegAppTableRecord
  2
GENIUS_GENSCALE_13
 70
     0
  0
APPID
  5
378
330
9
100
AcDbSymbolTableRecord
100
AcDbRegAppTableRecord
  2
GENIUS_GENDIMSH_14
 70
     0
  0
APPID
  5
C82
330
9
100
AcDbSymbolTableRecord
100
AcDbRegAppTableRecord
  2
GENIUS_GENOBJ-N-CRS_13
 70
     0
  0
APPID
  5
C83
330
9
100
AcDbSymbolTableRecord
100
AcDbRegAppTableRecord
  2
GENIUS_GENOENT_13
 70
     0
  0
APPID
  5
C84
330
9
100
AcDbSymbolTableRecord
100
AcDbRegAppTableRecord
  2
GENIUS_GENOREF_13
 70
     0
  0
APPID
  5
C85
330
9
100
AcDbSymbolTableRecord
100
AcDbRegAppTableRecord
  2
GENIUS_GENOLIS_13
 70
     0
  0
APPID
  5
CA0
330
9
100
AcDbSymbolTableRecord
100
AcDbRegAppTableRecord
  2
GENIUS_GENOBJ-N-CEN_13
 70
     0
  0
APPID
  5
31AE
330
9
100
AcDbSymbolTableRecord
100
AcDbRegAppTableRecord
  2
GENIUS_GENFIL_13
 70
     0
  0
APPID
  5
31AF
330
9
100
AcDbSymbolTableRecord
100
AcDbRegAppTableRecord
  2
GENIUS_GENOBJ-N-CHA_13
 70
     0
  0
ENDTAB
  0
TABLE
  2
DIMSTYLE
  5
A
330
0
100
AcDbSymbolTable
 70
    10
  0
DIMSTYLE
105
58
330
A
100
AcDbSymbolTableRecord
100
AcDbDimStyleTableRecord
  2
AM_JIS
 70
     0
  3

  4
"
  5
OPEN30
  6

  7

 40
0.5
 41
2.5
 42
1.0
 43
12.0
 44
1.0
 45
0.0
 46
0.0
 47
0.1
 48
0.1
140
3.2
141
0.0
142
0.0
143
0.0393701
144
1.0
145
0.0
146
0.71
147
1.5
 71
     0
 72
     0
 73
     0
 74
     0
 75
     0
 76
     0
 77
     3
 78
     8
170
     0
171
     2
172
     1
173
     0
174
     0
175
     0
176
   256
177
   256
178
     2
270
     2
271
     3
272
     3
273
     2
274
     2
340
6B
275
     0
280
     0
281
     0
282
     0
283
     0
284
     0
285
     0
286
     0
287
     3
288
     0
  0
DIMSTYLE
105
5F
330
A
100
AcDbSymbolTableRecord
100
AcDbDimStyleTableRecord
  2
AM_JIS$3
 70
     0
  3

  4
"
  5
OPEN30
  6

  7

 40
0.5
 41
2.5
 42
1.0
 43
10.0
 44
1.0
 45
0.0
 46
0.0
 47
0.1
 48
0.1
140
3.2
141
0.0
142
0.0
143
0.0393701
144
1.0
145
0.0
146
0.71
147
1.5
 71
     0
 72
     0
 73
     0
 74
     1
 75
     0
 76
     0
 77
     3
 78
     8
170
     0
171
     2
172
     0
173
     0
174
     0
175
     0
176
   256
177
   256
178
     2
270
     2
271
     2
272
     3
273
     2
274
     2
340
6B
275
     0
280
     0
281
     0
282
     0
283
     0
284
     0
285
     0
286
     0
287
     0
288
     1
  0
DIMSTYLE
105
60
330
A
100
AcDbSymbolTableRecord
100
AcDbDimStyleTableRecord
  2
AM_JIS$4
 70
     0
  3

  4
"
  5
OPEN30
  6

  7

 40
0.5
 41
2.5
 42
1.0
 43
10.0
 44
1.0
 45
0.0
 46
0.0
 47
0.1
 48
0.1
140
3.2
141
0.0
142
0.0
143
0.0393701
144
1.0
145
0.0
146
0.71
147
1.5
 71
     0
 72
     0
 73
     0
 74
     1
 75
     0
 76
     0
 77
     3
 78
     8
170
     0
171
     2
172
     0
173
     0
174
     0
175
     0
176
   256
177
   256
178
     2
270
     2
271
     2
272
     3
273
     2
274
     2
340
6B
275
     0
280
     0
281
     0
282
     0
283
     0
284
     0
285
     0
286
     0
287
     0
288
     1
  0
DIMSTYLE
105
61
330
A
100
AcDbSymbolTableRecord
100
AcDbDimStyleTableRecord
  2
AM_JIS$6
 70
     0
  3

  4
"
  5
OPEN30
  6

  7

 40
0.5
 41
2.5
 42
1.0
 43
10.0
 44
1.0
 45
0.0
 46
0.0
 47
0.1
 48
0.1
140
3.2
141
0.0
142
0.0
143
0.0393701
144
1.0
145
0.0
146
0.71
147
1.5
 71
     0
 72
     0
 73
     0
 74
     0
 75
     0
 76
     0
 77
     0
 78
     8
170
     0
171
     2
172
     1
173
     0
174
     0
175
     0
176
   256
177
   256
178
     2
270
     2
271
     2
272
     2
273
     2
274
     2
340
6B
275
     0
280
     0
281
     0
282
     0
283
     0
284
     0
285
     0
286
     0
287
     3
288
     0
  0
DIMSTYLE
105
62
330
A
100
AcDbSymbolTableRecord
100
AcDbDimStyleTableRecord
  2
AM_JIS$7
 70
     0
  3

  4
"
  5
OPEN30
  6

  7

 40
0.5
 41
2.5
 42
1.0
 43
10.0
 44
1.0
 45
0.0
 46
0.0
 47
0.1
 48
0.1
140
3.2
141
0.0
142
0.0
143
0.0393701
144
1.0
145
0.0
146
0.71
147
1.5
 71
     0
 72
     0
 73
     0
 74
     0
 75
     0
 76
     0
 77
     3
 78
     8
170
     0
171
     2
172
     1
173
     0
174
     0
175
     0
176
   256
177
   256
178
     2
270
     2
271
     2
272
     3
273
     2
274
     2
340
6B
275
     0
280
     0
281
     0
282
     0
283
     0
284
     0
285
     0
286
     0
287
     3
288
     0
  0
DIMSTYLE
105
63
330
A
100
AcDbSymbolTableRecord
100
AcDbDimStyleTableRecord
  2
AM_JIS$SF
 70
     0
  3

  4
"
  5
OPEN30
  6

  7

 40
0.5
 41
2.5
 42
1.0
 43
10.0
 44
1.0
 45
0.0
 46
0.0
 47
0.1
 48
0.1
140
3.2
141
0.0
142
0.0
143
0.0393701
144
1.0
145
0.0
146
0.71
147
1.5
 71
     0
 72
     0
 73
     0
 74
     0
 75
     1
 76
     1
 77
     3
 78
     8
170
     0
171
     2
172
     1
173
     0
174
     0
175
     0
176
   256
177
   256
178
     2
270
     2
271
     2
272
     2
273
     2
274
     2
340
6B
275
     0
280
     0
281
     0
282
     0
283
     0
284
     0
285
     0
286
     0
287
     3
288
     0
  0
DIMSTYLE
105
68
330
A
100
AcDbSymbolTableRecord
100
AcDbDimStyleTableRecord
  2
AM_JIS$SH
 70
     0
  3

  4
"
  5

  6
GENAXEH
  7
OPEN30
 40
0.5
 41
2.5
 42
1.0
 43
10.0
 44
1.0
 45
0.0
 46
0.0
 47
0.1
 48
0.1
140
3.2
141
0.0
142
0.0
143
0.0393701
144
2.0
145
0.0
146
0.71
147
1.5
 71
     0
 72
     0
 73
     0
 74
     0
 75
     1
 76
     1
 77
     3
 78
     8
170
     0
171
     2
172
     1
173
     1
174
     0
175
     0
176
   256
177
   256
178
     2
270
     2
271
     2
272
     2
273
     2
274
     2
340
6B
275
     0
280
     0
281
     0
282
     0
283
     0
284
     0
285
     0
286
     0
287
     3
288
     0
  0
DIMSTYLE
105
B34
102
{ACAD_REACTORS
330
31FC
330
3AE1
102
}
330
A
100
AcDbSymbolTableRecord
100
AcDbDimStyleTableRecord
  2
AM_JIS$2
 70
     0
  3

  4
"
  5
OPEN30
  6

  7

 40
0.5
 41
2.5
 42
1.0
 43
12.0
 44
1.0
 45
0.0
 46
0.0
 47
0.1
 48
0.1
140
3.2
141
0.0
142
0.0
143
0.0393701
144
1.0
145
0.0
146
0.71
147
1.5
 71
     0
 72
     0
 73
     0
 74
     0
 75
     0
 76
     0
 77
     3
 78
     8
170
     0
171
     2
172
     1
173
     0
174
     0
175
     0
176
   256
177
   256
178
     2
270
     2
271
     3
272
     3
273
     2
274
     2
340
6B
275
     0
280
     0
281
     0
282
     0
283
     0
284
     0
285
     0
286
     0
287
     3
288
     0
  0
DIMSTYLE
105
BA5
102
{ACAD_REACTORS
330
31FD
330
31FE
330
3202
330
320B
330
323E
102
}
330
A
100
AcDbSymbolTableRecord
100
AcDbDimStyleTableRecord
  2
AM_JIS$0
 70
     0
  3

  4
"
  5
OPEN30
  6

  7

 40
0.5
 41
2.5
 42
0.8
 43
10.0
 44
1.0
 45
0.0
 46
0.0
 47
0.1
 48
0.1000000001
140
3.799999999999999
141
0.0
142
0.0
143
0.0393701
144
1.0
145
0.0
146
0.71
147
1.5
 71
     0
 72
     0
 73
     0
 74
     0
 75
     0
 76
     0
 77
     3
 78
     9
170
     0
171
     2
172
     1
173
     0
174
     0
175
     0
176
     3
177
     3
178
     2
270
     2
271
     2
272
     2
273
     2
274
     2
340
11
275
     1
280
     0
281
     0
282
     0
283
     0
284
     8
285
     0
286
     0
287
     0
288
     0
  0
DIMSTYLE
105
BA6
330
A
100
AcDbSymbolTableRecord
100
AcDbDimStyleTableRecord
  2
AM_JISORG-1P0$2
 70
     0
  3

  4
"
  5
OPEN30
  6

  7

 40
1.0
 41
2.5
 42
0.0
 43
10.0
 44
1.0
 45
0.0
 46
0.0
 47
0.1
 48
0.1000000001
140
3.799999999999999
141
0.0
142
0.0
143
0.0393701
144
-0.999999980146674
145
0.0
146
0.71
147
1.5
 71
     0
 72
     0
 73
     0
 74
     0
 75
     0
 76
     0
 77
     3
 78
     1
170
     0
171
     2
172
     1
173
     0
174
     0
175
     0
176
     3
177
     3
178
     2
270
     2
271
     2
272
     2
273
     2
274
     2
340
11
275
     1
280
     0
281
     0
282
     0
283
     0
284
     8
285
     0
286
     0
287
     0
288
     0
  0
ENDTAB
  0
TABLE
  2
BLOCK_RECORD
  5
1
330
0
100
AcDbSymbolTable
 70
    15
  0
BLOCK_RECORD
  5
1F
102
{ACAD_XDICTIONARY
360
74
102
}
330
1
100
AcDbSymbolTableRecord
100
AcDbBlockTableRecord
  2
*MODEL_SPACE
  0
BLOCK_RECORD
  5
101
102
{ACAD_XDICTIONARY
360
3C3C
102
}
330
1
100
AcDbSymbolTableRecord
100
AcDbBlockTableRecord
  2
*PAPER_SPACE
  0
BLOCK_RECORD
  5
59
330
1
100
AcDbSymbolTableRecord
100
AcDbBlockTableRecord
  2
_OPEN30
  0
BLOCK_RECORD
  5
64
330
1
100
AcDbSymbolTableRecord
100
AcDbBlockTableRecord
  2
GENAXEH
  0
BLOCK_RECORD
  5
C31
330
1
100
AcDbSymbolTableRecord
100
AcDbBlockTableRecord
  2
A$C36D02A34
  0
BLOCK_RECORD
  5
2453
330
1
100
AcDbSymbolTableRecord
100
AcDbBlockTableRecord
  2
*D6
  0
BLOCK_RECORD
  5
245F
330
1
100
AcDbSymbolTableRecord
100
AcDbBlockTableRecord
  2
A$C4FFC6CC0
  0
BLOCK_RECORD
  5
3244
330
1
100
AcDbSymbolTableRecord
100
AcDbBlockTableRecord
  2
*D8
  0
BLOCK_RECORD
  5
3252
330
1
100
AcDbSymbolTableRecord
100
AcDbBlockTableRecord
  2
*D9
  0
BLOCK_RECORD
  5
3260
330
1
100
AcDbSymbolTableRecord
100
AcDbBlockTableRecord
  2
*D10
  0
BLOCK_RECORD
  5
326E
330
1
100
AcDbSymbolTableRecord
100
AcDbBlockTableRecord
  2
*D11
  0
BLOCK_RECORD
  5
3288
330
1
100
AcDbSymbolTableRecord
100
AcDbBlockTableRecord
  2
*D12
  0
BLOCK_RECORD
  5
3294
330
1
100
AcDbSymbolTableRecord
100
AcDbBlockTableRecord
  2
*D13
  0
BLOCK_RECORD
  5
3AE2
330
1
100
AcDbSymbolTableRecord
100
AcDbBlockTableRecord
  2
*D14
  0
ENDTAB
  0
ENDSEC
  0
SECTION
  2
BLOCKS
  0
BLOCK
  5
20
330
1F
100
AcDbEntity
  8
0
100
AcDbBlockBegin
  2
*MODEL_SPACE
 70
     0
 10
0.0
 20
0.0
 30
0.0
  3
*MODEL_SPACE
  1

  0
ENDBLK
  5
21
330
1F
100
AcDbEntity
  8
0
100
AcDbBlockEnd
  0
BLOCK
  5
103
330
101
100
AcDbEntity
 67
     1
  8
0
100
AcDbBlockBegin
  2
*PAPER_SPACE
 70
     0
 10
0.0
 20
0.0
 30
0.0
  3
*PAPER_SPACE
  1

  0
ENDBLK
  5
104
330
101
100
AcDbEntity
 67
     1
  8
0
100
AcDbBlockEnd
  0
BLOCK
  5
5D
330
59
100
AcDbEntity
  8
0
100
AcDbBlockBegin
  2
_OPEN30
 70
     0
 10
0.0
 20
0.0
 30
0.0
  3
_OPEN30
  1

  0
LINE
  5
5A
330
59
100
AcDbEntity
  8
0
 62
     0
100
AcDbLine
 10
-1.0
 20
0.26794919
 30
0.0
 11
0.0
 21
0.0
 31
0.0
  0
LINE
  5
5B
330
59
100
AcDbEntity
  8
0
 62
     0
100
AcDbLine
 10
0.0
 20
0.0
 30
0.0
 11
-1.0
 21
-0.26794919
 31
0.0
  0
LINE
  5
5C
330
59
100
AcDbEntity
  8
0
 62
     0
100
AcDbLine
 10
0.0
 20
0.0
 30
0.0
 11
-1.0
 21
0.0
 31
0.0
  0
ENDBLK
  5
5E
330
59
100
AcDbEntity
  8
0
100
AcDbBlockEnd
  0
BLOCK
  5
66
330
64
100
AcDbEntity
  8
0
100
AcDbBlockBegin
  2
GENAXEH
 70
     0
 10
0.0
 20
0.0
 30
0.0
  3
GENAXEH
  1

  0
LINE
  5
65
330
64
100
AcDbEntity
  8
0
100
AcDbLine
 10
-1.0
 20
0.0
 30
0.0
 11
1.0
 21
0.0
 31
0.0
  0
ENDBLK
  5
67
330
64
100
AcDbEntity
  8
0
100
AcDbBlockEnd
  0
BLOCK
  5
C4B
330
C31
100
AcDbEntity
  8
0
100
AcDbBlockBegin
  2
A$C36D02A34
 70
     0
 10
0.0
 20
0.0
 30
0.0
  3
A$C36D02A34
  1

  0
ARC
  5
C32
330
C31
100
AcDbEntity
  8
PV0001_1
  6
CONTINUOUS
 48
0.5
100
AcDbCircle
 10
18.06811523436999
 20
-11.83651161193799
 30
0.0
 40
21.600000381469
100
AcDbArc
 50
123.2290435713209
 51
126.6341524197568
  0
ARC
  5
C33
330
C31
100
AcDbEntity
  8
PV0001_1
  6
CONTINUOUS
 48
0.5
100
AcDbCircle
 10
18.06811523436999
 20
-11.83651161193799
 30
0.0
 40
21.600000381469
100
AcDbArc
 50
135.0736707620117
 51
146.7709980930592
  0
ARC
  5
C34
330
C31
100
AcDbEntity
  8
PV0001_1
  6
CONTINUOUS
 48
0.5
100
AcDbCircle
 10
-18.0680770874
 20
11.8365631103514
 30
0.0
 40
21.600000381469
100
AcDbArc
 50
315.0734847530392
 51
326.770781348241
  0
ARC
  5
C35
330
C31
100
AcDbEntity
  8
PV0001_1
  6
CONTINUOUS
 48
0.5
100
AcDbCircle
 10
-18.0680770874
 20
11.8365631103514
 30
0.0
 40
21.600000381469
100
AcDbArc
 50
303.2288882981993
 51
306.633986901359
  0
ARC
  5
C36
330
C31
100
AcDbEntity
  8
PV0001_1
  6
CONTINUOUS
 48
0.5
100
AcDbCircle
 10
-0.6269836425800009
 20
-2.044216156005997
 30
0.0
 40
2.0
100
AcDbArc
 50
337.4067997351092
 51
43.42231293132884
  0
ARC
  5
C37
330
C31
100
AcDbEntity
  8
PV0001_1
  6
CONTINUOUS
 48
0.5
100
AcDbCircle
 10
0.626953125
 20
2.044223785401001
 30
0.0
 40
2.0
100
AcDbArc
 50
157.4068184044407
 51
223.4222769591536
  0
CIRCLE
  5
C38
330
C31
100
AcDbEntity
  8
PV0001_1
  6
CONTINUOUS
 48
0.5
100
AcDbCircle
 10
3.856727600100001
 20
4.596265792847002
 30
0.0
 40
1.6000000238419
  0
CIRCLE
  5
C39
330
C31
100
AcDbEntity
  8
PV0001_1
  6
CONTINUOUS
 48
0.5
100
AcDbCircle
 10
-3.856727600100001
 20
-4.596265792845997
 30
0.0
 40
1.6000000238419
  0
ARC
  5
C3A
330
C31
100
AcDbEntity
  8
PV0001_1
  6
CONTINUOUS
 48
0.5
100
AcDbCircle
 10
-5.58123779297
 20
5.092639923096001
 30
0.0
 40
5.019082546234099
100
AcDbArc
 50
240.2658959250867
 51
321.5156269706421
  0
ARC
  5
C3B
330
C31
100
AcDbEntity
  8
PV0001_1
  6
CONTINUOUS
 48
0.5
100
AcDbCircle
 10
5.486755371089998
 20
-4.601703643798998
 30
0.0
 40
4.651036739349399
100
AcDbArc
 50
56.25271400417071
 51
145.528859890601
  0
ARC
  5
C3C
330
C31
100
AcDbEntity
  8
PV0001_1
  6
CONTINUOUS
 48
0.5
100
AcDbCircle
 10
-2.11590576172
 20
-3.453323364257997
 30
0.0
 40
4.050000190734899
100
AcDbArc
 50
43.42230610113921
 51
58.50391703385149
  0
ARC
  5
C3D
330
C31
100
AcDbEntity
  8
PV0001_1
  6
CONTINUOUS
 48
0.5
100
AcDbCircle
 10
2.115875244139999
 20
3.453330993653001
 30
0.0
 40
4.050000190734899
100
AcDbArc
 50
223.4222942619974
 51
238.5038164022482
  0
ARC
  5
C3E
330
C31
100
AcDbEntity
  8
PV0001_1
  6
CONTINUOUS
 48
0.5
100
AcDbCircle
 10
-6.70369720459
 20
5.094657897949002
 30
0.0
 40
5.940000057220499
100
AcDbArc
 50
328.2536768887549
 51
31.74641873389623
  0
ARC
  5
C3F
330
C31
100
AcDbEntity
  8
PV0001_1
  6
CONTINUOUS
 48
0.5
100
AcDbCircle
 10
6.703674316410001
 20
-5.094650268553998
 30
0.0
 40
5.940000057220499
100
AcDbArc
 50
148.2533403882529
 51
211.7466423089037
  0
ARC
  5
C40
330
C31
100
AcDbEntity
  8
PV0001_1
  6
CONTINUOUS
 48
0.5
100
AcDbCircle
 10
0.0
 20
0.0
 30
0.0
 40
8.812800407409699
100
AcDbArc
 50
175.2198288164333
 51
272.8622597568298
  0
ARC
  5
C41
330
C31
100
AcDbEntity
  8
PV0001_1
  6
CONTINUOUS
 48
0.5
100
AcDbCircle
 10
0.0
 20
0.0
 30
0.0
 40
9.1800003051758
100
AcDbArc
 50
272.7511362215027
 51
280.3697477877874
  0
ARC
  5
C42
330
C31
100
AcDbEntity
  8
PV0001_1
  6
CONTINUOUS
 48
0.5
100
AcDbCircle
 10
0.0
 20
0.0
 30
0.0
 40
8.812800407409699
100
AcDbArc
 50
355.2198199654955
 51
92.86229572901076
  0
ARC
  5
C43
330
C31
100
AcDbEntity
  8
PV0001_1
  6
CONTINUOUS
 48
0.5
100
AcDbCircle
 10
0.0
 20
0.0
 30
0.0
 40
9.1800003051758
100
AcDbArc
 50
92.75115489083434
 51
100.3697664571193
  0
CIRCLE
  5
C44
330
C31
100
AcDbEntity
  8
PV0001_1
  6
CONTINUOUS
100
AcDbCircle
 10
0.0
 20
0.0
 30
0.0
 40
9.1800003051758
  0
LINE
  5
C45
330
C31
100
AcDbEntity
  8
PV0001_1
  6
CONTINUOUS
 48
0.5
100
AcDbLine
 10
-1.652404785160001
 20
9.030059814453
 30
0.0
 11
-1.652404785160001
 21
8.220062255860002
 31
0.0
  0
LINE
  5
C46
330
C31
100
AcDbEntity
  8
PV0001_1
  6
CONTINUOUS
 48
0.5
100
AcDbLine
 10
1.652404785160001
 20
-8.220058441161999
 30
0.0
 11
1.652404785160001
 21
-9.030055999755997
 31
0.0
  0
LINE
  5
C47
330
C31
100
AcDbEntity
  8
PV0001_1
  6
CONTINUOUS
 48
0.5
100
AcDbLine
 10
-8.78217315674
 20
0.7343807220460015
 30
0.0
 11
-8.070594787600001
 21
0.7343997955320028
 31
0.0
  0
LINE
  5
C48
330
C31
100
AcDbEntity
  8
PV0001_1
  6
CONTINUOUS
 48
0.5
100
AcDbLine
 10
8.07057952881
 20
-0.7343864440919994
 30
0.0
 11
8.78215789795
 21
-0.7343654632569994
 31
0.0
  0
LINE
  5
C49
330
C31
100
AcDbEntity
  8
PV0001_1
  6
CONTINUOUS
 48
0.5
100
AcDbLine
 10
0.4406127929700006
 20
-9.169414520263
 30
0.0
 11
0.4406127929700006
 21
-8.812801361083998
 31
0.0
  0
LINE
  5
C4A
330
C31
100
AcDbEntity
  8
PV0001_1
  6
CONTINUOUS
 48
0.5
100
AcDbLine
 10
-0.4406127929700006
 20
9.169418334961001
 30
0.0
 11
-0.4406127929700006
 21
8.812805175781001
 31
0.0
  0
ENDBLK
  5
C4C
330
C31
100
AcDbEntity
  8
0
100
AcDbBlockEnd
  0
BLOCK
  5
245D
330
2453
100
AcDbEntity
  8
0
100
AcDbBlockBegin
  2
*D6
 70
     1
 10
0.0
 20
0.0
 30
0.0
  3
*D6
  1

  0
LINE
  5
2454
330
2453
100
AcDbEntity
  8
AM_5
 62
     3
100
AcDbLine
 10
-137.574381722344
 20
-5.00000294019065
 30
0.0
 11
-152.8199008769066
 21
-5.000002940190694
 31
0.0
  0
LINE
  5
2455
330
2453
100
AcDbEntity
  8
AM_5
 62
     3
100
AcDbLine
 10
-137.5743817223442
 20
5.00002461040103
 30
0.0
 11
-152.8199008769066
 21
5.000024610400987
 31
0.0
  0
LINE
  5
2456
330
2453
100
AcDbEntity
  8
AM_5
 62
     3
100
AcDbLine
 10
-151.8199008769066
 20
-2.500002940190691
 30
0.0
 11
-151.8199008769066
 21
2.50002461040099
 31
0.0
  0
INSERT
  5
2457
330
2453
100
AcDbEntity
  8
AM_5
 62
     3
100
AcDbBlockReference
  2
_OPEN30
 10
-151.8199008769066
 20
-5.00000294019069
 30
0.0
 41
2.5
 42
2.5
 43
2.5
 50
270.0000000000001
  0
INSERT
  5
2458
330
2453
100
AcDbEntity
  8
AM_5
 62
     3
100
AcDbBlockReference
  2
_OPEN30
 10
-151.8199008769066
 20
5.00002461040099
 30
0.0
 41
2.5
 42
2.5
 43
2.5
 50
90.00000000000015
  0
MTEXT
  5
2459
330
2453
100
AcDbEntity
  8
AM_5
 62
     2
100
AcDbMText
 10
-155.2199008769066
 20
0.000010835105146
 30
0.0
 40
3.799999999999999
 41
0.0
 71
     5
 72
     1
  1
%%c10
 11
-0.0000000000000028
 21
1.0
 31
0.0
1001
ACAD
1000
MTEXTBEGIN
1070
    73
1070
     1
1070
    44
1040
1.0
1070
    74
1070
     0
1000
MTEXTEND
  0
POINT
  5
245A
330
2453
100
AcDbEntity
  8
DEFPOINTS
 62
     0
100
AcDbPoint
 10
-137.5743817223441
 20
-5.000002940190223
 30
0.0
  0
POINT
  5
245B
330
2453
100
AcDbEntity
  8
DEFPOINTS
 62
     0
100
AcDbPoint
 10
-137.5743817223441
 20
5.000024610401458
 30
0.0
  0
POINT
  5
245C
330
2453
100
AcDbEntity
  8
DEFPOINTS
 62
     0
100
AcDbPoint
 10
-151.8199008769066
 20
5.000024610401462
 30
0.0
  0
ENDBLK
  5
245E
330
2453
100
AcDbEntity
  8
0
100
AcDbBlockEnd
  0
BLOCK
  5
246B
330
245F
100
AcDbEntity
  8
0
100
AcDbBlockBegin
  2
A$C4FFC6CC0
 70
     0
 10
0.0
 20
0.0
 30
0.0
  3
A$C4FFC6CC0
  1

  0
DIMENSION
  5
2460
330
245F
100
AcDbEntity
  8
AM_5
100
AcDbDimension
  2
*D6
 10
-70.00000100000002
 20
5.000008477104842
 30
0.0
 11
-70.00000100000002
 21
-0.0000052981910228
 31
0.0
 12
81.81989987690661
 22
-0.0000161332966199
 32
0.0
 70
   128
  1
%%c<>
 51
359.9999999999998
  3
AM_JIS$0
100
AcDbAlignedDimension
 13
-55.75448184543748
 23
-5.000019073486843
 33
0.0
 14
-55.75448184543756
 24
5.000008477104838
 34
0.0
 50
270.0
100
AcDbRotatedDimension
1001
ACAD
1000
DSTYLE
1002
{
1070
   271
1070
     0
1002
}
1001
GENIUS_GENDTOL_13
1000

1000
h7
1000

1040
0.0
  0
LINE
  5
2461
330
245F
100
AcDbEntity
  8
AM_0
 48
0.5
100
AcDbLine
 10
-56.0
 20
-4.754495620727796
 30
0.0
 11
-56.00000000000003
 21
4.754485024345811
 31
0.0
  0
LINE
  5
2462
330
245F
100
AcDbEntity
  8
AM_0
 48
0.5
100
AcDbLine
 10
-55.75448184543751
 20
-5.000019073486843
 30
0.0
 11
-55.75448184543754
 21
5.000008477104838
 31
0.0
  0
LINE
  5
2463
330
245F
100
AcDbEntity
  8
AM_0
100
AcDbLine
 10
-0.0000000000000142
 20
4.999995231627903
 30
0.0
 11
-55.75448184543754
 21
4.999995231627746
 31
0.0
  0
LINE
  5
2464
330
245F
100
AcDbEntity
  8
AM_0
 48
0.5
100
AcDbLine
 10
-55.99996821086117
 20
4.754439989725671
 30
0.0
 11
-55.75443945990975
 21
4.999963442484006
 31
0.0
  0
LINE
  5
2465
330
245F
100
AcDbEntity
  8
AM_0
100
AcDbLine
 10
-55.75448184543751
 20
-5.000008477105588
 30
0.0
 11
0.0000000000000142
 21
-5.00000847710543
 31
0.0
  0
LINE
  5
2466
330
245F
100
AcDbEntity
  8
AM_0
 48
0.5
100
AcDbLine
 10
-55.99996821086114
 20
-4.754474427965309
 30
0.0
 11
-55.75443945990972
 21
-4.999997880724334
 31
0.0
  0
LINE
  5
2467
330
245F
100
AcDbEntity
  8
AM_0
100
AcDbLine
 10
0.7794201296714505
 20
4.549985867772141
 30
0.0
 11
0.7794201296714789
 21
-4.550003370497427
 31
0.0
  0
LINE
  5
2468
330
245F
100
AcDbEntity
  8
AM_0
 48
0.5
100
AcDbLine
 10
0.0000000000000142
 20
-5.00000847710543
 30
0.0
 11
-0.0000000000000142
 21
5.000008477104995
 31
0.0
  0
LINE
  5
2469
330
245F
100
AcDbEntity
  8
AM_0
 48
0.5
100
AcDbLine
 10
0.7794201296714647
 20
-4.550003370497435
 30
0.0
 11
-0.0000105963812445
 21
-5.00000847710543
 31
0.0
  0
LINE
  5
246A
330
245F
100
AcDbEntity
  8
AM_0
 48
0.5
100
AcDbLine
 10
0.7794201296714647
 20
4.549985867772141
 30
0.0
 11
-0.0000000000000142
 21
4.999984635246652
 31
0.0
  0
ENDBLK
  5
246C
330
245F
100
AcDbEntity
  8
0
100
AcDbBlockEnd
  0
BLOCK
  5
3250
330
3244
100
AcDbEntity
  8
0
100
AcDbBlockBegin
  2
*D8
 70
     1
 10
0.0
 20
0.0
 30
0.0
  3
*D8
  1

  0
LINE
  5
3A18
330
3244
100
AcDbEntity
  8
AM_5
100
AcDbLine
 10
0.1710100704080519
 20
-0.46984631084965
 30
0.0
 11
8.042128000074971
 21
-22.09556526816988
 31
0.0
  0
LINE
  5
3A19
330
3244
100
AcDbEntity
  8
AM_5
100
AcDbLine
 10
0.1710098052266613
 20
0.4698478148157159
 30
0.0
 11
8.04214329865008
 21
22.09556294467896
 31
0.0
  0
ARC
  5
3A1A
330
3244
100
AcDbEntity
  8
AM_5
100
AcDbCircle
 10
-0.0000005904945895
 20
0.000001622370506
 30
0.0
 40
23.01361113231229
100
AcDbArc
 50
293.112441903024
 51
66.88751842639859
  0
INSERT
  5
3A1B
330
3244
100
AcDbEntity
  8
AM_5
100
AcDbBlockReference
  2
_OPEN30
 10
7.871117929666898
 20
-21.62571895732023
 30
0.0
 41
1.25
 42
1.25
 43
1.25
 50
201.5562208750056
  0
INSERT
  5
3A1C
330
3244
100
AcDbEntity
  8
AM_5
100
AcDbBlockReference
  2
_OPEN30
 10
7.871132902928827
 20
21.62571675223376
 30
0.0
 41
1.25
 42
1.25
 43
1.25
 50
158.443739454417
  0
MTEXT
  5
3A1D
330
3244
100
AcDbEntity
  8
AM_5
 62
     2
100
AcDbMText
 10
21.46361054181632
 20
-0.0000063447367452
 30
0.0
 40
1.6
 41
0.0
 71
     5
 72
     1
  1
140°
  7
ASAMI
 11
0.0000000000000001
 21
1.0
 31
0.0
1001
ACAD
1000
MTEXTBEGIN
1070
    73
1070
     1
1070
    44
1040
1.0
1070
    74
1070
     0
1000
MTEXTEND
  0
POINT
  5
3A1E
330
3244
100
AcDbEntity
  8
DEFPOINTS
 62
     0
100
AcDbPoint
 10
21.13147202803716
 20
9.115217600148053
 30
0.0
  0
POINT
  5
3A1F
330
3244
100
AcDbEntity
  8
DEFPOINTS
 62
     0
100
AcDbPoint
 10
-0.0000000000000213
 20
0.0
 30
0.0
  0
POINT
  5
3A20
330
3244
100
AcDbEntity
  8
DEFPOINTS
 62
     0
100
AcDbPoint
 10
-0.0000006834663893
 20
0.0000013669331338
 30
0.0
  0
POINT
  5
3A21
330
3244
100
AcDbEntity
  8
DEFPOINTS
 62
     0
100
AcDbPoint
 10
-0.286932261784635
 20
-0.7883349736532637
 30
0.0
  0
POINT
  5
3A22
330
3244
100
AcDbEntity
  8
DEFPOINTS
 62
     0
100
AcDbPoint
 10
-0.2869274775186525
 20
0.7883267720540062
 30
0.0
  0
ENDBLK
  5
3251
330
3244
100
AcDbEntity
  8
0
100
AcDbBlockEnd
  0
BLOCK
  5
325E
330
3252
100
AcDbEntity
  8
0
100
AcDbBlockBegin
  2
*D9
 70
     1
 10
0.0
 20
0.0
 30
0.0
  3
*D9
  1

  0
LINE
  5
3BD0
330
3252
100
AcDbEntity
  8
AM_5
 62
     3
100
AcDbLine
 10
-1.237841475011338
 20
-3.799060461511713
 30
0.0
 11
-1.237841475011339
 21
-20.05825055125734
 31
0.0
  0
LINE
  5
3BD1
330
3252
100
AcDbEntity
  8
AM_5
 62
     3
100
AcDbLine
 10
-25.23784334423966
 20
-5.733585265288311
 30
0.0
 11
-25.23784334423966
 21
-20.05825055125734
 31
0.0
  0
LINE
  5
3BD2
330
3252
100
AcDbEntity
  8
AM_5
 62
     3
100
AcDbLine
 10
-2.487841475011339
 20
-19.55825055125734
 30
0.0
 11
-23.98784334423966
 21
-19.55825055125734
 31
0.0
  0
INSERT
  5
3BD3
330
3252
100
AcDbEntity
  8
AM_5
 62
     3
100
AcDbBlockReference
  2
_OPEN30
 10
-1.237841475011339
 20
-19.55825055125734
 30
0.0
 41
1.25
 42
1.25
 43
1.25
  0
INSERT
  5
3BD4
330
3252
100
AcDbEntity
  8
AM_5
 62
     3
100
AcDbBlockReference
  2
_OPEN30
 10
-25.23784334423966
 20
-19.55825055125734
 30
0.0
 41
1.25
 42
1.25
 43
1.25
 50
180.0
  0
MTEXT
  5
3BD5
330
3252
100
AcDbEntity
  8
AM_5
 62
     2
100
AcDbMText
 10
-9.981622785362883
 20
-17.85825055125734
 30
0.0
 40
1.9
 41
0.0
 71
     5
 72
     1
  1
24
1001
ACAD
1000
MTEXTBEGIN
1070
    73
1070
     1
1070
    44
1040
1.0
1070
    74
1070
     0
1000
MTEXTEND
  0
POINT
  5
3BD6
330
3252
100
AcDbEntity
  8
DEFPOINTS
 62
     0
100
AcDbPoint
 10
-1.237841475011338
 20
-3.399060461511713
 30
0.0
  0
POINT
  5
3BD7
330
3252
100
AcDbEntity
  8
DEFPOINTS
 62
     0
100
AcDbPoint
 10
-25.23784334423966
 20
-5.33358526528831
 30
0.0
  0
POINT
  5
3BD8
330
3252
100
AcDbEntity
  8
DEFPOINTS
 62
     0
100
AcDbPoint
 10
-25.23784334423966
 20
-19.55825055125734
 30
0.0
  0
ENDBLK
  5
325F
330
3252
100
AcDbEntity
  8
0
100
AcDbBlockEnd
  0
BLOCK
  5
326C
330
3260
100
AcDbEntity
  8
0
100
AcDbBlockBegin
  2
*D10
 70
     1
 10
0.0
 20
0.0
 30
0.0
  3
*D10
  1

  0
LINE
  5
3A0F
330
3260
100
AcDbEntity
  8
AM_5
 62
     3
100
AcDbLine
 10
-0.837843344239668
 20
-3.399060884230009
 30
0.0
 11
13.17535772649807
 21
-3.399060884230013
 31
0.0
  0
LINE
  5
3A10
330
3260
100
AcDbEntity
  8
AM_5
 62
     3
100
AcDbLine
 10
-0.8378346975925532
 20
3.400939115770008
 30
0.0
 11
13.17535772649807
 21
3.400939115770004
 31
0.0
  0
LINE
  5
3A11
330
3260
100
AcDbEntity
  8
AM_5
 62
     3
100
AcDbLine
 10
12.67535772649807
 20
-2.149060884230013
 30
0.0
 11
12.67535772649807
 21
2.150939115770004
 31
0.0
  0
INSERT
  5
3A12
330
3260
100
AcDbEntity
  8
AM_5
 62
     3
100
AcDbBlockReference
  2
_OPEN30
 10
12.67535772649807
 20
-3.399060884230013
 30
0.0
 41
1.25
 42
1.25
 43
1.25
 50
270.0
  0
INSERT
  5
3A13
330
3260
100
AcDbEntity
  8
AM_5
 62
     3
100
AcDbBlockReference
  2
_OPEN30
 10
12.67535772649807
 20
3.400939115770004
 30
0.0
 41
1.25
 42
1.25
 43
1.25
 50
90.0
  0
MTEXT
  5
3A14
330
3260
100
AcDbEntity
  8
AM_5
 62
     2
100
AcDbMText
 10
10.97535772649807
 20
0.0009391157699979
 30
0.0
 40
1.9
 41
0.0
 71
     5
 72
     1
  1
%%C6.8
 11
0.0000000000000001
 21
1.0
 31
0.0
1001
ACAD
1000
MTEXTBEGIN
1070
    73
1070
     1
1070
    44
1040
1.0
1070
    74
1070
     0
1000
MTEXTEND
  0
POINT
  5
3A15
330
3260
100
AcDbEntity
  8
DEFPOINTS
 62
     0
100
AcDbPoint
 10
-1.237843344239667
 20
-3.399060884230009
 30
0.0
  0
POINT
  5
3A16
330
3260
100
AcDbEntity
  8
DEFPOINTS
 62
     0
100
AcDbPoint
 10
-1.237834697592553
 20
3.400939115770008
 30
0.0
  0
POINT
  5
3A17
330
3260
100
AcDbEntity
  8
DEFPOINTS
 62
     0
100
AcDbPoint
 10
12.67535772649807
 20
3.400939115770004
 30
0.0
  0
ENDBLK
  5
326D
330
3260
100
AcDbEntity
  8
0
100
AcDbBlockEnd
  0
BLOCK
  5
3278
330
326E
100
AcDbEntity
  8
0
100
AcDbBlockBegin
  2
*D11
 70
     1
 10
0.0
 20
0.0
 30
0.0
  3
*D11
  1

  0
LINE
  5
3A59
330
326E
100
AcDbEntity
  8
AM_5
 62
     3
100
AcDbLine
 10
-1.237841475011338
 20
-3.799060461511713
 30
0.0
 11
-1.23784147501134
 21
-37.46121795816974
 31
0.0
  0
LINE
  5
3A5A
330
326E
100
AcDbEntity
  8
AM_5
 62
     3
100
AcDbLine
 10
-105.2378414750114
 20
-4.983551768176681
 30
0.0
 11
-105.2378414750114
 21
-37.46121795816974
 31
0.0
  0
LINE
  5
3A5B
330
326E
100
AcDbEntity
  8
AM_5
 62
     3
100
AcDbLine
 10
-2.48784147501134
 20
-36.96121795816974
 30
0.0
 11
-103.9878414750114
 21
-36.96121795816974
 31
0.0
  0
INSERT
  5
3A5C
330
326E
100
AcDbEntity
  8
AM_5
 62
     3
100
AcDbBlockReference
  2
_OPEN30
 10
-1.23784147501134
 20
-36.96121795816974
 30
0.0
 41
1.25
 42
1.25
 43
1.25
  0
INSERT
  5
3A5D
330
326E
100
AcDbEntity
  8
AM_5
 62
     3
100
AcDbBlockReference
  2
_OPEN30
 10
-105.2378414750114
 20
-36.96121795816974
 30
0.0
 41
1.25
 42
1.25
 43
1.25
 50
180.0
  0
MTEXT
  5
3A5E
330
326E
100
AcDbEntity
  8
AM_5
 62
     2
100
AcDbMText
 10
-53.23784147501138
 20
-35.26121795816973
 30
0.0
 40
1.9
 41
0.0
 71
     5
 72
     1
  1
104
1001
ACAD
1000
MTEXTBEGIN
1070
    73
1070
     1
1070
    44
1040
1.0
1070
    74
1070
     0
1000
MTEXTEND
  0
POINT
  5
3A5F
330
326E
100
AcDbEntity
  8
DEFPOINTS
 62
     0
100
AcDbPoint
 10
-1.237841475011338
 20
-3.399060461511713
 30
0.0
  0
POINT
  5
3A60
330
326E
100
AcDbEntity
  8
DEFPOINTS
 62
     0
100
AcDbPoint
 10
-105.2378414750114
 20
-4.583551768176681
 30
0.0
  0
POINT
  5
3A61
330
326E
100
AcDbEntity
  8
DEFPOINTS
 62
     0
100
AcDbPoint
 10
-105.2378414750114
 20
-36.96121795816974
 30
0.0
  0
ENDBLK
  5
3279
330
326E
100
AcDbEntity
  8
0
100
AcDbBlockEnd
  0
BLOCK
  5
3292
330
3288
100
AcDbEntity
  8
0
100
AcDbBlockBegin
  2
*D12
 70
     1
 10
0.0
 20
0.0
 30
0.0
  3
*D12
  1

  0
LINE
  5
3A2C
330
3288
100
AcDbEntity
  8
AM_5
 62
     3
100
AcDbLine
 10
-1.237841475011338
 20
-3.799060461511713
 30
0.0
 11
-1.23784147501134
 21
-29.12430759319283
 31
0.0
  0
LINE
  5
3A2D
330
3288
100
AcDbEntity
  8
AM_5
 62
     3
100
AcDbLine
 10
-49.23784147501133
 20
-3.880168131787931
 30
0.0
 11
-49.23784147501133
 21
-29.12430759319283
 31
0.0
  0
LINE
  5
3A2E
330
3288
100
AcDbEntity
  8
AM_5
 62
     3
100
AcDbLine
 10
-2.48784147501134
 20
-28.62430759319284
 30
0.0
 11
-47.98784147501133
 21
-28.62430759319284
 31
0.0
  0
INSERT
  5
3A2F
330
3288
100
AcDbEntity
  8
AM_5
 62
     3
100
AcDbBlockReference
  2
_OPEN30
 10
-1.23784147501134
 20
-28.62430759319284
 30
0.0
 41
1.25
 42
1.25
 43
1.25
  0
INSERT
  5
3A30
330
3288
100
AcDbEntity
  8
AM_5
 62
     3
100
AcDbBlockReference
  2
_OPEN30
 10
-49.23784147501133
 20
-28.62430759319284
 30
0.0
 41
1.25
 42
1.25
 43
1.25
 50
180.0
  0
MTEXT
  5
3A31
330
3288
100
AcDbEntity
  8
AM_5
 62
     2
100
AcDbMText
 10
-25.23784147501134
 20
-26.92430759319284
 30
0.0
 40
1.9
 41
0.0
 71
     5
 72
     1
  1
48
1001
ACAD
1000
MTEXTBEGIN
1070
    73
1070
     1
1070
    44
1040
1.0
1070
    74
1070
     0
1000
MTEXTEND
  0
POINT
  5
3A32
330
3288
100
AcDbEntity
  8
DEFPOINTS
 62
     0
100
AcDbPoint
 10
-1.237841475011338
 20
-3.399060461511713
 30
0.0
  0
POINT
  5
3A33
330
3288
100
AcDbEntity
  8
DEFPOINTS
 62
     0
100
AcDbPoint
 10
-49.23784147501133
 20
-3.480168131787931
 30
0.0
  0
POINT
  5
3A34
330
3288
100
AcDbEntity
  8
DEFPOINTS
 62
     0
100
AcDbPoint
 10
-49.23784147501133
 20
-28.62430759319284
 30
0.0
  0
ENDBLK
  5
3293
330
3288
100
AcDbEntity
  8
0
100
AcDbBlockEnd
  0
BLOCK
  5
32A0
330
3294
100
AcDbEntity
  8
0
100
AcDbBlockBegin
  2
*D13
 70
     1
 10
0.0
 20
0.0
 30
0.0
  3
*D13
  1

  0
LINE
  5
3A50
330
3294
100
AcDbEntity
  8
AM_5
 62
     3
100
AcDbLine
 10
-105.2965716337415
 20
5.0002348075378
 30
0.0
 11
-115.8619014600295
 21
5.000234807537803
 31
0.0
  0
LINE
  5
3A51
330
3294
100
AcDbEntity
  8
AM_5
 62
     3
100
AcDbLine
 10
-105.2965716337415
 20
-5.000237972842509
 30
0.0
 11
-115.8619014600295
 21
-5.000237972842506
 31
0.0
  0
LINE
  5
3A52
330
3294
100
AcDbEntity
  8
AM_5
 62
     3
100
AcDbLine
 10
-115.3619014600294
 20
3.750234807537803
 30
0.0
 11
-115.3619014600294
 21
-3.750237972842506
 31
0.0
  0
INSERT
  5
3A53
330
3294
100
AcDbEntity
  8
AM_5
 62
     3
100
AcDbBlockReference
  2
_OPEN30
 10
-115.3619014600294
 20
5.000234807537803
 30
0.0
 41
1.25
 42
1.25
 43
1.25
 50
90.0
  0
INSERT
  5
3A54
330
3294
100
AcDbEntity
  8
AM_5
 62
     3
100
AcDbBlockReference
  2
_OPEN30
 10
-115.3619014600294
 20
-5.000237972842506
 30
0.0
 41
1.25
 42
1.25
 43
1.25
 50
270.0
  0
MTEXT
  5
3A55
330
3294
100
AcDbEntity
  8
AM_5
 62
     2
100
AcDbMText
 10
-117.0619014600295
 20
-0.0000015826523699
 30
0.0
 40
1.9
 41
0.0
 71
     5
 72
     1
  1
%%C10
 11
0.0000000000000001
 21
1.0
 31
0.0
1001
ACAD
1000
MTEXTBEGIN
1070
    73
1070
     1
1070
    44
1040
1.0
1070
    74
1070
     0
1000
MTEXTEND
  0
POINT
  5
3A56
330
3294
100
AcDbEntity
  8
DEFPOINTS
 62
     0
100
AcDbPoint
 10
-104.8965716337415
 20
5.0002348075378
 30
0.0
  0
POINT
  5
3A57
330
3294
100
AcDbEntity
  8
DEFPOINTS
 62
     0
100
AcDbPoint
 10
-104.8965716337415
 20
-5.000237972842509
 30
0.0
  0
POINT
  5
3A58
330
3294
100
AcDbEntity
  8
DEFPOINTS
 62
     0
100
AcDbPoint
 10
-115.3619014600294
 20
-5.000237972842506
 30
0.0
  0
ENDBLK
  5
32A1
330
3294
100
AcDbEntity
  8
0
100
AcDbBlockEnd
  0
BLOCK
  5
3AF2
330
3AE2
100
AcDbEntity
  8
0
100
AcDbBlockBegin
  2
*D14
 70
     1
 10
0.0
 20
0.0
 30
0.0
  3
*D14
  1

  0
LINE
  5
3BA9
330
3AE2
100
AcDbEntity
  8
AM_5
100
AcDbLine
 10
-25.25804774766411
 20
5.353788198131165
 30
0.0
 11
-46.32757803327939
 21
26.42331848374567
 31
0.0
  0
LINE
  5
3BAA
330
3AE2
100
AcDbEntity
  8
AM_5
100
AcDbLine
 10
-25.59139590502156
 20
-5.353789720536151
 30
0.0
 11
-46.32757803327907
 21
-26.08997184879343
 31
0.0
  0
ARC
  5
3BAB
330
3AE2
100
AcDbEntity
  8
AM_5
100
AcDbCircle
 10
-20.07093286700905
 20
0.1666733174762849
 30
0.0
 40
36.63250369655681
100
AcDbArc
 50
136.9551816623614
 51
223.0448183376392
  0
INSERT
  5
3BAC
330
3AE2
100
AcDbEntity
  8
AM_5
100
AcDbBlockReference
  2
_OPEN30
 10
-45.97402464268612
 20
26.06976509315241
 30
0.0
 41
1.25
 42
1.25
 43
1.25
 50
45.9775908311812
  0
INSERT
  5
3BAD
330
3AE2
100
AcDbEntity
  8
AM_5
100
AcDbBlockReference
  2
_OPEN30
 10
-45.9740246426858
 20
-25.73641845820016
 30
0.0
 41
1.25
 42
1.25
 43
1.25
 50
314.0224091688194
  0
MTEXT
  5
3BAE
330
3AE2
100
AcDbEntity
  8
AM_5
 62
     2
100
AcDbMText
 10
-58.25343656356587
 20
0.1666733174760491
 30
0.0
 40
1.6
 41
0.0
 71
     5
 72
     1
  1
90°
  7
ASAMI
 11
-0.0000000000000028
 21
1.0
 31
0.0
1001
ACAD
1000
MTEXTBEGIN
1070
    73
1070
     1
1070
    44
1040
1.0
1070
    74
1070
     0
1000
MTEXTEND
  0
POINT
  5
3BAF
330
3AE2
100
AcDbEntity
  8
DEFPOINTS
 62
     0
100
AcDbPoint
 10
-55.45521426914312
 20
9.647862943933493
 30
0.0
  0
POINT
  5
3BB0
330
3AE2
100
AcDbEntity
  8
DEFPOINTS
 62
     0
100
AcDbPoint
 10
-23.30519908802121
 20
3.400939538488416
 30
0.0
  0
POINT
  5
3BB1
330
3AE2
100
AcDbEntity
  8
DEFPOINTS
 62
     0
100
AcDbPoint
 10
-23.6385472453787
 20
-3.400941060893236
 30
0.0
  0
POINT
  5
3BB2
330
3AE2
100
AcDbEntity
  8
DEFPOINTS
 62
     0
100
AcDbPoint
 10
-25.2378425144283
 20
-5.000236329942802
 30
0.0
  0
POINT
  5
3BB3
330
3AE2
100
AcDbEntity
  8
DEFPOINTS
 62
     0
100
AcDbPoint
 10
-24.90449435707082
 20
5.000234807537975
 30
0.0
  0
ENDBLK
  5
3AF3
330
3AE2
100
AcDbEntity
  8
0
100
AcDbBlockEnd
  0
ENDSEC
  0
SECTION
  2
ENTITIES
  0
TEXT
  5
19BD
330
1F
100
AcDbEntity
  8
AM_6
100
AcDbText
 10
-65.4402224273923
 20
-48.21121795816978
 30
0.0
 40
2.5
  1
MDW068S3HK
 50
0.0000000000001527
 72
     4
 11
-53.23784147501135
 21
-46.96121795816973
 31
0.0
100
AcDbText
  0
DIMENSION
  5
31FC
330
1F
100
AcDbEntity
  8
AM_5
100
AcDbDimension
  2
*D8
 10
-0.2869274775186525
 20
0.7883267720540062
 30
0.0
 11
21.46361054181632
 21
-0.0000063447367487
 31
0.0
 70
    34
  1
<>
  3
AM_JIS$2
100
AcDb2LineAngularDimension
 13
-0.0000006834663893
 23
0.0000013669331338
 33
0.0
 14
-0.286932261784635
 24
-0.7883349736532637
 34
0.0
 15
-0.0000000000000213
 25
0.0
 35
0.0
 16
21.13147202803716
 26
9.115217600148053
 36
0.0
1001
ACAD
1000
DSTYLE
1002
{
1070
   179
1070
     3
1002
}
1001
GENIUS_GENDTOL_13
1000

1000
h7
1000

1040
0.0
  0
DIMENSION
  5
31FD
330
1F
100
AcDbEntity
  8
AM_5
100
AcDbDimension
  2
*D9
 10
-25.23784334423966
 20
-19.55825055125734
 30
0.0
 11
-9.981622785362883
 21
-19.55825055125734
 31
0.0
 70
   160
  1
<>
  3
AM_JIS$0
100
AcDbAlignedDimension
 13
-1.237841475011338
 23
-3.399060461511713
 33
0.0
 14
-25.23784334423966
 24
-5.33358526528831
 34
0.0
 50
180.0
100
AcDbRotatedDimension
1001
GENIUS_GENDTOL_13
1000

1000
h7
1000

1040
0.0
  0
DIMENSION
  5
31FE
330
1F
100
AcDbEntity
  8
AM_5
100
AcDbDimension
  2
*D10
 10
12.67535772649807
 20
3.400939115770004
 30
0.0
 11
12.67535772649807
 21
0.0009391157699977
 31
0.0
 70
   160
  1
%%C<>
  3
AM_JIS$0
100
AcDbAlignedDimension
 13
-1.237843344239667
 23
-3.399060884230009
 33
0.0
 14
-1.237834697592553
 24
3.400939115770008
 34
0.0
 50
90.0
100
AcDbRotatedDimension
1001
ACAD
1000
DSTYLE
1002
{
1070
   271
1070
     1
1002
}
1001
GENIUS_GENDTOL_13
1000

1000
h7
1000

1040
0.0
  0
LINE
  5
31FF
330
1F
100
AcDbEntity
  8
AM_0
100
AcDbLine
 10
-46.10209181982717
 20
5.00023480753793
 30
0.0
 11
-104.8965716337415
 21
5.000234807537815
 31
0.0
  0
LINE
  5
3200
330
1F
100
AcDbEntity
  8
AM_0
100
AcDbLine
 10
-44.8903458149915
 20
-5.000236973535493
 30
0.0
 11
-104.8965716337415
 21
-5.000238938657584
 31
0.0
  0
LINE
  5
3201
330
1F
100
AcDbEntity
  8
AM_7
100
AcDbLine
 10
3.226237378435541
 20
0.0
 30
0.0
 11
-109.3288555579567
 21
-0.0000000000002727
 31
0.0
  0
DIMENSION
  5
3202
330
1F
100
AcDbEntity
  8
AM_5
100
AcDbDimension
  2
*D11
 10
-105.2378414750114
 20
-36.96121795816974
 30
0.0
 11
-53.23784147501138
 21
-35.26121795816973
 31
0.0
 70
    32
  1
<>
  3
AM_JIS$0
100
AcDbAlignedDimension
 13
-1.237841475011338
 23
-3.399060461511713
 33
0.0
 14
-105.2378414750114
 24
-4.583551768176681
 34
0.0
 50
180.0
100
AcDbRotatedDimension
1001
GENIUS_GENDTOL_13
1000

1000
h7
1000

1040
0.0
1001
ACAD
1000
DSTYLE
1002
{
1070
   271
1070
     1
1002
}
  0
ELLIPSE
  5
3205
330
1F
100
AcDbEntity
  8
AM_0
100
AcDbEllipse
 10
-16.00812708888091
 20
-9.425229338343282
 30
0.0
 11
27.55198968942942
 21
-3.659363477061192
 31
0.0
210
0.0
220
0.0
230
0.9999999999999998
 40
0.2582985359049393
 41
1.907876791642418
 42
1.987017355077714
  0
ELLIPSE
  5
3207
330
1F
100
AcDbEntity
  8
AM_0
100
AcDbEllipse
 10
-14.84984236807374
 20
0.5349066216128331
 30
0.0
 11
-0.0000000000005378
 21
-12.76296583189222
 31
0.0
210
0.0
220
0.0
230
1.0
 40
0.9032857142857233
 41
-1.415634476765189
 42
-1.122214747494195
  0
LINE
  5
320A
330
1F
100
AcDbEntity
  8
AM_0
 48
0.5
100
AcDbLine
 10
-26.89480309456186
 20
-5.000237025800545
 30
0.0
 11
-25.24527341335824
 21
-5.000237025800545
 31
0.0
  0
DIMENSION
  5
320B
330
1F
100
AcDbEntity
  8
AM_5
100
AcDbDimension
  2
*D12
 10
-49.23784147501133
 20
-28.62430759319284
 30
0.0
 11
-25.23784147501134
 21
-26.92430759319284
 31
0.0
 70
    32
  1
<>
  3
AM_JIS$0
100
AcDbAlignedDimension
 13
-1.237841475011338
 23
-3.399060461511713
 33
0.0
 14
-49.23784147501133
 24
-3.480168131787931
 34
0.0
 50
180.0
100
AcDbRotatedDimension
1001
GENIUS_GENDTOL_13
1000

1000
h7
1000

1040
0.0
1001
ACAD
1000
DSTYLE
1002
{
1070
   271
1070
     5
1002
}
  0
ELLIPSE
  5
3225
330
1F
100
AcDbEntity
  8
AM_0
100
AcDbEllipse
 10
-16.53787314193733
 20
0.3649755973212986
 30
0.0
 11
0.000000000002023
 21
-8.715637266564467
 31
0.0
210
0.0
220
0.0
230
1.0
 40
0.9032857142856437
 41
-1.355287982022058
 42
-1.124229503791887
  0
LINE
  5
3226
330
1F
100
AcDbEntity
  8
AM_0
100
AcDbLine
 10
-23.30519908802121
 20
3.400939538488416
 30
0.0
 11
-24.90449435707082
 21
5.000234807537975
 31
0.0
  0
ELLIPSE
  5
3227
330
1F
100
AcDbEntity
  8
AM_0
100
AcDbEllipse
 10
-16.20452498457984
 20
-0.363096520344489
 30
0.0
 11
-0.0000000000005856
 21
-8.71563726656376
 31
0.0
210
0.0
220
0.0
230
1.0
 40
0.9032857142857174
 41
4.265822157381497
 42
4.408891275915956
  0
LINE
  5
3228
330
1F
100
AcDbEntity
  8
AM_0
100
AcDbLine
 10
-23.303318540463
 20
-3.399060461511645
 30
0.0
 11
-25.23784335515636
 21
-5.000237025800545
 31
0.0
  0
SPLINE
  5
322E
330
1F
100
AcDbEntity
  8
AM_0
 48
0.5
100
AcDbSpline
210
0.0
220
0.0
230
1.0
 70
     8
 71
     3
 72
    15
 73
    11
 74
     0
 42
0.0000000001
 43
0.0000000001
 40
0.0
 40
0.0
 40
0.0
 40
0.0
 40
1.010743684496582
 40
2.022833993863546
 40
3.037578683882831
 40
4.056212471389632
 40
5.079857945358201
 40
6.109499720892564
 40
7.145961650132166
 40
7.907745354493536
 40
7.907745354493536
 40
7.907745354493536
 40
7.907745354493536
 10
-36.89349917110454
 20
-5.000237153587704
 30
0.0
 10
-37.19456992447149
 20
-4.956548634242084
 30
0.0
 10
-37.56105115648777
 20
-4.928506995964657
 30
0.0
 10
-38.11417619051777
 20
-4.875361827852328
 30
0.0
 10
-38.66727879178744
 20
-4.79091264158962
 30
0.0
 10
-39.22034685704402
 20
-4.672533856598128
 30
0.0
 10
-39.77337337162126
 20
-4.521830110177809
 30
0.0
 10
-40.326352566181
 20
-4.33951483005675
 30
0.0
 10
-40.82911732354052
 20
-4.146066152325226
 30
0.0
 10
-41.14684013057746
 20
-4.00935853595879
 30
0.0
 10
-41.2810704553693
 20
-3.949130115345823
 30
0.0
  0
SPLINE
  5
3230
330
1F
100
AcDbEntity
  8
AM_0
 48
0.5
100
AcDbSpline
210
0.0
220
0.0
230
1.0
 70
     8
 71
     3
 72
    15
 73
    11
 74
     0
 42
0.0000000001
 43
0.0000000001
 40
7.907745354493536
 40
7.907745354493536
 40
7.907745354493536
 40
7.907745354493536
 40
8.189873411961459
 40
9.241710626092514
 40
10.30166235592959
 40
11.36982472628033
 40
12.44598212828784
 40
13.52983440361964
 40
14.62080578343036
 40
14.90544694398022
 40
14.90544694398022
 40
14.90544694398022
 40
14.90544694398022
 10
-31.28237437882656
 20
-3.949130115345823
 30
0.0
 10
-31.33208683732367
 20
-3.926824404138499
 30
0.0
 10
-31.56690165674325
 20
-3.819856285967176
 30
0.0
 10
-31.98626796142868
 20
-3.615440127119781
 30
0.0
 10
-32.53902979988258
 20
-3.320012260040684
 30
0.0
 10
-33.09174149012312
 20
-3.000501206123264
 30
0.0
 10
-33.64440261699906
 20
-2.658806445057174
 30
0.0
 10
-34.1970235339655
 20
-2.29710472717393
 30
0.0
 10
-34.61235677266206
 20
-2.011863787944357
 30
0.0
 10
-34.8437949468865
 20
-1.848829235904181
 30
0.0
 10
-35.93367840855114
 20
-1.195134537085095
 30
0.0
  0
LINE
  5
3232
330
1F
100
AcDbEntity
  8
AM_0
100
AcDbLine
 10
-33.67774614165792
 20
-4.523307008566693
 30
0.0
 11
-32.17821049269783
 21
-3.511482141655934
 31
0.0
  0
SPLINE
  5
3233
330
1F
100
AcDbEntity
  8
AM_0
 48
0.5
100
AcDbSpline
210
0.0
220
0.0
230
1.0
 70
     8
 71
     3
 72
    15
 73
    11
 74
     0
 42
0.0000000001
 43
0.0000000001
 40
0.0
 40
0.0
 40
0.0
 40
0.0
 40
1.010743684496582
 40
2.022833993863546
 40
3.037578683882831
 40
4.056212471389632
 40
5.079857945358201
 40
6.109499720892564
 40
7.145961650132166
 40
7.907745354493536
 40
7.907745354493536
 40
7.907745354493536
 40
7.907745354493536
 10
-26.89480309456185
 20
-5.000237025800544
 30
0.0
 10
-27.19351503904574
 20
-4.935095967322248
 30
0.0
 10
-27.56235507994509
 20
-4.928506995964612
 30
0.0
 10
-28.11548011397505
 20
-4.875361827852284
 30
0.0
 10
-28.66858271524476
 20
-4.790912641589574
 30
0.0
 10
-29.22165078050131
 20
-4.672533856598084
 30
0.0
 10
-29.77467729507855
 20
-4.521830110177809
 30
0.0
 10
-30.32765648963828
 20
-4.33951483005675
 30
0.0
 10
-30.8304212469978
 20
-4.146066152325226
 30
0.0
 10
-31.14814405403475
 20
-4.00935853595879
 30
0.0
 10
-31.28237437882656
 20
-3.949130115345823
 30
0.0
  0
ELLIPSE
  5
3235
330
1F
100
AcDbEntity
  8
AM_0
100
AcDbEllipse
 10
-34.10681957073861
 20
-3.505861926078253
 30
0.0
 11
0.0000000000236887
 21
-1.153154926542463
 31
0.0
210
0.0
220
0.0
230
1.0
 40
0.7905622000756569
 41
0.2863257179288445
 42
0.4900394311561751
  0
LINE
  5
3237
330
1F
100
AcDbEntity
  8
AM_0
100
AcDbLine
 10
-34.89164866541097
 20
-5.00023702580059
 30
0.0
 11
-33.84934539542082
 21
-4.612069694552478
 31
0.0
  0
LINE
  5
3238
330
1F
100
AcDbEntity
  8
AM_0
100
AcDbLine
 10
-34.89164866541097
 20
-5.00023702580059
 30
0.0
 11
-36.8934991711044
 21
-5.000237153587704
 31
0.0
  0
ELLIPSE
  5
3239
330
1F
100
AcDbEntity
  8
AM_0
100
AcDbEllipse
 10
-46.48629441925604
 20
-3.223966339837189
 30
0.0
 11
-2.750527755442472
 21
0.111980419307038
 31
0.0
210
0.0
220
0.0
230
1.0
 40
0.6449462640599731
 41
4.119869707836812
 42
7.8802328733108
  0
ELLIPSE
  5
323A
330
1F
100
AcDbEntity
  8
AM_0
100
AcDbEllipse
 10
-44.10551564728132
 20
-3.505861926078253
 30
0.0
 11
0.0000000000121255
 21
-1.15315492654341
 31
0.0
210
0.0
220
0.0
230
1.0
 40
0.7905622000802577
 41
0.2863257179395604
 42
0.4900394311653096
  0
SPLINE
  5
323B
330
1F
100
AcDbEntity
  8
AM_0
 48
0.5
100
AcDbSpline
210
0.0
220
0.0
230
1.0
 70
     8
 71
     3
 72
    15
 73
    11
 74
     0
 42
0.0000000001
 43
0.0000000001
 40
7.907745354493536
 40
7.907745354493536
 40
7.907745354493536
 40
7.907745354493536
 40
8.189873411961459
 40
9.241710626092514
 40
10.30166235592959
 40
11.36982472628033
 40
12.44598212828784
 40
13.52983440361964
 40
14.62080578343036
 40
14.90544694398022
 40
14.90544694398022
 40
14.90544694398022
 40
14.90544694398022
 10
-41.2810704553693
 20
-3.949130115345823
 30
0.0
 10
-41.33078291386638
 20
-3.926824404138499
 30
0.0
 10
-41.56559773328597
 20
-3.819856285967176
 30
0.0
 10
-41.98496403797142
 20
-3.615440127119781
 30
0.0
 10
-42.53772587642529
 20
-3.320012260040684
 30
0.0
 10
-43.09043756666585
 20
-3.000501206123264
 30
0.0
 10
-43.64309869354176
 20
-2.658806445057174
 30
0.0
 10
-44.19571961050821
 20
-2.29710472717393
 30
0.0
 10
-44.61105284920477
 20
-2.011863787944357
 30
0.0
 10
-44.8424910234292
 20
-1.848829235904181
 30
0.0
 10
-44.89034474195368
 20
-1.814952107167786
 30
0.0
  0
LINE
  5
323C
330
1F
100
AcDbEntity
  8
AM_0
100
AcDbLine
 10
-44.89034581499147
 20
-5.000237664062333
 30
0.0
 11
-43.84804147196351
 21
-4.612069694552478
 31
0.0
  0
LINE
  5
323D
330
1F
100
AcDbEntity
  8
AM_0
100
AcDbLine
 10
-43.67644221820064
 20
-4.523307008566693
 30
0.0
 11
-42.17690656924054
 21
-3.511482141655934
 31
0.0
  0
DIMENSION
  5
323E
330
1F
100
AcDbEntity
  8
AM_5
100
AcDbDimension
  2
*D13
 10
-115.3619014600294
 20
-5.000237972842506
 30
0.0
 11
-117.0619014600295
 21
-0.0000015826523699
 31
0.0
 70
    32
  1
%%C<>
  3
AM_JIS$0
100
AcDbAlignedDimension
 13
-104.8965716337415
 23
5.0002348075378
 33
0.0
 14
-104.8965716337415
 24
-5.000237972842509
 34
0.0
 50
270.0
100
AcDbRotatedDimension
1001
ACAD
1000
DSTYLE
1002
{
1070
   271
1070
     1
1002
}
1001
GENIUS_GENDTOL_13
1000

1000
h7
1000

1040
0.0
  0
LINE
  5
323F
330
1F
100
AcDbEntity
  8
AM_0
100
AcDbLine
 10
-104.8965716337415
 20
-5.000237972842529
 30
0.0
 11
-104.8965716337415
 21
5.00023480753778
 31
0.0
  0
LINE
  5
3240
330
1F
100
AcDbEntity
  8
AM_0
 48
0.5
100
AcDbLine
 10
-105.2378414750114
 20
-0.0000000000002651
 30
0.0
 11
-105.2378414750114
 21
-4.583551768176681
 31
0.0
  0
LINE
  5
3241
330
1F
100
AcDbEntity
  8
AM_0
 48
0.5
100
AcDbLine
 10
-105.2378414750114
 20
-0.0000000000002651
 30
0.0
 11
-105.2378414750114
 21
4.583548573576254
 31
0.0
  0
LINE
  5
3242
330
1F
100
AcDbEntity
  8
AM_0
100
AcDbLine
 10
-105.2378414750114
 20
4.583548573576254
 30
0.0
 11
-104.8965716337415
 21
5.0002348075378
 31
0.0
1001
GENIUS_GENFIL_13
1070
     0
1040
1.0
1040
1.0
1040
20.0
1040
0.0
1002
{
1002
}
1001
GENIUS_GENODEF_13
1002
{
1000
HIER
1070
     0
1002
}
1002
{
1000
MANEDIT
1070
     0
1002
}
1002
{
1000
NOSEL
1070
     0
1002
}
1002
{
1000
BEHIND
1070
     0
1002
}
1002
{
1000
REACTOR
1002
}
1001
GENIUS_GENOBJ-N-CHA_13
1002
{
1000
OWNER
1000
GEN
1002
}
  0
LINE
  5
3243
330
1F
100
AcDbEntity
  8
AM_0
 48
0.5
100
AcDbLine
 10
-104.8965716337415
 20
-5.000237972842529
 30
0.0
 11
-105.2378414750113
 21
-4.5835517681767
 31
0.0
1001
GENIUS_GENFIL_13
1070
     0
1040
1.0
1040
1.0
1040
20.0
1040
0.0
1002
{
1002
}
1001
GENIUS_GENODEF_13
1002
{
1000
HIER
1070
     0
1002
}
1002
{
1000
MANEDIT
1070
     0
1002
}
1002
{
1000
NOSEL
1070
     0
1002
}
1002
{
1000
BEHIND
1070
     0
1002
}
1002
{
1000
REACTOR
1002
}
1001
GENIUS_GENOBJ-N-CHA_13
1002
{
1000
OWNER
1000
GEN
1002
}
  0
SPLINE
  5
35C6
330
1F
100
AcDbEntity
  8
AM_0
100
AcDbSpline
210
0.0
220
0.0
230
1.0
 70
     8
 71
     3
 72
    17
 73
    13
 74
     0
 42
0.0000000001
 43
0.0000000001
 40
1.580019955310467
 40
1.580019955310467
 40
1.580019955310467
 40
1.580019955310467
 40
2.030549285115227
 40
3.082371838836284
 40
4.126290986361125
 40
5.162752068350215
 40
6.192395305374981
 40
7.216039564037012
 40
8.234688489606833
 40
9.249433870634691
 40
10.26152376260694
 40
11.27226744710342
 40
11.27226744710342
 40
11.27226744710342
 40
11.27226744710352
 10
-10.15493078680111
 20
-2.508360579918861
 30
0.0
 10
-10.25144747313457
 20
-2.534204286567768
 30
0.0
 10
-10.57384563144617
 20
-2.618910487029954
 30
0.0
 10
-11.12425923908149
 20
-2.751775193295364
 30
0.0
 10
-11.80602791729146
 20
-2.900566038603648
 30
0.0
 10
-12.48798428578024
 20
-3.031184645579002
 30
0.0
 10
-13.16997190127175
 20
-3.143192367582233
 30
0.0
 10
-13.8520338180917
 20
-3.235774455034344
 30
0.0
 10
-14.53414285661229
 20
-3.308402582785291
 30
0.0
 10
-15.21629436870186
 20
-3.360606096265572
 30
0.0
 10
-15.89847154791368
 20
-3.392048955396399
 30
0.0
 10
-16.35336671425647
 20
-3.399060480966594
 30
0.0
 10
-16.58066292314145
 20
-3.399060461511623
 30
0.0
  0
SPLINE
  5
35C7
330
1F
100
AcDbEntity
  8
AM_0
100
AcDbSpline
210
0.0
220
0.0
230
1.0
 70
     8
 71
     3
 72
    36
 73
    32
 74
     0
 42
0.0000000001
 43
0.0000000001
 40
0.0
 40
0.0
 40
0.0
 40
0.0
 40
1.010743684496582
 40
2.022833576467832
 40
3.037578957496688
 40
4.056212745003489
 40
5.079857003664532
 40
6.109500240690281
 40
7.145961322679372
 40
8.189895241603872
 40
9.241717795325891
 40
10.30168407291828
 40
11.36983447792315
 40
12.44600489715814
 40
13.52984294512926
 40
14.62081576220742
 40
15.7182257034828
 40
16.82123173843959
 40
17.92886860250316
 40
19.0400688939571
 40
20.15368796660465
 40
21.26852814259644
 40
22.38336992938901
 40
23.49698739941135
 40
24.6081876908653
 40
25.71582455492886
 40
26.81883757994213
 40
27.91624752121713
 40
29.00722033829659
 40
30.09105838626677
 40
30.79552876096828
 40
30.79552876096828
 40
30.79552876096828
 40
30.79552876096828
 10
-3.73020123578128
 20
-3.399060461511668
 30
0.0
 10
-3.957497447664963
 20
-3.397037543881706
 30
0.0
 10
-4.412392606798476
 20
-3.392989014301859
 30
0.0
 10
-5.094569800479654
 20
-3.360353320843493
 30
0.0
 10
-5.776717874588553
 20
-3.308471093638935
 30
0.0
 10
-6.458823730428794
 20
-3.235756178982067
 30
0.0
 10
-7.140880561657689
 20
-3.14319400337983
 30
0.0
 10
-7.822874912818923
 20
-3.031196176076296
 30
0.0
 10
-8.504809065153374
 20
-2.900517154355651
 30
0.0
 10
-9.186676971283269
 20
-2.751957154021714
 30
0.0
 10
-9.868473986445458
 20
-2.586428324464399
 30
0.0
 10
-10.55020350902114
 20
-2.404969673035829
 30
0.0
 10
-11.23186736481793
 20
-2.208691739122754
 30
0.0
 10
-11.91347407067969
 20
-1.99881640272178
 30
0.0
 10
-12.59502674725583
 20
-1.776633392742199
 30
0.0
 10
-13.27653171440566
 20
-1.543512933780919
 30
0.0
 10
-13.95799653011149
 20
-1.300893192903127
 30
0.0
 10
-14.63942717527238
 20
-1.050266166723456
 30
0.0
 10
-15.3208302632504
 20
-0.7931733089491445
 30
0.0
 10
-16.00221308534811
 20
-0.5311969955757028
 30
0.0
 10
-16.68358161794152
 20
-0.2659477493148892
 30
0.0
 10
-17.36494548300971
 20
0.0009388447648789
 30
0.0
 10
-18.04630628932425
 20
0.2678302429696687
 30
0.0
 10
-18.72767710571647
 20
0.5330753585981399
 30
0.0
 10
-19.40905908663797
 20
0.7950524649589586
 30
0.0
 10
-20.09046338955014
 20
1.052146302142439
 30
0.0
 10
-20.77189686161222
 20
1.302771189427089
 30
0.0
 10
-21.45336275284958
 20
1.545392160724513
 30
0.0
 10
-22.13486781838606
 20
1.778512430649157
 30
0.0
 10
-22.73849533652935
 20
1.975292249115156
 30
0.0
 10
-23.11562484858492
 20
2.092581822219044
 30
0.0
 10
-23.717429164644
 20
2.241657759979288
 30
0.0
  0
SPLINE
  5
35C8
330
1F
100
AcDbEntity
  8
AM_0
100
AcDbSpline
210
0.0
220
0.0
230
1.0
 70
     8
 71
     3
 72
    38
 73
    34
 74
     0
 42
0.0000000001
 43
0.0000000001
 40
0.0
 40
0.0
 40
0.0
 40
0.0
 40
0.8427075293422852
 40
1.265518104770559
 40
1.68994884956506
 40
2.116467290673827
 40
2.54548530610122
 40
2.977344090263342
 40
3.412310401731623
 40
3.850575907619846
 40
4.292228523283339
 40
4.737291192035372
 40
5.185695533383686
 40
5.637294720037921
 40
6.091866727153826
 40
6.549120869352287
 40
7.008706717250554
 40
7.470222077277051
 40
7.933222198716569
 40
8.397230145652669
 40
8.861746885649248
 40
9.326263625646204
 40
9.790271572582303
 40
10.25327169402144
 40
10.71478705404793
 40
11.17437290194659
 40
11.6316270441445
 40
12.08619905126056
 40
12.53780120194721
 40
12.98620554329551
 40
13.43126821204755
 40
13.87292082771091
 40
13.97820595453336
 40
13.97820595453336
 40
13.97820595453336
 40
13.97820595453336
 10
-1.820568628669252
 20
-3.39906046151169
 30
0.0
 10
-2.275486013255293
 20
-3.391314998688575
 30
0.0
 10
-2.958648517828893
 20
-3.379683414667804
 30
0.0
 10
-3.867079491672786
 20
-3.308069888687662
 30
0.0
 10
-4.549192676032732
 20
-3.235864404457279
 30
0.0
 10
-5.231247555953414
 20
-3.143164827953821
 30
0.0
 10
-5.913242334668741
 20
-3.031203819022703
 30
0.0
 10
-6.595173508637786
 20
-2.900516646668458
 30
0.0
 10
-7.277039935728289
 20
-2.751954654859324
 30
0.0
 10
-7.958838581393817
 20
-2.586430036216824
 30
0.0
 10
-8.640570808386334
 20
-2.404969435809529
 30
0.0
 10
-9.322234783053445
 20
-2.208691803415723
 30
0.0
 10
-10.0038414566916
 20
-1.998816385288006
 30
0.0
 10
-10.6853941420455
 20
-1.776633397533663
 30
0.0
 10
-11.36689910662772
 20
-1.543512932210934
 30
0.0
 10
-12.04836392375142
 20
-1.300893194359443
 30
0.0
 10
-12.72979456580876
 20
-1.050266162451185
 30
0.0
 10
-13.4111976648392
 20
-0.793173324662544
 30
0.0
 10
-14.09258044565805
 20
-0.5311969367641176
 30
0.0
 10
-14.77394913274156
 20
-0.2659479693882608
 30
0.0
 10
-15.45531209211957
 20
0.0009395384343834
 30
0.0
 10
-16.13667505134788
 20
0.2678270465813128
 30
0.0
 10
-16.81804373888038
 20
0.5330760129846964
 30
0.0
 10
-17.49942651805812
 20
0.795052404437157
 30
0.0
 10
-18.18082962317389
 20
1.052145229045216
 30
0.0
 10
-18.86226024266741
 20
1.302772309825777
 30
0.0
 10
-19.54372514335257
 20
1.545391866685936
 30
0.0
 10
-20.22523128040498
 20
1.778513508291136
 30
0.0
 10
-20.90678661394382
 20
2.000694477400405
 30
0.0
 10
-21.58839450346381
 20
2.210570971697402
 30
0.0
 10
-22.27005846225984
 20
2.406848662494279
 30
0.0
 10
-22.78046509926534
 20
2.542705851745768
 30
0.0
 10
-23.06323679082507
 20
2.61384877500227
 30
0.0
 10
-23.54830059855625
 20
2.777652319491796
 30
0.0
  0
SPLINE
  5
35C9
330
1F
100
AcDbEntity
  8
AM_0
 48
0.5
100
AcDbSpline
210
0.0
220
0.0
230
1.0
 70
     8
 71
     3
 72
    25
 73
    21
 74
     0
 42
0.0000000001
 43
0.0000000001
 40
6.846175049578289
 40
6.846175049578289
 40
6.846175049578289
 40
6.846175049578289
 40
7.604337694224321
 40
8.711974558287883
 40
9.814980593243754
 40
10.91239053451967
 40
12.0033633515982
 40
13.08720139956839
 40
14.16337181880432
 40
15.23152222380919
 40
16.29148850140128
 40
17.34331105512262
 40
18.38723020264746
 40
19.42369128463655
 40
20.45333379090873
 40
21.47697865721768
 40
22.49561244472435
 40
23.5103574802404
 40
24.52244778960836
 40
25.53320666051913
 40
25.53320666051913
 40
25.53320666051913
 40
25.53320666051913
 10
-4.52579154372667
 20
0.6163617977811614
 30
0.0
 10
-4.680758850447415
 20
0.6760597509034375
 30
0.0
 10
-5.062451605652167
 20
0.8223759793115796
 30
0.0
 10
-5.671437045365583
 20
1.052145129229994
 30
0.0
 10
-6.352867612371811
 20
1.302772300399149
 30
0.0
 10
-7.034332448963825
 20
1.545392002398596
 30
0.0
 10
-7.715837410194586
 20
1.778512472859817
 30
0.0
 10
-8.397390089711208
 20
2.000695475457294
 30
0.0
 10
-9.078996789735164
 20
2.210570829807076
 30
0.0
 10
-9.760660665746497
 20
2.406848699946848
 30
0.0
 10
-10.44239011409543
 20
2.588307586006786
 30
0.0
 10
-11.12418421163892
 20
2.753834775279817
 30
0.0
 10
-11.80604785556092
 20
2.902397379838044
 30
0.0
 10
-12.48797863953325
 20
3.033075968884503
 30
0.0
 10
-13.16997389958963
 20
3.145069576164497
 30
0.0
 10
-13.85202984074701
 20
3.237635856102162
 30
0.0
 10
-14.53413585048876
 20
3.310351157581348
 30
0.0
 10
-15.21628441131443
 20
3.362227826397687
 30
0.0
 10
-15.89846444989732
 20
3.394872639699326
 30
0.0
 10
-16.35336323678847
 20
3.39891812647125
 30
0.0
 10
-16.58066292314146
 20
3.400939538488372
 30
0.0
  0
LINE
  5
35CA
330
1F
100
AcDbEntity
  8
AM_11
 48
0.2
100
AcDbLine
 10
-16.5806629231415
 20
-3.399060461511645
 30
0.0
 11
-3.73020123578128
 21
-3.39906046151169
 31
0.0
  0
LINE
  5
35CB
330
1F
100
AcDbEntity
  8
AM_11
 48
0.2
100
AcDbLine
 10
-20.17117153770913
 20
3.400939538488384
 30
0.0
 11
-3.730201235781239
 21
3.400939538488327
 31
0.0
  0
LINE
  5
35CC
330
1F
100
AcDbEntity
  8
AM_0
 48
0.5
100
AcDbLine
 10
-23.30519908802122
 20
3.400939538488394
 30
0.0
 11
-16.58066292314146
 21
3.400939538488372
 31
0.0
  0
SPLINE
  5
35CD
330
1F
100
AcDbEntity
  8
AM_0
100
AcDbSpline
210
0.0
220
0.0
230
1.0
 70
     8
 71
     3
 72
    14
 73
    10
 74
     0
 42
0.0000000001
 43
0.0000000001
 40
17.17441611292
 40
17.17441611292
 40
17.17441611292
 40
17.17441611292
 40
17.38177636558528
 40
18.41823744757437
 40
19.46215659509824
 40
20.51397914882054
 40
21.57394542641293
 40
22.64209583141747
 40
23.52740269164275
 40
23.52740269164275
 40
23.52740269164275
 40
23.52740269164275
 10
-19.1843821496916
 20
-3.052285069518408
 30
0.0
 10
-19.23006170611954
 20
-3.044414402996418
 30
0.0
 10
-19.50388569984629
 20
-2.996473312925957
 30
0.0
 10
-20.00551582643307
 20
-2.900345187662917
 30
0.0
 10
-20.68737941849497
 20
-2.751782814744006
 30
0.0
 10
-21.36917353008814
 20
-2.586255562697694
 30
0.0
 10
-22.03823001018985
 20
-2.375982348960671
 30
0.0
 10
-22.61374853570592
 20
-2.149244066968852
 30
0.0
 10
-23.02270224474621
 20
-1.990899686162795
 30
0.0
 10
-24.22265374691852
 20
-1.499054791265947
 30
0.0
  0
LINE
  5
35CE
330
1F
100
AcDbEntity
  8
AM_0
 48
0.5
100
AcDbLine
 10
-23.6385472453787
 20
-3.399060461511645
 30
0.0
 11
-16.5806629231415
 21
-3.399060461511645
 31
0.0
  0
SPLINE
  5
35CF
330
1F
100
AcDbEntity
  8
AM_0
100
AcDbSpline
210
0.0
220
0.0
230
1.0
 70
     8
 71
     3
 72
    11
 73
     7
 74
     0
 42
0.0000000001
 43
0.0000000001
 40
11.27226913003534
 40
11.27226913003534
 40
11.27226913003534
 40
11.2722691300354
 40
12.28301561507924
 40
13.29510212255852
 40
14.30984805882082
 40
15.18258238371378
 40
15.18258238371378
 40
15.18258238371378
 40
15.18258238371378
 10
-16.58066292314148
 20
-3.399060461511623
 30
0.0
 10
-16.80709483993986
 20
-3.382419873478083
 30
0.0
 10
-17.259531579884
 20
-3.342133734076798
 30
0.0
 10
-17.93585039082149
 20
-3.260866626151521
 30
0.0
 10
-18.57768886775881
 20
-3.163801976325617
 30
0.0
 10
-18.99279231947912
 20
-3.089185491175149
 30
0.0
 10
-19.18408381009181
 20
-3.052327008492412
 30
0.0
  0
SPLINE
  5
35D0
330
1F
100
AcDbEntity
  8
AM_0
 48
0.5
100
AcDbSpline
210
0.0
220
0.0
230
1.0
 70
     8
 71
     3
 72
    10
 73
     6
 74
     0
 42
0.0000000001
 43
0.0000000001
 40
0.0
 40
0.0
 40
0.0
 40
0.0
 40
2.69986029516136
 40
4.147722969032201
 40
6.285750005020438
 40
6.285750005020438
 40
6.285750005020438
 40
6.285750005020438
 10
-4.525682478612084
 20
0.6163214151158704
 30
0.0
 10
-4.040163197060905
 20
0.3004379200569569
 30
0.0
 10
-3.2942729450331
 20
-0.1848454223227292
 30
0.0
 10
-1.530342696228279
 20
0.0500887451702174
 30
0.0
 10
-1.862542069152801
 20
0.8413781077038724
 30
0.0
 10
-2.082038189693593
 20
1.323693345224541
 30
0.0
  0
ELLIPSE
  5
35D1
330
1F
100
AcDbEntity
  8
AM_0
 48
0.5
100
AcDbEllipse
 10
-7.079253543878593
 20
5.707372135330524
 30
0.0
 11
-9.759238371771854
 21
0.0000000000040139
 31
0.0
210
0.0
220
0.0
230
1.0
 40
0.8400000000000627
 41
2.081379652023706
 42
2.169874429703217
  0
ELLIPSE
  5
35D2
330
1F
100
AcDbEntity
  8
AM_0
 48
0.5
100
AcDbEllipse
 10
4.113831172918075
 20
-0.754833624353312
 30
0.0
 11
6.399611432965897
 21
0.9650059173275941
 31
0.0
210
0.0
220
0.0
230
1.0
 40
0.587737838764192
 41
3.069090876427146
 42
3.639513831164404
  0
LINE
  5
35D3
330
1F
100
AcDbEntity
  8
AM_0
 48
0.5
100
AcDbLine
 10
-3.73020123578128
 20
-3.39906046151169
 30
0.0
 11
-1.237841475011357
 21
-3.399060461511713
 31
0.0
  0
LINE
  5
35D4
330
1F
100
AcDbEntity
  8
AM_0
 48
0.5
100
AcDbLine
 10
-3.730201235781239
 20
3.400939538488327
 30
0.0
 11
-1.237841400079913
 21
3.400939538488305
 31
0.0
  0
LINE
  5
35D5
330
1F
100
AcDbEntity
  8
AM_0
 48
0.5
100
AcDbLine
 10
-0.0003416912042527
 20
0.0009417001499286
 30
0.0
 11
-2.061853831664231
 21
1.306436262934697
 31
0.0
  0
SPLINE
  5
35D6
330
1F
100
AcDbEntity
  8
AM_0
 48
0.5
100
AcDbSpline
210
0.0
220
0.0
230
1.0
 70
     8
 71
     3
 72
    17
 73
    13
 74
     0
 42
0.0000000001
 43
0.0000000001
 40
0.0
 40
0.0
 40
0.0
 40
0.0
 40
1.010743614677189
 40
2.022833924044153
 40
3.037578959561199
 40
4.056212747067873
 40
5.079857613375832
 40
6.109500119648989
 40
7.14596120163808
 40
8.18989512056258
 40
9.241717674284874
 40
9.693948937866434
 40
9.693948937866434
 40
9.693948937866434
 40
9.693948937866434
 10
-3.73020123578124
 20
3.400939538488327
 30
0.0
 10
-3.957497489030117
 20
3.398918078671155
 30
0.0
 10
-4.412392840535092
 20
3.394872465684034
 30
0.0
 10
-5.094569459513326
 20
3.362227841780285
 30
0.0
 10
-5.776717993676129
 20
3.310351105907271
 30
0.0
 10
-6.458824104005389
 20
3.237636048543545
 30
0.0
 10
-7.140879666814957
 20
3.145068852774139
 30
0.0
 10
-7.822876351470361
 20
3.033078693247138
 30
0.0
 10
-8.504805004429879
 20
2.902386487655823
 30
0.0
 10
-9.186692087262589
 20
2.75387208958671
 30
0.0
 10
-9.737129121601906
 20
2.620083066592099
 30
0.0
 10
-10.06037802088359
 20
2.536445687517129
 30
0.0
 10
-10.15739999793012
 20
2.510844845675463
 30
0.0
  0
ELLIPSE
  5
35D7
330
1F
100
AcDbEntity
  8
AM_0
 48
0.5
100
AcDbEllipse
 10
2.511247181761727
 20
4.082848718175773
 30
0.0
 11
8.157752582004958
 21
0.000000000000024
 31
0.0
210
0.0
220
0.0
230
1.0
 40
0.8399999999999996
 41
3.671960206823881
 42
4.080081137018774
  0
SPLINE
  5
35D8
330
1F
100
AcDbEntity
  8
AM_0
 48
0.5
100
AcDbSpline
210
0.0
220
0.0
230
1.0
 70
     8
 71
     3
 72
    16
 73
    12
 74
     0
 42
0.0000000001
 43
0.0000000001
 40
0.0
 40
0.0
 40
0.0
 40
0.0
 40
1.010743614677189
 40
2.022833924044153
 40
3.037578959561199
 40
4.056212747067873
 40
5.079857613375832
 40
6.109500119648989
 40
7.14596120163808
 40
8.18989512056258
 40
8.545190612624931
 40
8.545190612624931
 40
8.545190612624931
 40
8.545190612624931
 10
-3.73020123578124
 20
3.400939538488327
 30
0.0
 10
-3.957484852838259
 20
3.400919107380822
 30
0.0
 10
-4.412398714215074
 20
3.393942604891991
 30
0.0
 10
-5.094567874813889
 20
3.362477817219163
 30
0.0
 10
-5.776718441452979
 20
3.310283826518813
 30
0.0
 10
-6.458823904519571
 20
3.237654014043672
 30
0.0
 10
-7.140880016646019
 20
3.145064698839767
 30
0.0
 10
-7.82287514226708
 20
3.033077179805611
 30
0.0
 10
-8.504809534091368
 20
2.902396840344281
 30
0.0
 10
-9.035045130388748
 20
2.78686893473208
 30
0.0
 10
-9.338116956064311
 20
2.715816412321233
 30
0.0
 10
-9.414974278431778
 20
2.697480793213726
 30
0.0
  0
LINE
  5
35D9
330
1F
100
AcDbEntity
  8
AM_0
100
AcDbLine
 10
-1.242055878076745
 20
3.412518721619394
 30
0.0
 11
-0.000342641040546
 21
0.0009396414245879
 31
0.0
  0
LINE
  5
35DA
330
1F
100
AcDbEntity
  8
AM_0
100
AcDbLine
 10
-1.237841475011358
 20
-3.399060461511713
 30
0.0
 11
-0.000342641040546
 21
0.0009396414245879
 31
0.0
  0
ELLIPSE
  5
35DB
330
1F
100
AcDbEntity
  8
AM_0
 48
0.5
100
AcDbEllipse
 10
-7.329699634360247
 20
6.468113744390265
 30
0.0
 11
10.62987612158597
 21
0.0000000000007654
 31
0.0
210
0.0
220
0.0
230
1.0
 40
0.8399999999999936
 41
-0.9323698858255562
 42
-0.8099906707996083
  0
ELLIPSE
  5
35DC
330
1F
100
AcDbEntity
  8
AM_0
 48
0.5
100
AcDbEllipse
 10
-1.278578257691612
 20
-0.8851494049933425
 30
0.0
 11
-0.5965824105610889
 21
0.2611408582373818
 31
0.0
210
0.0
220
0.0
230
1.0
 40
0.450686344502326
 41
4.397579333833926
 42
7.541019675163436
  0
ELLIPSE
  5
35DD
330
1F
100
AcDbEntity
  8
AM_0
 48
0.5
100
AcDbEllipse
 10
-1.278578257691612
 20
-0.8851494049933425
 30
0.0
 11
-0.1348112899893575
 21
0.5546093145286412
 31
0.0
210
0.0
220
0.0
230
1.0
 40
0.586728677357508
 41
1.752133309269087
 42
4.88747519898106
  0
SPLINE
  5
35F7
330
1F
100
AcDbEntity
  8
AM_0
100
AcDbSpline
210
0.0
220
0.0
230
1.0
 70
    24
 71
     3
 72
     8
 73
     4
 74
     0
 42
0.0000000001
 43
0.0000000001
 40
32.54006563661681
 40
32.54006563661681
 40
32.54006563661681
 40
32.54006563661681
 40
32.5407895042663
 40
32.54078950426994
 40
32.54078950426994
 40
32.54078950426994
 10
-29.14428130811118
 20
0.0009391157699091
 30
0.0
 10
-29.14442883167984
 20
0.0009969009902238
 30
0.0
 10
-29.1445763552492
 20
0.0010546862108982
 30
0.0
 10
-29.14472387881856
 20
0.0011124714315726
 30
0.0
  0
SPLINE
  5
37F6
330
1F
100
AcDbEntity
  8
AM_0
100
AcDbSpline
210
0.0
220
0.0
230
1.0
 70
     8
 71
     3
 72
    23
 73
    19
 74
     0
 42
0.0000000001
 43
0.0000000001
 40
16.03905285852473
 40
16.03905285852473
 40
16.03905285852473
 40
16.03905285852473
 40
16.35212704903564
 40
17.38177054169784
 40
18.41822485651776
 40
19.46214173629503
 40
20.51396345435107
 40
21.57393551351153
 40
22.64208202342361
 40
23.7182574881101
 40
24.80209208578934
 40
25.89306333925047
 40
26.99048218457928
 40
28.09348763352352
 40
29.20111863782268
 40
30.31232390128032
 40
31.42594612798585
 40
32.5407912310448
 40
32.5407912310486
 40
32.5407912310486
 40
32.5407912310486
 10
-36.81194122511664
 20
5.000234807537913
 30
0.0
 10
-36.75591281565439
 20
4.982471921289255
 30
0.0
 10
-36.51585520647627
 20
4.904308846944556
 30
0.0
 10
-36.09237519754651
 20
4.750993815028235
 30
0.0
 10
-35.54294113314957
 20
4.522589379139531
 30
0.0
 10
-34.9940174089553
 20
4.266129268801623
 30
0.0
 10
-34.44557158862302
 20
3.983097744324696
 30
0.0
 10
-33.89758420683864
 20
3.675072712794023
 30
0.0
 10
-33.35002359124487
 20
3.343814975188243
 30
0.0
 10
-32.80285161180163
 20
2.991252368448612
 30
0.0
 10
-32.25603717623171
 20
2.61938143406153
 30
0.0
 10
-31.70953644443914
 20
2.230366002346608
 30
0.0
 10
-31.16330512865088
 20
1.826467199066094
 30
0.0
 10
-30.61730683503226
 20
1.410007273013536
 30
0.0
 10
-30.07149588056925
 20
0.9834078816273773
 30
0.0
 10
-29.52582171160792
 20
0.5491600523754999
 30
0.0
 10
-28.98023989486733
 20
0.1097801338382595
 30
0.0
 10
-28.61661637909733
 20
-0.1848000764953619
 30
0.0
 10
-26.23994854539615
 20
-1.437482206940558
 30
0.0
  0
SPLINE
  5
37F7
330
1F
100
AcDbEntity
  8
AM_0
100
AcDbSpline
210
0.0
220
0.0
230
1.0
 70
     8
 71
     3
 72
    13
 73
     9
 74
     0
 42
0.0000000001
 43
0.0000000001
 40
16.03460024169435
 40
16.03460024169435
 40
16.03460024169435
 40
16.03460024169435
 40
16.35212704903564
 40
17.38177054169784
 40
18.41822485651776
 40
19.46214173629503
 40
20.51396345435107
 40
21.22396570242393
 40
21.22396570242393
 40
21.22396570242393
 40
21.22396570242393
 10
-26.32726260558915
 20
5.000234807538016
 30
0.0
 10
-26.28693973926966
 20
4.95866060357997
 30
0.0
 10
-26.11655195723498
 20
4.780495970445327
 30
0.0
 10
-25.82025176122075
 20
4.452173102430527
 30
0.0
 10
-25.44384310079895
 20
3.999454232347535
 30
0.0
 10
-25.06917485809492
 20
3.634147563591795
 30
0.0
 10
-24.64053058895439
 20
3.134457629960195
 30
0.0
 10
-24.39941834286424
 20
2.884612663144423
 30
0.0
 10
-23.71742916464399
 20
2.241657759979288
 30
0.0
  0
ELLIPSE
  5
37F8
330
1F
100
AcDbEntity
  8
AM_0
100
AcDbEllipse
 10
-28.40411528085087
 20
6.258773417920099
 30
0.0
 11
-2.629759118624944
 21
2.629759118624944
 31
0.0
210
0.0
220
0.0
230
1.0
 40
0.9999999999984011
 41
3.274399800085094
 42
3.581770431048846
  0
SPLINE
  5
37F9
330
1F
100
AcDbEntity
  8
AM_0
 48
0.5
100
AcDbSpline
210
0.0
220
0.0
230
1.0
 70
     8
 71
     3
 72
    16
 73
    12
 74
     0
 42
0.0000000001
 43
0.0000000001
 40
0.0
 40
0.0
 40
0.0
 40
0.0
 40
1.010743614677189
 40
2.022833924044153
 40
3.037578959561199
 40
4.056212747067873
 40
5.079857613375832
 40
6.109500119648989
 40
7.14596120163808
 40
8.18989512056258
 40
8.545190612624931
 40
8.545190612624931
 40
8.545190612624931
 40
8.545190612624931
 10
-27.20125988191349
 20
5.000234807537931
 30
0.0
 10
-27.38554688433866
 20
5.000210773889846
 30
0.0
 10
-27.75440194287872
 20
4.992004130832936
 30
0.0
 10
-28.30752104306478
 20
4.954991274934894
 30
0.0
 10
-28.86062506682282
 20
4.893594113237155
 30
0.0
 10
-29.41369251952361
 20
4.808157757810476
 30
0.0
 10
-29.96671995729967
 20
4.69924251525511
 30
0.0
 10
-30.51969794575592
 20
4.567508656203367
 30
0.0
 10
-31.07262668979456
 20
4.413785941673101
 30
0.0
 10
-31.50255441571697
 20
4.277887432930993
 30
0.0
 10
-31.7482923135754
 20
4.194306485221099
 30
0.0
 10
-33.86236586297606
 20
3.650559440713253
 30
0.0
  0
SPLINE
  5
37FA
330
1F
100
AcDbEntity
  8
AM_0
100
AcDbSpline
210
0.0
220
0.0
230
1.0
 70
     8
 71
     3
 72
     8
 73
     4
 74
     0
 42
0.0000000001
 43
0.0000000001
 40
16.03460024169435
 40
16.03460024169435
 40
16.03460024169435
 40
16.03460024169435
 40
16.03905285852473
 40
16.03905285852473
 40
16.03905285852473
 40
16.03905285852473
 10
-36.81433180753332
 20
5.000992411372226
 30
0.0
 10
-36.81353493550985
 20
5.000739970219274
 30
0.0
 10
-36.81273807470216
 20
5.00048743560085
 30
0.0
 10
-36.81194122511664
 20
5.000234807537913
 30
0.0
  0
LINE
  5
37FB
330
1F
100
AcDbEntity
  8
AM_0
100
AcDbLine
 10
-36.81194122511667
 20
5.000234807537998
 30
0.0
 11
-37.19995598753111
 21
5.000234807537999
 31
0.0
  0
LINE
  5
37FC
330
1F
100
AcDbEntity
  8
AM_0
 48
0.5
100
AcDbLine
 10
-27.20125991129862
 20
5.000234807538017
 30
0.0
 11
-24.90449435707082
 21
5.000234807537975
 31
0.0
  0
SPLINE
  5
37FD
330
1F
100
AcDbEntity
  8
AM_0
 48
0.5
100
AcDbSpline
210
0.0
220
0.0
230
1.0
 70
     8
 71
     3
 72
    16
 73
    12
 74
     0
 42
0.0000000001
 43
0.0000000001
 40
0.0
 40
0.0
 40
0.0
 40
0.0
 40
1.010743614677189
 40
2.022833924044153
 40
3.037578959561199
 40
4.056212747067873
 40
5.079857613375832
 40
6.109500119648989
 40
7.14596120163808
 40
8.18989512056258
 40
8.515371860447777
 40
8.515371860447777
 40
8.515371860447777
 40
8.515371860447777
 10
-37.1999559584562
 20
5.000234807537914
 30
0.0
 10
-37.38424296088134
 20
5.000210773889826
 30
0.0
 10
-37.75309801942141
 20
4.992004130832918
 30
0.0
 10
-38.30621711960749
 20
4.954991274934877
 30
0.0
 10
-38.85932114336556
 20
4.893594113237138
 30
0.0
 10
-39.41238859606633
 20
4.808157757810458
 30
0.0
 10
-39.96541603384237
 20
4.699242515255137
 30
0.0
 10
-40.51839402229862
 20
4.567508656203393
 30
0.0
 10
-41.07132276633724
 20
4.413785941673126
 30
0.0
 10
-41.49598713537982
 20
4.279551159896784
 30
0.0
 10
-41.7365140645175
 20
4.197866342374146
 30
0.0
 10
-43.37092187747347
 20
3.776731214622886
 30
0.0
  0
LINE
  5
37FE
330
1F
100
AcDbEntity
  8
AM_0
100
AcDbLine
 10
-46.81063730165933
 20
5.000234807537928
 30
0.0
 11
-54.91615293201586
 21
5.000234807537876
 31
0.0
  0
LINE
  5
3AD4
330
1F
100
AcDbEntity
  8
AM_0
100
AcDbLine
 10
-23.6385472453787
 20
-3.400941060893236
 30
0.0
 11
-25.2378425144283
 21
-5.000236329942802
 31
0.0
  0
DIMENSION
  5
3AE1
330
1F
100
AcDbEntity
  8
AM_5
100
AcDbDimension
  2
*D14
 10
-24.90449435707082
 20
5.000234807537975
 30
0.0
 11
-58.25343656356587
 21
0.166673317476228
 31
0.0
 70
    34
  1
<>
 51
359.9999999999998
  3
AM_JIS$2
100
AcDb2LineAngularDimension
 13
-23.6385472453787
 23
-3.400941060893236
 33
0.0
 14
-25.2378425144283
 24
-5.000236329942802
 34
0.0
 15
-23.30519908802121
 25
3.400939538488416
 35
0.0
 16
-55.45521426914312
 26
9.647862943933493
 36
0.0
1001
ACAD
1000
DSTYLE
1002
{
1070
   179
1070
     3
1002
}
1001
GENIUS_GENDTOL_13
1000

1000
h7
1000

1040
0.0
  0
SPLINE
  5
3BC5
330
1F
100
AcDbEntity
  8
AM_0
100
AcDbSpline
210
0.0
220
0.0
230
1.0
 70
     8
 71
     3
 72
    23
 73
    19
 74
     0
 42
0.0000000001
 43
0.0000000001
 40
16.03905285852473
 40
16.03905285852473
 40
16.03905285852473
 40
16.03905285852473
 40
16.35212704903564
 40
17.38177054169784
 40
18.41822485651776
 40
19.46214173629503
 40
20.51396345435107
 40
21.57393551351153
 40
22.64208202342361
 40
23.7182574881101
 40
24.80209208578934
 40
25.89306333925047
 40
26.99048218457928
 40
28.09348763352352
 40
29.20111863782268
 40
30.31232390128032
 40
31.42594612798585
 40
32.5407912310448
 40
32.5407912310486
 40
32.5407912310486
 40
32.5407912310486
 10
-46.10209181982717
 20
5.000234807537888
 30
0.0
 10
-46.04606341036491
 20
4.98247192128923
 30
0.0
 10
-45.80600580118679
 20
4.904308846944531
 30
0.0
 10
-45.38252579225703
 20
4.75099381502821
 30
0.0
 10
-44.83309172786009
 20
4.522589379139506
 30
0.0
 10
-44.28416800366583
 20
4.266129268801598
 30
0.0
 10
-43.73572218333355
 20
3.983097744324672
 30
0.0
 10
-43.18773480154916
 20
3.675072712793998
 30
0.0
 10
-42.6401741859554
 20
3.343814975188218
 30
0.0
 10
-42.09300220651216
 20
2.991252368448587
 30
0.0
 10
-41.54618777094223
 20
2.619381434061505
 30
0.0
 10
-40.99968703914966
 20
2.230366002346583
 30
0.0
 10
-40.45345572336141
 20
1.826467199066069
 30
0.0
 10
-39.90745742974278
 20
1.410007273013511
 30
0.0
 10
-39.36164647527978
 20
0.9834078816273526
 30
0.0
 10
-38.81597230631845
 20
0.5491600523754751
 30
0.0
 10
-38.27039048957785
 20
0.1097801338382347
 30
0.0
 10
-37.90676697380785
 20
-0.1848000764953868
 30
0.0
 10
-35.53009914010667
 20
-1.437482206940583
 30
0.0
  0
VIEWPORT
  5
110
330
101
100
AcDbEntity
 67
     1
  8
0
100
AcDbViewport
 10
420.5
 20
297.0
 30
0.0
 40
948.9782706766916
 41
628.452
 68
     1
 69
     1
1001
ACAD
1000
MVIEW
1002
{
1070
    16
1010
0.0
1020
0.0
1030
0.0
1010
0.0
1020
0.0
1030
1.0
1040
0.0
1040
628.452
1040
420.5
1040
297.0
1040
50.0
1040
0.0
1040
0.0
1070
     0
1070
   100
1070
     1
1070
     1
1070
     0
1070
     0
1070
     0
1070
     0
1040
0.0
1040
0.0
1040
0.0
1040
10.0
1040
10.0
1040
10.0
1040
10.0
1070
     0
1002
{
1002
}
1002
}
  0
ENDSEC
  0
SECTION
  2
OBJECTS
  0
DICTIONARY
  5
C
330
0
100
AcDbDictionary
  3
ACAD_GROUP
350
D
  3
ACAD_LAYOUT
350
1A
  3
ACAD_MLINESTYLE
350
17
  3
ACAD_PLOTSETTINGS
350
19
  3
ACAD_PLOTSTYLENAME
350
E
  3
ACDBVARIABLEDICTIONARY
350
34
  3
ACMDICTIONARY
350
43
  3
AMG
350
2B
  3
AMGSNAPSETTINGS
350
6E
  3
DWGPROPS
350
3C05
  3
ACDBHEADERROUNDTRIPXREC
350
3C14
  0
DICTIONARY
  5
74
330
1F
100
AcDbDictionary
280
     1
  3
ACAD_INDEX
360
3C07
  3
ACAD_LAYOUTSELFREF
360
3C37
  0
DICTIONARY
  5
3C3C
330
101
100
AcDbDictionary
280
     1
  3
ACAD_LAYOUTSELFREF
360
3C3D
  0
DICTIONARY
  5
D
102
{ACAD_REACTORS
330
C
102
}
330
C
100
AcDbDictionary
  0
DICTIONARY
  5
1A
102
{ACAD_REACTORS
330
C
102
}
330
C
100
AcDbDictionary
  0
DICTIONARY
  5
17
102
{ACAD_REACTORS
330
C
102
}
330
C
100
AcDbDictionary
  3
STANDARD
350
18
  0
DICTIONARY
  5
19
102
{ACAD_REACTORS
330
C
102
}
330
C
100
AcDbDictionary
  0
ACDBDICTIONARYWDFLT
  5
E
102
{ACAD_REACTORS
330
C
102
}
330
C
100
AcDbDictionary
281
     1
  3
Normal
350
F
100
AcDbDictionaryWithDefault
340
F
  0
DICTIONARY
  5
34
102
{ACAD_REACTORS
330
C
102
}
330
C
100
AcDbDictionary
  3
INDEXCTL
350
35
  3
SORTENTS
350
B5E
  0
DICTIONARY
  5
43
102
{ACAD_REACTORS
330
C
102
}
330
C
100
AcDbDictionary
  3
ACMSTDDICTIONARY
350
260
  0
DICTIONARY
  5
2B
102
{ACAD_REACTORS
330
C
102
}
330
C
100
AcDbDictionary
  3
ACMGSETTINGS
350
2C
  0
DICTIONARY
  5
6E
102
{ACAD_REACTORS
330
C
102
}
330
C
100
AcDbDictionary
  0
XRECORD
  5
3C05
102
{ACAD_REACTORS
330
C
102
}
330
C
100
AcDbXrecord
  1
DWGPROPS COOKIE
  2

  3

  4

  6

  7

  8

  9

300
AmdtFileType=82
301
=
302
=
303
=
304
=
305
=
306
=
307
=
308
=
309
=
 40
0.2946673379629629
 41
2452800.443498622
 42
2452983.888721319
  1

 90
        1
  0
DICTIONARY
  5
3C14
102
{ACAD_REACTORS
330
C
102
}
330
C
100
AcDbDictionary
  3
TSTACKALIGN
350
3C15
  3
TSTACKSIZE
350
3C16
  3
HYPERLINKBASE
350
3C17
  3
STYLESHEET
350
3C18
  3
LAYOUTDICT
350
3C19
  3
PLOTSETDICT
350
3C1A
  3
PLOTSTYLNAMDICT
350
3C1B
  3
LWETCUNION
350
3C1C
  3
INSUNITS
350
3C1D
  3
CEPSNTYPE
350
3C1E
  3
FINGERPRINTGUID
350
3C1F
  3
VERSIONGUID
350
3C20
  3
PSVPSCALE
350
3C21
  3
DIMSTYLEDATA
350
3C22
  3
PUCSORTHOREF
350
3C23
  3
PUCSORTHOVIEW
350
3C24
  3
PUCSBASE
350
3C25
  3
PUCSORGTOP
350
3C26
  3
PUCSORGBOTTOM
350
3C27
  3
PUCSORGLEFT
350
3C28
  3
PUCSORGRIGHT
350
3C29
  3
PUCSORGFRONT
350
3C2A
  3
PUCSORGBACK
350
3C2B
  3
UCSORTHOREF
350
3C2C
  3
UCSORTHOVIEW
350
3C2D
  3
UCSBASE
350
3C2E
  3
UCSORGTOP
350
3C2F
  3
UCSORGBOTTOM
350
3C30
  3
UCSORGLEFT
350
3C31
  3
UCSORGRIGHT
350
3C32
  3
UCSORGFRONT
350
3C33
  3
UCSORGBACK
350
3C34
  0
DICTIONARY
  5
3C07
102
{ACAD_REACTORS
330
74
102
}
330
74
100
AcDbDictionary
  3
*A1
350
3C08
  0
XRECORD
  5
3C37
102
{ACAD_REACTORS
330
74
102
}
330
74
100
AcDbXrecord
340
1F
  0
XRECORD
  5
3C3D
102
{ACAD_REACTORS
330
3C3C
102
}
330
3C3C
100
AcDbXrecord
340
101
  0
MLINESTYLE
  5
18
102
{ACAD_REACTORS
330
17
102
}
330
17
100
AcDbMlineStyle
  2
STANDARD
 70
     0
  3

 62
   256
 51
90.0
 52
90.0
 71
     2
 49
0.5
 62
   256
  6
BYLAYER
 49
-0.5
 62
   256
  6
BYLAYER
  0
ACDBPLACEHOLDER
  5
F
102
{ACAD_REACTORS
330
E
102
}
330
E
100
AcDbPlaceHolder
280
     0
  0
DICTIONARYVAR
  5
35
102
{ACAD_REACTORS
330
34
102
}
330
34
100
DictionaryVariables
280
     0
  1
1
  0
DICTIONARYVAR
  5
B5E
102
{ACAD_REACTORS
330
34
102
}
330
34
100
DictionaryVariables
280
     0
  1
96
  0
DICTIONARY
  5
260
102
{ACAD_REACTORS
330
43
102
}
330
43
100
AcDbDictionary
  0
DICTIONARY
  5
2C
102
{ACAD_REACTORS
330
2B
102
}
330
2B
100
AcDbDictionary
  3
DWGSETTINGS
350
2D
  0
XRECORD
  5
3C15
102
{ACAD_REACTORS
330
3C14
102
}
330
3C14
100
AcDbXrecord
 90
        1
  0
XRECORD
  5
3C16
102
{ACAD_REACTORS
330
3C14
102
}
330
3C14
100
AcDbXrecord
 90
       70
  0
XRECORD
  5
3C17
102
{ACAD_REACTORS
330
3C14
102
}
330
3C14
100
AcDbXrecord
  1

  0
XRECORD
  5
3C18
102
{ACAD_REACTORS
330
3C14
102
}
330
3C14
100
AcDbXrecord
  1
ASAMI.ctb
  0
XRECORD
  5
3C19
102
{ACAD_REACTORS
330
3C14
102
}
330
3C14
100
AcDbXrecord
340
1A
  0
XRECORD
  5
3C1A
102
{ACAD_REACTORS
330
3C14
102
}
330
3C14
100
AcDbXrecord
340
19
  0
XRECORD
  5
3C1B
102
{ACAD_REACTORS
330
3C14
102
}
330
3C14
100
AcDbXrecord
340
E
  0
XRECORD
  5
3C1C
102
{ACAD_REACTORS
330
3C14
102
}
330
3C14
100
AcDbXrecord
 90
    10781
  0
XRECORD
  5
3C1D
102
{ACAD_REACTORS
330
3C14
102
}
330
3C14
100
AcDbXrecord
 90
        4
  0
XRECORD
  5
3C1E
102
{ACAD_REACTORS
330
3C14
102
}
330
3C14
100
AcDbXrecord
 90
        0
  0
XRECORD
  5
3C1F
102
{ACAD_REACTORS
330
3C14
102
}
330
3C14
100
AcDbXrecord
  1
{AFB28963-8C59-40AE-9337-C84526B81ACE}
  0
XRECORD
  5
3C20
102
{ACAD_REACTORS
330
3C14
102
}
330
3C14
100
AcDbXrecord
  1
{68130094-2659-480A-A7AB-D8F32B35EE0F}
  0
XRECORD
  5
3C21
102
{ACAD_REACTORS
330
3C14
102
}
330
3C14
100
AcDbXrecord
 40
0.0
  0
XRECORD
  5
3C22
102
{ACAD_REACTORS
330
3C14
102
}
330
3C14
100
AcDbXrecord
1000
DSTYLE
1002
{
1070
    79
 70
     2
1070
   341
340
59
1070
   342
340
59
1070
   371
 70
    -1
1070
   372
 70
    -1
1002
}
  0
XRECORD
  5
3C23
102
{ACAD_REACTORS
330
3C14
102
}
330
3C14
100
AcDbXrecord
340
0
  0
XRECORD
  5
3C24
102
{ACAD_REACTORS
330
3C14
102
}
330
3C14
100
AcDbXrecord
 70
     0
  0
XRECORD
  5
3C25
102
{ACAD_REACTORS
330
3C14
102
}
330
3C14
100
AcDbXrecord
340
0
  0
XRECORD
  5
3C26
102
{ACAD_REACTORS
330
3C14
102
}
330
3C14
100
AcDbXrecord
 10
0.0
 20
0.0
 30
0.0
  0
XRECORD
  5
3C27
102
{ACAD_REACTORS
330
3C14
102
}
330
3C14
100
AcDbXrecord
 10
0.0
 20
0.0
 30
0.0
  0
XRECORD
  5
3C28
102
{ACAD_REACTORS
330
3C14
102
}
330
3C14
100
AcDbXrecord
 10
0.0
 20
0.0
 30
0.0
  0
XRECORD
  5
3C29
102
{ACAD_REACTORS
330
3C14
102
}
330
3C14
100
AcDbXrecord
 10
0.0
 20
0.0
 30
0.0
  0
XRECORD
  5
3C2A
102
{ACAD_REACTORS
330
3C14
102
}
330
3C14
100
AcDbXrecord
 10
0.0
 20
0.0
 30
0.0
  0
XRECORD
  5
3C2B
102
{ACAD_REACTORS
330
3C14
102
}
330
3C14
100
AcDbXrecord
 10
0.0
 20
0.0
 30
0.0
  0
XRECORD
  5
3C2C
102
{ACAD_REACTORS
330
3C14
102
}
330
3C14
100
AcDbXrecord
340
0
  0
XRECORD
  5
3C2D
102
{ACAD_REACTORS
330
3C14
102
}
330
3C14
100
AcDbXrecord
 70
     0
  0
XRECORD
  5
3C2E
102
{ACAD_REACTORS
330
3C14
102
}
330
3C14
100
AcDbXrecord
340
0
  0
XRECORD
  5
3C2F
102
{ACAD_REACTORS
330
3C14
102
}
330
3C14
100
AcDbXrecord
 10
0.0
 20
0.0
 30
0.0
  0
XRECORD
  5
3C30
102
{ACAD_REACTORS
330
3C14
102
}
330
3C14
100
AcDbXrecord
 10
0.0
 20
0.0
 30
0.0
  0
XRECORD
  5
3C31
102
{ACAD_REACTORS
330
3C14
102
}
330
3C14
100
AcDbXrecord
 10
0.0
 20
0.0
 30
0.0
  0
XRECORD
  5
3C32
102
{ACAD_REACTORS
330
3C14
102
}
330
3C14
100
AcDbXrecord
 10
0.0
 20
0.0
 30
0.0
  0
XRECORD
  5
3C33
102
{ACAD_REACTORS
330
3C14
102
}
330
3C14
100
AcDbXrecord
 10
0.0
 20
0.0
 30
0.0
  0
XRECORD
  5
3C34
102
{ACAD_REACTORS
330
3C14
102
}
330
3C14
100
AcDbXrecord
 10
0.0
 20
0.0
 30
0.0
  0
LAYER_INDEX
  5
3C08
102
{ACAD_REACTORS
330
3C07
102
}
330
3C07
100
AcDbIndex
 40
2453151.588399872
100
AcDbLayerIndex
  8
0
360
3C09
 90
        0
  8
AM_0
360
3C0A
 90
       60
  8
PV0001_1
360
3C0B
 90
        0
  8
AM_CL
360
3C0C
 90
        0
  8
AM_7
360
3C0D
 90
        1
  8
AM_11
360
3C0E
 90
        2
  8
AM_5
360
3C0F
 90
        7
  8
Defpoints
360
3C10
 90
        0
  8
AM_6
360
3C11
 90
        1
  8
AM_4
360
3C12
 90
        0
  0
XRECORD
  5
2D
102
{ACAD_REACTORS
330
2C
102
}
330
2C
100
AcDbXrecord
  1
VERSION
140
15.0
  1
PRODUCT
  2
AutoCAD Mechanical 2000
  0
IDBUFFER
  5
3C09
330
0
100
AcDbIdBuffer
  0
IDBUFFER
  5
3C0A
330
0
100
AcDbIdBuffer
330
35F7
330
37F6
330
37F7
330
37F8
330
37F9
330
37FA
330
37FB
330
37FC
330
37FD
330
37FE
330
3AD4
330
3BC5
330
31FF
330
3200
330
3205
330
3207
330
320A
330
3225
330
3226
330
3227
330
3228
330
322E
330
3230
330
3232
330
3233
330
3235
330
3237
330
3238
330
3239
330
323A
330
323B
330
323C
330
323D
330
323F
330
3240
330
3241
330
3242
330
3243
330
35C6
330
35C7
330
35C8
330
35C9
330
35CC
330
35CD
330
35CE
330
35CF
330
35D0
330
35D1
330
35D2
330
35D3
330
35D4
330
35D5
330
35D6
330
35D7
330
35D8
330
35D9
330
35DA
330
35DB
330
35DC
330
35DD
  0
IDBUFFER
  5
3C0B
330
0
100
AcDbIdBuffer
  0
IDBUFFER
  5
3C0C
330
0
100
AcDbIdBuffer
  0
IDBUFFER
  5
3C0D
330
0
100
AcDbIdBuffer
330
3201
  0
IDBUFFER
  5
3C0E
330
0
100
AcDbIdBuffer
330
35CA
330
35CB
  0
IDBUFFER
  5
3C0F
330
0
100
AcDbIdBuffer
330
31FC
330
31FD
330
31FE
330
3202
330
320B
330
323E
330
3AE1
  0
IDBUFFER
  5
3C10
330
0
100
AcDbIdBuffer
  0
IDBUFFER
  5
3C11
330
0
100
AcDbIdBuffer
330
19BD
  0
IDBUFFER
  5
3C12
330
0
100
AcDbIdBuffer
  0
ENDSEC
  0
EOF
