  0
SECTION
  2
HEADER
  9
$ACADVER
  1
AC1014
  9
$ACADMAINTVER
 70
     9
  9
$DWGCODEPAGE
  3
ANSI_932
  9
$INSBASE
 10
0.0
 20
0.0
 30
0.0
  9
$EXTMIN
 10
-100.4000009999999
 20
-26.75001206798985
 30
-0.00000001
  9
$EXTMAX
 10
14.5642941721213
 20
14.155829656515
 30
0.00000001
  9
$LIMMIN
 10
-126.9722917054209
 20
-47.01556391205523
  9
$LIMMAX
 10
22.8581825236518
 20
32.61046322322207
  9
$ORTHOMODE
 70
     0
  9
$REGENMODE
 70
     1
  9
$FILLMODE
 70
     1
  9
$QTEXTMODE
 70
     0
  9
$MIRRTEXT
 70
     0
  9
$DRAGMODE
 70
     2
  9
$LTSCALE
 40
1.0
  9
$OSMODE
 70
    55
  9
$ATTMODE
 70
     1
  9
$TEXTSIZE
 40
2.5
  9
$TRACEWID
 40
1.0
  9
$TEXTSTYLE
  7
STANDARD
  9
$CLAYER
  8
AM_0
  9
$CELTYPE
  6
BYLAYER
  9
$CECOLOR
 62
   256
  9
$CELTSCALE
 40
1.0
  9
$DELOBJ
 70
     1
  9
$DISPSILH
 70
     0
  9
$DIMSCALE
 40
0.5
  9
$DIMASZ
 40
2.5
  9
$DIMEXO
 40
1.0
  9
$DIMDLI
 40
12.0
  9
$DIMRND
 40
0.0
  9
$DIMDLE
 40
0.0
  9
$DIMEXE
 40
1.0
  9
$DIMTP
 40
0.1
  9
$DIMTM
 40
0.1
  9
$DIMTXT
 40
3.2
  9
$DIMCEN
 40
0.0
  9
$DIMTSZ
 40
0.0
  9
$DIMTOL
 70
     0
  9
$DIMLIM
 70
     0
  9
$DIMTIH
 70
     0
  9
$DIMTOH
 70
     0
  9
$DIMSE1
 70
     0
  9
$DIMSE2
 70
     0
  9
$DIMTAD
 70
     3
  9
$DIMZIN
 70
     8
  9
$DIMBLK
  1
OPEN30
  9
$DIMASO
 70
     1
  9
$DIMSHO
 70
     1
  9
$DIMPOST
  1

  9
$DIMAPOST
  1
"
  9
$DIMALT
 70
     0
  9
$DIMALTD
 70
     2
  9
$DIMALTF
 40
0.0393701
  9
$DIMLFAC
 40
1.0
  9
$DIMTOFL
 70
     1
  9
$DIMTVP
 40
0.0
  9
$DIMTIX
 70
     0
  9
$DIMSOXD
 70
     0
  9
$DIMSAH
 70
     0
  9
$DIMBLK1
  1

  9
$DIMBLK2
  1

  9
$DIMSTYLE
  2
AM_JIS
  9
$DIMCLRD
 70
   256
  9
$DIMCLRE
 70
   256
  9
$DIMCLRT
 70
     2
  9
$DIMTFAC
 40
0.71
  9
$DIMGAP
 40
1.5
  9
$DIMJUST
 70
     0
  9
$DIMSD1
 70
     0
  9
$DIMSD2
 70
     0
  9
$DIMTOLJ
 70
     0
  9
$DIMTZIN
 70
     0
  9
$DIMALTZ
 70
     0
  9
$DIMALTTZ
 70
     0
  9
$DIMFIT
 70
     3
  9
$DIMUPT
 70
     0
  9
$DIMUNIT
 70
     2
  9
$DIMDEC
 70
     3
  9
$DIMTDEC
 70
     3
  9
$DIMALTU
 70
     2
  9
$DIMALTTD
 70
     2
  9
$DIMTXSTY
  7
ASAMI
  9
$DIMAUNIT
 70
     0
  9
$LUNITS
 70
     2
  9
$LUPREC
 70
     2
  9
$SKETCHINC
 40
1.0
  9
$FILLETRAD
 40
2.5
  9
$AUNITS
 70
     0
  9
$AUPREC
 70
     0
  9
$MENU
  1
.
  9
$ELEVATION
 40
0.0
  9
$PELEVATION
 40
0.0
  9
$THICKNESS
 40
0.0
  9
$LIMCHECK
 70
     0
  9
$BLIPMODE
 70
     0
  9
$CHAMFERA
 40
0.5
  9
$CHAMFERB
 40
0.5
  9
$CHAMFERC
 40
20.0
  9
$CHAMFERD
 40
0.0
  9
$SKPOLY
 70
     0
  9
$TDCREATE
 40
2452800.443498622
  9
$TDUPDATE
 40
2453151.569336099
  9
$TDINDWG
 40
0.0803586111
  9
$TDUSRTIMER
 40
0.0803586111
  9
$USRTIMER
 70
     1
  9
$ANGBASE
 50
0.0
  9
$ANGDIR
 70
     0
  9
$PDMODE
 70
     3
  9
$PDSIZE
 40
0.0
  9
$PLINEWID
 40
0.0
  9
$COORDS
 70
     1
  9
$SPLFRAME
 70
     0
  9
$SPLINETYPE
 70
     6
  9
$SPLINESEGS
 70
     8
  9
$ATTDIA
 70
     1
  9
$ATTREQ
 70
     1
  9
$HANDLING
 70
 12289
  9
$HANDSEED
  5
3054
  9
$SURFTAB1
 70
     6
  9
$SURFTAB2
 70
     6
  9
$SURFTYPE
 70
     6
  9
$SURFU
 70
     6
  9
$SURFV
 70
     6
  9
$UCSNAME
  2

  9
$UCSORG
 10
0.0
 20
0.0
 30
0.0
  9
$UCSXDIR
 10
1.0
 20
0.000000000000002
 30
0.0
  9
$UCSYDIR
 10
-0.000000000000002
 20
1.0
 30
0.0
  9
$PUCSNAME
  2

  9
$PUCSORG
 10
0.0
 20
0.0
 30
0.0
  9
$PUCSXDIR
 10
1.0
 20
0.0
 30
0.0
  9
$PUCSYDIR
 10
0.0
 20
1.0
 30
0.0
  9
$USERI1
 70
     0
  9
$USERI2
 70
     0
  9
$USERI3
 70
     0
  9
$USERI4
 70
     0
  9
$USERI5
 70
     0
  9
$USERR1
 40
0.0
  9
$USERR2
 40
0.0
  9
$USERR3
 40
0.0
  9
$USERR4
 40
0.0
  9
$USERR5
 40
0.0
  9
$WORLDVIEW
 70
     1
  9
$SHADEDGE
 70
     3
  9
$SHADEDIF
 70
    70
  9
$TILEMODE
 70
     1
  9
$MAXACTVP
 70
    64
  9
$PINSBASE
 10
0.0
 20
0.0
 30
0.0
  9
$PLIMCHECK
 70
     0
  9
$PEXTMIN
 10
1.000000000000000E+20
 20
1.000000000000000E+20
 30
1.000000000000000E+20
  9
$PEXTMAX
 10
-1.000000000000000E+20
 20
-1.000000000000000E+20
 30
-1.000000000000000E+20
  9
$PLIMMIN
 10
0.0
 20
0.0
  9
$PLIMMAX
 10
841.0
 20
594.0
  9
$UNITMODE
 70
     0
  9
$VISRETAIN
 70
     1
  9
$PLINEGEN
 70
     0
  9
$PSLTSCALE
 70
     0
  9
$TREEDEPTH
 70
  3020
  9
$PICKSTYLE
 70
     0
  9
$CMLSTYLE
  2
STANDARD
  9
$CMLJUST
 70
     0
  9
$CMLSCALE
 40
20.0
  9
$PROXYGRAPHICS
 70
     1
  9
$MEASUREMENT
 70
     1
  0
ENDSEC
  0
SECTION
  2
CLASSES
  0
CLASS
  1
ACDBDICTIONARYWDFLT
  2
AcDbDictionaryWithDefault
  3
AutoCAD 2000
 90
        0
280
     0
281
     0
  0
CLASS
  1
ACDBPLACEHOLDER
  2
AcDbPlaceHolder
  3
AutoCAD 2000
 90
        0
280
     0
281
     0
  0
CLASS
  1
LAYOUT
  2
AcDbLayout
  3
AutoCAD 2000
 90
        0
280
     0
281
     0
  0
CLASS
  1
AMGSETTINGSOBJ
  2
AmgSettingsObj
  3
"AcadM|Product Description: AutoCAD Mechanical 2000|Company: Autodesk"
 90
        0
280
     0
281
     0
  0
CLASS
  1
ACME_DOCUMENT
  2
AcMeDbDoc
  3
AcMeServices
 90
        0
280
     0
281
     0
  0
CLASS
  1
ACMESCOPE
  2
AcMeScope
  3
AcMeServices
 90
        0
280
     0
281
     0
  0
CLASS
  1
ACMECOMMANDHISTORY
  2
AcMeCommandHistory
  3
AcMeServices
 90
        0
280
     0
281
     0
  0
CLASS
  1
DICTIONARYVAR
  2
AcDbDictionaryVar
  3
AutoCAD 2000
 90
        0
280
     0
281
     0
  0
CLASS
  1
ACIMSYSVARMAN
  2
AcImSysVarManager
  3
AcMeServices
 90
        0
280
     0
281
     0
  0
CLASS
  1
ACIMREALSYSVAR
  2
AcImRealSysVar
  3
AcMeServices
 90
        0
280
     0
281
     0
  0
CLASS
  1
ACIMINTSYSVAR
  2
AcImIntSysVar
  3
AcMeServices
 90
        0
280
     0
281
     0
  0
CLASS
  1
ACMEDRAWINGMAN
  2
AcMeDrawingMan
  3
AcMeServices
 90
        0
280
     0
281
     0
  0
CLASS
  1
ACMEVIEW
  2
AcMeView
  3
AcMeServices
 90
        0
280
     0
281
     0
  0
CLASS
  1
ACDBENTITYCACHE
  2
AcMeEntityCache
  3
AcMeServices
 90
        0
280
     0
281
     0
  0
CLASS
  1
GSMANAGER
  2
AcMeGSManager
  3
AcMeServices
 90
        0
280
     0
281
     0
  0
CLASS
  1
AmdtInternalReactor
  2
AmdtInternalReactor
  3
AcMeServices
 90
        0
280
     0
281
     0
  0
CLASS
  1
ACMESTATEMGR
  2
AcMeStateMgr
  3
AcMeServices
 90
        0
280
     0
281
     0
  0
CLASS
  1
ACME_DATABASE
  2
AcMeDbDatabase
  3
AcMeServices
 90
        0
280
     0
281
     0
  0
CLASS
  1
ACRFINSADJUSTERMGR
  2
AcRfInsAdjusterMgr
  3
AcMeServices
 90
        0
280
     0
281
     0
  0
CLASS
  1
ACMDATADICTIONARY
  2
AcmDataDictionary
  3
"AcmSymBB|Product Description: AutoCAD Mechanical 2000|Company: Autodesk"
 90
        0
280
     0
281
     0
  0
CLASS
  1
ACMDATAENTRYBLOCK
  2
AcmDataEntryBlock
  3
"AcmSymBB|Product Description: AutoCAD Mechanical 2000|Company: Autodesk"
 90
        0
280
     0
281
     0
  0
CLASS
  1
AMGOBJPROPCFG
  2
AmgObjPropCfg
  3
"AmgLay|Product Description: AutoCAD Mechanical 2000|Company: Autodesk"
 90
        1
280
     0
281
     0
  0
CLASS
  1
ACAMGFILTERDAT
  2
AcAmgFilterDat
  3
"AcadM|Product Description: AutoCAD Mechanical 2000|Company: Autodesk"
 90
        0
280
     0
281
     0
  0
CLASS
  1
LAYER_INDEX
  2
AcDbLayerIndex
  3
AutoCAD 2000
 90
        0
280
     0
281
     0
  0
CLASS
  1
IDBUFFER
  2
AcDbIdBuffer
  3
AutoCAD 2000
 90
        0
280
     0
281
     0
  0
CLASS
  1
ACIMSTRSYSVAR
  2
AcImStrSysVar
  3
AcMeServices
 90
        0
280
     0
281
     0
  0
CLASS
  1
ACMSTANDARDJIS
  2
AcmStandardJIS
  3
"AcmSymBB|Product Description: AutoCAD Mechanical 2000|Company: Autodesk"
 90
        0
280
     0
281
     0
  0
CLASS
  1
ACMSURFSTANDARDJIS
  2
AcmSurfTextStdJIS
  3
"AcmSymBB|Product Description: AutoCAD Mechanical 2000|Company: Autodesk"
 90
        0
280
     0
281
     0
  0
CLASS
  1
ACMFCFSTANDARDJIS
  2
AcmFCFStdJIS
  3
"AcmSymBB|Product Description: AutoCAD Mechanical 2000|Company: Autodesk"
 90
        0
280
     0
281
     0
  0
CLASS
  1
ACMWELDSTANDARDJIS
  2
AcmWeldingStdJIS
  3
"AcmSymBB|Product Description: AutoCAD Mechanical 2000|Company: Autodesk"
 90
        0
280
     0
281
     0
  0
CLASS
  1
ACMIDSTANDARDJIS
  2
AcmIdStdJIS
  3
"AcmSymBB|Product Description: AutoCAD Mechanical 2000|Company: Autodesk"
 90
        0
280
     0
281
     0
  0
CLASS
  1
ACMDATUMSTANDARDJIS
  2
AcmDatumStdJIS
  3
"AcmSymBB|Product Description: AutoCAD Mechanical 2000|Company: Autodesk"
 90
        0
280
     0
281
     0
  0
CLASS
  1
ACMBOMSTANDARDJIS
  2
AcmBOMStdJIS
  3
"AcmSymBB|Product Description: AutoCAD Mechanical 2000|Company: Autodesk"
 90
        0
280
     0
281
     0
  0
CLASS
  1
ACMSTANDARDANSI
  2
AcmStandardANSI
  3
"AcmSymBB|Product Description: AutoCAD Mechanical 2000|Company: Autodesk"
 90
        0
280
     0
281
     0
  0
CLASS
  1
ACMSURFSTANDARDANSI
  2
AcmSurfTextStdANSI
  3
"AcmSymBB|Product Description: AutoCAD Mechanical 2000|Company: Autodesk"
 90
        0
280
     0
281
     0
  0
CLASS
  1
ACMFCFSTANDARDANSI
  2
AcmFCFStdANSI
  3
"AcmSymBB|Product Description: AutoCAD Mechanical 2000|Company: Autodesk"
 90
        0
280
     0
281
     0
  0
CLASS
  1
ACMWELDSTANDARDANSI
  2
AcmWeldingStdANSI
  3
"AcmSymBB|Product Description: AutoCAD Mechanical 2000|Company: Autodesk"
 90
        0
280
     0
281
     0
  0
CLASS
  1
ACMIDSTANDARDANSI
  2
AcmIdStdANSI
  3
"AcmSymBB|Product Description: AutoCAD Mechanical 2000|Company: Autodesk"
 90
        0
280
     0
281
     0
  0
CLASS
  1
ACMDATUMSTANDARDANSI
  2
AcmDatumStdANSI
  3
"AcmSymBB|Product Description: AutoCAD Mechanical 2000|Company: Autodesk"
 90
        0
280
     0
281
     0
  0
CLASS
  1
ACMBOMSTANDARDANSI
  2
AcmBOMStdANSI
  3
"AcmSymBB|Product Description: AutoCAD Mechanical 2000|Company: Autodesk"
 90
        0
280
     0
281
     0
  0
CLASS
  1
ACMSTANDARDBSI
  2
AcmStandardBSI
  3
"AcmSymBB|Product Description: AutoCAD Mechanical 2000|Company: Autodesk"
 90
        0
280
     0
281
     0
  0
CLASS
  1
ACMSURFSTANDARDBSI
  2
AcmSurfTextStdBSI
  3
"AcmSymBB|Product Description: AutoCAD Mechanical 2000|Company: Autodesk"
 90
        0
280
     0
281
     0
  0
CLASS
  1
ACMFCFSTANDARDBSI
  2
AcmFCFStdBSI
  3
"AcmSymBB|Product Description: AutoCAD Mechanical 2000|Company: Autodesk"
 90
        0
280
     0
281
     0
  0
CLASS
  1
ACMWELDSTANDARDBSI
  2
AcmWeldingStdBSI
  3
"AcmSymBB|Product Description: AutoCAD Mechanical 2000|Company: Autodesk"
 90
        0
280
     0
281
     0
  0
CLASS
  1
ACMIDSTANDARDBSI
  2
AcmIdStdBSI
  3
"AcmSymBB|Product Description: AutoCAD Mechanical 2000|Company: Autodesk"
 90
        0
280
     0
281
     0
  0
CLASS
  1
ACMDATUMSTANDARDBSI
  2
AcmDatumStdBSI
  3
"AcmSymBB|Product Description: AutoCAD Mechanical 2000|Company: Autodesk"
 90
        0
280
     0
281
     0
  0
CLASS
  1
ACMBOMSTANDARDBSI
  2
AcmBOMStdBSI
  3
"AcmSymBB|Product Description: AutoCAD Mechanical 2000|Company: Autodesk"
 90
        0
280
     0
281
     0
  0
CLASS
  1
LONG_TRANSACTION
  2
AcDbLongTransaction
  3
AutoCAD 2000
 90
        0
280
     0
281
     0
  0
CLASS
  1
LWPOLYLINE
  2
AcDbPolyline
  3
AutoCAD 2000
 90
        0
280
     0
281
     1
  0
CLASS
  1
HATCH
  2
AcDbHatch
  3
AutoCAD 2000
 90
        0
280
     0
281
     1
  0
CLASS
  1
XRECORD
  2
AcDbXrecord
  3
AutoCAD 2000
 90
        0
280
     0
281
     0
  0
ENDSEC
  0
SECTION
  2
TABLES
  0
TABLE
  2
VPORT
  5
8
330
0
100
AcDbSymbolTable
 70
     3
  0
VPORT
  5
301E
330
8
100
AcDbSymbolTableRecord
100
AcDbViewportTableRecord
  2
*ACTIVE
 70
     0
 10
0.0
 20
0.0
 11
1.0
 21
1.0
 12
-40.78720038490659
 22
-6.297377577772138
 13
0.0
 23
0.0
 14
2.5
 24
2.5
 15
10.0
 25
10.0
 16
0.0
 26
0.0
 36
1.0
 17
0.0
 27
0.0
 37
0.0
 40
76.52710482944943
 41
1.56570841889117
 42
50.0
 43
0.0
 44
0.0
 50
0.0
 51
0.0
 71
     0
 72
   100
 73
     1
 74
     1
 75
     0
 76
     0
 77
     0
 78
     0
  0
ENDTAB
  0
TABLE
  2
LTYPE
  5
5
330
0
100
AcDbSymbolTable
 70
    10
  0
LTYPE
  5
14
330
5
100
AcDbSymbolTableRecord
100
AcDbLinetypeTableRecord
  2
BYBLOCK
 70
     0
  3

 72
    65
 73
     0
 40
0.0
  0
LTYPE
  5
15
330
5
100
AcDbSymbolTableRecord
100
AcDbLinetypeTableRecord
  2
BYLAYER
 70
     0
  3

 72
    65
 73
     0
 40
0.0
  0
LTYPE
  5
16
330
5
100
AcDbSymbolTableRecord
100
AcDbLinetypeTableRecord
  2
CONTINUOUS
 70
     0
  3
Solid line
 72
    65
 73
     0
 40
0.0
  0
LTYPE
  5
4B
330
5
100
AcDbSymbolTableRecord
100
AcDbLinetypeTableRecord
  2
AM_ISO02W050
 70
     0
  3
__ __ __ __ __ __ __ __ __ __ __ __ __ __ __
 72
    65
 73
     2
 40
7.5
 49
6.0
 74
     0
 49
-1.5
 74
     0
  0
LTYPE
  5
4C
330
5
100
AcDbSymbolTableRecord
100
AcDbLinetypeTableRecord
  2
AM_ISO08W050
 70
     0
  3
____ . ____ . ____ . ____ . ____ . ____ . ____
 72
    65
 73
     4
 40
18.0
 49
12.0
 74
     0
 49
-1.5
 74
     0
 49
3.0
 74
     0
 49
-1.5
 74
     0
  0
LTYPE
  5
4D
330
5
100
AcDbSymbolTableRecord
100
AcDbLinetypeTableRecord
  2
AM_ISO09W050
 70
     0
  3
_____ . . _____ . . _____ . . ____ .. ____
 72
    65
 73
     6
 40
22.5
 49
12.0
 74
     0
 49
-1.5
 74
     0
 49
3.0
 74
     0
 49
-1.5
 74
     0
 49
3.0
 74
     0
 49
-1.5
 74
     0
  0
LTYPE
  5
4E
330
5
100
AcDbSymbolTableRecord
100
AcDbLinetypeTableRecord
  2
AMCONSTR
 70
     0
  3
_______________________
 72
    65
 73
     2
 40
9999.0
 49
9999.0
 74
     0
 49
0.0
 74
     0
  0
LTYPE
  5
4F
330
5
100
AcDbSymbolTableRecord
100
AcDbLinetypeTableRecord
  2
AM_ISO02W050X2
 70
     0
  3
 _ _ _ _ _ _ _ _ _ _ _ _
 72
    65
 73
     2
 40
3.75
 49
3.0
 74
     0
 49
-0.75
 74
     0
  0
LTYPE
  5
50
330
5
100
AcDbSymbolTableRecord
100
AcDbLinetypeTableRecord
  2
AM_ISO08W050X2
 70
     0
  3
__ . __ . __ . __ . __ . __
 72
    65
 73
     4
 40
9.0
 49
6.0
 74
     0
 49
-0.75
 74
     0
 49
1.5
 74
     0
 49
-0.75
 74
     0
  0
LTYPE
  5
53
330
5
100
AcDbSymbolTableRecord
100
AcDbLinetypeTableRecord
  2
AMZIGZAG
 70
     0
  3
/\/-/\/-/\/-/\/-/\/-/\/
 72
    65
 73
     2
 40
11.00009999999999
 49
0.0001
 74
     4
 75
   135
340
52
 46
0.04
 50
0.0
 44
0.0
 45
0.0
 49
-11.0
 74
     0
  0
LTYPE
  5
166
330
5
100
AcDbSymbolTableRecord
100
AcDbLinetypeTableRecord
  2
ACJISTGL
 70
     0
  3
_ _ _ _ _
 72
    65
 73
     2
 40
3.0
 49
2.0
 74
     0
 49
-1.0
 74
     0
  0
LTYPE
  5
26A
330
5
100
AcDbSymbolTableRecord
100
AcDbLinetypeTableRecord
  2
ACJISTGB
 70
     0
  3
__ . . __ . .
 72
    65
 73
     6
 40
9.0
 49
4.0
 74
     0
 49
-1.0
 74
     0
 49
1.0
 74
     0
 49
-1.0
 74
     0
 49
1.0
 74
     0
 49
-1.0
 74
     0
  0
ENDTAB
  0
TABLE
  2
LAYER
  5
2
330
0
100
AcDbSymbolTable
 70
     7
  0
LAYER
  5
10
330
2
100
AcDbSymbolTableRecord
100
AcDbLayerTableRecord
  2
0
 70
     0
 62
     7
  6
CONTINUOUS
  0
LAYER
  5
3F9
330
2
100
AcDbSymbolTableRecord
100
AcDbLayerTableRecord
  2
AM_0
 70
     0
 62
     7
  6
CONTINUOUS
  0
LAYER
  5
C7C
330
2
100
AcDbSymbolTableRecord
100
AcDbLayerTableRecord
  2
AM_7
 70
     0
 62
     4
  6
AM_ISO08W050
  0
LAYER
  5
C97
330
2
100
AcDbSymbolTableRecord
100
AcDbLayerTableRecord
  2
AM_11
 70
     0
 62
     3
  6
AM_ISO09W050
  0
LAYER
  5
CC5
330
2
100
AcDbSymbolTableRecord
100
AcDbLayerTableRecord
  2
AM_5
 70
     0
 62
     3
  6
CONTINUOUS
  0
LAYER
  5
CC7
330
2
100
AcDbSymbolTableRecord
100
AcDbLayerTableRecord
  2
DEFPOINTS
 70
     0
 62
     7
  6
CONTINUOUS
  0
LAYER
  5
19BC
330
2
100
AcDbSymbolTableRecord
100
AcDbLayerTableRecord
  2
AM_6
 70
     0
 62
     2
  6
CONTINUOUS
  0
ENDTAB
  0
TABLE
  2
STYLE
  5
3
330
0
100
AcDbSymbolTable
 70
     5
  0
STYLE
  5
11
330
3
100
AcDbSymbolTableRecord
100
AcDbTextStyleTableRecord
  2
STANDARD
 70
     0
 40
0.0
 41
1.0
 50
0.0
 71
     0
 42
2.5
  3
simplex.shx
  4
EXTFONT.SHX
  0
STYLE
  5
52
330
3
100
AcDbSymbolTableRecord
100
AcDbTextStyleTableRecord
  2

 70
     1
 40
0.0
 41
1.0
 50
0.0
 71
     0
 42
2.5
  3
ltypeshp.shx
  4

  0
STYLE
  5
6B
330
3
100
AcDbSymbolTableRecord
100
AcDbTextStyleTableRecord
  2
ASAMI
 70
     0
 40
0.0
 41
1.0
 50
0.0
 71
     0
 42
2.5
  3
simplex.shx
  4
EXTFONT.SHX
  0
STYLE
  5
262
330
3
100
AcDbSymbolTableRecord
100
AcDbTextStyleTableRecord
  2
ACJISTS
 70
     0
 40
1.0
 41
1.0
 50
0.0
 71
     0
 42
2.5
  3
simplex.shx
  4
bigfont.shx
  0
STYLE
  5
269
330
3
100
AcDbSymbolTableRecord
100
AcDbTextStyleTableRecord
  2
ACJISGDT
 70
     0
 40
0.0
 41
1.0
 50
0.0
 71
     0
 42
2.5
  3
amgdtans.shx
  4

  0
ENDTAB
  0
TABLE
  2
VIEW
  5
6
330
0
100
AcDbSymbolTable
 70
     0
  0
ENDTAB
  0
TABLE
  2
UCS
  5
7
330
0
100
AcDbSymbolTable
 70
     0
  0
ENDTAB
  0
TABLE
  2
APPID
  5
9
330
0
100
AcDbSymbolTable
 70
    16
  0
APPID
  5
12
330
9
100
AcDbSymbolTableRecord
100
AcDbRegAppTableRecord
  2
ACAD
 70
     0
  0
APPID
  5
30
330
9
100
AcDbSymbolTableRecord
100
AcDbRegAppTableRecord
  2
MCAD_NO_VIS
 70
     0
  0
APPID
  5
31
330
9
100
AcDbSymbolTableRecord
100
AcDbRegAppTableRecord
  2
ACAD_TEMP_GRAPHIC
 70
     0
  0
APPID
  5
2C2
330
9
100
AcDbSymbolTableRecord
100
AcDbRegAppTableRecord
  2
GENIUS_GENDTOL_13
 70
     0
  0
APPID
  5
339
330
9
100
AcDbSymbolTableRecord
100
AcDbRegAppTableRecord
  2
GENIUS_GENODEF_13
 70
     0
  0
APPID
  5
33A
330
9
100
AcDbSymbolTableRecord
100
AcDbRegAppTableRecord
  2
GENIUS_GENOBJ-N-RSBK_13
 70
     0
  0
APPID
  5
33B
330
9
100
AcDbSymbolTableRecord
100
AcDbRegAppTableRecord
  2
GENIUS_GENOBJ-N-LIB_13
 70
     0
  0
APPID
  5
33C
330
9
100
AcDbSymbolTableRecord
100
AcDbRegAppTableRecord
  2
GENIUS_GENSCALE_13
 70
     0
  0
APPID
  5
378
330
9
100
AcDbSymbolTableRecord
100
AcDbRegAppTableRecord
  2
GENIUS_GENDIMSH_14
 70
     0
  0
APPID
  5
C82
330
9
100
AcDbSymbolTableRecord
100
AcDbRegAppTableRecord
  2
GENIUS_GENOBJ-N-CRS_13
 70
     0
  0
APPID
  5
C83
330
9
100
AcDbSymbolTableRecord
100
AcDbRegAppTableRecord
  2
GENIUS_GENOENT_13
 70
     0
  0
APPID
  5
C84
330
9
100
AcDbSymbolTableRecord
100
AcDbRegAppTableRecord
  2
GENIUS_GENOREF_13
 70
     0
  0
APPID
  5
C85
330
9
100
AcDbSymbolTableRecord
100
AcDbRegAppTableRecord
  2
GENIUS_GENOLIS_13
 70
     0
  0
APPID
  5
CA0
330
9
100
AcDbSymbolTableRecord
100
AcDbRegAppTableRecord
  2
GENIUS_GENOBJ-N-CEN_13
 70
     0
  0
APPID
  5
1CFA
330
9
100
AcDbSymbolTableRecord
100
AcDbRegAppTableRecord
  2
GENIUS_GENFIL_13
 70
     0
  0
APPID
  5
1CFB
330
9
100
AcDbSymbolTableRecord
100
AcDbRegAppTableRecord
  2
GENIUS_GENOBJ-N-CHA_13
 70
     0
  0
ENDTAB
  0
TABLE
  2
DIMSTYLE
  5
A
330
0
100
AcDbSymbolTable
 70
     9
  0
DIMSTYLE
105
58
330
A
100
AcDbSymbolTableRecord
100
AcDbDimStyleTableRecord
  2
AM_JIS
 70
     0
  3

  4
"
  5
OPEN30
  6

  7

 40
0.5
 41
2.5
 42
1.0
 43
12.0
 44
1.0
 45
0.0
 46
0.0
 47
0.1
 48
0.1
140
3.2
141
0.0
142
0.0
143
0.0393701
144
1.0
145
0.0
146
0.71
147
1.5
 71
     0
 72
     0
 73
     0
 74
     0
 75
     0
 76
     0
 77
     3
 78
     8
170
     0
171
     2
172
     1
173
     0
174
     0
175
     0
176
   256
177
   256
178
     2
270
     2
271
     3
272
     3
273
     2
274
     2
340
6B
275
     0
280
     0
281
     0
282
     0
283
     0
284
     0
285
     0
286
     0
287
     3
288
     0
  0
DIMSTYLE
105
5F
330
A
100
AcDbSymbolTableRecord
100
AcDbDimStyleTableRecord
  2
AM_JIS$3
 70
     0
  3

  4
"
  5
OPEN30
  6

  7

 40
0.5
 41
2.5
 42
1.0
 43
10.0
 44
1.0
 45
0.0
 46
0.0
 47
0.1
 48
0.1
140
3.2
141
0.0
142
0.0
143
0.0393701
144
1.0
145
0.0
146
0.71
147
1.5
 71
     0
 72
     0
 73
     0
 74
     1
 75
     0
 76
     0
 77
     3
 78
     8
170
     0
171
     2
172
     0
173
     0
174
     0
175
     0
176
   256
177
   256
178
     2
270
     2
271
     2
272
     3
273
     2
274
     2
340
6B
275
     0
280
     0
281
     0
282
     0
283
     0
284
     0
285
     0
286
     0
287
     0
288
     1
  0
DIMSTYLE
105
60
330
A
100
AcDbSymbolTableRecord
100
AcDbDimStyleTableRecord
  2
AM_JIS$4
 70
     0
  3

  4
"
  5
OPEN30
  6

  7

 40
0.5
 41
2.5
 42
1.0
 43
10.0
 44
1.0
 45
0.0
 46
0.0
 47
0.1
 48
0.1
140
3.2
141
0.0
142
0.0
143
0.0393701
144
1.0
145
0.0
146
0.71
147
1.5
 71
     0
 72
     0
 73
     0
 74
     1
 75
     0
 76
     0
 77
     3
 78
     8
170
     0
171
     2
172
     0
173
     0
174
     0
175
     0
176
   256
177
   256
178
     2
270
     2
271
     2
272
     3
273
     2
274
     2
340
6B
275
     0
280
     0
281
     0
282
     0
283
     0
284
     0
285
     0
286
     0
287
     0
288
     1
  0
DIMSTYLE
105
61
330
A
100
AcDbSymbolTableRecord
100
AcDbDimStyleTableRecord
  2
AM_JIS$6
 70
     0
  3

  4
"
  5
OPEN30
  6

  7

 40
0.5
 41
2.5
 42
1.0
 43
10.0
 44
1.0
 45
0.0
 46
0.0
 47
0.1
 48
0.1
140
3.2
141
0.0
142
0.0
143
0.0393701
144
1.0
145
0.0
146
0.71
147
1.5
 71
     0
 72
     0
 73
     0
 74
     0
 75
     0
 76
     0
 77
     0
 78
     8
170
     0
171
     2
172
     1
173
     0
174
     0
175
     0
176
   256
177
   256
178
     2
270
     2
271
     2
272
     2
273
     2
274
     2
340
6B
275
     0
280
     0
281
     0
282
     0
283
     0
284
     0
285
     0
286
     0
287
     3
288
     0
  0
DIMSTYLE
105
62
330
A
100
AcDbSymbolTableRecord
100
AcDbDimStyleTableRecord
  2
AM_JIS$7
 70
     0
  3

  4
"
  5
OPEN30
  6

  7

 40
0.5
 41
2.5
 42
1.0
 43
10.0
 44
1.0
 45
0.0
 46
0.0
 47
0.1
 48
0.1
140
3.2
141
0.0
142
0.0
143
0.0393701
144
1.0
145
0.0
146
0.71
147
1.5
 71
     0
 72
     0
 73
     0
 74
     0
 75
     0
 76
     0
 77
     3
 78
     8
170
     0
171
     2
172
     1
173
     0
174
     0
175
     0
176
   256
177
   256
178
     2
270
     2
271
     2
272
     3
273
     2
274
     2
340
6B
275
     0
280
     0
281
     0
282
     0
283
     0
284
     0
285
     0
286
     0
287
     3
288
     0
  0
DIMSTYLE
105
63
330
A
100
AcDbSymbolTableRecord
100
AcDbDimStyleTableRecord
  2
AM_JIS$SF
 70
     0
  3

  4
"
  5
OPEN30
  6

  7

 40
0.5
 41
2.5
 42
1.0
 43
10.0
 44
1.0
 45
0.0
 46
0.0
 47
0.1
 48
0.1
140
3.2
141
0.0
142
0.0
143
0.0393701
144
1.0
145
0.0
146
0.71
147
1.5
 71
     0
 72
     0
 73
     0
 74
     0
 75
     1
 76
     1
 77
     3
 78
     8
170
     0
171
     2
172
     1
173
     0
174
     0
175
     0
176
   256
177
   256
178
     2
270
     2
271
     2
272
     2
273
     2
274
     2
340
6B
275
     0
280
     0
281
     0
282
     0
283
     0
284
     0
285
     0
286
     0
287
     3
288
     0
  0
DIMSTYLE
105
68
330
A
100
AcDbSymbolTableRecord
100
AcDbDimStyleTableRecord
  2
AM_JIS$SH
 70
     0
  3

  4
"
  5

  6
GENAXEH
  7
OPEN30
 40
0.5
 41
2.5
 42
1.0
 43
10.0
 44
1.0
 45
0.0
 46
0.0
 47
0.1
 48
0.1
140
3.2
141
0.0
142
0.0
143
0.0393701
144
2.0
145
0.0
146
0.71
147
1.5
 71
     0
 72
     0
 73
     0
 74
     0
 75
     1
 76
     1
 77
     3
 78
     8
170
     0
171
     2
172
     1
173
     1
174
     0
175
     0
176
   256
177
   256
178
     2
270
     2
271
     2
272
     2
273
     2
274
     2
340
6B
275
     0
280
     0
281
     0
282
     0
283
     0
284
     0
285
     0
286
     0
287
     3
288
     0
  0
DIMSTYLE
105
B34
102
{ACAD_REACTORS
330
2577
102
}
330
A
100
AcDbSymbolTableRecord
100
AcDbDimStyleTableRecord
  2
AM_JIS$2
 70
     0
  3

  4
"
  5
OPEN30
  6

  7

 40
0.5
 41
2.5
 42
1.0
 43
12.0
 44
1.0
 45
0.0
 46
0.0
 47
0.1
 48
0.1
140
3.2
141
0.0
142
0.0
143
0.0393701
144
1.0
145
0.0
146
0.71
147
1.5
 71
     0
 72
     0
 73
     0
 74
     0
 75
     0
 76
     0
 77
     3
 78
     8
170
     0
171
     2
172
     1
173
     0
174
     0
175
     0
176
   256
177
   256
178
     2
270
     2
271
     3
272
     3
273
     2
274
     2
340
6B
275
     0
280
     0
281
     0
282
     0
283
     0
284
     0
285
     0
286
     0
287
     3
288
     0
  0
DIMSTYLE
105
BA5
102
{ACAD_REACTORS
330
CC6
330
DF5
330
1F93
330
2CA4
102
}
330
A
100
AcDbSymbolTableRecord
100
AcDbDimStyleTableRecord
  2
AM_JIS$0
 70
     0
  3

  4
"
  5
OPEN30
  6

  7

 40
0.5
 41
2.5
 42
0.0
 43
10.0
 44
1.0
 45
0.0
 46
0.0
 47
0.1
 48
0.1000000001
140
3.799999999999999
141
0.0
142
0.0
143
0.0393701
144
1.0
145
0.0
146
0.71
147
1.5
 71
     0
 72
     0
 73
     0
 74
     0
 75
     0
 76
     0
 77
     3
 78
     1
170
     0
171
     2
172
     1
173
     0
174
     0
175
     0
176
     3
177
     3
178
     2
270
     2
271
     2
272
     2
273
     2
274
     2
340
11
275
     1
280
     0
281
     0
282
     0
283
     0
284
     8
285
     0
286
     0
287
     0
288
     0
  0
ENDTAB
  0
TABLE
  2
BLOCK_RECORD
  5
1
330
0
100
AcDbSymbolTable
 70
    10
  0
BLOCK_RECORD
  5
1F
102
{ACAD_XDICTIONARY
360
74
102
}
330
1
100
AcDbSymbolTableRecord
100
AcDbBlockTableRecord
  2
*MODEL_SPACE
  0
BLOCK_RECORD
  5
101
102
{ACAD_XDICTIONARY
360
3047
102
}
330
1
100
AcDbSymbolTableRecord
100
AcDbBlockTableRecord
  2
*PAPER_SPACE
  0
BLOCK_RECORD
  5
59
330
1
100
AcDbSymbolTableRecord
100
AcDbBlockTableRecord
  2
_OPEN30
  0
BLOCK_RECORD
  5
64
330
1
100
AcDbSymbolTableRecord
100
AcDbBlockTableRecord
  2
GENAXEH
  0
BLOCK_RECORD
  5
CC8
330
1
100
AcDbSymbolTableRecord
100
AcDbBlockTableRecord
  2
*D5
  0
BLOCK_RECORD
  5
DF6
330
1
100
AcDbSymbolTableRecord
100
AcDbBlockTableRecord
  2
*D6
  0
BLOCK_RECORD
  5
1F94
330
1
100
AcDbSymbolTableRecord
100
AcDbBlockTableRecord
  2
*D7
  0
BLOCK_RECORD
  5
2578
330
1
100
AcDbSymbolTableRecord
100
AcDbBlockTableRecord
  2
*D8
  0
BLOCK_RECORD
  5
2CA5
330
1
100
AcDbSymbolTableRecord
100
AcDbBlockTableRecord
  2
*D9
  0
ENDTAB
  0
ENDSEC
  0
SECTION
  2
BLOCKS
  0
BLOCK
  5
20
330
1F
100
AcDbEntity
  8
0
100
AcDbBlockBegin
  2
*MODEL_SPACE
 70
     0
 10
0.0
 20
0.0
 30
0.0
  3
*MODEL_SPACE
  1

  0
ENDBLK
  5
21
330
1F
100
AcDbEntity
  8
0
100
AcDbBlockEnd
  0
BLOCK
  5
103
330
101
100
AcDbEntity
 67
     1
  8
0
100
AcDbBlockBegin
  2
*PAPER_SPACE
 70
     0
 10
0.0
 20
0.0
 30
0.0
  3
*PAPER_SPACE
  1

  0
ENDBLK
  5
104
330
101
100
AcDbEntity
 67
     1
  8
0
100
AcDbBlockEnd
  0
BLOCK
  5
5D
330
59
100
AcDbEntity
  8
0
100
AcDbBlockBegin
  2
_OPEN30
 70
     0
 10
0.0
 20
0.0
 30
0.0
  3
_OPEN30
  1

  0
LINE
  5
5A
330
59
100
AcDbEntity
  8
0
 62
     0
100
AcDbLine
 10
-1.0
 20
0.26794919
 30
0.0
 11
0.0
 21
0.0
 31
0.0
  0
LINE
  5
5B
330
59
100
AcDbEntity
  8
0
 62
     0
100
AcDbLine
 10
0.0
 20
0.0
 30
0.0
 11
-1.0
 21
-0.26794919
 31
0.0
  0
LINE
  5
5C
330
59
100
AcDbEntity
  8
0
 62
     0
100
AcDbLine
 10
0.0
 20
0.0
 30
0.0
 11
-1.0
 21
0.0
 31
0.0
  0
ENDBLK
  5
5E
330
59
100
AcDbEntity
  8
0
100
AcDbBlockEnd
  0
BLOCK
  5
66
330
64
100
AcDbEntity
  8
0
100
AcDbBlockBegin
  2
GENAXEH
 70
     0
 10
0.0
 20
0.0
 30
0.0
  3
GENAXEH
  1

  0
LINE
  5
65
330
64
100
AcDbEntity
  8
0
100
AcDbLine
 10
-1.0
 20
0.0
 30
0.0
 11
1.0
 21
0.0
 31
0.0
  0
ENDBLK
  5
67
330
64
100
AcDbEntity
  8
0
100
AcDbBlockEnd
  0
BLOCK
  5
CD2
330
CC8
100
AcDbEntity
  8
0
100
AcDbBlockBegin
  2
*D5
 70
     1
 10
0.0
 20
0.0
 30
0.0
  3
*D5
  1

  0
LINE
  5
2FCC
330
CC8
100
AcDbEntity
  8
AM_5
 62
     3
100
AcDbLine
 10
-88.99999999999998
 20
-3.00000000000021
 30
0.0
 11
-88.99999999999998
 21
-16.00001206798982
 31
0.0
  0
LINE
  5
2FCD
330
CC8
100
AcDbEntity
  8
AM_5
 62
     3
100
AcDbLine
 10
-1.000000000000047
 20
-3.450012984739712
 30
0.0
 11
-1.000000000000048
 21
-16.00001206798982
 31
0.0
  0
LINE
  5
2FCE
330
CC8
100
AcDbEntity
  8
AM_5
 62
     3
100
AcDbLine
 10
-87.74999999999998
 20
-15.50001206798982
 30
0.0
 11
-2.250000000000047
 21
-15.50001206798982
 31
0.0
  0
INSERT
  5
2FCF
330
CC8
100
AcDbEntity
  8
AM_5
 62
     3
100
AcDbBlockReference
  2
_OPEN30
 10
-88.99999999999998
 20
-15.50001206798982
 30
0.0
 41
1.25
 42
1.25
 43
1.25
 50
180.0
  0
INSERT
  5
2FD0
330
CC8
100
AcDbEntity
  8
AM_5
 62
     3
100
AcDbBlockReference
  2
_OPEN30
 10
-1.000000000000048
 20
-15.50001206798982
 30
0.0
 41
1.25
 42
1.25
 43
1.25
  0
MTEXT
  5
2FD1
330
CC8
100
AcDbEntity
  8
AM_5
 62
     2
100
AcDbMText
 10
-45.00000000000001
 20
-13.80001206798982
 30
0.0
 40
1.9
 41
0.0
 71
     5
 72
     1
  1
88
1001
ACAD
1000
MTEXTBEGIN
1070
    73
1070
     1
1070
    44
1040
1.0
1070
    74
1070
     0
1000
MTEXTEND
  0
POINT
  5
2FD2
330
CC8
100
AcDbEntity
  8
DEFPOINTS
 62
     0
100
AcDbPoint
 10
-88.99999999999998
 20
-3.00000000000021
 30
0.0
  0
POINT
  5
2FD3
330
CC8
100
AcDbEntity
  8
DEFPOINTS
 62
     0
100
AcDbPoint
 10
-1.000000000000047
 20
-3.450012984739712
 30
0.0
  0
POINT
  5
2FD4
330
CC8
100
AcDbEntity
  8
DEFPOINTS
 62
     0
100
AcDbPoint
 10
-1.000000000000048
 20
-15.50001206798982
 30
0.0
  0
ENDBLK
  5
CD3
330
CC8
100
AcDbEntity
  8
0
100
AcDbBlockEnd
  0
BLOCK
  5
E00
330
DF6
100
AcDbEntity
  8
0
100
AcDbBlockBegin
  2
*D6
 70
     1
 10
0.0
 20
0.0
 30
0.0
  3
*D6
  1

  0
LINE
  5
2FE9
330
DF6
100
AcDbEntity
  8
AM_5
 62
     3
100
AcDbLine
 10
-36.0
 20
-3.500000000000064
 30
0.0
 11
-36.0
 21
-11.00001206798978
 31
0.0
  0
LINE
  5
2FEA
330
DF6
100
AcDbEntity
  8
AM_5
 62
     3
100
AcDbLine
 10
-1.000000000000047
 20
-3.450012984739712
 30
0.0
 11
-1.000000000000047
 21
-11.00001206798978
 31
0.0
  0
LINE
  5
2FEB
330
DF6
100
AcDbEntity
  8
AM_5
 62
     3
100
AcDbLine
 10
-34.75
 20
-10.50001206798978
 30
0.0
 11
-2.250000000000047
 21
-10.50001206798978
 31
0.0
  0
INSERT
  5
2FEC
330
DF6
100
AcDbEntity
  8
AM_5
 62
     3
100
AcDbBlockReference
  2
_OPEN30
 10
-36.0
 20
-10.50001206798978
 30
0.0
 41
1.25
 42
1.25
 43
1.25
 50
180.0
  0
INSERT
  5
2FED
330
DF6
100
AcDbEntity
  8
AM_5
 62
     3
100
AcDbBlockReference
  2
_OPEN30
 10
-1.000000000000047
 20
-10.50001206798978
 30
0.0
 41
1.25
 42
1.25
 43
1.25
  0
MTEXT
  5
2FEE
330
DF6
100
AcDbEntity
  8
AM_5
 62
     2
100
AcDbMText
 10
-18.50000000000002
 20
-8.800012067989786
 30
0.0
 40
1.9
 41
0.0
 71
     5
 72
     1
  1
35
1001
ACAD
1000
MTEXTBEGIN
1070
    73
1070
     1
1070
    44
1040
1.0
1070
    74
1070
     0
1000
MTEXTEND
  0
POINT
  5
2FEF
330
DF6
100
AcDbEntity
  8
DEFPOINTS
 62
     0
100
AcDbPoint
 10
-36.0
 20
-3.500000000000064
 30
0.0
  0
POINT
  5
2FF0
330
DF6
100
AcDbEntity
  8
DEFPOINTS
 62
     0
100
AcDbPoint
 10
-1.000000000000047
 20
-3.450012984739712
 30
0.0
  0
POINT
  5
2FF1
330
DF6
100
AcDbEntity
  8
DEFPOINTS
 62
     0
100
AcDbPoint
 10
-1.000000000000047
 20
-10.50001206798978
 30
0.0
  0
ENDBLK
  5
E01
330
DF6
100
AcDbEntity
  8
0
100
AcDbBlockEnd
  0
BLOCK
  5
1FA0
330
1F94
100
AcDbEntity
  8
0
100
AcDbBlockBegin
  2
*D7
 70
     1
 10
0.0
 20
0.0
 30
0.0
  3
*D7
  1

  0
LINE
  5
2FD5
330
1F94
100
AcDbEntity
  8
AM_5
 62
     3
100
AcDbLine
 10
-88.49999999999999
 20
-3.500000000000206
 30
0.0
 11
-98.250001
 21
-3.500000000000226
 31
0.0
  0
LINE
  5
2FD6
330
1F94
100
AcDbEntity
  8
AM_5
 62
     3
100
AcDbLine
 10
-88.49999999999999
 20
3.499999999999792
 30
0.0
 11
-98.250001
 21
3.499999999999773
 31
0.0
  0
LINE
  5
2FD7
330
1F94
100
AcDbEntity
  8
AM_5
 62
     3
100
AcDbLine
 10
-97.75000099999999
 20
-2.250000000000225
 30
0.0
 11
-97.75000099999999
 21
2.249999999999774
 31
0.0
  0
INSERT
  5
2FD8
330
1F94
100
AcDbEntity
  8
AM_5
 62
     3
100
AcDbBlockReference
  2
_OPEN30
 10
-97.75000099999999
 20
-3.500000000000225
 30
0.0
 41
1.25
 42
1.25
 43
1.25
 50
270.0000000000001
  0
INSERT
  5
2FD9
330
1F94
100
AcDbEntity
  8
AM_5
 62
     3
100
AcDbBlockReference
  2
_OPEN30
 10
-97.75000099999999
 20
3.499999999999774
 30
0.0
 41
1.25
 42
1.25
 43
1.25
 50
90.0000000000001
  0
MTEXT
  5
2FDA
330
1F94
100
AcDbEntity
  8
AM_5
 62
     2
100
AcDbMText
 10
-99.45000100000001
 20
-0.0000000000004083
 30
0.0
 40
1.9
 41
0.0
 71
     5
 72
     1
  1
%%c7
 11
-0.000000000000002
 21
1.0
 31
0.0
1001
ACAD
1000
MTEXTBEGIN
1070
    73
1070
     1
1070
    44
1040
1.0
1070
    74
1070
     0
1000
MTEXTEND
  0
POINT
  5
2FDB
330
1F94
100
AcDbEntity
  8
DEFPOINTS
 62
     0
100
AcDbPoint
 10
-88.49999999999999
 20
-3.50000000000001
 30
0.0
  0
POINT
  5
2FDC
330
1F94
100
AcDbEntity
  8
DEFPOINTS
 62
     0
100
AcDbPoint
 10
-88.49999999999999
 20
3.499999999999988
 30
0.0
  0
POINT
  5
2FDD
330
1F94
100
AcDbEntity
  8
DEFPOINTS
 62
     0
100
AcDbPoint
 10
-97.75000099999999
 20
3.499999999999991
 30
0.0
  0
ENDBLK
  5
1FA1
330
1F94
100
AcDbEntity
  8
0
100
AcDbBlockEnd
  0
BLOCK
  5
2586
330
2578
100
AcDbEntity
  8
0
100
AcDbBlockBegin
  2
*D8
 70
     1
 10
0.0
 20
0.0
 30
0.0
  3
*D8
  1

  0
LINE
  5
3049
330
2578
100
AcDbEntity
  8
AM_5
100
AcDbLine
 10
0.1710079208341563
 20
-0.469847093225016
 30
0.0
 11
5.152227250416936
 21
-14.15582965651496
 31
0.0
  0
LINE
  5
304A
330
2578
100
AcDbEntity
  8
AM_5
100
AcDbLine
 10
0.1710079208341523
 20
0.4698470932250105
 30
0.0
 11
5.152227250416815
 21
14.155829656515
 31
0.0
  0
ARC
  5
304B
330
2578
100
AcDbEntity
  8
AM_5
100
AcDbCircle
 10
0.0000000000000012
 20
-0.0000000000000035
 30
0.0
 40
14.56429417212128
100
AcDbArc
 50
294.918735062585
 51
65.08126493741549
  0
INSERT
  5
304C
330
2578
100
AcDbEntity
  8
AM_5
100
AcDbBlockReference
  2
_OPEN30
 10
4.981219329582786
 20
-13.68598256328996
 30
0.0
 41
1.25
 42
1.25
 43
1.25
 50
202.4592363891502
  0
INSERT
  5
304D
330
2578
100
AcDbEntity
  8
AM_5
100
AcDbBlockReference
  2
_OPEN30
 10
4.981219329582668
 20
13.68598256329
 30
0.0
 41
1.25
 42
1.25
 43
1.25
 50
157.5407636108502
  0
MTEXT
  5
304E
330
2578
100
AcDbEntity
  8
AM_5
 62
     2
100
AcDbMText
 10
13.01429417212129
 20
0.0000000000000582
 30
0.0
 40
1.6
 41
0.0
 71
     5
 72
     1
  1
140°
  7
ASAMI
 11
-0.000000000000002
 21
1.0
 31
0.0
  0
POINT
  5
304F
330
2578
100
AcDbEntity
  8
DEFPOINTS
 62
     0
100
AcDbPoint
 10
13.37316069178124
 20
-5.768642634440381
 30
0.0
  0
POINT
  5
3050
330
2578
100
AcDbEntity
  8
DEFPOINTS
 62
     0
100
AcDbPoint
 10
0.0000000000000061
 20
0.0000000000000099
 30
0.0
  0
POINT
  5
3051
330
2578
100
AcDbEntity
  8
DEFPOINTS
 62
     0
100
AcDbPoint
 10
0.0000000000000061
 20
-0.0000000000000169
 30
0.0
  0
POINT
  5
3052
330
2578
100
AcDbEntity
  8
DEFPOINTS
 62
     0
100
AcDbPoint
 10
-0.2725326313314266
 20
0.7487879158779915
 30
0.0
  0
POINT
  5
3053
330
2578
100
AcDbEntity
  8
DEFPOINTS
 62
     0
100
AcDbPoint
 10
-0.2725326313314236
 20
-0.7487879158779995
 30
0.0
  0
ENDBLK
  5
2587
330
2578
100
AcDbEntity
  8
0
100
AcDbBlockEnd
  0
BLOCK
  5
2CAF
330
2CA5
100
AcDbEntity
  8
0
100
AcDbBlockBegin
  2
*D9
 70
     1
 10
0.0
 20
0.0
 30
0.0
  3
*D9
  1

  0
LINE
  5
2FF2
330
2CA5
100
AcDbEntity
  8
AM_5
 62
     3
100
AcDbLine
 10
-1.000000000000055
 20
-3.450012984739696
 30
0.0
 11
9.586422120790542
 21
-3.450012984739699
 31
0.0
  0
LINE
  5
2FF3
330
2CA5
100
AcDbEntity
  8
AM_5
 62
     3
100
AcDbLine
 10
-1.028867404811057
 20
3.449987015260283
 30
0.0
 11
9.586422120790542
 21
3.44998701526028
 31
0.0
  0
LINE
  5
2FF4
330
2CA5
100
AcDbEntity
  8
AM_5
 62
     3
100
AcDbLine
 10
9.086422120790542
 20
-2.200012984739699
 30
0.0
 11
9.086422120790542
 21
2.19998701526028
 31
0.0
  0
INSERT
  5
2FF5
330
2CA5
100
AcDbEntity
  8
AM_5
 62
     3
100
AcDbBlockReference
  2
_OPEN30
 10
9.086422120790542
 20
-3.450012984739699
 30
0.0
 41
1.25
 42
1.25
 43
1.25
 50
270.0
  0
INSERT
  5
2FF6
330
2CA5
100
AcDbEntity
  8
AM_5
 62
     3
100
AcDbBlockReference
  2
_OPEN30
 10
9.086422120790542
 20
3.44998701526028
 30
0.0
 41
1.25
 42
1.25
 43
1.25
 50
90.0
  0
MTEXT
  5
2FF7
330
2CA5
100
AcDbEntity
  8
AM_5
 62
     2
100
AcDbMText
 10
7.386422120790542
 20
-0.0000129847397078
 30
0.0
 40
1.9
 41
0.0
 71
     5
 72
     1
  1
%%c6.9
 11
0.0000000000000001
 21
1.0
 31
0.0
1001
ACAD
1000
MTEXTBEGIN
1070
    73
1070
     1
1070
    44
1040
1.0
1070
    74
1070
     0
1000
MTEXTEND
  0
POINT
  5
2FF8
330
2CA5
100
AcDbEntity
  8
DEFPOINTS
 62
     0
100
AcDbPoint
 10
-1.000000000000055
 20
-3.450012984739696
 30
0.0
  0
POINT
  5
2FF9
330
2CA5
100
AcDbEntity
  8
DEFPOINTS
 62
     0
100
AcDbPoint
 10
-1.028867404811057
 20
3.449987015260283
 30
0.0
  0
POINT
  5
2FFA
330
2CA5
100
AcDbEntity
  8
DEFPOINTS
 62
     0
100
AcDbPoint
 10
9.086422120790542
 20
3.44998701526028
 30
0.0
  0
ENDBLK
  5
2CB0
330
2CA5
100
AcDbEntity
  8
0
100
AcDbBlockEnd
  0
ENDSEC
  0
SECTION
  2
ENTITIES
  0
LINE
  5
C1D
330
1F
100
AcDbEntity
  8
AM_0
 48
0.5
100
AcDbLine
 10
0.0000000000000061
 20
-0.0000000000000169
 30
0.0
 11
-0.2725326313314266
 21
0.7487879158779915
 31
0.0
  0
DIMENSION
  5
CC6
330
1F
100
AcDbEntity
  8
AM_5
100
AcDbDimension
  2
*D5
 10
-1.000000000000048
 20
-15.50001206798982
 30
0.0
 11
-45.00000000000001
 21
-13.80001206798982
 31
0.0
 70
    32
  1
<>
  3
AM_JIS$0
100
AcDbAlignedDimension
 13
-88.99999999999998
 23
-3.00000000000021
 33
0.0
 14
-1.000000000000047
 24
-3.450012984739712
 34
0.0
 50
0.0000000000001132
100
AcDbRotatedDimension
1001
GENIUS_GENDTOL_13
1000

1000
h7
1000

1040
0.0
1001
ACAD
1000
DSTYLE
1002
{
1070
   271
1070
     0
1002
}
  0
DIMENSION
  5
DF5
330
1F
100
AcDbEntity
  8
AM_5
100
AcDbDimension
  2
*D6
 10
-1.000000000000047
 20
-10.50001206798978
 30
0.0
 11
-18.50000000000002
 21
-8.800012067989786
 31
0.0
 70
    32
  1
<>
  3
AM_JIS$0
100
AcDbAlignedDimension
 13
-36.0
 23
-3.500000000000064
 33
0.0
 14
-1.000000000000047
 24
-3.450012984739712
 34
0.0
 50
0.0000000000001527
100
AcDbRotatedDimension
1001
GENIUS_GENDTOL_13
1000

1000
h7
1000

1040
0.0
1001
ACAD
1000
DSTYLE
1002
{
1070
   271
1070
     0
1002
}
  0
ARC
  5
144A
330
1F
100
AcDbEntity
  8
AM_11
 48
0.5
100
AcDbCircle
 10
-56.11257425944017
 20
-15.45937617226463
 30
0.0
 40
17.09271208445208
100
AcDbArc
 50
64.74833051131179
 51
115.2516644797366
  0
ARC
  5
144B
330
1F
100
AcDbEntity
  8
AM_11
 48
0.5
100
AcDbCircle
 10
-56.11257425944015
 20
15.45938667054936
 30
0.0
 40
17.09271208445208
100
AcDbArc
 50
244.7482808787518
 51
295.2516148471758
  0
TEXT
  5
19BD
330
1F
100
AcDbEntity
  8
AM_6
100
AcDbText
 10
-56.24999109904177
 20
-26.75001206798985
 30
0.0
 40
2.5
  1
MDW069MHK
 50
0.0000000000001527
 72
     4
 11
-44.99999109904176
 21
-25.50001206798982
 31
0.0
100
AcDbText
  0
LINE
  5
1D14
330
1F
100
AcDbEntity
  8
AM_7
100
AcDbLine
 10
-90.74999999999997
 20
-0.0000000000000521
 30
0.0
 11
2.086421120790548
 21
-0.0000000000000024
 31
0.0
1001
GENIUS_GENODEF_13
1002
{
1000
HIER
1070
     0
1002
}
1002
{
1000
MANEDIT
1070
     0
1002
}
1002
{
1000
NOSEL
1070
     0
1002
}
1002
{
1000
BEHIND
1070
     0
1002
}
1002
{
1000
REACTOR
1002
}
1001
GENIUS_GENOBJ-N-CEN_13
1002
{
1000
OWNER
1000
GEN
1002
}
  0
LINE
  5
1D9D
330
1F
100
AcDbEntity
  8
AM_0
100
AcDbLine
 10
-88.49999999999999
 20
-3.50000000000001
 30
0.0
 11
-88.49999999999999
 21
3.499999999999988
 31
0.0
  0
LINE
  5
1D9E
330
1F
100
AcDbEntity
  8
AM_0
 48
0.5
100
AcDbLine
 10
-88.99999999999998
 20
-3.00000000000021
 30
0.0
 11
-89.0
 21
2.999999999999789
 31
0.0
  0
LINE
  5
1DA2
330
1F
100
AcDbEntity
  8
AM_0
100
AcDbLine
 10
-36.0
 20
-3.500000000000064
 30
0.0
 11
-36.00000000000003
 21
3.499999999999935
 31
0.0
  0
LINE
  5
1DA4
330
1F
100
AcDbEntity
  8
AM_0
100
AcDbLine
 10
-88.49999999999999
 20
3.499999999999791
 30
0.0
 11
-36.0
 21
3.49999999999996
 31
0.0
  0
LINE
  5
1DA5
330
1F
100
AcDbEntity
  8
AM_0
100
AcDbLine
 10
-88.49999999999999
 20
-3.500000000000208
 30
0.0
 11
-36.0
 21
-3.500000000000038
 31
0.0
  0
LINE
  5
1F71
330
1F
100
AcDbEntity
  8
AM_0
100
AcDbLine
 10
-36.00000000000003
 20
3.499999999999935
 30
0.0
 11
-35.91337496939154
 21
3.449987015259565
 31
0.0
  0
LINE
  5
1F72
330
1F
100
AcDbEntity
  8
AM_0
100
AcDbLine
 10
-36.0
 20
-3.500000000000064
 30
0.0
 11
-35.91341994984938
 21
-3.450012984739156
 31
0.0
  0
ARC
  5
1F77
330
1F
100
AcDbEntity
  8
AM_11
 48
0.5
100
AcDbCircle
 10
-70.69590759277338
 20
15.45938667054932
 30
0.0
 40
17.09271208445208
100
AcDbArc
 50
244.7482808787518
 51
295.2516148471758
  0
ARC
  5
1F78
330
1F
100
AcDbEntity
  8
AM_11
 48
0.5
100
AcDbCircle
 10
-70.69590759277341
 20
-15.45937617226467
 30
0.0
 40
17.09271208445208
100
AcDbArc
 50
64.74833051131179
 51
115.2516644797366
  0
ARC
  5
1F79
330
1F
100
AcDbEntity
  8
AM_11
 48
0.5
100
AcDbCircle
 10
-85.2792409261066
 20
15.45938667054928
 30
0.0
 40
17.09271208445208
100
AcDbArc
 50
257.4271351938719
 51
295.2516148471758
  0
ARC
  5
1F7A
330
1F
100
AcDbEntity
  8
AM_11
 48
0.5
100
AcDbCircle
 10
-85.27924092610664
 20
-15.45937617226471
 30
0.0
 40
17.09271208445208
100
AcDbArc
 50
64.74833051131179
 51
102.5728648061279
  0
DIMENSION
  5
1F93
330
1F
100
AcDbEntity
  8
AM_5
100
AcDbDimension
  2
*D7
 10
-97.75000099999999
 20
3.499999999999991
 30
0.0
 11
-97.75000099999999
 21
-0.0000000000002075
 31
0.0
 70
   160
  1
%%c<>
 51
359.9999999999998
  3
AM_JIS$0
100
AcDbAlignedDimension
 13
-88.49999999999999
 23
-3.50000000000001
 33
0.0
 14
-88.49999999999999
 24
3.499999999999988
 34
0.0
 50
270.0000000000002
100
AcDbRotatedDimension
1001
ACAD
1000
DSTYLE
1002
{
1070
   271
1070
     0
1002
}
1001
GENIUS_GENDTOL_13
1000

1000
h7
1000

1040
0.0
  0
ELLIPSE
  5
231A
330
1F
100
AcDbEntity
  8
AM_11
 48
0.5
100
AcDbEllipse
 10
2.220759073889123
 20
15.21399958054064
 30
0.0
 11
-17.09271208445214
 21
0.0000000000021758
 31
0.0
210
0.0
220
0.0
230
1.0
 40
0.9841269841269811
 41
1.130070686340432
 42
1.291800737381121
  0
ELLIPSE
  5
2324
330
1F
100
AcDbEntity
  8
AM_11
 48
0.5
100
AcDbEllipse
 10
-41.52924092610686
 20
-15.21398924889527
 30
0.0
 11
-17.09271208445209
 21
0.0000000000000504
 31
0.0
210
0.0
220
0.0
230
1.0
 40
0.9841269841269831
 41
4.271664206181688
 42
5.153113667164995
  0
ELLIPSE
  5
2325
330
1F
100
AcDbEntity
  8
AM_11
 48
0.5
100
AcDbEllipse
 10
-41.52924092610681
 20
15.21399958054072
 30
0.0
 11
-17.09271208445209
 21
0.000000000000001
 31
0.0
210
0.0
220
0.0
230
1.0
 40
0.9841269841269829
 41
1.130070686340305
 42
2.011520147323597
  0
ELLIPSE
  5
2327
330
1F
100
AcDbEntity
  8
AM_11
 48
0.5
100
AcDbEllipse
 10
-26.94590759277756
 20
15.21399958054069
 30
0.0
 11
17.09271208445209
 21
0.0000000000000162
 31
0.0
210
0.0
220
0.0
230
1.0
 40
0.9841269841269825
 41
4.271663339930097
 42
5.153112800913389
  0
ELLIPSE
  5
2328
330
1F
100
AcDbEntity
  8
AM_11
 48
0.5
100
AcDbEllipse
 10
-26.94590759277762
 20
-15.21398924889529
 30
0.0
 11
-17.09271208445208
 21
0.000000000000001
 31
0.0
210
0.0
220
0.0
230
1.0
 40
0.9841269841269834
 41
4.271664206181685
 42
5.153113667164991
  0
ELLIPSE
  5
232D
330
1F
100
AcDbEntity
  8
AM_11
 48
0.5
100
AcDbEllipse
 10
-12.36257425944429
 20
-15.21398924889532
 30
0.0
 11
-17.09271208445209
 21
0.0000000000000162
 31
0.0
210
0.0
220
0.0
230
1.0
 40
0.9841269841269831
 41
4.271664206181686
 42
5.153113667164992
  0
ELLIPSE
  5
232E
330
1F
100
AcDbEntity
  8
AM_11
 48
0.5
100
AcDbEllipse
 10
-12.36257425944423
 20
15.21399958054066
 30
0.0
 11
17.09271208445209
 21
0.0000000000000162
 31
0.0
210
0.0
220
0.0
230
1.0
 40
0.9841269841269829
 41
4.271663339930097
 42
5.153112800913389
  0
LINE
  5
2398
330
1F
100
AcDbEntity
  8
AM_0
100
AcDbLine
 10
-35.91341994984938
 20
-3.450012984739156
 30
0.0
 11
-35.91341532871455
 21
-2.741131130206584
 31
0.0
  0
ELLIPSE
  5
23D5
330
1F
100
AcDbEntity
  8
AM_0
 48
0.5
100
AcDbEllipse
 10
4.537164231286273
 20
3.856893983336726
 30
0.0
 11
4.694067341354348
 21
3.2852998629697
 31
0.0
210
0.0
220
0.0
230
1.0
 40
0.753929342490717
 41
2.621800558379187
 42
3.092617221329952
  0
LINE
  5
2500
330
1F
100
AcDbEntity
  8
AM_0
 48
0.5
100
AcDbLine
 10
-88.49999999999999
 20
3.499999999999791
 30
0.0
 11
-89.0
 21
2.999999999999789
 31
0.0
1001
GENIUS_GENFIL_13
1070
     0
1040
0.5
1040
0.5
1040
20.0
1040
0.0
1002
{
1002
}
1001
GENIUS_GENODEF_13
1002
{
1000
HIER
1070
     0
1002
}
1002
{
1000
MANEDIT
1070
     0
1002
}
1002
{
1000
NOSEL
1070
     0
1002
}
1002
{
1000
BEHIND
1070
     0
1002
}
1002
{
1000
REACTOR
1002
}
1001
GENIUS_GENOBJ-N-CHA_13
1002
{
1000
OWNER
1000
GEN
1002
}
  0
LINE
  5
2503
330
1F
100
AcDbEntity
  8
AM_0
100
AcDbLine
 10
-88.99999999999998
 20
-3.00000000000021
 30
0.0
 11
-88.49999999999999
 21
-3.500000000000208
 31
0.0
1001
GENIUS_GENFIL_13
1070
     0
1040
0.5
1040
0.5
1040
20.0
1040
0.0
1002
{
1002
}
1001
GENIUS_GENODEF_13
1002
{
1000
HIER
1070
     0
1002
}
1002
{
1000
MANEDIT
1070
     0
1002
}
1002
{
1000
NOSEL
1070
     0
1002
}
1002
{
1000
BEHIND
1070
     0
1002
}
1002
{
1000
REACTOR
1002
}
1001
GENIUS_GENOBJ-N-CHA_13
1002
{
1000
OWNER
1000
GEN
1002
}
  0
ELLIPSE
  5
2567
330
1F
100
AcDbEntity
  8
AM_0
 48
0.5
100
AcDbEllipse
 10
4.537164231286288
 20
-3.856893983336714
 30
0.0
 11
4.645458860676204
 21
-3.357654964305418
 31
0.0
210
0.0
220
0.0
230
-1.0
 40
0.7713757486121493
 41
2.613281070465999
 42
3.074038162807732
  0
LINE
  5
2568
330
1F
100
AcDbEntity
  8
AM_0
 48
0.5
100
AcDbLine
 10
-0.7804932361520273
 20
-2.763326247473126
 30
0.0
 11
-1.000000000000055
 21
-3.450012984739696
 31
0.0
  0
LINE
  5
2569
330
1F
100
AcDbEntity
  8
AM_0
 48
0.5
100
AcDbLine
 10
0.0000000000000061
 20
0.0000000000000099
 30
0.0
 11
-0.2725326313314236
 21
-0.7487879158779995
 31
0.0
  0
DIMENSION
  5
2577
330
1F
100
AcDbEntity
  8
AM_5
100
AcDbDimension
  2
*D8
 10
-0.2725326313314236
 20
-0.7487879158779995
 30
0.0
 11
13.01429417212129
 21
0.0000000000000299
 31
0.0
 70
    34
  1
<>
 51
359.9999999999998
  3
AM_JIS$2
100
AcDb2LineAngularDimension
 13
0.0000000000000061
 23
-0.0000000000000169
 33
0.0
 14
-0.2725326313314266
 24
0.7487879158779915
 34
0.0
 15
0.0000000000000061
 25
0.0000000000000099
 35
0.0
 16
13.37316069178124
 26
-5.768642634440381
 36
0.0
1001
GENIUS_GENDTOL_13
1000

1000
h7
1000

1040
0.0
1001
ACAD
1000
DSTYLE
1002
{
1070
   271
1070
     0
1002
}
  0
DIMENSION
  5
2CA4
330
1F
100
AcDbEntity
  8
AM_5
100
AcDbDimension
  2
*D9
 10
9.086422120790542
 20
3.44998701526028
 30
0.0
 11
9.086422120790542
 21
-0.000012984739708
 31
0.0
 70
   160
  1
%%c<>
  3
AM_JIS$0
100
AcDbAlignedDimension
 13
-1.000000000000055
 23
-3.450012984739696
 33
0.0
 14
-1.028867404811057
 24
3.449987015260283
 34
0.0
 50
89.99999999999932
100
AcDbRotatedDimension
1001
ACAD
1000
DSTYLE
1002
{
1070
   271
1070
     1
1002
}
1001
GENIUS_GENDTOL_13
1000

1000
h7
1000

1040
0.0
  0
LINE
  5
2E35
330
1F
100
AcDbEntity
  8
AM_0
 48
0.5
100
AcDbLine
 10
-0.7671897959189002
 20
2.763326247473118
 30
0.0
 11
-1.028867404811057
 21
3.449987015260283
 31
0.0
  0
LINE
  5
2E5B
330
1F
100
AcDbEntity
  8
AM_0
100
AcDbLine
 10
-35.91341020755393
 20
-1.955545346206736
 30
0.0
 11
-35.91339954494809
 21
-0.3199021401077681
 31
0.0
  0
LINE
  5
2E5C
330
1F
100
AcDbEntity
  8
AM_0
100
AcDbLine
 10
-35.91339914095399
 20
-0.2579294660963494
 30
0.0
 11
-35.91337496939154
 21
3.449987015259566
 31
0.0
  0
LINE
  5
2F77
330
1F
100
AcDbEntity
  8
AM_0
100
AcDbLine
 10
-34.8660854757478
 20
-3.450012984739172
 30
0.0
 11
-35.91341994984938
 21
-3.450012984739156
 31
0.0
  0
LINE
  5
2F78
330
1F
100
AcDbEntity
  8
AM_0
 48
0.5
100
AcDbLine
 10
-2.914762823713075
 20
3.449987015260393
 30
0.0
 11
-1.000000000000016
 21
3.449987015260282
 31
0.0
  0
LINE
  5
2F79
330
1F
100
AcDbEntity
  8
AM_11
 48
0.5
100
AcDbLine
 10
-33.74962041915736
 20
3.449987015260786
 30
0.0
 11
-26.13107690398954
 21
3.449987015260671
 31
0.0
  0
LINE
  5
2F7A
330
1F
100
AcDbEntity
  8
AM_0
100
AcDbLine
 10
-26.13107690398954
 20
3.449987015260671
 30
0.0
 11
-13.82250787338271
 21
3.449987015260675
 31
0.0
  0
LINE
  5
2F7B
330
1F
100
AcDbEntity
  8
AM_11
 48
0.5
100
AcDbLine
 10
-13.82230155119623
 20
3.449984821819917
 30
0.0
 11
-3.299408254419546
 21
3.449984821819369
 31
0.0
  0
SPLINE
  5
2F7C
330
1F
100
AcDbEntity
  8
AM_0
 48
0.5
100
AcDbSpline
210
0.0
220
0.0
230
1.0
 70
     8
 71
     3
 72
    17
 73
    13
 74
     0
 42
0.0000000001
 43
0.0000000001
 40
0.0
 40
0.0
 40
0.0
 40
0.0
 40
1.010743614677189
 40
2.022833924044153
 40
3.037578959561199
 40
4.056212747067873
 40
5.079857613375832
 40
6.109500119648989
 40
7.14596120163808
 40
8.18989512056258
 40
9.241717674284874
 40
9.693948937866434
 40
9.693948937866434
 40
9.693948937866434
 40
9.693948937866434
 10
-2.914762823713075
 20
3.449987015260393
 30
0.0
 10
-3.107696715234063
 20
3.447935828092994
 30
0.0
 10
-3.493821559555939
 20
3.44383072079723
 30
0.0
 10
-4.072867575153907
 20
3.410706028894907
 30
0.0
 10
-4.651889751763512
 20
3.35806639984729
 30
0.0
 10
-5.230875918121381
 20
3.284282003404702
 30
0.0
 10
-5.809819178670037
 20
3.190353525344606
 30
0.0
 10
-6.388712462189809
 20
3.076716451706912
 30
0.0
 10
-6.967547998959942
 20
2.944102301915729
 30
0.0
 10
-7.546348250122744
 20
2.793403868580911
 30
0.0
 10
-8.013570905817307
 20
2.657647359954034
 30
0.0
 10
-8.287951443009919
 20
2.572780019422083
 30
0.0
 10
-8.370305759577334
 20
2.546802694612159
 30
0.0
  0
LINE
  5
2F7D
330
1F
100
AcDbEntity
  8
AM_0
 48
0.5
100
AcDbLine
 10
-3.204200599399662
 20
-3.450012984739701
 30
0.0
 11
-1.000000000000043
 21
-3.450012984739697
 31
0.0
  0
LINE
  5
2F7E
330
1F
100
AcDbEntity
  8
AM_11
 48
0.5
100
AcDbLine
 10
-34.8660854757478
 20
-3.450012984739172
 30
0.0
 11
-26.71237757744152
 21
-3.450012984739325
 31
0.0
  0
LINE
  5
2F7F
330
1F
100
AcDbEntity
  8
AM_0
 48
0.5
100
AcDbLine
 10
-26.71237757744152
 20
-3.450012984739325
 30
0.0
 11
-14.00825664683756
 21
-3.450012984739525
 31
0.0
  0
LINE
  5
2F80
330
1F
100
AcDbEntity
  8
AM_11
 48
0.5
100
AcDbLine
 10
-14.00825664683756
 20
-3.450012984739525
 30
0.0
 11
-3.204200599399662
 21
-3.450012984739701
 31
0.0
  0
SPLINE
  5
2F81
330
1F
100
AcDbEntity
  8
AM_0
 48
0.5
100
AcDbSpline
210
0.0
220
0.0
230
1.0
 70
     8
 71
     3
 72
    22
 73
    18
 74
     0
 42
0.0000000001
 43
0.0000000001
 40
0.0
 40
0.0
 40
0.0
 40
0.0
 40
1.010743684496582
 40
2.022833993863546
 40
3.037578683882831
 40
4.056212471389632
 40
5.079857945358201
 40
6.109499720892564
 40
7.145961650132166
 40
8.189873411961459
 40
9.241710626092514
 40
10.30166235592959
 40
11.36982472628033
 40
12.44598212828784
 40
13.52983440361964
 40
14.62080578343036
 40
14.90544694398022
 40
14.90544694398022
 40
14.90544694398022
 40
14.90544694398022
 10
-26.71237757744152
 20
-3.450012984739325
 30
0.0
 10
-26.92383877238142
 20
-3.448140624807103
 30
0.0
 10
-27.30629310497951
 20
-3.444033784473424
 30
0.0
 10
-27.87983459255071
 20
-3.410908929606562
 30
0.0
 10
-28.45335281934379
 20
-3.358272591479543
 30
0.0
 10
-29.02683523536145
 20
-3.284488271824005
 30
0.0
 10
-29.6002745670185
 20
-3.190556125113882
 30
0.0
 10
-30.17366483202421
 20
-3.076920823758818
 30
0.0
 10
-30.74699762817605
 20
-2.944316892660489
 30
0.0
 10
-31.32027689791042
 20
-2.793566952541966
 30
0.0
 10
-31.89349747800381
 20
-2.625612260827408
 30
0.0
 10
-32.4666623640506
 20
-2.441475008689555
 30
0.0
 10
-33.03977525085836
 20
-2.242326945652356
 30
0.0
 10
-33.61283570795205
 20
-2.029351998519976
 30
0.0
 10
-34.18585447094425
 20
-1.803906914130779
 30
0.0
 10
-34.61651811642096
 20
-1.626119072833938
 30
0.0
 10
-34.85649892827892
 20
-1.524501257585078
 30
0.0
 10
-34.8218554111848
 20
-1.539265912657783
 30
0.0
  0
SPLINE
  5
2F82
330
1F
100
AcDbEntity
  8
AM_0
100
AcDbSpline
210
0.0
220
0.0
230
1.0
 70
     8
 71
     3
 72
    13
 73
     9
 74
     0
 42
0.0000000001
 43
0.0000000001
 40
16.03460056234195
 40
16.03460056234195
 40
16.03460056234195
 40
16.03460056234195
 40
16.35212717791071
 40
17.38177067057215
 40
18.41822498539278
 40
19.46214186516937
 40
20.5139635832251
 40
21.34083983469381
 40
21.34083983469381
 40
21.34083983469381
 40
21.34083983469381
 10
-34.86572366902668
 20
-3.450012984739188
 30
0.0
 10
-34.70334669483608
 20
-3.438860190828563
 30
0.0
 10
-34.45359898424509
 20
-3.388143950214793
 30
0.0
 10
-34.01366630629022
 20
-3.288769330310386
 30
0.0
 10
-33.44395195440597
 20
-3.141002492203286
 30
0.0
 10
-32.87476687105538
 20
-2.975084392236499
 30
0.0
 10
-32.34808342454928
 20
-2.80550120248086
 30
0.0
 10
-32.01206866052366
 20
-2.688731107724871
 30
0.0
 10
-31.86466099742336
 20
-2.635949960885865
 30
0.0
  0
ELLIPSE
  5
2F83
330
1F
100
AcDbEntity
  8
AM_0
 48
0.5
100
AcDbEllipse
 10
-0.8249556344998227
 20
-0.7179821963153142
 30
0.0
 11
-0.4638937438076368
 21
0.2963171480015187
 31
0.0
210
0.0
220
0.0
230
1.0
 40
0.513957718011974
 41
4.520012563671515
 42
7.663452905001024
  0
ELLIPSE
  5
2F84
330
1F
100
AcDbEntity
  8
AM_0
 48
0.5
100
AcDbEllipse
 10
-0.8249556344998227
 20
-0.7179821963153142
 30
0.0
 11
-0.0907336729638766
 21
0.5668405212604345
 31
0.0
210
0.0
220
0.0
230
0.9999999999999998
 40
0.4725603214340268
 41
1.81829811822372
 42
4.953640007935696
  0
ELLIPSE
  5
2F85
330
1F
100
AcDbEntity
  8
AM_0
 48
0.5
100
AcDbEllipse
 10
-5.683936326839604
 20
5.79033773852675
 30
0.0
 11
-3.894794233413577
 21
7.20462991816942
 31
0.0
210
0.0
220
0.0
230
0.9999999999999998
 40
0.6666314086704052
 41
3.165254774391064
 42
3.304333903764917
  0
ELLIPSE
  5
2F86
330
1F
100
AcDbEntity
  8
AM_0
 48
0.5
100
AcDbEllipse
 10
3.663565270375166
 20
-0.981378496670324
 30
0.0
 11
-2.996700120244975
 21
8.80017311118258
 31
0.0
210
0.0
220
0.0
230
1.0
 40
0.5627401230741556
 41
1.422708589309665
 42
1.660581479367221
  0
ELLIPSE
  5
2F87
330
1F
100
AcDbEntity
  8
AM_0
 48
0.5
100
AcDbEllipse
 10
-5.885029805373389
 20
6.562266724190296
 30
0.0
 11
-1.167839260161673
 21
8.928000505311404
 31
0.0
210
0.0
220
0.0
230
1.0
 40
0.9382732299602485
 41
3.680032145883558
 42
3.772608580403612
  0
SPLINE
  5
2F88
330
1F
100
AcDbEntity
  8
AM_0
100
AcDbSpline
210
0.0
220
0.0
230
1.0
 70
     8
 71
     3
 72
    22
 73
    18
 74
     0
 42
0.0000000001
 43
0.0000000001
 40
17.17441611292
 40
17.17441611292
 40
17.17441611292
 40
17.17441611292
 40
17.38177636558528
 40
18.41823744757437
 40
19.46215659509824
 40
20.51397914882054
 40
21.57394542641293
 40
22.64209583141747
 40
23.71826625065247
 40
24.80210429862395
 40
25.8930771157021
 40
26.99048705697709
 40
28.09349309193389
 40
29.20112995599786
 40
30.31233024745139
 40
31.42594771747373
 40
32.5407895042663
 40
32.54078950426994
 40
32.54078950426994
 40
32.54078950426994
 10
-16.19733974282534
 20
-3.098140148069259
 30
0.0
 10
-16.23574493789744
 20
-3.090153736451362
 30
0.0
 10
-16.46596310805602
 20
-3.041507630350456
 30
0.0
 10
-16.8877098230443
 20
-2.943965856186452
 30
0.0
 10
-17.46098825027701
 20
-2.7932187424893
 30
0.0
 10
-18.03420826164135
 20
-2.625257266148175
 30
0.0
 10
-18.60737390403849
 20
-2.441129884344956
 30
0.0
 10
-19.18048442035648
 20
-2.241965570165864
 30
0.0
 10
-19.75354686492115
 20
-2.02900381517077
 30
0.0
 10
-20.32656389117277
 20
-1.803553413785304
 30
0.0
 10
-20.89954080088143
 20
-1.56700470628154
 30
0.0
 10
-21.47248396518706
 20
-1.320817048352319
 30
0.0
 10
-22.04539835689062
 20
-1.066504255351169
 30
0.0
 10
-22.61828974330177
 20
-0.8056309025543296
 30
0.0
 10
-23.19116320260404
 20
-0.5398010657898192
 30
0.0
 10
-23.76402722141953
 20
-0.2706550588336538
 30
0.0
 10
-24.14586160306545
 20
-0.0901445411273631
 30
0.0
 10
-24.33688368654211
 20
0.0001602978950619
 30
0.0
  0
SPLINE
  5
2F89
330
1F
100
AcDbEntity
  8
AM_0
100
AcDbSpline
210
0.0
220
0.0
230
1.0
 70
     8
 71
     3
 72
    17
 73
    13
 74
     0
 42
0.0000000001
 43
0.0000000001
 40
1.580019955310467
 40
1.580019955310467
 40
1.580019955310467
 40
1.580019955310467
 40
2.030549285115227
 40
3.082371838836284
 40
4.126290986361125
 40
5.162752068350215
 40
6.192395305374981
 40
7.216039564037012
 40
8.234688489606833
 40
9.249433870634691
 40
10.26152376260694
 40
11.27226744710342
 40
11.27226744710342
 40
11.27226744710342
 40
11.27226744710352
 10
-8.605807160129209
 20
-2.546216768917143
 30
0.0
 10
-8.686953792369301
 20
-2.572440530075565
 30
0.0
 10
-8.958010806251959
 20
-2.658392409956317
 30
0.0
 10
-9.42077234827607
 20
-2.793211008960884
 30
0.0
 10
-9.993970976463355
 20
-2.944189954935449
 30
0.0
 10
-10.5673274056963
 20
-3.076729423778056
 30
0.0
 10
-11.14071010592074
 20
-3.190384318163674
 30
0.0
 10
-11.71415527516269
 20
-3.284327906901822
 30
0.0
 10
-12.28764006208591
 20
-3.35802409535495
 30
0.0
 10
-12.86116055876266
 20
-3.410995307562858
 30
0.0
 10
-13.43470263513309
 20
-3.442900561680893
 30
0.0
 10
-13.81715682179554
 20
-3.450015197921211
 30
0.0
 10
-14.00825664683753
 20
-3.450012984739525
 30
0.0
  0
SPLINE
  5
2F8A
330
1F
100
AcDbEntity
  8
AM_0
100
AcDbSpline
210
0.0
220
0.0
230
1.0
 70
     8
 71
     3
 72
    11
 73
     7
 74
     0
 42
0.0000000001
 43
0.0000000001
 40
11.27226913003534
 40
11.27226913003534
 40
11.27226913003534
 40
11.2722691300354
 40
12.28301561507924
 40
13.29510212255852
 40
14.30984805882082
 40
15.18258238371378
 40
15.18258238371378
 40
15.18258238371378
 40
15.18258238371378
 10
-14.00825664683756
 20
-3.450012984739525
 30
0.0
 10
-14.19862981626421
 20
-3.433129875616649
 30
0.0
 10
-14.57901707511924
 20
-3.39225129298889
 30
0.0
 10
-15.14763371451145
 20
-3.309789080535257
 30
0.0
 10
-15.68726093156728
 20
-3.211297009388375
 30
0.0
 10
-16.03626014007684
 20
-3.135583222985669
 30
0.0
 10
-16.19708891310142
 20
-3.098182703792877
 30
0.0
  0
ELLIPSE
  5
2F8B
330
1F
100
AcDbEntity
  8
AM_0
 48
0.5
100
AcDbEllipse
 10
2.353078204780492
 20
4.141924271119543
 30
0.0
 11
-18.49238316806727
 21
18.99832342219706
 31
0.0
210
0.0
220
0.0
230
1.0
 40
0.2536506066341662
 41
1.509474487501397
 42
1.613254524463564
  0
SPLINE
  5
2F8C
330
1F
100
AcDbEntity
  8
AM_0
 48
0.5
100
AcDbSpline
210
0.0
220
0.0
230
1.0
 70
     8
 71
     3
 72
    25
 73
    21
 74
     0
 42
0.0000000001
 43
0.0000000001
 40
6.846175049578289
 40
6.846175049578289
 40
6.846175049578289
 40
6.846175049578289
 40
7.604337694224321
 40
8.711974558287883
 40
9.814980593243754
 40
10.91239053451967
 40
12.0033633515982
 40
13.08720139956839
 40
14.16337181880432
 40
15.23152222380919
 40
16.29148850140128
 40
17.34331105512262
 40
18.38723020264746
 40
19.42369128463655
 40
20.45333379090873
 40
21.47697865721768
 40
22.49561244472435
 40
23.5103574802404
 40
24.52244778960836
 40
25.53320666051913
 40
25.53320666051913
 40
25.53320666051913
 40
25.53320666051913
 10
-3.59007678940454
 20
0.6244596018958033
 30
0.0
 10
-3.721616333575659
 20
0.6850354660933954
 30
0.0
 10
-4.045605258049436
 20
0.8335034037428348
 30
0.0
 10
-4.56252504482166
 20
1.066651511748286
 30
0.0
 10
-5.140937795646533
 20
1.320964376611113
 30
0.0
 10
-5.719379635224323
 20
1.567152015404716
 30
0.0
 10
-6.297855533448423
 20
1.803700728078602
 30
0.0
 10
-6.876371935967941
 20
2.02915112777309
 30
0.0
 10
-7.454934192242424
 20
2.242112884392759
 30
0.0
 10
-8.033544980710406
 20
2.441277193799304
 30
0.0
 10
-8.612211428372464
 20
2.625404592889522
 30
0.0
 10
-9.190932751645142
 20
2.793366005534238
 30
0.0
 10
-9.769713107362285
 20
2.944113354277151
 30
0.0
 10
-10.34855045298138
 20
3.076713687280198
 30
0.0
 10
-10.92744252727122
 20
3.190354259373143
 30
0.0
 10
-11.50638610896952
 20
3.284281808133445
 30
0.0
 10
-12.08537218994658
 20
3.358066452281446
 30
0.0
 10
-12.66439438918818
 20
3.410706013286281
 30
0.0
 10
-13.24344330741925
 20
3.44383089737177
 30
0.0
 10
-13.62957106776995
 20
3.44793587659624
 30
0.0
 10
-13.82250787338269
 20
3.449987015260675
 30
0.0
  0
SPLINE
  5
2F8D
330
1F
100
AcDbEntity
  8
AM_0
100
AcDbSpline
210
0.0
220
0.0
230
1.0
 70
     8
 71
     3
 72
    46
 73
    42
 74
     0
 42
0.0000000001
 43
0.0000000001
 40
0.0
 40
0.0
 40
0.0
 40
0.0
 40
0.5056245176053715
 40
0.759310862862336
 40
1.013969309739036
 40
1.269880374404297
 40
1.527291183660732
 40
1.786406454158005
 40
2.047386241038974
 40
2.310345544571907
 40
2.575337113970003
 40
2.842374715221223
 40
3.111417320030211
 40
3.382376832022752
 40
3.655120036292296
 40
3.929472521611371
 40
4.205224030350333
 40
4.482133246366229
 40
4.759933319229942
 40
5.038338087391601
 40
5.317048131389549
 40
5.595758175387723
 40
5.874162943549383
 40
6.151963016412869
 40
6.428872232428759
 40
6.704623741167955
 40
6.978976226486705
 40
7.251719430756336
 40
7.522680721168327
 40
7.791723325977311
 40
8.058760927228529
 40
8.32375249662655
 40
8.586708135057122
 40
8.84768792193809
 40
9.106803192435362
 40
9.364213819003406
 40
9.620125035580644
 40
9.87478726697307
 40
10.12847352585208
 40
10.38149610319407
 40
10.63418200686337
 40
10.63418200686337
 40
10.63418200686337
 40
10.63418200686337
 10
-1.598672469811384
 20
-3.450015178180757
 30
0.0
 10
-1.981145336514349
 20
-3.442155811492589
 30
0.0
 10
-2.555515827512457
 20
-3.430353174765616
 30
0.0
 10
-3.319281316677078
 20
-3.357686508697467
 30
0.0
 10
-3.892769589224509
 20
-3.284419179110731
 30
0.0
 10
-4.466208842176768
 20
-3.190356373541042
 30
0.0
 10
-5.039597564898548
 20
-3.076748879184434
 30
0.0
 10
-5.612932811779465
 20
-2.944139836648497
 30
0.0
 10
-6.186213622569181
 20
-2.793393109665647
 30
0.0
 10
-6.75943744596555
 20
-2.625434305454852
 30
0.0
 10
-7.332605427705569
 20
-2.441305166806259
 30
0.0
 10
-7.905716026141653
 20
-2.242141098641908
 30
0.0
 10
-8.478778448602154
 20
-2.029179277306407
 30
0.0
 10
-9.051795480284992
 20
-1.803728892673298
 30
0.0
 10
-9.624772390616206
 20
-1.567180185213466
 30
0.0
 10
-10.19771554687674
 20
-1.320992510040601
 30
0.0
 10
-10.77062997036945
 20
-1.066679786486607
 30
0.0
 10
-11.34352123699716
 20
-0.8058061716716171
 30
0.0
 10
-11.91639542104043
 20
-0.5399771898334921
 30
0.0
 10
-12.48925775574238
 20
-0.2708275023491173
 30
0.0
 10
-13.06211527486239
 20
-0.000015178234962
 30
0.0
 10
-13.63497279385659
 20
0.2707971462082641
 30
0.0
 10
-14.20783512893603
 20
0.5399468327058697
 30
0.0
 10
-14.78070931159952
 20
0.8057758181502855
 30
0.0
 10
-15.35360058334349
 20
1.066649419590827
 30
0.0
 10
-15.92651498786564
 20
1.320962192735838
 30
0.0
 10
-16.49945821438067
 20
1.567149684255743
 30
0.0
 10
-17.07243611046897
 20
1.803699585296339
 30
0.0
 10
-17.64545536861955
 20
2.029147921598424
 30
0.0
 10
-18.21851881333556
 20
2.242110834929206
 30
0.0
 10
-18.79162939842801
 20
2.441274962355477
 30
0.0
 10
-19.36479502565908
 20
2.625402409014638
 30
0.0
 10
-19.938015029783
 20
2.793363811405853
 30
0.0
 10
-20.5112935004789
 20
2.944111154205586
 30
0.0
 10
-21.08462841554348
 20
3.076711520761768
 30
0.0
 10
-21.65801755863876
 20
3.190351965768571
 30
0.0
 10
-22.23146047132459
 20
3.284280448445775
 30
0.0
 10
-22.80494578883234
 20
3.358063566383719
 30
0.0
 10
-23.37846658759762
 20
3.410703935899729
 30
0.0
 10
-23.95200820474127
 20
3.44382850231231
 30
0.0
 10
-24.33446254551029
 20
3.447933626308421
 30
0.0
 10
-24.5255624070673
 20
3.449984821820416
 30
0.0
  0
SPLINE
  5
2F8E
330
1F
100
AcDbEntity
  8
AM_0
100
AcDbSpline
210
0.0
220
0.0
230
1.0
 70
     8
 71
     3
 72
    55
 73
    51
 74
     0
 42
0.0000000001
 43
0.0000000001
 40
0.0
 40
0.0
 40
0.0
 40
0.0
 40
1.010743684496582
 40
2.022833576467832
 40
3.037578957496688
 40
4.056212745003489
 40
5.079857003664532
 40
6.109500240690281
 40
7.145961322679372
 40
8.189895241603872
 40
9.241717795325891
 40
10.30168407291828
 40
11.36983447792315
 40
12.44600489715814
 40
13.52984294512926
 40
14.62081576220742
 40
15.7182257034828
 40
16.82123173843959
 40
17.92886860250316
 40
19.0400688939571
 40
20.15368796660465
 40
21.26852814259644
 40
22.38336992938901
 40
23.49698739941135
 40
24.6081876908653
 40
25.71582455492886
 40
26.81883757994213
 40
27.91624752121713
 40
29.00722033829659
 40
30.09105838626677
 40
31.16722880550176
 40
32.23537921050758
 40
33.29534548809967
 40
34.347168041821
 40
35.39108718934584
 40
36.42754827133493
 40
37.45720575381954
 40
38.48085062012849
 40
39.49948440763516
 40
40.51422944315121
 40
41.52631975251916
 40
42.53706336719636
 40
43.54780698187354
 40
44.55989729124051
 40
45.57464232675757
 40
46.59327611426424
 40
47.6169209805722
 40
48.64656348684535
 40
49.68302456883444
 40
50.58557219878025
 40
50.58557219878025
 40
50.58557219878025
 40
50.58557219878025
 10
-3.204200599399662
 20
-3.450012984739693
 30
0.0
 10
-3.395300426962818
 20
-3.44796251176202
 30
0.0
 10
-3.777754607564037
 20
-3.443854444982471
 30
0.0
 10
-4.351296696099635
 20
-3.41073881485555
 30
0.0
 10
-4.924814302286007
 20
-3.358093613721484
 30
0.0
 10
-5.498296413363155
 20
-3.284309362084362
 30
0.0
 10
-6.071737306882422
 20
-3.190385978017344
 30
0.0
 10
-6.645125670137078
 20
-3.076741123841678
 30
0.0
 10
-7.21846342108578
 20
-2.944140351801569
 30
0.0
 10
-7.791745475381333
 20
-2.793395645580381
 30
0.0
 10
-8.364967927928205
 20
-2.625432568529509
 30
0.0
 10
-8.938133635923371
 20
-2.441305407521082
 30
0.0
 10
-9.511244134418914
 20
-2.242141033403389
 30
0.0
 10
-10.08430658397149
 20
-2.029179294996503
 30
0.0
 10
-10.6573236082744
 20
-1.803728887811326
 30
0.0
 10
-11.23030052076436
 20
-1.567180186806455
 30
0.0
 10
-11.80324367583281
 20
-1.320992508562811
 30
0.0
 10
-12.37615810193483
 20
-1.066679790821621
 30
0.0
 10
-12.94904935927019
 20
-0.8058061557270857
 30
0.0
 10
-13.52192357801875
 20
-0.5399772495098786
 30
0.0
 10
-14.09478578283279
 20
-0.2708272790393265
 30
0.0
 10
-14.66764406341399
 20
-0.0000158821054136
 30
0.0
 10
-15.24049977234082
 20
0.2708003896024047
 30
0.0
 10
-15.8133638972641
 20
0.5399461686960282
 30
0.0
 10
-16.38623740879179
 20
0.8057758795621888
 30
0.0
 10
-16.95912968758591
 20
1.06665050846899
 30
0.0
 10
-17.53204649041179
 20
1.320961055860783
 30
0.0
 10
-18.10499054973595
 20
1.567149982618514
 30
0.0
 10
-18.67796754494469
 20
1.803698491806761
 30
0.0
 10
-19.25098454839734
 20
2.029148946403301
 30
0.0
 10
-19.82404699941728
 20
2.242110685121725
 30
0.0
 10
-20.39715751251045
 20
2.441275011616227
 30
0.0
 10
-20.97032316134867
 20
2.625402360635435
 30
0.0
 10
-21.54354315039598
 20
2.793363954574459
 30
0.0
 10
-22.11682165960421
 20
2.944110635175208
 30
0.0
 10
-22.69015919787435
 20
3.076714073650033
 30
0.0
 10
-23.26355165531407
 20
3.190345948005778
 30
0.0
 10
-23.83699444331999
 20
3.284298403345671
 30
0.0
 10
-24.41047672440293
 20
3.357995193276015
 30
0.0
 10
-24.98399472908673
 20
3.410960089538808
 30
0.0
 10
-25.55753633132698
 20
3.44287535474843
 30
0.0
 10
-26.13109053679613
 20
3.453537188809129
 30
0.0
 10
-26.70464474142137
 20
3.442875354731762
 30
0.0
 10
-27.27818634619826
 20
3.410960089605986
 30
0.0
 10
-27.85170434154293
 20
3.357995193023439
 30
0.0
 10
-28.42518665764058
 20
3.284298404295603
 30
0.0
 10
-28.99862651836998
 20
3.190346402468226
 30
0.0
 10
-29.57201671686172
 20
3.076715235474862
 30
0.0
 10
-30.11928584150794
 20
2.950129991764839
 30
0.0
 10
-30.47436028205636
 20
2.857557006344144
 30
0.0
 10
-30.63909412723564
 20
2.812441674566441
 30
0.0
  0
SPLINE
  5
2F8F
330
1F
100
AcDbEntity
  8
AM_0
 48
0.5
100
AcDbSpline
210
0.0
220
0.0
230
1.0
 70
     8
 71
     3
 72
    10
 73
     6
 74
     0
 42
0.0000000001
 43
0.0000000001
 40
0.0
 40
0.0
 40
0.0
 40
0.0
 40
2.69986029516136
 40
4.147722969032201
 40
6.285750005020438
 40
6.285750005020438
 40
6.285750005020438
 40
6.285750005020438
 10
-3.590076789404532
 20
0.6244186253677031
 30
0.0
 10
-2.984703080747213
 20
0.3038897847932011
 30
0.0
 10
-2.385797084266072
 20
-0.188530077327356
 30
0.0
 10
-0.9694648550786691
 20
0.0498590043933876
 30
0.0
 10
-1.236201410397458
 20
0.8527849751995978
 30
0.0
 10
-1.412443883655201
 20
1.342193083860275
 30
0.0
  0
SPLINE
  5
2F90
330
1F
100
AcDbEntity
  8
AM_0
100
AcDbSpline
210
0.0
220
0.0
230
1.0
 70
     8
 71
     3
 72
    23
 73
    19
 74
     0
 42
0.0000000001
 43
0.0000000001
 40
16.03460024169435
 40
16.03460024169435
 40
16.03460024169435
 40
16.03460024169435
 40
16.35212704903564
 40
17.38177054169784
 40
18.41822485651776
 40
19.46214173629503
 40
20.51396345435107
 40
21.57393551351153
 40
22.64208202342361
 40
23.7182574881101
 40
24.80209208578934
 40
25.89306333925047
 40
26.99048218457928
 40
28.09348763352352
 40
29.20111863782268
 40
30.31232390128032
 40
31.42594612798585
 40
32.5407912310448
 40
32.5407912310486
 40
32.5407912310486
 40
32.5407912310486
 10
-33.74962041915737
 20
3.449987015260786
 30
0.0
 10
-33.02315084911659
 20
3.404867789510906
 30
0.0
 10
-32.68718254240025
 20
3.356792243440755
 30
0.0
 10
-32.27720644009373
 20
3.288737272637472
 30
0.0
 10
-31.70749215990542
 20
3.140970024807132
 30
0.0
 10
-31.13830705713815
 20
2.975052035800257
 30
0.0
 10
-30.56961749819024
 20
2.791943554310253
 30
0.0
 10
-30.00140329926136
 20
2.592665414220639
 30
0.0
 10
-29.43363161893266
 20
2.378356773418398
 30
0.0
 10
-28.86626291974236
 20
2.150264854436705
 30
0.0
 10
-28.29926496176319
 20
1.909681328514204
 30
0.0
 10
-27.73259228671289
 20
1.658006095130964
 30
0.0
 10
-27.16619897210799
 20
1.396701999479306
 30
0.0
 10
-26.60004728077745
 20
1.127271430563506
 30
0.0
 10
-26.03408984349685
 20
0.8512810902448141
 30
0.0
 10
-25.46827424062122
 20
0.5703425596284388
 30
0.0
 10
-24.90255439878842
 20
0.2860838014237849
 30
0.0
 10
-24.52550913900132
 20
0.095503847155804
 30
0.0
 10
-24.33688368653955
 20
0.0001602978938322
 30
0.0
  0
LINE
  5
2F91
330
1F
100
AcDbEntity
  8
AM_0
 48
0.5
100
AcDbLine
 10
0.0000000000000121
 20
-0.0000000000000115
 30
0.0
 11
-1.412443883655201
 21
1.342193083860275
 31
0.0
  0
ELLIPSE
  5
2F92
330
1F
100
AcDbEntity
  8
AM_0
 48
0.5
100
AcDbEllipse
 10
-34.86572331293593
 20
-2.300192677987089
 30
0.0
 11
0.0067797033102368
 21
1.149800867965174
 31
0.0
210
0.0
220
0.0
230
0.9999999999999998
 40
0.9865414066260115
 41
1.587861851284487
 42
3.147569123764823
  0
ELLIPSE
  5
2F93
330
1F
100
AcDbEntity
  8
AM_0
 48
0.5
100
AcDbEllipse
 10
-35.14951812538014
 20
-2.335230863106661
 30
0.0
 11
-0.0000000000010099
 21
0.8625000000000087
 31
0.0
210
0.0
220
0.0
230
1.0
 40
0.9863899375437673
 41
-0.3953601559028395
 42
1.545164924683472
  0
SPLINE
  5
2F94
330
1F
100
AcDbEntity
  8
AM_0
 48
0.5
100
AcDbSpline
210
0.0
220
0.0
230
1.0
 70
     8
 71
     3
 72
    26
 73
    22
 74
     0
 42
0.0000000001
 43
0.0000000001
 40
0.0
 40
0.0
 40
0.0
 40
0.0
 40
0.2526859211241313
 40
0.5057083941171959
 40
0.7593947393741639
 40
1.01405318625086
 40
1.26996425091637
 40
1.527375060172565
 40
1.786490330669834
 40
2.047470117551047
 40
2.310425755981314
 40
2.575417325379407
 40
2.842456731169063
 40
3.111495753801943
 40
3.382458822635121
 40
3.655202026904655
 40
3.929554512223505
 40
4.205306020962704
 40
4.482215236978595
 40
4.76001530984208
 40
5.029821427366006
 40
5.029821427366006
 40
5.029821427366006
 40
5.029821427366006
 10
-25.12721077871406
 20
-3.450192677987582
 30
0.0
 10
-25.31831060630024
 20
-3.448140011658383
 30
0.0
 10
-25.70076478694765
 20
-3.444031945057832
 30
0.0
 10
-26.27430687513748
 20
-3.410916313585828
 30
0.0
 10
-26.84782448264304
 20
-3.358271117584255
 30
0.0
 10
-27.42130658876154
 20
-3.284486846654391
 30
0.0
 10
-27.99474750092736
 20
-3.190563535135824
 30
0.0
 10
-28.56813579397313
 20
-3.076918407797664
 30
0.0
 10
-29.14147108644899
 20
-2.944319295214769
 30
0.0
 10
-29.71474946822096
 20
-2.793571537614741
 30
0.0
 10
-30.28796958400341
 20
-2.625610499646324
 30
0.0
 10
-30.86113615141934
 20
-2.441481584780337
 30
0.0
 10
-31.43424679545373
 20
-2.242321729714997
 30
0.0
 10
-32.00730800961142
 20
-2.029352630387731
 30
0.0
 10
-32.58032745611594
 20
-1.803908726636284
 30
0.0
 10
-33.15330637304696
 20
-1.567357619278485
 30
0.0
 10
-33.72624903166121
 20
-1.321168946196852
 30
0.0
 10
-34.29916595337651
 20
-1.066861638351838
 30
0.0
 10
-34.87204767010479
 20
-0.8059672389988174
 30
0.0
 10
-35.4390446469477
 20
-0.5429591500149574
 30
0.0
 10
-35.81470147675114
 20
-0.3662684709423167
 30
0.0
 10
-36.00000000000004
 20
-0.2792106032495617
 30
0.0
  0
LINE
  5
2F95
330
1F
100
AcDbEntity
  8
AM_0
 48
0.5
100
AcDbLine
 10
-28.17453805471121
 20
1.643804142556362
 30
0.0
 11
-36.00000000000001
 21
-0.2792106032495657
 31
0.0
  0
LINE
  5
2F96
330
1F
100
AcDbEntity
  8
AM_0
100
AcDbLine
 10
-33.74962041915736
 20
3.449987015260786
 30
0.0
 11
-35.91337496939372
 21
3.449987015260826
 31
0.0
  0
VIEWPORT
  5
110
330
101
100
AcDbEntity
 67
     1
  8
0
100
AcDbViewport
 10
420.5
 20
297.0
 30
0.0
 40
948.9782706766916
 41
628.452
 68
     1
 69
     1
1001
ACAD
1000
MVIEW
1002
{
1070
    16
1010
0.0
1020
0.0
1030
0.0
1010
0.0
1020
0.0
1030
1.0
1040
0.0
1040
628.452
1040
420.5
1040
297.0
1040
50.0
1040
0.0
1040
0.0
1070
     0
1070
   100
1070
     1
1070
     1
1070
     0
1070
     0
1070
     0
1070
     0
1040
0.0
1040
0.0
1040
0.0
1040
10.0
1040
10.0
1040
10.0
1040
10.0
1070
     0
1002
{
1002
}
1002
}
  0
ENDSEC
  0
SECTION
  2
OBJECTS
  0
DICTIONARY
  5
C
330
0
100
AcDbDictionary
  3
ACAD_GROUP
350
D
  3
ACAD_LAYOUT
350
1A
  3
ACAD_MLINESTYLE
350
17
  3
ACAD_PLOTSETTINGS
350
19
  3
ACAD_PLOTSTYLENAME
350
E
  3
ACDBVARIABLEDICTIONARY
350
34
  3
ACMDICTIONARY
350
43
  3
AMG
350
2B
  3
AMGSNAPSETTINGS
350
6E
  3
DWGPROPS
350
3013
  3
ACDBHEADERROUNDTRIPXREC
350
301F
  0
DICTIONARY
  5
74
330
1F
100
AcDbDictionary
280
     1
  3
ACAD_INDEX
360
3015
  3
ACAD_LAYOUTSELFREF
360
3042
  0
DICTIONARY
  5
3047
330
101
100
AcDbDictionary
280
     1
  3
ACAD_LAYOUTSELFREF
360
3048
  0
DICTIONARY
  5
D
102
{ACAD_REACTORS
330
C
102
}
330
C
100
AcDbDictionary
  0
DICTIONARY
  5
1A
102
{ACAD_REACTORS
330
C
102
}
330
C
100
AcDbDictionary
  0
DICTIONARY
  5
17
102
{ACAD_REACTORS
330
C
102
}
330
C
100
AcDbDictionary
  3
STANDARD
350
18
  0
DICTIONARY
  5
19
102
{ACAD_REACTORS
330
C
102
}
330
C
100
AcDbDictionary
  0
ACDBDICTIONARYWDFLT
  5
E
102
{ACAD_REACTORS
330
C
102
}
330
C
100
AcDbDictionary
281
     1
  3
Normal
350
F
100
AcDbDictionaryWithDefault
340
F
  0
DICTIONARY
  5
34
102
{ACAD_REACTORS
330
C
102
}
330
C
100
AcDbDictionary
  3
INDEXCTL
350
35
  3
SORTENTS
350
B5E
  0
DICTIONARY
  5
43
102
{ACAD_REACTORS
330
C
102
}
330
C
100
AcDbDictionary
  3
ACMSTDDICTIONARY
350
260
  0
DICTIONARY
  5
2B
102
{ACAD_REACTORS
330
C
102
}
330
C
100
AcDbDictionary
  3
ACMGSETTINGS
350
2C
  0
DICTIONARY
  5
6E
102
{ACAD_REACTORS
330
C
102
}
330
C
100
AcDbDictionary
  0
XRECORD
  5
3013
102
{ACAD_REACTORS
330
C
102
}
330
C
100
AcDbXrecord
  1
DWGPROPS COOKIE
  2

  3

  4

  6

  7

  8

  9

300
AmdtFileType=82
301
=
302
=
303
=
304
=
305
=
306
=
307
=
308
=
309
=
 40
0.0802774189814815
 41
2452800.443498622
 42
2452946.608699722
  1

 90
        1
  0
DICTIONARY
  5
301F
102
{ACAD_REACTORS
330
C
102
}
330
C
100
AcDbDictionary
  3
TSTACKALIGN
350
3020
  3
TSTACKSIZE
350
3021
  3
HYPERLINKBASE
350
3022
  3
STYLESHEET
350
3023
  3
LAYOUTDICT
350
3024
  3
PLOTSETDICT
350
3025
  3
PLOTSTYLNAMDICT
350
3026
  3
LWETCUNION
350
3027
  3
INSUNITS
350
3028
  3
CEPSNTYPE
350
3029
  3
FINGERPRINTGUID
350
302A
  3
VERSIONGUID
350
302B
  3
PSVPSCALE
350
302C
  3
DIMSTYLEDATA
350
302D
  3
PUCSORTHOREF
350
302E
  3
PUCSORTHOVIEW
350
302F
  3
PUCSBASE
350
3030
  3
PUCSORGTOP
350
3031
  3
PUCSORGBOTTOM
350
3032
  3
PUCSORGLEFT
350
3033
  3
PUCSORGRIGHT
350
3034
  3
PUCSORGFRONT
350
3035
  3
PUCSORGBACK
350
3036
  3
UCSORTHOREF
350
3037
  3
UCSORTHOVIEW
350
3038
  3
UCSBASE
350
3039
  3
UCSORGTOP
350
303A
  3
UCSORGBOTTOM
350
303B
  3
UCSORGLEFT
350
303C
  3
UCSORGRIGHT
350
303D
  3
UCSORGFRONT
350
303E
  3
UCSORGBACK
350
303F
  0
DICTIONARY
  5
3015
102
{ACAD_REACTORS
330
74
102
}
330
74
100
AcDbDictionary
  3
*A1
350
3016
  0
XRECORD
  5
3042
102
{ACAD_REACTORS
330
74
102
}
330
74
100
AcDbXrecord
340
1F
  0
XRECORD
  5
3048
102
{ACAD_REACTORS
330
3047
102
}
330
3047
100
AcDbXrecord
340
101
  0
MLINESTYLE
  5
18
102
{ACAD_REACTORS
330
17
102
}
330
17
100
AcDbMlineStyle
  2
STANDARD
 70
     0
  3

 62
   256
 51
90.0
 52
90.0
 71
     2
 49
0.5
 62
   256
  6
BYLAYER
 49
-0.5
 62
   256
  6
BYLAYER
  0
ACDBPLACEHOLDER
  5
F
102
{ACAD_REACTORS
330
E
102
}
330
E
100
AcDbPlaceHolder
280
     0
  0
DICTIONARYVAR
  5
35
102
{ACAD_REACTORS
330
34
102
}
330
34
100
DictionaryVariables
280
     0
  1
1
  0
DICTIONARYVAR
  5
B5E
102
{ACAD_REACTORS
330
34
102
}
330
34
100
DictionaryVariables
280
     0
  1
96
  0
DICTIONARY
  5
260
102
{ACAD_REACTORS
330
43
102
}
330
43
100
AcDbDictionary
  0
DICTIONARY
  5
2C
102
{ACAD_REACTORS
330
2B
102
}
330
2B
100
AcDbDictionary
  3
DWGSETTINGS
350
2D
  0
XRECORD
  5
3020
102
{ACAD_REACTORS
330
301F
102
}
330
301F
100
AcDbXrecord
 90
        1
  0
XRECORD
  5
3021
102
{ACAD_REACTORS
330
301F
102
}
330
301F
100
AcDbXrecord
 90
       70
  0
XRECORD
  5
3022
102
{ACAD_REACTORS
330
301F
102
}
330
301F
100
AcDbXrecord
  1

  0
XRECORD
  5
3023
102
{ACAD_REACTORS
330
301F
102
}
330
301F
100
AcDbXrecord
  1
ASAMI.ctb
  0
XRECORD
  5
3024
102
{ACAD_REACTORS
330
301F
102
}
330
301F
100
AcDbXrecord
340
1A
  0
XRECORD
  5
3025
102
{ACAD_REACTORS
330
301F
102
}
330
301F
100
AcDbXrecord
340
19
  0
XRECORD
  5
3026
102
{ACAD_REACTORS
330
301F
102
}
330
301F
100
AcDbXrecord
340
E
  0
XRECORD
  5
3027
102
{ACAD_REACTORS
330
301F
102
}
330
301F
100
AcDbXrecord
 90
    10781
  0
XRECORD
  5
3028
102
{ACAD_REACTORS
330
301F
102
}
330
301F
100
AcDbXrecord
 90
        4
  0
XRECORD
  5
3029
102
{ACAD_REACTORS
330
301F
102
}
330
301F
100
AcDbXrecord
 90
        0
  0
XRECORD
  5
302A
102
{ACAD_REACTORS
330
301F
102
}
330
301F
100
AcDbXrecord
  1
{AFB28963-8C59-40AE-9337-C84526B81ACE}
  0
XRECORD
  5
302B
102
{ACAD_REACTORS
330
301F
102
}
330
301F
100
AcDbXrecord
  1
{51A7D3C9-7068-4665-8E46-0536722F5AA3}
  0
XRECORD
  5
302C
102
{ACAD_REACTORS
330
301F
102
}
330
301F
100
AcDbXrecord
 40
0.0
  0
XRECORD
  5
302D
102
{ACAD_REACTORS
330
301F
102
}
330
301F
100
AcDbXrecord
1000
DSTYLE
1002
{
1070
    79
 70
     2
1070
   341
340
59
1070
   342
340
59
1070
   371
 70
    -1
1070
   372
 70
    -1
1002
}
  0
XRECORD
  5
302E
102
{ACAD_REACTORS
330
301F
102
}
330
301F
100
AcDbXrecord
340
0
  0
XRECORD
  5
302F
102
{ACAD_REACTORS
330
301F
102
}
330
301F
100
AcDbXrecord
 70
     0
  0
XRECORD
  5
3030
102
{ACAD_REACTORS
330
301F
102
}
330
301F
100
AcDbXrecord
340
0
  0
XRECORD
  5
3031
102
{ACAD_REACTORS
330
301F
102
}
330
301F
100
AcDbXrecord
 10
0.0
 20
0.0
 30
0.0
  0
XRECORD
  5
3032
102
{ACAD_REACTORS
330
301F
102
}
330
301F
100
AcDbXrecord
 10
0.0
 20
0.0
 30
0.0
  0
XRECORD
  5
3033
102
{ACAD_REACTORS
330
301F
102
}
330
301F
100
AcDbXrecord
 10
0.0
 20
0.0
 30
0.0
  0
XRECORD
  5
3034
102
{ACAD_REACTORS
330
301F
102
}
330
301F
100
AcDbXrecord
 10
0.0
 20
0.0
 30
0.0
  0
XRECORD
  5
3035
102
{ACAD_REACTORS
330
301F
102
}
330
301F
100
AcDbXrecord
 10
0.0
 20
0.0
 30
0.0
  0
XRECORD
  5
3036
102
{ACAD_REACTORS
330
301F
102
}
330
301F
100
AcDbXrecord
 10
0.0
 20
0.0
 30
0.0
  0
XRECORD
  5
3037
102
{ACAD_REACTORS
330
301F
102
}
330
301F
100
AcDbXrecord
340
0
  0
XRECORD
  5
3038
102
{ACAD_REACTORS
330
301F
102
}
330
301F
100
AcDbXrecord
 70
     0
  0
XRECORD
  5
3039
102
{ACAD_REACTORS
330
301F
102
}
330
301F
100
AcDbXrecord
340
0
  0
XRECORD
  5
303A
102
{ACAD_REACTORS
330
301F
102
}
330
301F
100
AcDbXrecord
 10
0.0
 20
0.0
 30
0.0
  0
XRECORD
  5
303B
102
{ACAD_REACTORS
330
301F
102
}
330
301F
100
AcDbXrecord
 10
0.0
 20
0.0
 30
0.0
  0
XRECORD
  5
303C
102
{ACAD_REACTORS
330
301F
102
}
330
301F
100
AcDbXrecord
 10
0.0
 20
0.0
 30
0.0
  0
XRECORD
  5
303D
102
{ACAD_REACTORS
330
301F
102
}
330
301F
100
AcDbXrecord
 10
0.0
 20
0.0
 30
0.0
  0
XRECORD
  5
303E
102
{ACAD_REACTORS
330
301F
102
}
330
301F
100
AcDbXrecord
 10
0.0
 20
0.0
 30
0.0
  0
XRECORD
  5
303F
102
{ACAD_REACTORS
330
301F
102
}
330
301F
100
AcDbXrecord
 10
0.0
 20
0.0
 30
0.0
  0
LAYER_INDEX
  5
3016
102
{ACAD_REACTORS
330
3015
102
}
330
3015
100
AcDbIndex
 40
2453151.569336099
100
AcDbLayerIndex
  8
0
360
3017
 90
        0
  8
AM_0
360
3018
 90
       46
  8
AM_7
360
3019
 90
        1
  8
AM_11
360
301A
 90
       17
  8
AM_5
360
301B
 90
        5
  8
Defpoints
360
301C
 90
        0
  8
AM_6
360
301D
 90
        1
  0
XRECORD
  5
2D
102
{ACAD_REACTORS
330
2C
102
}
330
2C
100
AcDbXrecord
  1
VERSION
140
15.0
  1
PRODUCT
  2
AutoCAD Mechanical 2000
  0
IDBUFFER
  5
3017
330
0
100
AcDbIdBuffer
  0
IDBUFFER
  5
3018
330
0
100
AcDbIdBuffer
330
2E5B
330
2E5C
330
2F77
330
2F78
330
2F7A
330
2F7C
330
2F7D
330
2F7F
330
2F81
330
2F82
330
2F83
330
2F84
330
2F85
330
2F86
330
2F87
330
2F88
330
2F89
330
2F8A
330
2F8B
330
2F8C
330
2F8D
330
2F8E
330
2F8F
330
2F90
330
2F91
330
2F92
330
2F93
330
2F94
330
2F95
330
2F96
330
C1D
330
1D9D
330
1D9E
330
1DA2
330
1DA4
330
1DA5
330
1F71
330
1F72
330
2398
330
23D5
330
2500
330
2503
330
2567
330
2568
330
2569
330
2E35
  0
IDBUFFER
  5
3019
330
0
100
AcDbIdBuffer
330
1D14
  0
IDBUFFER
  5
301A
330
0
100
AcDbIdBuffer
330
2F80
330
144A
330
144B
330
1F77
330
1F78
330
1F79
330
1F7A
330
231A
330
2324
330
2325
330
2327
330
2328
330
232D
330
232E
330
2F79
330
2F7B
330
2F7E
  0
IDBUFFER
  5
301B
330
0
100
AcDbIdBuffer
330
CC6
330
DF5
330
1F93
330
2577
330
2CA4
  0
IDBUFFER
  5
301C
330
0
100
AcDbIdBuffer
  0
IDBUFFER
  5
301D
330
0
100
AcDbIdBuffer
330
19BD
  0
ENDSEC
  0
EOF
