  0
SECTION
  2
HEADER
  9
$ACADVER
  1
AC1014
  9
$ACADMAINTVER
 70
     9
  9
$DWGCODEPAGE
  3
ANSI_932
  9
$INSBASE
 10
0.0
 20
0.0
 30
0.0
  9
$EXTMIN
 10
-100.400001
 20
-26.75001206798985
 30
-0.00000001
  9
$EXTMAX
 10
14.56429417212128
 20
14.155829656515
 30
0.00000001
  9
$LIMMIN
 10
-126.9722917054209
 20
-47.01556391205523
  9
$LIMMAX
 10
22.8581825236518
 20
32.61046322322207
  9
$ORTHOMODE
 70
     0
  9
$REGENMODE
 70
     1
  9
$FILLMODE
 70
     1
  9
$QTEXTMODE
 70
     0
  9
$MIRRTEXT
 70
     0
  9
$DRAGMODE
 70
     2
  9
$LTSCALE
 40
1.0
  9
$OSMODE
 70
    55
  9
$ATTMODE
 70
     1
  9
$TEXTSIZE
 40
2.5
  9
$TRACEWID
 40
1.0
  9
$TEXTSTYLE
  7
STANDARD
  9
$CLAYER
  8
AM_0
  9
$CELTYPE
  6
BYLAYER
  9
$CECOLOR
 62
   256
  9
$CELTSCALE
 40
1.0
  9
$DELOBJ
 70
     1
  9
$DISPSILH
 70
     0
  9
$DIMSCALE
 40
0.5
  9
$DIMASZ
 40
2.5
  9
$DIMEXO
 40
1.0
  9
$DIMDLI
 40
12.0
  9
$DIMRND
 40
0.0
  9
$DIMDLE
 40
0.0
  9
$DIMEXE
 40
1.0
  9
$DIMTP
 40
0.1
  9
$DIMTM
 40
0.1
  9
$DIMTXT
 40
3.2
  9
$DIMCEN
 40
0.0
  9
$DIMTSZ
 40
0.0
  9
$DIMTOL
 70
     0
  9
$DIMLIM
 70
     0
  9
$DIMTIH
 70
     0
  9
$DIMTOH
 70
     0
  9
$DIMSE1
 70
     0
  9
$DIMSE2
 70
     0
  9
$DIMTAD
 70
     3
  9
$DIMZIN
 70
     8
  9
$DIMBLK
  1
OPEN30
  9
$DIMASO
 70
     1
  9
$DIMSHO
 70
     1
  9
$DIMPOST
  1

  9
$DIMAPOST
  1
"
  9
$DIMALT
 70
     0
  9
$DIMALTD
 70
     2
  9
$DIMALTF
 40
0.0393701
  9
$DIMLFAC
 40
1.0
  9
$DIMTOFL
 70
     1
  9
$DIMTVP
 40
0.0
  9
$DIMTIX
 70
     0
  9
$DIMSOXD
 70
     0
  9
$DIMSAH
 70
     0
  9
$DIMBLK1
  1

  9
$DIMBLK2
  1

  9
$DIMSTYLE
  2
AM_JIS
  9
$DIMCLRD
 70
   256
  9
$DIMCLRE
 70
   256
  9
$DIMCLRT
 70
     2
  9
$DIMTFAC
 40
0.71
  9
$DIMGAP
 40
1.5
  9
$DIMJUST
 70
     0
  9
$DIMSD1
 70
     0
  9
$DIMSD2
 70
     0
  9
$DIMTOLJ
 70
     0
  9
$DIMTZIN
 70
     0
  9
$DIMALTZ
 70
     0
  9
$DIMALTTZ
 70
     0
  9
$DIMFIT
 70
     3
  9
$DIMUPT
 70
     0
  9
$DIMUNIT
 70
     2
  9
$DIMDEC
 70
     3
  9
$DIMTDEC
 70
     3
  9
$DIMALTU
 70
     2
  9
$DIMALTTD
 70
     2
  9
$DIMTXSTY
  7
ASAMI
  9
$DIMAUNIT
 70
     0
  9
$LUNITS
 70
     2
  9
$LUPREC
 70
     2
  9
$SKETCHINC
 40
1.0
  9
$FILLETRAD
 40
2.5
  9
$AUNITS
 70
     0
  9
$AUPREC
 70
     0
  9
$MENU
  1
.
  9
$ELEVATION
 40
0.0
  9
$PELEVATION
 40
0.0
  9
$THICKNESS
 40
0.0
  9
$LIMCHECK
 70
     0
  9
$BLIPMODE
 70
     0
  9
$CHAMFERA
 40
0.5
  9
$CHAMFERB
 40
0.5
  9
$CHAMFERC
 40
20.0
  9
$CHAMFERD
 40
0.0
  9
$SKPOLY
 70
     0
  9
$TDCREATE
 40
2452800.443498622
  9
$TDUPDATE
 40
2453151.569447326
  9
$TDINDWG
 40
0.0812955787
  9
$TDUSRTIMER
 40
0.0812955787
  9
$USRTIMER
 70
     1
  9
$ANGBASE
 50
0.0
  9
$ANGDIR
 70
     0
  9
$PDMODE
 70
     3
  9
$PDSIZE
 40
0.0
  9
$PLINEWID
 40
0.0
  9
$COORDS
 70
     1
  9
$SPLFRAME
 70
     0
  9
$SPLINETYPE
 70
     6
  9
$SPLINESEGS
 70
     8
  9
$ATTDIA
 70
     1
  9
$ATTREQ
 70
     1
  9
$HANDLING
 70
 12289
  9
$HANDSEED
  5
30DB
  9
$SURFTAB1
 70
     6
  9
$SURFTAB2
 70
     6
  9
$SURFTYPE
 70
     6
  9
$SURFU
 70
     6
  9
$SURFV
 70
     6
  9
$UCSNAME
  2

  9
$UCSORG
 10
0.0
 20
0.0
 30
0.0
  9
$UCSXDIR
 10
1.0
 20
0.000000000000002
 30
0.0
  9
$UCSYDIR
 10
-0.000000000000002
 20
1.0
 30
0.0
  9
$PUCSNAME
  2

  9
$PUCSORG
 10
0.0
 20
0.0
 30
0.0
  9
$PUCSXDIR
 10
1.0
 20
0.0
 30
0.0
  9
$PUCSYDIR
 10
0.0
 20
1.0
 30
0.0
  9
$USERI1
 70
     0
  9
$USERI2
 70
     0
  9
$USERI3
 70
     0
  9
$USERI4
 70
     0
  9
$USERI5
 70
     0
  9
$USERR1
 40
0.0
  9
$USERR2
 40
0.0
  9
$USERR3
 40
0.0
  9
$USERR4
 40
0.0
  9
$USERR5
 40
0.0
  9
$WORLDVIEW
 70
     1
  9
$SHADEDGE
 70
     3
  9
$SHADEDIF
 70
    70
  9
$TILEMODE
 70
     1
  9
$MAXACTVP
 70
    64
  9
$PINSBASE
 10
0.0
 20
0.0
 30
0.0
  9
$PLIMCHECK
 70
     0
  9
$PEXTMIN
 10
1.000000000000000E+20
 20
1.000000000000000E+20
 30
1.000000000000000E+20
  9
$PEXTMAX
 10
-1.000000000000000E+20
 20
-1.000000000000000E+20
 30
-1.000000000000000E+20
  9
$PLIMMIN
 10
0.0
 20
0.0
  9
$PLIMMAX
 10
841.0
 20
594.0
  9
$UNITMODE
 70
     0
  9
$VISRETAIN
 70
     1
  9
$PLINEGEN
 70
     0
  9
$PSLTSCALE
 70
     0
  9
$TREEDEPTH
 70
  3020
  9
$PICKSTYLE
 70
     0
  9
$CMLSTYLE
  2
STANDARD
  9
$CMLJUST
 70
     0
  9
$CMLSCALE
 40
20.0
  9
$PROXYGRAPHICS
 70
     1
  9
$MEASUREMENT
 70
     1
  0
ENDSEC
  0
SECTION
  2
CLASSES
  0
CLASS
  1
ACDBDICTIONARYWDFLT
  2
AcDbDictionaryWithDefault
  3
AutoCAD 2000
 90
        0
280
     0
281
     0
  0
CLASS
  1
ACDBPLACEHOLDER
  2
AcDbPlaceHolder
  3
AutoCAD 2000
 90
        0
280
     0
281
     0
  0
CLASS
  1
LAYOUT
  2
AcDbLayout
  3
AutoCAD 2000
 90
        0
280
     0
281
     0
  0
CLASS
  1
AMGSETTINGSOBJ
  2
AmgSettingsObj
  3
"AcadM|Product Description: AutoCAD Mechanical 2000|Company: Autodesk"
 90
        0
280
     0
281
     0
  0
CLASS
  1
ACME_DOCUMENT
  2
AcMeDbDoc
  3
AcMeServices
 90
        0
280
     0
281
     0
  0
CLASS
  1
ACMESCOPE
  2
AcMeScope
  3
AcMeServices
 90
        0
280
     0
281
     0
  0
CLASS
  1
ACMECOMMANDHISTORY
  2
AcMeCommandHistory
  3
AcMeServices
 90
        0
280
     0
281
     0
  0
CLASS
  1
DICTIONARYVAR
  2
AcDbDictionaryVar
  3
AutoCAD 2000
 90
        0
280
     0
281
     0
  0
CLASS
  1
ACIMSYSVARMAN
  2
AcImSysVarManager
  3
AcMeServices
 90
        0
280
     0
281
     0
  0
CLASS
  1
ACIMREALSYSVAR
  2
AcImRealSysVar
  3
AcMeServices
 90
        0
280
     0
281
     0
  0
CLASS
  1
ACIMINTSYSVAR
  2
AcImIntSysVar
  3
AcMeServices
 90
        0
280
     0
281
     0
  0
CLASS
  1
ACMEDRAWINGMAN
  2
AcMeDrawingMan
  3
AcMeServices
 90
        0
280
     0
281
     0
  0
CLASS
  1
ACMEVIEW
  2
AcMeView
  3
AcMeServices
 90
        0
280
     0
281
     0
  0
CLASS
  1
ACDBENTITYCACHE
  2
AcMeEntityCache
  3
AcMeServices
 90
        0
280
     0
281
     0
  0
CLASS
  1
GSMANAGER
  2
AcMeGSManager
  3
AcMeServices
 90
        0
280
     0
281
     0
  0
CLASS
  1
AmdtInternalReactor
  2
AmdtInternalReactor
  3
AcMeServices
 90
        0
280
     0
281
     0
  0
CLASS
  1
ACMESTATEMGR
  2
AcMeStateMgr
  3
AcMeServices
 90
        0
280
     0
281
     0
  0
CLASS
  1
ACME_DATABASE
  2
AcMeDbDatabase
  3
AcMeServices
 90
        0
280
     0
281
     0
  0
CLASS
  1
ACRFINSADJUSTERMGR
  2
AcRfInsAdjusterMgr
  3
AcMeServices
 90
        0
280
     0
281
     0
  0
CLASS
  1
ACMDATADICTIONARY
  2
AcmDataDictionary
  3
"AcmSymBB|Product Description: AutoCAD Mechanical 2000|Company: Autodesk"
 90
        0
280
     0
281
     0
  0
CLASS
  1
ACMDATAENTRYBLOCK
  2
AcmDataEntryBlock
  3
"AcmSymBB|Product Description: AutoCAD Mechanical 2000|Company: Autodesk"
 90
        0
280
     0
281
     0
  0
CLASS
  1
AMGOBJPROPCFG
  2
AmgObjPropCfg
  3
"AmgLay|Product Description: AutoCAD Mechanical 2000|Company: Autodesk"
 90
        1
280
     0
281
     0
  0
CLASS
  1
ACAMGFILTERDAT
  2
AcAmgFilterDat
  3
"AcadM|Product Description: AutoCAD Mechanical 2000|Company: Autodesk"
 90
        0
280
     0
281
     0
  0
CLASS
  1
LAYER_INDEX
  2
AcDbLayerIndex
  3
AutoCAD 2000
 90
        0
280
     0
281
     0
  0
CLASS
  1
IDBUFFER
  2
AcDbIdBuffer
  3
AutoCAD 2000
 90
        0
280
     0
281
     0
  0
CLASS
  1
ACIMSTRSYSVAR
  2
AcImStrSysVar
  3
AcMeServices
 90
        0
280
     0
281
     0
  0
CLASS
  1
ACMSTANDARDJIS
  2
AcmStandardJIS
  3
"AcmSymBB|Product Description: AutoCAD Mechanical 2000|Company: Autodesk"
 90
        0
280
     0
281
     0
  0
CLASS
  1
ACMSURFSTANDARDJIS
  2
AcmSurfTextStdJIS
  3
"AcmSymBB|Product Description: AutoCAD Mechanical 2000|Company: Autodesk"
 90
        0
280
     0
281
     0
  0
CLASS
  1
ACMFCFSTANDARDJIS
  2
AcmFCFStdJIS
  3
"AcmSymBB|Product Description: AutoCAD Mechanical 2000|Company: Autodesk"
 90
        0
280
     0
281
     0
  0
CLASS
  1
ACMWELDSTANDARDJIS
  2
AcmWeldingStdJIS
  3
"AcmSymBB|Product Description: AutoCAD Mechanical 2000|Company: Autodesk"
 90
        0
280
     0
281
     0
  0
CLASS
  1
ACMIDSTANDARDJIS
  2
AcmIdStdJIS
  3
"AcmSymBB|Product Description: AutoCAD Mechanical 2000|Company: Autodesk"
 90
        0
280
     0
281
     0
  0
CLASS
  1
ACMDATUMSTANDARDJIS
  2
AcmDatumStdJIS
  3
"AcmSymBB|Product Description: AutoCAD Mechanical 2000|Company: Autodesk"
 90
        0
280
     0
281
     0
  0
CLASS
  1
ACMBOMSTANDARDJIS
  2
AcmBOMStdJIS
  3
"AcmSymBB|Product Description: AutoCAD Mechanical 2000|Company: Autodesk"
 90
        0
280
     0
281
     0
  0
CLASS
  1
ACMSTANDARDANSI
  2
AcmStandardANSI
  3
"AcmSymBB|Product Description: AutoCAD Mechanical 2000|Company: Autodesk"
 90
        0
280
     0
281
     0
  0
CLASS
  1
ACMSURFSTANDARDANSI
  2
AcmSurfTextStdANSI
  3
"AcmSymBB|Product Description: AutoCAD Mechanical 2000|Company: Autodesk"
 90
        0
280
     0
281
     0
  0
CLASS
  1
ACMFCFSTANDARDANSI
  2
AcmFCFStdANSI
  3
"AcmSymBB|Product Description: AutoCAD Mechanical 2000|Company: Autodesk"
 90
        0
280
     0
281
     0
  0
CLASS
  1
ACMWELDSTANDARDANSI
  2
AcmWeldingStdANSI
  3
"AcmSymBB|Product Description: AutoCAD Mechanical 2000|Company: Autodesk"
 90
        0
280
     0
281
     0
  0
CLASS
  1
ACMIDSTANDARDANSI
  2
AcmIdStdANSI
  3
"AcmSymBB|Product Description: AutoCAD Mechanical 2000|Company: Autodesk"
 90
        0
280
     0
281
     0
  0
CLASS
  1
ACMDATUMSTANDARDANSI
  2
AcmDatumStdANSI
  3
"AcmSymBB|Product Description: AutoCAD Mechanical 2000|Company: Autodesk"
 90
        0
280
     0
281
     0
  0
CLASS
  1
ACMBOMSTANDARDANSI
  2
AcmBOMStdANSI
  3
"AcmSymBB|Product Description: AutoCAD Mechanical 2000|Company: Autodesk"
 90
        0
280
     0
281
     0
  0
CLASS
  1
ACMSTANDARDBSI
  2
AcmStandardBSI
  3
"AcmSymBB|Product Description: AutoCAD Mechanical 2000|Company: Autodesk"
 90
        0
280
     0
281
     0
  0
CLASS
  1
ACMSURFSTANDARDBSI
  2
AcmSurfTextStdBSI
  3
"AcmSymBB|Product Description: AutoCAD Mechanical 2000|Company: Autodesk"
 90
        0
280
     0
281
     0
  0
CLASS
  1
ACMFCFSTANDARDBSI
  2
AcmFCFStdBSI
  3
"AcmSymBB|Product Description: AutoCAD Mechanical 2000|Company: Autodesk"
 90
        0
280
     0
281
     0
  0
CLASS
  1
ACMWELDSTANDARDBSI
  2
AcmWeldingStdBSI
  3
"AcmSymBB|Product Description: AutoCAD Mechanical 2000|Company: Autodesk"
 90
        0
280
     0
281
     0
  0
CLASS
  1
ACMIDSTANDARDBSI
  2
AcmIdStdBSI
  3
"AcmSymBB|Product Description: AutoCAD Mechanical 2000|Company: Autodesk"
 90
        0
280
     0
281
     0
  0
CLASS
  1
ACMDATUMSTANDARDBSI
  2
AcmDatumStdBSI
  3
"AcmSymBB|Product Description: AutoCAD Mechanical 2000|Company: Autodesk"
 90
        0
280
     0
281
     0
  0
CLASS
  1
ACMBOMSTANDARDBSI
  2
AcmBOMStdBSI
  3
"AcmSymBB|Product Description: AutoCAD Mechanical 2000|Company: Autodesk"
 90
        0
280
     0
281
     0
  0
CLASS
  1
LONG_TRANSACTION
  2
AcDbLongTransaction
  3
AutoCAD 2000
 90
        0
280
     0
281
     0
  0
CLASS
  1
LWPOLYLINE
  2
AcDbPolyline
  3
AutoCAD 2000
 90
        0
280
     0
281
     1
  0
CLASS
  1
HATCH
  2
AcDbHatch
  3
AutoCAD 2000
 90
        0
280
     0
281
     1
  0
CLASS
  1
XRECORD
  2
AcDbXrecord
  3
AutoCAD 2000
 90
        0
280
     0
281
     0
  0
ENDSEC
  0
SECTION
  2
TABLES
  0
TABLE
  2
VPORT
  5
8
330
0
100
AcDbSymbolTable
 70
     3
  0
VPORT
  5
30A5
330
8
100
AcDbSymbolTableRecord
100
AcDbViewportTableRecord
  2
*ACTIVE
 70
     0
 10
0.0
 20
0.0
 11
1.0
 21
1.0
 12
-40.78720038490659
 22
-6.297377577772138
 13
0.0
 23
0.0
 14
2.5
 24
2.5
 15
10.0
 25
10.0
 16
0.0
 26
0.0
 36
1.0
 17
0.0
 27
0.0
 37
0.0
 40
76.52710482944943
 41
1.56570841889117
 42
50.0
 43
0.0
 44
0.0
 50
0.0
 51
0.0
 71
     0
 72
   100
 73
     1
 74
     1
 75
     0
 76
     0
 77
     0
 78
     0
  0
ENDTAB
  0
TABLE
  2
LTYPE
  5
5
330
0
100
AcDbSymbolTable
 70
    10
  0
LTYPE
  5
14
330
5
100
AcDbSymbolTableRecord
100
AcDbLinetypeTableRecord
  2
BYBLOCK
 70
     0
  3

 72
    65
 73
     0
 40
0.0
  0
LTYPE
  5
15
330
5
100
AcDbSymbolTableRecord
100
AcDbLinetypeTableRecord
  2
BYLAYER
 70
     0
  3

 72
    65
 73
     0
 40
0.0
  0
LTYPE
  5
16
330
5
100
AcDbSymbolTableRecord
100
AcDbLinetypeTableRecord
  2
CONTINUOUS
 70
     0
  3
Solid line
 72
    65
 73
     0
 40
0.0
  0
LTYPE
  5
4B
330
5
100
AcDbSymbolTableRecord
100
AcDbLinetypeTableRecord
  2
AM_ISO02W050
 70
     0
  3
__ __ __ __ __ __ __ __ __ __ __ __ __ __ __
 72
    65
 73
     2
 40
7.5
 49
6.0
 74
     0
 49
-1.5
 74
     0
  0
LTYPE
  5
4C
330
5
100
AcDbSymbolTableRecord
100
AcDbLinetypeTableRecord
  2
AM_ISO08W050
 70
     0
  3
____ . ____ . ____ . ____ . ____ . ____ . ____
 72
    65
 73
     4
 40
18.0
 49
12.0
 74
     0
 49
-1.5
 74
     0
 49
3.0
 74
     0
 49
-1.5
 74
     0
  0
LTYPE
  5
4D
330
5
100
AcDbSymbolTableRecord
100
AcDbLinetypeTableRecord
  2
AM_ISO09W050
 70
     0
  3
_____ . . _____ . . _____ . . ____ .. ____
 72
    65
 73
     6
 40
22.5
 49
12.0
 74
     0
 49
-1.5
 74
     0
 49
3.0
 74
     0
 49
-1.5
 74
     0
 49
3.0
 74
     0
 49
-1.5
 74
     0
  0
LTYPE
  5
4E
330
5
100
AcDbSymbolTableRecord
100
AcDbLinetypeTableRecord
  2
AMCONSTR
 70
     0
  3
_______________________
 72
    65
 73
     2
 40
9999.0
 49
9999.0
 74
     0
 49
0.0
 74
     0
  0
LTYPE
  5
4F
330
5
100
AcDbSymbolTableRecord
100
AcDbLinetypeTableRecord
  2
AM_ISO02W050X2
 70
     0
  3
 _ _ _ _ _ _ _ _ _ _ _ _
 72
    65
 73
     2
 40
3.75
 49
3.0
 74
     0
 49
-0.75
 74
     0
  0
LTYPE
  5
50
330
5
100
AcDbSymbolTableRecord
100
AcDbLinetypeTableRecord
  2
AM_ISO08W050X2
 70
     0
  3
__ . __ . __ . __ . __ . __
 72
    65
 73
     4
 40
9.0
 49
6.0
 74
     0
 49
-0.75
 74
     0
 49
1.5
 74
     0
 49
-0.75
 74
     0
  0
LTYPE
  5
53
330
5
100
AcDbSymbolTableRecord
100
AcDbLinetypeTableRecord
  2
AMZIGZAG
 70
     0
  3
/\/-/\/-/\/-/\/-/\/-/\/
 72
    65
 73
     2
 40
11.00009999999999
 49
0.0001
 74
     4
 75
   135
340
52
 46
0.04
 50
0.0
 44
0.0
 45
0.0
 49
-11.0
 74
     0
  0
LTYPE
  5
166
330
5
100
AcDbSymbolTableRecord
100
AcDbLinetypeTableRecord
  2
ACJISTGL
 70
     0
  3
_ _ _ _ _
 72
    65
 73
     2
 40
3.0
 49
2.0
 74
     0
 49
-1.0
 74
     0
  0
LTYPE
  5
26A
330
5
100
AcDbSymbolTableRecord
100
AcDbLinetypeTableRecord
  2
ACJISTGB
 70
     0
  3
__ . . __ . .
 72
    65
 73
     6
 40
9.0
 49
4.0
 74
     0
 49
-1.0
 74
     0
 49
1.0
 74
     0
 49
-1.0
 74
     0
 49
1.0
 74
     0
 49
-1.0
 74
     0
  0
ENDTAB
  0
TABLE
  2
LAYER
  5
2
330
0
100
AcDbSymbolTable
 70
     7
  0
LAYER
  5
10
330
2
100
AcDbSymbolTableRecord
100
AcDbLayerTableRecord
  2
0
 70
     0
 62
     7
  6
CONTINUOUS
  0
LAYER
  5
3F9
330
2
100
AcDbSymbolTableRecord
100
AcDbLayerTableRecord
  2
AM_0
 70
     0
 62
     7
  6
CONTINUOUS
  0
LAYER
  5
C7C
330
2
100
AcDbSymbolTableRecord
100
AcDbLayerTableRecord
  2
AM_7
 70
     0
 62
     4
  6
AM_ISO08W050
  0
LAYER
  5
C97
330
2
100
AcDbSymbolTableRecord
100
AcDbLayerTableRecord
  2
AM_11
 70
     0
 62
     3
  6
AM_ISO09W050
  0
LAYER
  5
CC5
330
2
100
AcDbSymbolTableRecord
100
AcDbLayerTableRecord
  2
AM_5
 70
     0
 62
     3
  6
CONTINUOUS
  0
LAYER
  5
CC7
330
2
100
AcDbSymbolTableRecord
100
AcDbLayerTableRecord
  2
DEFPOINTS
 70
     0
 62
     7
  6
CONTINUOUS
  0
LAYER
  5
19BC
330
2
100
AcDbSymbolTableRecord
100
AcDbLayerTableRecord
  2
AM_6
 70
     0
 62
     2
  6
CONTINUOUS
  0
ENDTAB
  0
TABLE
  2
STYLE
  5
3
330
0
100
AcDbSymbolTable
 70
     5
  0
STYLE
  5
11
330
3
100
AcDbSymbolTableRecord
100
AcDbTextStyleTableRecord
  2
STANDARD
 70
     0
 40
0.0
 41
1.0
 50
0.0
 71
     0
 42
2.5
  3
simplex.shx
  4
EXTFONT.SHX
  0
STYLE
  5
52
330
3
100
AcDbSymbolTableRecord
100
AcDbTextStyleTableRecord
  2

 70
     1
 40
0.0
 41
1.0
 50
0.0
 71
     0
 42
2.5
  3
ltypeshp.shx
  4

  0
STYLE
  5
6B
330
3
100
AcDbSymbolTableRecord
100
AcDbTextStyleTableRecord
  2
ASAMI
 70
     0
 40
0.0
 41
1.0
 50
0.0
 71
     0
 42
2.5
  3
simplex.shx
  4
EXTFONT.SHX
  0
STYLE
  5
262
330
3
100
AcDbSymbolTableRecord
100
AcDbTextStyleTableRecord
  2
ACJISTS
 70
     0
 40
1.0
 41
1.0
 50
0.0
 71
     0
 42
2.5
  3
simplex.shx
  4
bigfont.shx
  0
STYLE
  5
269
330
3
100
AcDbSymbolTableRecord
100
AcDbTextStyleTableRecord
  2
ACJISGDT
 70
     0
 40
0.0
 41
1.0
 50
0.0
 71
     0
 42
2.5
  3
amgdtans.shx
  4

  0
ENDTAB
  0
TABLE
  2
VIEW
  5
6
330
0
100
AcDbSymbolTable
 70
     0
  0
ENDTAB
  0
TABLE
  2
UCS
  5
7
330
0
100
AcDbSymbolTable
 70
     0
  0
ENDTAB
  0
TABLE
  2
APPID
  5
9
330
0
100
AcDbSymbolTable
 70
    16
  0
APPID
  5
12
330
9
100
AcDbSymbolTableRecord
100
AcDbRegAppTableRecord
  2
ACAD
 70
     0
  0
APPID
  5
30
330
9
100
AcDbSymbolTableRecord
100
AcDbRegAppTableRecord
  2
MCAD_NO_VIS
 70
     0
  0
APPID
  5
31
330
9
100
AcDbSymbolTableRecord
100
AcDbRegAppTableRecord
  2
ACAD_TEMP_GRAPHIC
 70
     0
  0
APPID
  5
2C2
330
9
100
AcDbSymbolTableRecord
100
AcDbRegAppTableRecord
  2
GENIUS_GENDTOL_13
 70
     0
  0
APPID
  5
339
330
9
100
AcDbSymbolTableRecord
100
AcDbRegAppTableRecord
  2
GENIUS_GENODEF_13
 70
     0
  0
APPID
  5
33A
330
9
100
AcDbSymbolTableRecord
100
AcDbRegAppTableRecord
  2
GENIUS_GENOBJ-N-RSBK_13
 70
     0
  0
APPID
  5
33B
330
9
100
AcDbSymbolTableRecord
100
AcDbRegAppTableRecord
  2
GENIUS_GENOBJ-N-LIB_13
 70
     0
  0
APPID
  5
33C
330
9
100
AcDbSymbolTableRecord
100
AcDbRegAppTableRecord
  2
GENIUS_GENSCALE_13
 70
     0
  0
APPID
  5
378
330
9
100
AcDbSymbolTableRecord
100
AcDbRegAppTableRecord
  2
GENIUS_GENDIMSH_14
 70
     0
  0
APPID
  5
C82
330
9
100
AcDbSymbolTableRecord
100
AcDbRegAppTableRecord
  2
GENIUS_GENOBJ-N-CRS_13
 70
     0
  0
APPID
  5
C83
330
9
100
AcDbSymbolTableRecord
100
AcDbRegAppTableRecord
  2
GENIUS_GENOENT_13
 70
     0
  0
APPID
  5
C84
330
9
100
AcDbSymbolTableRecord
100
AcDbRegAppTableRecord
  2
GENIUS_GENOREF_13
 70
     0
  0
APPID
  5
C85
330
9
100
AcDbSymbolTableRecord
100
AcDbRegAppTableRecord
  2
GENIUS_GENOLIS_13
 70
     0
  0
APPID
  5
CA0
330
9
100
AcDbSymbolTableRecord
100
AcDbRegAppTableRecord
  2
GENIUS_GENOBJ-N-CEN_13
 70
     0
  0
APPID
  5
1CFA
330
9
100
AcDbSymbolTableRecord
100
AcDbRegAppTableRecord
  2
GENIUS_GENFIL_13
 70
     0
  0
APPID
  5
1CFB
330
9
100
AcDbSymbolTableRecord
100
AcDbRegAppTableRecord
  2
GENIUS_GENOBJ-N-CHA_13
 70
     0
  0
ENDTAB
  0
TABLE
  2
DIMSTYLE
  5
A
330
0
100
AcDbSymbolTable
 70
     9
  0
DIMSTYLE
105
58
330
A
100
AcDbSymbolTableRecord
100
AcDbDimStyleTableRecord
  2
AM_JIS
 70
     0
  3

  4
"
  5
OPEN30
  6

  7

 40
0.5
 41
2.5
 42
1.0
 43
12.0
 44
1.0
 45
0.0
 46
0.0
 47
0.1
 48
0.1
140
3.2
141
0.0
142
0.0
143
0.0393701
144
1.0
145
0.0
146
0.71
147
1.5
 71
     0
 72
     0
 73
     0
 74
     0
 75
     0
 76
     0
 77
     3
 78
     8
170
     0
171
     2
172
     1
173
     0
174
     0
175
     0
176
   256
177
   256
178
     2
270
     2
271
     3
272
     3
273
     2
274
     2
340
6B
275
     0
280
     0
281
     0
282
     0
283
     0
284
     0
285
     0
286
     0
287
     3
288
     0
  0
DIMSTYLE
105
5F
330
A
100
AcDbSymbolTableRecord
100
AcDbDimStyleTableRecord
  2
AM_JIS$3
 70
     0
  3

  4
"
  5
OPEN30
  6

  7

 40
0.5
 41
2.5
 42
1.0
 43
10.0
 44
1.0
 45
0.0
 46
0.0
 47
0.1
 48
0.1
140
3.2
141
0.0
142
0.0
143
0.0393701
144
1.0
145
0.0
146
0.71
147
1.5
 71
     0
 72
     0
 73
     0
 74
     1
 75
     0
 76
     0
 77
     3
 78
     8
170
     0
171
     2
172
     0
173
     0
174
     0
175
     0
176
   256
177
   256
178
     2
270
     2
271
     2
272
     3
273
     2
274
     2
340
6B
275
     0
280
     0
281
     0
282
     0
283
     0
284
     0
285
     0
286
     0
287
     0
288
     1
  0
DIMSTYLE
105
60
330
A
100
AcDbSymbolTableRecord
100
AcDbDimStyleTableRecord
  2
AM_JIS$4
 70
     0
  3

  4
"
  5
OPEN30
  6

  7

 40
0.5
 41
2.5
 42
1.0
 43
10.0
 44
1.0
 45
0.0
 46
0.0
 47
0.1
 48
0.1
140
3.2
141
0.0
142
0.0
143
0.0393701
144
1.0
145
0.0
146
0.71
147
1.5
 71
     0
 72
     0
 73
     0
 74
     1
 75
     0
 76
     0
 77
     3
 78
     8
170
     0
171
     2
172
     0
173
     0
174
     0
175
     0
176
   256
177
   256
178
     2
270
     2
271
     2
272
     3
273
     2
274
     2
340
6B
275
     0
280
     0
281
     0
282
     0
283
     0
284
     0
285
     0
286
     0
287
     0
288
     1
  0
DIMSTYLE
105
61
330
A
100
AcDbSymbolTableRecord
100
AcDbDimStyleTableRecord
  2
AM_JIS$6
 70
     0
  3

  4
"
  5
OPEN30
  6

  7

 40
0.5
 41
2.5
 42
1.0
 43
10.0
 44
1.0
 45
0.0
 46
0.0
 47
0.1
 48
0.1
140
3.2
141
0.0
142
0.0
143
0.0393701
144
1.0
145
0.0
146
0.71
147
1.5
 71
     0
 72
     0
 73
     0
 74
     0
 75
     0
 76
     0
 77
     0
 78
     8
170
     0
171
     2
172
     1
173
     0
174
     0
175
     0
176
   256
177
   256
178
     2
270
     2
271
     2
272
     2
273
     2
274
     2
340
6B
275
     0
280
     0
281
     0
282
     0
283
     0
284
     0
285
     0
286
     0
287
     3
288
     0
  0
DIMSTYLE
105
62
330
A
100
AcDbSymbolTableRecord
100
AcDbDimStyleTableRecord
  2
AM_JIS$7
 70
     0
  3

  4
"
  5
OPEN30
  6

  7

 40
0.5
 41
2.5
 42
1.0
 43
10.0
 44
1.0
 45
0.0
 46
0.0
 47
0.1
 48
0.1
140
3.2
141
0.0
142
0.0
143
0.0393701
144
1.0
145
0.0
146
0.71
147
1.5
 71
     0
 72
     0
 73
     0
 74
     0
 75
     0
 76
     0
 77
     3
 78
     8
170
     0
171
     2
172
     1
173
     0
174
     0
175
     0
176
   256
177
   256
178
     2
270
     2
271
     2
272
     3
273
     2
274
     2
340
6B
275
     0
280
     0
281
     0
282
     0
283
     0
284
     0
285
     0
286
     0
287
     3
288
     0
  0
DIMSTYLE
105
63
330
A
100
AcDbSymbolTableRecord
100
AcDbDimStyleTableRecord
  2
AM_JIS$SF
 70
     0
  3

  4
"
  5
OPEN30
  6

  7

 40
0.5
 41
2.5
 42
1.0
 43
10.0
 44
1.0
 45
0.0
 46
0.0
 47
0.1
 48
0.1
140
3.2
141
0.0
142
0.0
143
0.0393701
144
1.0
145
0.0
146
0.71
147
1.5
 71
     0
 72
     0
 73
     0
 74
     0
 75
     1
 76
     1
 77
     3
 78
     8
170
     0
171
     2
172
     1
173
     0
174
     0
175
     0
176
   256
177
   256
178
     2
270
     2
271
     2
272
     2
273
     2
274
     2
340
6B
275
     0
280
     0
281
     0
282
     0
283
     0
284
     0
285
     0
286
     0
287
     3
288
     0
  0
DIMSTYLE
105
68
330
A
100
AcDbSymbolTableRecord
100
AcDbDimStyleTableRecord
  2
AM_JIS$SH
 70
     0
  3

  4
"
  5

  6
GENAXEH
  7
OPEN30
 40
0.5
 41
2.5
 42
1.0
 43
10.0
 44
1.0
 45
0.0
 46
0.0
 47
0.1
 48
0.1
140
3.2
141
0.0
142
0.0
143
0.0393701
144
2.0
145
0.0
146
0.71
147
1.5
 71
     0
 72
     0
 73
     0
 74
     0
 75
     1
 76
     1
 77
     3
 78
     8
170
     0
171
     2
172
     1
173
     1
174
     0
175
     0
176
   256
177
   256
178
     2
270
     2
271
     2
272
     2
273
     2
274
     2
340
6B
275
     0
280
     0
281
     0
282
     0
283
     0
284
     0
285
     0
286
     0
287
     3
288
     0
  0
DIMSTYLE
105
B34
102
{ACAD_REACTORS
330
2577
102
}
330
A
100
AcDbSymbolTableRecord
100
AcDbDimStyleTableRecord
  2
AM_JIS$2
 70
     0
  3

  4
"
  5
OPEN30
  6

  7

 40
0.5
 41
2.5
 42
1.0
 43
12.0
 44
1.0
 45
0.0
 46
0.0
 47
0.1
 48
0.1
140
3.2
141
0.0
142
0.0
143
0.0393701
144
1.0
145
0.0
146
0.71
147
1.5
 71
     0
 72
     0
 73
     0
 74
     0
 75
     0
 76
     0
 77
     3
 78
     8
170
     0
171
     2
172
     1
173
     0
174
     0
175
     0
176
   256
177
   256
178
     2
270
     2
271
     3
272
     3
273
     2
274
     2
340
6B
275
     0
280
     0
281
     0
282
     0
283
     0
284
     0
285
     0
286
     0
287
     3
288
     0
  0
DIMSTYLE
105
BA5
102
{ACAD_REACTORS
330
CC6
330
DF5
330
1F93
330
2CA4
102
}
330
A
100
AcDbSymbolTableRecord
100
AcDbDimStyleTableRecord
  2
AM_JIS$0
 70
     0
  3

  4
"
  5
OPEN30
  6

  7

 40
0.5
 41
2.5
 42
0.0
 43
10.0
 44
1.0
 45
0.0
 46
0.0
 47
0.1
 48
0.1000000001
140
3.799999999999999
141
0.0
142
0.0
143
0.0393701
144
1.0
145
0.0
146
0.71
147
1.5
 71
     0
 72
     0
 73
     0
 74
     0
 75
     0
 76
     0
 77
     3
 78
     1
170
     0
171
     2
172
     1
173
     0
174
     0
175
     0
176
     3
177
     3
178
     2
270
     2
271
     2
272
     2
273
     2
274
     2
340
11
275
     1
280
     0
281
     0
282
     0
283
     0
284
     8
285
     0
286
     0
287
     0
288
     0
  0
ENDTAB
  0
TABLE
  2
BLOCK_RECORD
  5
1
330
0
100
AcDbSymbolTable
 70
    10
  0
BLOCK_RECORD
  5
1F
102
{ACAD_XDICTIONARY
360
74
102
}
330
1
100
AcDbSymbolTableRecord
100
AcDbBlockTableRecord
  2
*MODEL_SPACE
  0
BLOCK_RECORD
  5
101
102
{ACAD_XDICTIONARY
360
30CE
102
}
330
1
100
AcDbSymbolTableRecord
100
AcDbBlockTableRecord
  2
*PAPER_SPACE
  0
BLOCK_RECORD
  5
59
330
1
100
AcDbSymbolTableRecord
100
AcDbBlockTableRecord
  2
_OPEN30
  0
BLOCK_RECORD
  5
64
330
1
100
AcDbSymbolTableRecord
100
AcDbBlockTableRecord
  2
GENAXEH
  0
BLOCK_RECORD
  5
CC8
330
1
100
AcDbSymbolTableRecord
100
AcDbBlockTableRecord
  2
*D5
  0
BLOCK_RECORD
  5
DF6
330
1
100
AcDbSymbolTableRecord
100
AcDbBlockTableRecord
  2
*D6
  0
BLOCK_RECORD
  5
1F94
330
1
100
AcDbSymbolTableRecord
100
AcDbBlockTableRecord
  2
*D7
  0
BLOCK_RECORD
  5
2578
330
1
100
AcDbSymbolTableRecord
100
AcDbBlockTableRecord
  2
*D8
  0
BLOCK_RECORD
  5
2CA5
330
1
100
AcDbSymbolTableRecord
100
AcDbBlockTableRecord
  2
*D9
  0
ENDTAB
  0
ENDSEC
  0
SECTION
  2
BLOCKS
  0
BLOCK
  5
20
330
1F
100
AcDbEntity
  8
0
100
AcDbBlockBegin
  2
*MODEL_SPACE
 70
     0
 10
0.0
 20
0.0
 30
0.0
  3
*MODEL_SPACE
  1

  0
ENDBLK
  5
21
330
1F
100
AcDbEntity
  8
0
100
AcDbBlockEnd
  0
BLOCK
  5
103
330
101
100
AcDbEntity
 67
     1
  8
0
100
AcDbBlockBegin
  2
*PAPER_SPACE
 70
     0
 10
0.0
 20
0.0
 30
0.0
  3
*PAPER_SPACE
  1

  0
ENDBLK
  5
104
330
101
100
AcDbEntity
 67
     1
  8
0
100
AcDbBlockEnd
  0
BLOCK
  5
5D
330
59
100
AcDbEntity
  8
0
100
AcDbBlockBegin
  2
_OPEN30
 70
     0
 10
0.0
 20
0.0
 30
0.0
  3
_OPEN30
  1

  0
LINE
  5
5A
330
59
100
AcDbEntity
  8
0
 62
     0
100
AcDbLine
 10
-1.0
 20
0.26794919
 30
0.0
 11
0.0
 21
0.0
 31
0.0
  0
LINE
  5
5B
330
59
100
AcDbEntity
  8
0
 62
     0
100
AcDbLine
 10
0.0
 20
0.0
 30
0.0
 11
-1.0
 21
-0.26794919
 31
0.0
  0
LINE
  5
5C
330
59
100
AcDbEntity
  8
0
 62
     0
100
AcDbLine
 10
0.0
 20
0.0
 30
0.0
 11
-1.0
 21
0.0
 31
0.0
  0
ENDBLK
  5
5E
330
59
100
AcDbEntity
  8
0
100
AcDbBlockEnd
  0
BLOCK
  5
66
330
64
100
AcDbEntity
  8
0
100
AcDbBlockBegin
  2
GENAXEH
 70
     0
 10
0.0
 20
0.0
 30
0.0
  3
GENAXEH
  1

  0
LINE
  5
65
330
64
100
AcDbEntity
  8
0
100
AcDbLine
 10
-1.0
 20
0.0
 30
0.0
 11
1.0
 21
0.0
 31
0.0
  0
ENDBLK
  5
67
330
64
100
AcDbEntity
  8
0
100
AcDbBlockEnd
  0
BLOCK
  5
CD2
330
CC8
100
AcDbEntity
  8
0
100
AcDbBlockBegin
  2
*D5
 70
     1
 10
0.0
 20
0.0
 30
0.0
  3
*D5
  1

  0
LINE
  5
3052
330
CC8
100
AcDbEntity
  8
AM_5
 62
     3
100
AcDbLine
 10
-89.0
 20
-3.000000000000206
 30
0.0
 11
-89.0
 21
-16.00001206798981
 31
0.0
  0
LINE
  5
3053
330
CC8
100
AcDbEntity
  8
AM_5
 62
     3
100
AcDbLine
 10
-1.000000000000054
 20
-3.500013172924341
 30
0.0
 11
-1.000000000000054
 21
-16.00001206798982
 31
0.0
  0
LINE
  5
3054
330
CC8
100
AcDbEntity
  8
AM_5
 62
     3
100
AcDbLine
 10
-87.75
 20
-15.50001206798982
 30
0.0
 11
-2.250000000000055
 21
-15.50001206798982
 31
0.0
  0
INSERT
  5
3055
330
CC8
100
AcDbEntity
  8
AM_5
 62
     3
100
AcDbBlockReference
  2
_OPEN30
 10
-89.0
 20
-15.50001206798982
 30
0.0
 41
1.25
 42
1.25
 43
1.25
 50
180.0
  0
INSERT
  5
3056
330
CC8
100
AcDbEntity
  8
AM_5
 62
     3
100
AcDbBlockReference
  2
_OPEN30
 10
-1.000000000000054
 20
-15.50001206798982
 30
0.0
 41
1.25
 42
1.25
 43
1.25
  0
MTEXT
  5
3057
330
CC8
100
AcDbEntity
  8
AM_5
 62
     2
100
AcDbMText
 10
-45.00000000000002
 20
-13.80001206798982
 30
0.0
 40
1.9
 41
0.0
 71
     5
 72
     1
  1
88
1001
ACAD
1000
MTEXTBEGIN
1070
    73
1070
     1
1070
    44
1040
1.0
1070
    74
1070
     0
1000
MTEXTEND
  0
POINT
  5
3058
330
CC8
100
AcDbEntity
  8
DEFPOINTS
 62
     0
100
AcDbPoint
 10
-89.0
 20
-3.000000000000206
 30
0.0
  0
POINT
  5
3059
330
CC8
100
AcDbEntity
  8
DEFPOINTS
 62
     0
100
AcDbPoint
 10
-1.000000000000054
 20
-3.500013172924341
 30
0.0
  0
POINT
  5
305A
330
CC8
100
AcDbEntity
  8
DEFPOINTS
 62
     0
100
AcDbPoint
 10
-1.000000000000054
 20
-15.50001206798982
 30
0.0
  0
ENDBLK
  5
CD3
330
CC8
100
AcDbEntity
  8
0
100
AcDbBlockEnd
  0
BLOCK
  5
E00
330
DF6
100
AcDbEntity
  8
0
100
AcDbBlockBegin
  2
*D6
 70
     1
 10
0.0
 20
0.0
 30
0.0
  3
*D6
  1

  0
LINE
  5
306F
330
DF6
100
AcDbEntity
  8
AM_5
 62
     3
100
AcDbLine
 10
-36.00000000000001
 20
-2.34664976749074
 30
0.0
 11
-36.00000000000001
 21
-11.00001206798978
 31
0.0
  0
LINE
  5
3070
330
DF6
100
AcDbEntity
  8
AM_5
 62
     3
100
AcDbLine
 10
-1.000000000000054
 20
-3.500013172924341
 30
0.0
 11
-1.000000000000054
 21
-11.00001206798978
 31
0.0
  0
LINE
  5
3071
330
DF6
100
AcDbEntity
  8
AM_5
 62
     3
100
AcDbLine
 10
-34.75000000000001
 20
-10.50001206798978
 30
0.0
 11
-2.250000000000054
 21
-10.50001206798978
 31
0.0
  0
INSERT
  5
3072
330
DF6
100
AcDbEntity
  8
AM_5
 62
     3
100
AcDbBlockReference
  2
_OPEN30
 10
-36.00000000000001
 20
-10.50001206798978
 30
0.0
 41
1.25
 42
1.25
 43
1.25
 50
180.0
  0
INSERT
  5
3073
330
DF6
100
AcDbEntity
  8
AM_5
 62
     3
100
AcDbBlockReference
  2
_OPEN30
 10
-1.000000000000054
 20
-10.50001206798978
 30
0.0
 41
1.25
 42
1.25
 43
1.25
  0
MTEXT
  5
3074
330
DF6
100
AcDbEntity
  8
AM_5
 62
     2
100
AcDbMText
 10
-18.50000000000003
 20
-8.800012067989783
 30
0.0
 40
1.9
 41
0.0
 71
     5
 72
     1
  1
35
1001
ACAD
1000
MTEXTBEGIN
1070
    73
1070
     1
1070
    44
1040
1.0
1070
    74
1070
     0
1000
MTEXTEND
  0
POINT
  5
3075
330
DF6
100
AcDbEntity
  8
DEFPOINTS
 62
     0
100
AcDbPoint
 10
-36.00000000000001
 20
-2.34664976749074
 30
0.0
  0
POINT
  5
3076
330
DF6
100
AcDbEntity
  8
DEFPOINTS
 62
     0
100
AcDbPoint
 10
-1.000000000000054
 20
-3.500013172924341
 30
0.0
  0
POINT
  5
3077
330
DF6
100
AcDbEntity
  8
DEFPOINTS
 62
     0
100
AcDbPoint
 10
-1.000000000000054
 20
-10.50001206798978
 30
0.0
  0
ENDBLK
  5
E01
330
DF6
100
AcDbEntity
  8
0
100
AcDbBlockEnd
  0
BLOCK
  5
1FA0
330
1F94
100
AcDbEntity
  8
0
100
AcDbBlockBegin
  2
*D7
 70
     1
 10
0.0
 20
0.0
 30
0.0
  3
*D7
  1

  0
LINE
  5
305B
330
1F94
100
AcDbEntity
  8
AM_5
 62
     3
100
AcDbLine
 10
-88.50000000000001
 20
-3.500000000000203
 30
0.0
 11
-98.25000100000002
 21
-3.500000000000222
 31
0.0
  0
LINE
  5
305C
330
1F94
100
AcDbEntity
  8
AM_5
 62
     3
100
AcDbLine
 10
-88.49999999999999
 20
3.499999999999796
 30
0.0
 11
-98.25000100000002
 21
3.499999999999777
 31
0.0
  0
LINE
  5
305D
330
1F94
100
AcDbEntity
  8
AM_5
 62
     3
100
AcDbLine
 10
-97.75000100000001
 20
-2.250000000000221
 30
0.0
 11
-97.75000100000001
 21
2.249999999999777
 31
0.0
  0
INSERT
  5
305E
330
1F94
100
AcDbEntity
  8
AM_5
 62
     3
100
AcDbBlockReference
  2
_OPEN30
 10
-97.75000100000001
 20
-3.500000000000221
 30
0.0
 41
1.25
 42
1.25
 43
1.25
 50
270.0000000000001
  0
INSERT
  5
305F
330
1F94
100
AcDbEntity
  8
AM_5
 62
     3
100
AcDbBlockReference
  2
_OPEN30
 10
-97.75000100000001
 20
3.499999999999777
 30
0.0
 41
1.25
 42
1.25
 43
1.25
 50
90.0000000000001
  0
MTEXT
  5
3060
330
1F94
100
AcDbEntity
  8
AM_5
 62
     2
100
AcDbMText
 10
-99.45000100000001
 20
-0.0000000000004048
 30
0.0
 40
1.9
 41
0.0
 71
     5
 72
     1
  1
%%c7
 11
-0.000000000000002
 21
1.0
 31
0.0
1001
ACAD
1000
MTEXTBEGIN
1070
    73
1070
     1
1070
    44
1040
1.0
1070
    74
1070
     0
1000
MTEXTEND
  0
POINT
  5
3061
330
1F94
100
AcDbEntity
  8
DEFPOINTS
 62
     0
100
AcDbPoint
 10
-88.50000000000001
 20
-3.500000000000007
 30
0.0
  0
POINT
  5
3062
330
1F94
100
AcDbEntity
  8
DEFPOINTS
 62
     0
100
AcDbPoint
 10
-88.49999999999999
 20
3.499999999999992
 30
0.0
  0
POINT
  5
3063
330
1F94
100
AcDbEntity
  8
DEFPOINTS
 62
     0
100
AcDbPoint
 10
-97.75000100000001
 20
3.499999999999995
 30
0.0
  0
ENDBLK
  5
1FA1
330
1F94
100
AcDbEntity
  8
0
100
AcDbBlockEnd
  0
BLOCK
  5
2586
330
2578
100
AcDbEntity
  8
0
100
AcDbBlockBegin
  2
*D8
 70
     1
 10
0.0
 20
0.0
 30
0.0
  3
*D8
  1

  0
LINE
  5
30D0
330
2578
100
AcDbEntity
  8
AM_5
100
AcDbLine
 10
0.1710079208341409
 20
-0.4698470932250125
 30
0.0
 11
5.15222725041692
 21
-14.15582965651496
 31
0.0
  0
LINE
  5
30D1
330
2578
100
AcDbEntity
  8
AM_5
100
AcDbLine
 10
0.1710079208341369
 20
0.469847093225014
 30
0.0
 11
5.1522272504168
 21
14.155829656515
 31
0.0
  0
ARC
  5
30D2
330
2578
100
AcDbEntity
  8
AM_5
100
AcDbCircle
 10
-0.0000000000000142
 20
0.0
 30
0.0
 40
14.56429417212128
100
AcDbArc
 50
294.918735062585
 51
65.08126493741549
  0
INSERT
  5
30D3
330
2578
100
AcDbEntity
  8
AM_5
100
AcDbBlockReference
  2
_OPEN30
 10
4.981219329582771
 20
-13.68598256328996
 30
0.0
 41
1.25
 42
1.25
 43
1.25
 50
202.4592363891502
  0
INSERT
  5
30D4
330
2578
100
AcDbEntity
  8
AM_5
100
AcDbBlockReference
  2
_OPEN30
 10
4.981219329582653
 20
13.68598256329
 30
0.0
 41
1.25
 42
1.25
 43
1.25
 50
157.5407636108502
  0
MTEXT
  5
30D5
330
2578
100
AcDbEntity
  8
AM_5
 62
     2
100
AcDbMText
 10
13.01429417212127
 20
0.0000000000000617
 30
0.0
 40
1.6
 41
0.0
 71
     5
 72
     1
  1
140°
  7
ASAMI
 11
-0.000000000000002
 21
1.0
 31
0.0
  0
POINT
  5
30D6
330
2578
100
AcDbEntity
  8
DEFPOINTS
 62
     0
100
AcDbPoint
 10
13.37316069178122
 20
-5.768642634440378
 30
0.0
  0
POINT
  5
30D7
330
2578
100
AcDbEntity
  8
DEFPOINTS
 62
     0
100
AcDbPoint
 10
-0.0000000000000093
 20
0.0000000000000134
 30
0.0
  0
POINT
  5
30D8
330
2578
100
AcDbEntity
  8
DEFPOINTS
 62
     0
100
AcDbPoint
 10
-0.0000000000000093
 20
-0.0000000000000134
 30
0.0
  0
POINT
  5
30D9
330
2578
100
AcDbEntity
  8
DEFPOINTS
 62
     0
100
AcDbPoint
 10
-0.272532631331442
 20
0.748787915877995
 30
0.0
  0
POINT
  5
30DA
330
2578
100
AcDbEntity
  8
DEFPOINTS
 62
     0
100
AcDbPoint
 10
-0.272532631331439
 20
-0.7487879158779962
 30
0.0
  0
ENDBLK
  5
2587
330
2578
100
AcDbEntity
  8
0
100
AcDbBlockEnd
  0
BLOCK
  5
2CAF
330
2CA5
100
AcDbEntity
  8
0
100
AcDbBlockBegin
  2
*D9
 70
     1
 10
0.0
 20
0.0
 30
0.0
  3
*D9
  1

  0
LINE
  5
3078
330
2CA5
100
AcDbEntity
  8
AM_5
 62
     3
100
AcDbLine
 10
-1.000000000000062
 20
-3.500013172924325
 30
0.0
 11
9.586422120790526
 21
-3.500013172924328
 31
0.0
  0
LINE
  5
3079
330
2CA5
100
AcDbEntity
  8
AM_5
 62
     3
100
AcDbLine
 10
-1.000000000000039
 20
3.499986827075655
 30
0.0
 11
9.586422120790526
 21
3.499986827075652
 31
0.0
  0
LINE
  5
307A
330
2CA5
100
AcDbEntity
  8
AM_5
 62
     3
100
AcDbLine
 10
9.086422120790526
 20
-2.250013172924328
 30
0.0
 11
9.086422120790526
 21
2.249986827075652
 31
0.0
  0
INSERT
  5
307B
330
2CA5
100
AcDbEntity
  8
AM_5
 62
     3
100
AcDbBlockReference
  2
_OPEN30
 10
9.086422120790526
 20
-3.500013172924328
 30
0.0
 41
1.25
 42
1.25
 43
1.25
 50
270.0
  0
INSERT
  5
307C
330
2CA5
100
AcDbEntity
  8
AM_5
 62
     3
100
AcDbBlockReference
  2
_OPEN30
 10
9.086422120790526
 20
3.499986827075652
 30
0.0
 41
1.25
 42
1.25
 43
1.25
 50
90.0
  0
MTEXT
  5
307D
330
2CA5
100
AcDbEntity
  8
AM_5
 62
     2
100
AcDbMText
 10
7.386422120790526
 20
-0.0000131729243363
 30
0.0
 40
1.9
 41
0.0
 71
     5
 72
     1
  1
%%c7
 11
0.0000000000000001
 21
1.0
 31
0.0
1001
ACAD
1000
MTEXTBEGIN
1070
    73
1070
     1
1070
    44
1040
1.0
1070
    74
1070
     0
1000
MTEXTEND
  0
POINT
  5
307E
330
2CA5
100
AcDbEntity
  8
DEFPOINTS
 62
     0
100
AcDbPoint
 10
-1.000000000000062
 20
-3.500013172924325
 30
0.0
  0
POINT
  5
307F
330
2CA5
100
AcDbEntity
  8
DEFPOINTS
 62
     0
100
AcDbPoint
 10
-1.000000000000039
 20
3.499986827075655
 30
0.0
  0
POINT
  5
3080
330
2CA5
100
AcDbEntity
  8
DEFPOINTS
 62
     0
100
AcDbPoint
 10
9.086422120790526
 20
3.499986827075652
 30
0.0
  0
ENDBLK
  5
2CB0
330
2CA5
100
AcDbEntity
  8
0
100
AcDbBlockEnd
  0
ENDSEC
  0
SECTION
  2
ENTITIES
  0
LINE
  5
C1D
330
1F
100
AcDbEntity
  8
AM_0
 48
0.5
100
AcDbLine
 10
-0.0000000000000093
 20
-0.0000000000000134
 30
0.0
 11
-0.272532631331442
 21
0.748787915877995
 31
0.0
  0
DIMENSION
  5
CC6
330
1F
100
AcDbEntity
  8
AM_5
100
AcDbDimension
  2
*D5
 10
-1.000000000000054
 20
-15.50001206798982
 30
0.0
 11
-45.00000000000002
 21
-13.80001206798982
 31
0.0
 70
    32
  1
<>
  3
AM_JIS$0
100
AcDbAlignedDimension
 13
-89.0
 23
-3.000000000000206
 33
0.0
 14
-1.000000000000054
 24
-3.500013172924341
 34
0.0
 50
0.0000000000001132
100
AcDbRotatedDimension
1001
GENIUS_GENDTOL_13
1000

1000
h7
1000

1040
0.0
1001
ACAD
1000
DSTYLE
1002
{
1070
   271
1070
     0
1002
}
  0
DIMENSION
  5
DF5
330
1F
100
AcDbEntity
  8
AM_5
100
AcDbDimension
  2
*D6
 10
-1.000000000000054
 20
-10.50001206798978
 30
0.0
 11
-18.50000000000003
 21
-8.800012067989783
 31
0.0
 70
    32
  1
<>
  3
AM_JIS$0
100
AcDbAlignedDimension
 13
-36.00000000000001
 23
-2.34664976749074
 33
0.0
 14
-1.000000000000054
 24
-3.500013172924341
 34
0.0
 50
0.0000000000001527
100
AcDbRotatedDimension
1001
GENIUS_GENDTOL_13
1000

1000
h7
1000

1040
0.0
1001
ACAD
1000
DSTYLE
1002
{
1070
   271
1070
     0
1002
}
  0
ARC
  5
144A
330
1F
100
AcDbEntity
  8
AM_11
 48
0.5
100
AcDbCircle
 10
-56.11257425944018
 20
-15.45937617226463
 30
0.0
 40
17.09271208445208
100
AcDbArc
 50
64.74833051131179
 51
115.2516644797366
  0
ARC
  5
144B
330
1F
100
AcDbEntity
  8
AM_11
 48
0.5
100
AcDbCircle
 10
-56.11257425944017
 20
15.45938667054937
 30
0.0
 40
17.09271208445208
100
AcDbArc
 50
244.7482808787518
 51
295.2516148471758
  0
TEXT
  5
19BD
330
1F
100
AcDbEntity
  8
AM_6
100
AcDbText
 10
-56.24999109904178
 20
-26.75001206798985
 30
0.0
 40
2.5
  1
MDW070MHK
 50
0.0000000000001527
 72
     4
 11
-44.99999109904178
 21
-25.50001206798982
 31
0.0
100
AcDbText
  0
LINE
  5
1D14
330
1F
100
AcDbEntity
  8
AM_7
100
AcDbLine
 10
-90.74999999999999
 20
-0.0000000000000486
 30
0.0
 11
2.086421120790532
 21
0.0000000000000011
 31
0.0
1001
GENIUS_GENODEF_13
1002
{
1000
HIER
1070
     0
1002
}
1002
{
1000
MANEDIT
1070
     0
1002
}
1002
{
1000
NOSEL
1070
     0
1002
}
1002
{
1000
BEHIND
1070
     0
1002
}
1002
{
1000
REACTOR
1002
}
1001
GENIUS_GENOBJ-N-CEN_13
1002
{
1000
OWNER
1000
GEN
1002
}
  0
LINE
  5
1D9D
330
1F
100
AcDbEntity
  8
AM_0
100
AcDbLine
 10
-88.50000000000001
 20
-3.500000000000007
 30
0.0
 11
-88.49999999999999
 21
3.499999999999992
 31
0.0
  0
LINE
  5
1D9E
330
1F
100
AcDbEntity
  8
AM_0
 48
0.5
100
AcDbLine
 10
-89.0
 20
-3.000000000000206
 30
0.0
 11
-89.00000000000002
 21
2.999999999999793
 31
0.0
  0
LINE
  5
1DA4
330
1F
100
AcDbEntity
  8
AM_0
100
AcDbLine
 10
-88.50000000000001
 20
3.499999999999794
 30
0.0
 11
-33.74962041915738
 21
3.499986827076232
 31
0.0
  0
LINE
  5
1DA5
330
1F
100
AcDbEntity
  8
AM_0
100
AcDbLine
 10
-88.49999999999999
 20
-3.500000000000205
 30
0.0
 11
-34.87129850251998
 21
-3.500000000000031
 31
0.0
  0
ARC
  5
1F77
330
1F
100
AcDbEntity
  8
AM_11
 48
0.5
100
AcDbCircle
 10
-70.69590759277339
 20
15.45938667054932
 30
0.0
 40
17.09271208445208
100
AcDbArc
 50
244.7482808787518
 51
295.2516148471758
  0
ARC
  5
1F78
330
1F
100
AcDbEntity
  8
AM_11
 48
0.5
100
AcDbCircle
 10
-70.69590759277343
 20
-15.45937617226467
 30
0.0
 40
17.09271208445208
100
AcDbArc
 50
64.74833051131179
 51
115.2516644797366
  0
ARC
  5
1F79
330
1F
100
AcDbEntity
  8
AM_11
 48
0.5
100
AcDbCircle
 10
-85.27924092610662
 20
15.45938667054929
 30
0.0
 40
17.09271208445208
100
AcDbArc
 50
257.4271351938719
 51
295.2516148471758
  0
ARC
  5
1F7A
330
1F
100
AcDbEntity
  8
AM_11
 48
0.5
100
AcDbCircle
 10
-85.27924092610666
 20
-15.45937617226471
 30
0.0
 40
17.09271208445208
100
AcDbArc
 50
64.74833051131179
 51
102.5728648061279
  0
DIMENSION
  5
1F93
330
1F
100
AcDbEntity
  8
AM_5
100
AcDbDimension
  2
*D7
 10
-97.75000100000001
 20
3.499999999999995
 30
0.0
 11
-97.75000100000001
 21
-0.000000000000204
 31
0.0
 70
   160
  1
%%c<>
 51
359.9999999999998
  3
AM_JIS$0
100
AcDbAlignedDimension
 13
-88.50000000000001
 23
-3.500000000000007
 33
0.0
 14
-88.49999999999999
 24
3.499999999999992
 34
0.0
 50
270.0000000000002
100
AcDbRotatedDimension
1001
ACAD
1000
DSTYLE
1002
{
1070
   271
1070
     0
1002
}
1001
GENIUS_GENDTOL_13
1000

1000
h7
1000

1040
0.0
  0
ELLIPSE
  5
231A
330
1F
100
AcDbEntity
  8
AM_11
 48
0.5
100
AcDbEllipse
 10
2.220759073889107
 20
15.21399958054064
 30
0.0
 11
-17.09271208445214
 21
0.0000000000021758
 31
0.0
210
0.0
220
0.0
230
1.0
 40
0.9841269841269811
 41
1.130070686340432
 42
1.291800737381121
  0
ELLIPSE
  5
2324
330
1F
100
AcDbEntity
  8
AM_11
 48
0.5
100
AcDbEllipse
 10
-41.52924092610688
 20
-15.21398924889526
 30
0.0
 11
-17.09271208445209
 21
0.0000000000000504
 31
0.0
210
0.0
220
0.0
230
1.0
 40
0.9841269841269831
 41
4.271664206181688
 42
5.153113667164995
  0
ELLIPSE
  5
2325
330
1F
100
AcDbEntity
  8
AM_11
 48
0.5
100
AcDbEllipse
 10
-41.52924092610682
 20
15.21399958054073
 30
0.0
 11
-17.09271208445209
 21
0.000000000000001
 31
0.0
210
0.0
220
0.0
230
1.0
 40
0.9841269841269829
 41
1.130070686340305
 42
2.011520147323597
  0
ELLIPSE
  5
2327
330
1F
100
AcDbEntity
  8
AM_11
 48
0.5
100
AcDbEllipse
 10
-26.94590759277757
 20
15.2139995805407
 30
0.0
 11
17.09271208445209
 21
0.0000000000000162
 31
0.0
210
0.0
220
0.0
230
1.0
 40
0.9841269841269825
 41
4.271663339930097
 42
5.153112800913389
  0
ELLIPSE
  5
2328
330
1F
100
AcDbEntity
  8
AM_11
 48
0.5
100
AcDbEllipse
 10
-26.94590759277764
 20
-15.21398924889529
 30
0.0
 11
-17.09271208445208
 21
0.000000000000001
 31
0.0
210
0.0
220
0.0
230
1.0
 40
0.9841269841269834
 41
4.271664206181685
 42
5.153113667164991
  0
ELLIPSE
  5
232D
330
1F
100
AcDbEntity
  8
AM_11
 48
0.5
100
AcDbEllipse
 10
-12.3625742594443
 20
-15.21398924889532
 30
0.0
 11
-17.09271208445209
 21
0.0000000000000162
 31
0.0
210
0.0
220
0.0
230
1.0
 40
0.9841269841269831
 41
4.271664206181686
 42
5.153113667164992
  0
ELLIPSE
  5
232E
330
1F
100
AcDbEntity
  8
AM_11
 48
0.5
100
AcDbEllipse
 10
-12.36257425944424
 20
15.21399958054067
 30
0.0
 11
17.09271208445209
 21
0.0000000000000162
 31
0.0
210
0.0
220
0.0
230
1.0
 40
0.9841269841269829
 41
4.271663339930097
 42
5.153112800913389
  0
ELLIPSE
  5
23D5
330
1F
100
AcDbEntity
  8
AM_0
 48
0.5
100
AcDbEllipse
 10
4.537164231286258
 20
3.856893983336729
 30
0.0
 11
4.694067341354348
 21
3.2852998629697
 31
0.0
210
0.0
220
0.0
230
1.0
 40
0.753929342490717
 41
2.621800558379187
 42
3.092617221329952
  0
LINE
  5
2500
330
1F
100
AcDbEntity
  8
AM_0
 48
0.5
100
AcDbLine
 10
-88.50000000000001
 20
3.499999999999794
 30
0.0
 11
-89.00000000000002
 21
2.999999999999793
 31
0.0
1001
GENIUS_GENFIL_13
1070
     0
1040
0.5
1040
0.5
1040
20.0
1040
0.0
1002
{
1002
}
1001
GENIUS_GENODEF_13
1002
{
1000
HIER
1070
     0
1002
}
1002
{
1000
MANEDIT
1070
     0
1002
}
1002
{
1000
NOSEL
1070
     0
1002
}
1002
{
1000
BEHIND
1070
     0
1002
}
1002
{
1000
REACTOR
1002
}
1001
GENIUS_GENOBJ-N-CHA_13
1002
{
1000
OWNER
1000
GEN
1002
}
  0
LINE
  5
2503
330
1F
100
AcDbEntity
  8
AM_0
100
AcDbLine
 10
-89.0
 20
-3.000000000000206
 30
0.0
 11
-88.49999999999999
 21
-3.500000000000205
 31
0.0
1001
GENIUS_GENFIL_13
1070
     0
1040
0.5
1040
0.5
1040
20.0
1040
0.0
1002
{
1002
}
1001
GENIUS_GENODEF_13
1002
{
1000
HIER
1070
     0
1002
}
1002
{
1000
MANEDIT
1070
     0
1002
}
1002
{
1000
NOSEL
1070
     0
1002
}
1002
{
1000
BEHIND
1070
     0
1002
}
1002
{
1000
REACTOR
1002
}
1001
GENIUS_GENOBJ-N-CHA_13
1002
{
1000
OWNER
1000
GEN
1002
}
  0
ELLIPSE
  5
2567
330
1F
100
AcDbEntity
  8
AM_0
 48
0.5
100
AcDbEllipse
 10
4.537164231286273
 20
-3.856893983336711
 30
0.0
 11
4.645458860676204
 21
-3.357654964305418
 31
0.0
210
0.0
220
0.0
230
-1.0
 40
0.7713757486121493
 41
2.613281070465999
 42
3.074038162807732
  0
LINE
  5
2568
330
1F
100
AcDbEntity
  8
AM_0
 48
0.5
100
AcDbLine
 10
-0.7804932361520427
 20
-2.763326247473123
 30
0.0
 11
-1.000000000000062
 21
-3.500013172924325
 31
0.0
  0
LINE
  5
2569
330
1F
100
AcDbEntity
  8
AM_0
 48
0.5
100
AcDbLine
 10
-0.0000000000000093
 20
0.0000000000000134
 30
0.0
 11
-0.272532631331439
 21
-0.7487879158779962
 31
0.0
  0
DIMENSION
  5
2577
330
1F
100
AcDbEntity
  8
AM_5
100
AcDbDimension
  2
*D8
 10
-0.272532631331439
 20
-0.7487879158779962
 30
0.0
 11
13.01429417212127
 21
0.0000000000000333
 31
0.0
 70
    34
  1
<>
 51
359.9999999999998
  3
AM_JIS$2
100
AcDb2LineAngularDimension
 13
-0.0000000000000093
 23
-0.0000000000000134
 33
0.0
 14
-0.272532631331442
 24
0.748787915877995
 34
0.0
 15
-0.0000000000000093
 25
0.0000000000000134
 35
0.0
 16
13.37316069178122
 26
-5.768642634440378
 36
0.0
1001
GENIUS_GENDTOL_13
1000

1000
h7
1000

1040
0.0
1001
ACAD
1000
DSTYLE
1002
{
1070
   271
1070
     0
1002
}
  0
DIMENSION
  5
2CA4
330
1F
100
AcDbEntity
  8
AM_5
100
AcDbDimension
  2
*D9
 10
9.086422120790526
 20
3.499986827075652
 30
0.0
 11
9.086422120790526
 21
-0.0000131729243365
 31
0.0
 70
   160
  1
%%c<>
  3
AM_JIS$0
100
AcDbAlignedDimension
 13
-1.000000000000062
 23
-3.500013172924325
 33
0.0
 14
-1.000000000000039
 24
3.499986827075655
 34
0.0
 50
89.99999999999932
100
AcDbRotatedDimension
1001
GENIUS_GENDTOL_13
1000

1000
h7
1000

1040
0.0
1001
ACAD
1000
DSTYLE
1002
{
1070
   271
1070
     0
1002
}
  0
LINE
  5
2E35
330
1F
100
AcDbEntity
  8
AM_0
 48
0.5
100
AcDbLine
 10
-0.7671897959189156
 20
2.763326247473122
 30
0.0
 11
-1.000000000000039
 21
3.499986827075655
 31
0.0
  0
LINE
  5
2FEB
330
1F
100
AcDbEntity
  8
AM_0
 48
0.5
100
AcDbLine
 10
-2.914762823713084
 20
3.49998682707577
 30
0.0
 11
-1.000000000000025
 21
3.499986827075655
 31
0.0
  0
LINE
  5
2FEC
330
1F
100
AcDbEntity
  8
AM_11
 48
0.5
100
AcDbLine
 10
-33.74962041915737
 20
3.499986827076232
 30
0.0
 11
-26.13107690398955
 21
3.4999868270761
 31
0.0
  0
LINE
  5
2FED
330
1F
100
AcDbEntity
  8
AM_0
100
AcDbLine
 10
-26.13107690398955
 20
3.4999868270761
 30
0.0
 11
-13.82250787338271
 21
3.499986827076079
 31
0.0
  0
LINE
  5
2FEE
330
1F
100
AcDbEntity
  8
AM_11
 48
0.5
100
AcDbLine
 10
-13.82230155119624
 20
3.499984601846325
 30
0.0
 11
-3.299408254419555
 21
3.499984601845747
 31
0.0
  0
SPLINE
  5
2FEF
330
1F
100
AcDbEntity
  8
AM_0
 48
0.5
100
AcDbSpline
210
0.0
220
0.0
230
1.0
 70
     8
 71
     3
 72
    17
 73
    13
 74
     0
 42
0.0000000001
 43
0.0000000001
 40
0.0
 40
0.0
 40
0.0
 40
0.0
 40
1.010743614677189
 40
2.022833924044153
 40
3.037578959561199
 40
4.056212747067873
 40
5.079857613375832
 40
6.109500119648989
 40
7.14596120163808
 40
8.18989512056258
 40
9.241717674284874
 40
9.693948937866434
 40
9.693948937866434
 40
9.693948937866434
 40
9.693948937866434
 10
-2.914762823713084
 20
3.49998682707577
 30
0.0
 10
-3.107696715234072
 20
3.49790591255812
 30
0.0
 10
-3.493821559555947
 20
3.493741310953722
 30
0.0
 10
-4.072867575153915
 20
3.460136551052817
 30
0.0
 10
-4.651889751763521
 20
3.406734028830598
 30
0.0
 10
-5.23087591812139
 20
3.331880293309132
 30
0.0
 10
-5.809819178670046
 20
3.236590532958312
 30
0.0
 10
-6.388712462189818
 20
3.121306545209928
 30
0.0
 10
-6.96754799895995
 20
2.986770451218874
 30
0.0
 10
-7.546348250122754
 20
2.833887982618335
 30
0.0
 10
-8.013570905817317
 20
2.696163988359185
 30
0.0
 10
-8.28795144300993
 20
2.61006668637025
 30
0.0
 10
-8.370305759577345
 20
2.583712878592067
 30
0.0
  0
LINE
  5
2FF0
330
1F
100
AcDbEntity
  8
AM_0
 48
0.5
100
AcDbLine
 10
-3.204200599399685
 20
-3.500013172924325
 30
0.0
 11
-1.000000000000065
 21
-3.500013172924325
 31
0.0
  0
LINE
  5
2FF1
330
1F
100
AcDbEntity
  8
AM_11
 48
0.5
100
AcDbLine
 10
-34.86608547574782
 20
-3.500013172923723
 30
0.0
 11
-26.71237757744155
 21
-3.500013172923896
 31
0.0
  0
LINE
  5
2FF2
330
1F
100
AcDbEntity
  8
AM_0
 48
0.5
100
AcDbLine
 10
-26.71237757744155
 20
-3.500013172923896
 30
0.0
 11
-14.00825664683759
 21
-3.500013172924123
 31
0.0
  0
LINE
  5
2FF3
330
1F
100
AcDbEntity
  8
AM_11
 48
0.5
100
AcDbLine
 10
-14.00825664683759
 20
-3.500013172924123
 30
0.0
 11
-3.204200599399685
 21
-3.500013172924325
 31
0.0
  0
SPLINE
  5
2FF4
330
1F
100
AcDbEntity
  8
AM_0
 48
0.5
100
AcDbSpline
210
0.0
220
0.0
230
1.0
 70
     8
 71
     3
 72
    22
 73
    18
 74
     0
 42
0.0000000001
 43
0.0000000001
 40
0.0
 40
0.0
 40
0.0
 40
0.0
 40
1.010743684496582
 40
2.022833993863546
 40
3.037578683882831
 40
4.056212471389632
 40
5.079857945358201
 40
6.109499720892564
 40
7.145961650132166
 40
8.189873411961459
 40
9.241710626092514
 40
10.30166235592959
 40
11.36982472628033
 40
12.44598212828784
 40
13.52983440361964
 40
14.62080578343036
 40
14.90544694398022
 40
14.90544694398022
 40
14.90544694398022
 40
14.90544694398022
 10
-26.71237757744155
 20
-3.500013172923896
 30
0.0
 10
-26.92383877238145
 20
-3.498113677340481
 30
0.0
 10
-27.30629310497953
 20
-3.493947317581675
 30
0.0
 10
-27.87983459255074
 20
-3.460342392354424
 30
0.0
 10
-28.45335281934382
 20
-3.406943208747302
 30
0.0
 10
-29.02683523536147
 20
-3.33208955112574
 30
0.0
 10
-29.60027456701852
 20
-3.236796068956049
 30
0.0
 10
-30.17366483202423
 20
-3.121513879175549
 30
0.0
 10
-30.74699762817608
 20
-2.986988151974344
 30
0.0
 10
-31.32027689791044
 20
-2.834053430114972
 30
0.0
 10
-31.89349747800383
 20
-2.663664612433535
 30
0.0
 10
-32.46666236405062
 20
-2.476858704467595
 30
0.0
 10
-33.03977525085838
 20
-2.274824437618262
 30
0.0
 10
-33.61283570795207
 20
-2.05876289704918
 30
0.0
 10
-34.18585447094427
 20
-1.83005049259637
 30
0.0
 10
-34.61651811642097
 20
-1.649686015918414
 30
0.0
 10
-34.85649892827893
 20
-1.546595478709426
 30
0.0
 10
-34.82185541118482
 20
-1.561574114290431
 30
0.0
  0
SPLINE
  5
2FF5
330
1F
100
AcDbEntity
  8
AM_0
100
AcDbSpline
210
0.0
220
0.0
230
1.0
 70
     8
 71
     3
 72
    13
 73
     9
 74
     0
 42
0.0000000001
 43
0.0000000001
 40
16.03460056234195
 40
16.03460056234195
 40
16.03460056234195
 40
16.03460056234195
 40
16.35212717791071
 40
17.38177067057215
 40
18.41822498539278
 40
19.46214186516937
 40
20.5139635832251
 40
21.34083983469381
 40
21.34083983469381
 40
21.34083983469381
 40
21.34083983469381
 10
-34.8657236690267
 20
-3.500013172923741
 30
0.0
 10
-34.70334669483611
 20
-3.488698744318758
 30
0.0
 10
-34.45359898424511
 20
-3.437247485725079
 30
0.0
 10
-34.01366630629024
 20
-3.336432653938001
 30
0.0
 10
-33.44395195440599
 20
-3.186524267452538
 30
0.0
 10
-32.8747668710554
 20
-3.018201557341306
 30
0.0
 10
-32.3480834245493
 20
-2.846160640197906
 30
0.0
 10
-32.01206866052368
 20
-2.727698225228062
 30
0.0
 10
-31.86466099742338
 20
-2.67415213423197
 30
0.0
  0
ELLIPSE
  5
2FF6
330
1F
100
AcDbEntity
  8
AM_0
 48
0.5
100
AcDbEllipse
 10
-0.8249556344998394
 20
-0.7283877353923422
 30
0.0
 11
-0.4624710541325898
 21
0.3028271221637444
 31
0.0
210
0.0
220
0.0
230
1.0
 40
0.5169999822947218
 41
4.529225136152621
 42
7.67266547748213
  0
ELLIPSE
  5
2FF7
330
1F
100
AcDbEntity
  8
AM_0
 48
0.5
100
AcDbEllipse
 10
-0.8249556344998394
 20
-0.7283877353923422
 30
0.0
 11
-0.0900168469418241
 21
0.5751698960055441
 31
0.0
210
0.0
220
0.0
230
0.9999999999999998
 40
0.4661371904226035
 41
1.820972968254724
 42
4.956314857966701
  0
ELLIPSE
  5
2FF8
330
1F
100
AcDbEntity
  8
AM_0
 48
0.5
100
AcDbEllipse
 10
-5.683936326839607
 20
5.874255676766284
 30
0.0
 11
-3.826447597471372
 21
7.345582728585681
 31
0.0
210
0.0
220
0.0
230
1.0
 40
0.6612763897642317
 41
3.179404551310598
 42
3.318483680684456
  0
ELLIPSE
  5
2FF9
330
1F
100
AcDbEntity
  8
AM_0
 48
0.5
100
AcDbEllipse
 10
3.663565270375149
 20
-0.9956013734336654
 30
0.0
 11
-2.961587069536589
 21
8.939592726568809
 31
0.0
210
0.0
220
0.0
230
1.0
 40
0.5563216413926466
 41
1.429783881507803
 42
1.667656771565354
  0
ELLIPSE
  5
2FFA
330
1F
100
AcDbEntity
  8
AM_0
 48
0.5
100
AcDbEllipse
 10
-5.885029805373391
 20
6.65737203903365
 30
0.0
 11
-0.9681624039506877
 21
9.081280493194174
 31
0.0
210
0.0
220
0.0
230
0.9999999999999998
 40
0.9252354680579824
 41
3.703831506251763
 42
3.796407940771816
  0
SPLINE
  5
2FFB
330
1F
100
AcDbEntity
  8
AM_0
100
AcDbSpline
210
0.0
220
0.0
230
1.0
 70
     8
 71
     3
 72
    22
 73
    18
 74
     0
 42
0.0000000001
 43
0.0000000001
 40
17.17441611292
 40
17.17441611292
 40
17.17441611292
 40
17.17441611292
 40
17.38177636558528
 40
18.41823744757437
 40
19.46215659509824
 40
20.51397914882054
 40
21.57394542641293
 40
22.64209583141747
 40
23.71826625065247
 40
24.80210429862395
 40
25.8930771157021
 40
26.99048705697709
 40
28.09349309193389
 40
29.20112995599786
 40
30.31233024745139
 40
31.42594771747373
 40
32.5407895042663
 40
32.54078950426994
 40
32.54078950426994
 40
32.54078950426994
 10
-16.19733974282536
 20
-3.143040729925299
 30
0.0
 10
-16.23574493789746
 20
-3.134938573211491
 30
0.0
 10
-16.46596310805604
 20
-3.085587451080136
 30
0.0
 10
-16.88770982304433
 20
-2.986632028015204
 30
0.0
 10
-17.46098825027702
 20
-2.833700173539831
 30
0.0
 10
-18.03420826164137
 20
-2.663304472903905
 30
0.0
 10
-18.60737390403851
 20
-2.476508578320929
 30
0.0
 10
-19.18048442035649
 20
-2.274457824805907
 30
0.0
 10
-19.75354686492116
 20
-2.058409667564506
 30
0.0
 10
-20.32656389117279
 20
-1.82969186905751
 30
0.0
 10
-20.89954080088145
 20
-1.589714919416009
 30
0.0
 10
-21.47248396518708
 20
-1.339959324415349
 30
0.0
 10
-22.04539835689064
 20
-1.081960838762007
 30
0.0
 10
-22.61828974330178
 20
-0.8173067127362271
 30
0.0
 10
-23.19116320260405
 20
-0.5476242696417951
 30
0.0
 10
-23.76402722141955
 20
-0.2745775959181477
 30
0.0
 10
-24.14586160306547
 20
-0.0914509837523448
 30
0.0
 10
-24.33688368654212
 20
0.0001626210530142
 30
0.0
  0
SPLINE
  5
2FFC
330
1F
100
AcDbEntity
  8
AM_0
100
AcDbSpline
210
0.0
220
0.0
230
1.0
 70
     8
 71
     3
 72
    17
 73
    13
 74
     0
 42
0.0000000001
 43
0.0000000001
 40
1.580019955310467
 40
1.580019955310467
 40
1.580019955310467
 40
1.580019955310467
 40
2.030549285115227
 40
3.082371838836284
 40
4.126290986361125
 40
5.162752068350215
 40
6.192395305374981
 40
7.216039564037012
 40
8.234688489606833
 40
9.249433870634691
 40
10.26152376260694
 40
11.27226744710342
 40
11.27226744710342
 40
11.27226744710342
 40
11.27226744710352
 10
-8.605807160129231
 20
-2.583118461220268
 30
0.0
 10
-8.686953792369322
 20
-2.609722276888233
 30
0.0
 10
-8.95801080625198
 20
-2.696919836187546
 30
0.0
 10
-9.420772348276091
 20
-2.833692327931309
 30
0.0
 10
-9.993970976463376
 20
-2.986859374572171
 30
0.0
 10
-10.56732740569632
 20
-3.121319705282061
 30
0.0
 10
-11.14071010592076
 20
-3.236621772050078
 30
0.0
 10
-11.71415527516272
 20
-3.331926862074285
 30
0.0
 10
-12.28764006208593
 20
-3.406691111229631
 30
0.0
 10
-12.86116055876269
 20
-3.460430022165188
 30
0.0
 10
-13.43470263513311
 20
-3.49279767127044
 30
0.0
 10
-13.81715682179556
 20
-3.500015418180907
 30
0.0
 10
-14.00825664683755
 20
-3.500013172924123
 30
0.0
  0
SPLINE
  5
2FFD
330
1F
100
AcDbEntity
  8
AM_0
100
AcDbSpline
210
0.0
220
0.0
230
1.0
 70
     8
 71
     3
 72
    11
 73
     7
 74
     0
 42
0.0000000001
 43
0.0000000001
 40
11.27226913003534
 40
11.27226913003534
 40
11.27226913003534
 40
11.2722691300354
 40
12.28301561507924
 40
13.29510212255852
 40
14.30984805882082
 40
15.18258238371378
 40
15.18258238371378
 40
15.18258238371378
 40
15.18258238371378
 10
-14.00825664683759
 20
-3.500013172924123
 30
0.0
 10
-14.19862981626424
 20
-3.482885381060337
 30
0.0
 10
-14.57901707511926
 20
-3.441414355206088
 30
0.0
 10
-15.14763371451147
 20
-3.35775703822414
 30
0.0
 10
-15.68726093156731
 20
-3.257837545756287
 30
0.0
 10
-16.03626014007686
 20
-3.181026458101367
 30
0.0
 10
-16.19708891310144
 20
-3.143083902398534
 30
0.0
  0
ELLIPSE
  5
2FFE
330
1F
100
AcDbEntity
  8
AM_0
 48
0.5
100
AcDbEllipse
 10
2.353078204780485
 20
4.201952159106783
 30
0.0
 11
-18.47346249114755
 21
19.29206012008218
 31
0.0
210
0.0
220
0.0
230
1.0
 40
0.2535223152663955
 41
1.513371673910985
 42
1.61715171087316
  0
SPLINE
  5
2FFF
330
1F
100
AcDbEntity
  8
AM_0
 48
0.5
100
AcDbSpline
210
0.0
220
0.0
230
1.0
 70
     8
 71
     3
 72
    25
 73
    21
 74
     0
 42
0.0000000001
 43
0.0000000001
 40
6.846175049578289
 40
6.846175049578289
 40
6.846175049578289
 40
6.846175049578289
 40
7.604337694224321
 40
8.711974558287883
 40
9.814980593243754
 40
10.91239053451967
 40
12.0033633515982
 40
13.08720139956839
 40
14.16337181880432
 40
15.23152222380919
 40
16.29148850140128
 40
17.34331105512262
 40
18.38723020264746
 40
19.42369128463655
 40
20.45333379090873
 40
21.47697865721768
 40
22.49561244472435
 40
23.5103574802404
 40
24.52244778960836
 40
25.53320666051913
 40
25.53320666051913
 40
25.53320666051913
 40
25.53320666051913
 10
-3.590076789404554
 20
0.6335097410537247
 30
0.0
 10
-3.721616333575672
 20
0.6949635163266446
 30
0.0
 10
-4.045605258049449
 20
0.8455831632173808
 30
0.0
 10
-4.562525044821673
 20
1.082110229309868
 30
0.0
 10
-5.140937795646546
 20
1.340108787866362
 30
0.0
 10
-5.719379635224336
 20
1.589864363454075
 30
0.0
 10
-6.297855533448434
 20
1.829841318340627
 30
0.0
 10
-6.876371935967951
 20
2.058559115132138
 30
0.0
 10
-7.454934192242435
 20
2.274607274021658
 30
0.0
 10
-8.033544980710416
 20
2.476658022694967
 30
0.0
 10
-8.612211428372475
 20
2.663453934815479
 30
0.0
 10
-9.190932751645153
 20
2.833849570831858
 30
0.0
 10
-9.769713107362296
 20
2.986781663759453
 30
0.0
 10
-10.34855045298139
 20
3.121303740719066
 30
0.0
 10
-10.92744252727122
 20
3.236591277624955
 30
0.0
 10
-11.50638610896953
 20
3.33188009520787
 30
0.0
 10
-12.08537218994659
 20
3.406734082024684
 30
0.0
 10
-12.66439438918818
 20
3.460136535217996
 30
0.0
 10
-13.24344330741926
 20
3.493741490087334
 30
0.0
 10
-13.62957106776996
 20
3.497905961764333
 30
0.0
 10
-13.8225078733827
 20
3.499986827076079
 30
0.0
  0
SPLINE
  5
3000
330
1F
100
AcDbEntity
  8
AM_0
100
AcDbSpline
210
0.0
220
0.0
230
1.0
 70
     8
 71
     3
 72
    46
 73
    42
 74
     0
 42
0.0000000001
 43
0.0000000001
 40
0.0
 40
0.0
 40
0.0
 40
0.0
 40
0.5056245176053715
 40
0.759310862862336
 40
1.013969309739036
 40
1.269880374404297
 40
1.527291183660732
 40
1.786406454158005
 40
2.047386241038974
 40
2.310345544571907
 40
2.575337113970003
 40
2.842374715221223
 40
3.111417320030211
 40
3.382376832022752
 40
3.655120036292296
 40
3.929472521611371
 40
4.205224030350333
 40
4.482133246366229
 40
4.759933319229942
 40
5.038338087391601
 40
5.317048131389549
 40
5.595758175387723
 40
5.874162943549383
 40
6.151963016412869
 40
6.428872232428759
 40
6.704623741167955
 40
6.978976226486705
 40
7.251719430756336
 40
7.522680721168327
 40
7.791723325977311
 40
8.058760927228529
 40
8.32375249662655
 40
8.586708135057122
 40
8.84768792193809
 40
9.106803192435362
 40
9.364213819003406
 40
9.620125035580644
 40
9.87478726697307
 40
10.12847352585208
 40
10.38149610319407
 40
10.63418200686337
 40
10.63418200686337
 40
10.63418200686337
 40
10.63418200686337
 10
-1.598672469811406
 20
-3.500015398154384
 30
0.0
 10
-1.981145336514371
 20
-3.492042127601169
 30
0.0
 10
-2.555515827512479
 20
-3.480068438168008
 30
0.0
 10
-3.3192813166771
 20
-3.406348632011913
 30
0.0
 10
-3.89276958922453
 20
-3.332019457068846
 30
0.0
 10
-4.466208842176789
 20
-3.236593422432929
 30
0.0
 10
-5.03959756489857
 20
-3.121339442650861
 30
0.0
 10
-5.612932811779486
 20
-2.986808529933243
 30
0.0
 10
-6.186213622569201
 20
-2.833877067776727
 30
0.0
 10
-6.759437445965571
 20
-2.663484077997658
 30
0.0
 10
-7.332605427705589
 20
-2.47668640110778
 30
0.0
 10
-7.905716026141671
 20
-2.27463589717293
 30
0.0
 10
-8.478778448602174
 20
-2.058587672629668
 30
0.0
 10
-9.051795480285012
 20
-1.829869891117817
 30
0.0
 10
-9.624772390616225
 20
-1.589892941520884
 30
0.0
 10
-10.19771554687676
 20
-1.340137329026672
 30
0.0
 10
-10.77062997036946
 20
-1.082138913826967
 30
0.0
 10
-11.34352123699718
 20
-0.8174845219856718
 30
0.0
 10
-11.91639542104045
 20
-0.5478029462078627
 30
0.0
 10
-12.48925775574239
 20
-0.2747525386150174
 30
0.0
 10
-13.06211527486241
 20
-0.0000153982093515
 30
0.0
 10
-13.63497279385661
 20
0.2747217425301544
 30
0.0
 10
-14.20783512893604
 20
0.5477721491219292
 30
0.0
 10
-14.78070931159954
 20
0.8174537285582944
 30
0.0
 10
-15.3536005833435
 20
1.082108106831308
 30
0.0
 10
-15.92651498786565
 20
1.340106572340741
 30
0.0
 10
-16.49945821438068
 20
1.589861998520357
 30
0.0
 10
-17.07243611046898
 20
1.829840158996324
 30
0.0
 10
-17.64545536861956
 20
2.058555862491195
 30
0.0
 10
-18.21851881333557
 20
2.274605194855757
 30
0.0
 10
-18.79162939842802
 20
2.476655758911396
 30
0.0
 10
-19.36479502565909
 20
2.663451719290256
 30
0.0
 10
-19.938015029783
 20
2.833847344904533
 30
0.0
 10
-20.5112935004789
 20
2.986779431802814
 30
0.0
 10
-21.08462841554349
 20
3.121301542801841
 30
0.0
 10
-21.65801755863877
 20
3.236588950779758
 30
0.0
 10
-22.2314604713246
 20
3.331878715814603
 30
0.0
 10
-22.80494578883235
 20
3.406731154302374
 30
0.0
 10
-23.37846658759763
 20
3.460134427724414
 30
0.0
 10
-23.95200820474128
 20
3.493739060316889
 30
0.0
 10
-24.3344625455103
 20
3.497903678863668
 30
0.0
 10
-24.52556240706731
 20
3.499984601846852
 30
0.0
  0
SPLINE
  5
3001
330
1F
100
AcDbEntity
  8
AM_0
100
AcDbSpline
210
0.0
220
0.0
230
1.0
 70
     8
 71
     3
 72
    55
 73
    51
 74
     0
 42
0.0000000001
 43
0.0000000001
 40
0.0
 40
0.0
 40
0.0
 40
0.0
 40
1.010743684496582
 40
2.022833576467832
 40
3.037578957496688
 40
4.056212745003489
 40
5.079857003664532
 40
6.109500240690281
 40
7.145961322679372
 40
8.189895241603872
 40
9.241717795325891
 40
10.30168407291828
 40
11.36983447792315
 40
12.44600489715814
 40
13.52984294512926
 40
14.62081576220742
 40
15.7182257034828
 40
16.82123173843959
 40
17.92886860250316
 40
19.0400688939571
 40
20.15368796660465
 40
21.26852814259644
 40
22.38336992938901
 40
23.49698739941135
 40
24.6081876908653
 40
25.71582455492886
 40
26.81883757994213
 40
27.91624752121713
 40
29.00722033829659
 40
30.09105838626677
 40
31.16722880550176
 40
32.23537921050758
 40
33.29534548809967
 40
34.347168041821
 40
35.39108718934584
 40
36.42754827133493
 40
37.45720575381954
 40
38.48085062012849
 40
39.49948440763516
 40
40.51422944315121
 40
41.52631975251916
 40
42.53706336719636
 40
43.54780698187354
 40
44.55989729124051
 40
45.57464232675757
 40
46.59327611426424
 40
47.6169209805722
 40
48.64656348684535
 40
49.68302456883444
 40
50.58557219878025
 40
50.58557219878025
 40
50.58557219878025
 40
50.58557219878025
 10
-3.204200599399685
 20
-3.500013172924316
 30
0.0
 10
-3.39530042696284
 20
-3.497932982946967
 30
0.0
 10
-3.77775460756406
 20
-3.493765378967713
 30
0.0
 10
-4.351296696099657
 20
-3.460169812172285
 30
0.0
 10
-4.924814302286028
 20
-3.406761637108739
 30
0.0
 10
-5.498296413363177
 20
-3.331908048491367
 30
0.0
 10
-6.071737306882443
 20
-3.236623455959608
 30
0.0
 10
-6.645125670137099
 20
-3.12133157491183
 30
0.0
 10
-7.218463421085801
 20
-2.986809052552298
 30
0.0
 10
-7.791745475381354
 20
-2.833879640443845
 30
0.0
 10
-8.364967927928226
 20
-2.663482315899481
 30
0.0
 10
-8.938133635923392
 20
-2.47668664531122
 30
0.0
 10
-9.511244134418934
 20
-2.274635830988922
 30
0.0
 10
-10.08430658397151
 20
-2.058587690576139
 30
0.0
 10
-10.65732360827442
 20
-1.829869886185377
 30
0.0
 10
-11.23030052076438
 20
-1.589892943136957
 30
0.0
 10
-11.80324367583282
 20
-1.340137327527462
 30
0.0
 10
-12.37615810193484
 20
-1.082138918224804
 30
0.0
 10
-12.94904935927021
 20
-0.817484505810057
 30
0.0
 10
-13.52192357801877
 20
-0.5478030067491213
 30
0.0
 10
-14.09478578283281
 20
-0.2747523120688496
 30
0.0
 10
-14.667644063414
 20
-0.0000161122808209
 30
0.0
 10
-15.24049977234084
 20
0.2747250329300104
 30
0.0
 10
-15.81336389726411
 20
0.5477714754887599
 30
0.0
 10
-16.38623740879181
 20
0.8174537908602284
 30
0.0
 10
-16.95912968758592
 20
1.082109211490318
 30
0.0
 10
-17.5320464904118
 20
1.34010541898924
 30
0.0
 10
-18.10499054973596
 20
1.589862301207228
 30
0.0
 10
-18.6779675449447
 20
1.829839049659074
 30
0.0
 10
-19.25098454839735
 20
2.058556902148319
 30
0.0
 10
-19.8240469994173
 20
2.274605042877157
 30
0.0
 10
-20.39715751251046
 20
2.476655808886073
 30
0.0
 10
-20.97032316134868
 20
2.663451670209908
 30
0.0
 10
-21.54354315039598
 20
2.83384749014805
 30
0.0
 10
-22.11682165960421
 20
2.98677890525026
 30
0.0
 10
-22.69015919787436
 20
3.121304132688489
 30
0.0
 10
-23.26355165531408
 20
3.236582845803015
 30
0.0
 10
-23.83699444332
 20
3.331896930930442
 30
0.0
 10
-24.41047672440294
 20
3.406661790280068
 30
0.0
 10
-24.98399472908673
 20
3.460394293735077
 30
0.0
 10
-25.55753633132699
 20
3.492772099020201
 30
0.0
 10
-26.13109053679613
 20
3.503588452415116
 30
0.0
 10
-26.70464474142137
 20
3.492772099003295
 30
0.0
 10
-27.27818634619826
 20
3.460394293803233
 30
0.0
 10
-27.85170434154293
 20
3.406661790023839
 30
0.0
 10
-28.42518665764059
 20
3.331896931894152
 30
0.0
 10
-28.99862651836999
 20
3.236583306851886
 30
0.0
 10
-29.57201671686173
 20
3.121305311351373
 30
0.0
 10
-30.11928584150795
 20
2.992885498891931
 30
0.0
 10
-30.47436028205636
 20
2.89897087600137
 30
0.0
 10
-30.63909412723565
 20
2.853201698835586
 30
0.0
  0
SPLINE
  5
3002
330
1F
100
AcDbEntity
  8
AM_0
 48
0.5
100
AcDbSpline
210
0.0
220
0.0
230
1.0
 70
     8
 71
     3
 72
    10
 73
     6
 74
     0
 42
0.0000000001
 43
0.0000000001
 40
0.0
 40
0.0
 40
0.0
 40
0.0
 40
2.69986029516136
 40
4.147722969032201
 40
6.285750005020438
 40
6.285750005020438
 40
6.285750005020438
 40
6.285750005020438
 10
-3.590076789404546
 20
0.6334681706628985
 30
0.0
 10
-2.984703080747229
 20
0.3082939845728228
 30
0.0
 10
-2.385797084266088
 20
-0.1912623972886132
 30
0.0
 10
-0.9694648550786846
 20
0.0505815986599645
 30
0.0
 10
-1.236201410397471
 20
0.865144177738729
 30
0.0
 10
-1.412443883655214
 20
1.361645157539417
 30
0.0
  0
SPLINE
  5
3003
330
1F
100
AcDbEntity
  8
AM_0
100
AcDbSpline
210
0.0
220
0.0
230
1.0
 70
     8
 71
     3
 72
    23
 73
    19
 74
     0
 42
0.0000000001
 43
0.0000000001
 40
16.03460024169435
 40
16.03460024169435
 40
16.03460024169435
 40
16.03460024169435
 40
16.35212704903564
 40
17.38177054169784
 40
18.41822485651776
 40
19.46214173629503
 40
20.51396345435107
 40
21.57393551351153
 40
22.64208202342361
 40
23.7182574881101
 40
24.80209208578934
 40
25.89306333925047
 40
26.99048218457928
 40
28.09348763352352
 40
29.20111863782268
 40
30.31232390128032
 40
31.42594612798585
 40
32.5407912310448
 40
32.5407912310486
 40
32.5407912310486
 40
32.5407912310486
 10
-33.74962041915738
 20
3.499986827076232
 30
0.0
 10
-33.0231508491166
 20
3.454213699503889
 30
0.0
 10
-32.68718254240026
 20
3.405441406389242
 30
0.0
 10
-32.27720644009374
 20
3.336400131661272
 30
0.0
 10
-31.70749215990543
 20
3.186491329514549
 30
0.0
 10
-31.13830705713816
 20
3.018168731971341
 30
0.0
 10
-30.56961749819024
 20
2.832406504372786
 30
0.0
 10
-30.00140329926137
 20
2.630240275296365
 30
0.0
 10
-29.43363161893267
 20
2.412825712163655
 30
0.0
 10
-28.86626291974238
 20
2.18142811319672
 30
0.0
 10
-28.2992649617632
 20
1.937357869507224
 30
0.0
 10
-27.7325922867129
 20
1.682035168973501
 30
0.0
 10
-27.166198972108
 20
1.416944057442833
 30
0.0
 10
-26.60004728077746
 20
1.143608697673179
 30
0.0
 10
-26.03408984349687
 20
0.8636184973498677
 30
0.0
 10
-25.46827424062124
 20
0.5786083938260074
 30
0.0
 10
-24.90255439878843
 20
0.290229943473459
 30
0.0
 10
-24.52550913900133
 20
0.0968879608827529
 30
0.0
 10
-24.33688368653957
 20
0.0001626210517666
 30
0.0
  0
LINE
  5
3004
330
1F
100
AcDbEntity
  8
AM_0
 48
0.5
100
AcDbLine
 10
-0.0000000000000033
 20
-0.0000000000000076
 30
0.0
 11
-1.412443883655214
 21
1.361645157539417
 31
0.0
  0
ELLIPSE
  5
3005
330
1F
100
AcDbEntity
  8
AM_0
 48
0.5
100
AcDbEllipse
 10
-34.86572331293595
 20
-2.333528803754944
 30
0.0
 11
0.0033354182559449
 21
1.166479874530717
 31
0.0
210
0.0
220
0.0
230
1.0
 40
0.9724484297925082
 41
1.584825459109241
 42
3.144532731589574
  0
ELLIPSE
  5
3006
330
1F
100
AcDbEntity
  8
AM_0
 48
0.5
100
AcDbEllipse
 10
-35.14951812538016
 20
-2.369074788658857
 30
0.0
 11
-0.0000000000005395
 21
0.8750000000000088
 31
0.0
210
0.0
220
0.0
230
1.0
 40
0.9722986527217134
 41
-0.3953601559022868
 42
1.545164924684025
  0
SPLINE
  5
3007
330
1F
100
AcDbEntity
  8
AM_0
 48
0.5
100
AcDbSpline
210
0.0
220
0.0
230
1.0
 70
     8
 71
     3
 72
    26
 73
    22
 74
     0
 42
0.0000000001
 43
0.0000000001
 40
0.0
 40
0.0
 40
0.0
 40
0.0
 40
0.2526859211241313
 40
0.5057083941171959
 40
0.7593947393741639
 40
1.01405318625086
 40
1.26996425091637
 40
1.527375060172565
 40
1.786490330669834
 40
2.047470117551047
 40
2.310425755981314
 40
2.575417325379407
 40
2.842456731169063
 40
3.111495753801943
 40
3.382458822635121
 40
3.655202026904655
 40
3.929554512223505
 40
4.205306020962704
 40
4.482215236978595
 40
4.76001530984208
 40
5.029821427366006
 40
5.029821427366006
 40
5.029821427366006
 40
5.029821427366006
 10
-25.12721077871408
 20
-3.50019547042213
 30
0.0
 10
-25.31831060630025
 20
-3.498113055305551
 30
0.0
 10
-25.70076478694767
 20
-3.493945451507891
 30
0.0
 10
-26.27430687513751
 20
-3.460349883347885
 30
0.0
 10
-26.84782448264306
 20
-3.406941713491216
 30
0.0
 10
-27.42130658876156
 20
-3.332088105301498
 30
0.0
 10
-27.99474750092738
 20
-3.236803586369617
 30
0.0
 10
-28.56813579397315
 20
-3.121511428200467
 30
0.0
 10
-29.141471086449
 20
-2.986990589348254
 30
0.0
 10
-29.71474946822099
 20
-2.834058081638079
 30
0.0
 10
-30.28796958400343
 20
-2.663662825728091
 30
0.0
 10
-30.86113615141936
 20
-2.476865375864044
 30
0.0
 10
-31.43424679545375
 20
-2.274819146087611
 30
0.0
 10
-32.00730800961145
 20
-2.058763538074442
 30
0.0
 10
-32.58032745611596
 20
-1.830052331370073
 30
0.0
 10
-33.15330637304698
 20
-1.590072947094045
 30
0.0
 10
-33.72624903166122
 20
-1.340316322228619
 30
0.0
 10
-34.29916595337652
 20
-1.082323401226429
 30
0.0
 10
-34.8720476701048
 20
-0.8176479236219147
 30
0.0
 10
-35.43904464694771
 20
-0.550828123203505
 30
0.0
 10
-35.81470147675115
 20
-0.3715767096515498
 30
0.0
 10
-36.00000000000005
 20
-0.2832571337313632
 30
0.0
  0
LINE
  5
3008
330
1F
100
AcDbEntity
  8
AM_0
 48
0.5
100
AcDbLine
 10
-28.17453805471122
 20
1.667627390999269
 30
0.0
 11
-36.00000000000003
 21
-0.2832571337313672
 31
0.0
  0
VIEWPORT
  5
110
330
101
100
AcDbEntity
 67
     1
  8
0
100
AcDbViewport
 10
420.5
 20
297.0
 30
0.0
 40
948.9782706766916
 41
628.452
 68
     1
 69
     1
1001
ACAD
1000
MVIEW
1002
{
1070
    16
1010
0.0
1020
0.0
1030
0.0
1010
0.0
1020
0.0
1030
1.0
1040
0.0
1040
628.452
1040
420.5
1040
297.0
1040
50.0
1040
0.0
1040
0.0
1070
     0
1070
   100
1070
     1
1070
     1
1070
     0
1070
     0
1070
     0
1070
     0
1040
0.0
1040
0.0
1040
0.0
1040
10.0
1040
10.0
1040
10.0
1040
10.0
1070
     0
1002
{
1002
}
1002
}
  0
ENDSEC
  0
SECTION
  2
OBJECTS
  0
DICTIONARY
  5
C
330
0
100
AcDbDictionary
  3
ACAD_GROUP
350
D
  3
ACAD_LAYOUT
350
1A
  3
ACAD_MLINESTYLE
350
17
  3
ACAD_PLOTSETTINGS
350
19
  3
ACAD_PLOTSTYLENAME
350
E
  3
ACDBVARIABLEDICTIONARY
350
34
  3
ACMDICTIONARY
350
43
  3
AMG
350
2B
  3
AMGSNAPSETTINGS
350
6E
  3
DWGPROPS
350
309A
  3
ACDBHEADERROUNDTRIPXREC
350
30A6
  0
DICTIONARY
  5
74
330
1F
100
AcDbDictionary
280
     1
  3
ACAD_INDEX
360
309C
  3
ACAD_LAYOUTSELFREF
360
30C9
  0
DICTIONARY
  5
30CE
330
101
100
AcDbDictionary
280
     1
  3
ACAD_LAYOUTSELFREF
360
30CF
  0
DICTIONARY
  5
D
102
{ACAD_REACTORS
330
C
102
}
330
C
100
AcDbDictionary
  0
DICTIONARY
  5
1A
102
{ACAD_REACTORS
330
C
102
}
330
C
100
AcDbDictionary
  0
DICTIONARY
  5
17
102
{ACAD_REACTORS
330
C
102
}
330
C
100
AcDbDictionary
  3
STANDARD
350
18
  0
DICTIONARY
  5
19
102
{ACAD_REACTORS
330
C
102
}
330
C
100
AcDbDictionary
  0
ACDBDICTIONARYWDFLT
  5
E
102
{ACAD_REACTORS
330
C
102
}
330
C
100
AcDbDictionary
281
     1
  3
Normal
350
F
100
AcDbDictionaryWithDefault
340
F
  0
DICTIONARY
  5
34
102
{ACAD_REACTORS
330
C
102
}
330
C
100
AcDbDictionary
  3
INDEXCTL
350
35
  3
SORTENTS
350
B5E
  0
DICTIONARY
  5
43
102
{ACAD_REACTORS
330
C
102
}
330
C
100
AcDbDictionary
  3
ACMSTDDICTIONARY
350
260
  0
DICTIONARY
  5
2B
102
{ACAD_REACTORS
330
C
102
}
330
C
100
AcDbDictionary
  3
ACMGSETTINGS
350
2C
  0
DICTIONARY
  5
6E
102
{ACAD_REACTORS
330
C
102
}
330
C
100
AcDbDictionary
  0
XRECORD
  5
309A
102
{ACAD_REACTORS
330
C
102
}
330
C
100
AcDbXrecord
  1
DWGPROPS COOKIE
  2

  3

  4

  6

  7

  8

  9

300
AmdtFileType=82
301
=
302
=
303
=
304
=
305
=
306
=
307
=
308
=
309
=
 40
0.0812145601851852
 41
2452800.443498622
 42
2452946.608882916
  1

 90
        1
  0
DICTIONARY
  5
30A6
102
{ACAD_REACTORS
330
C
102
}
330
C
100
AcDbDictionary
  3
TSTACKALIGN
350
30A7
  3
TSTACKSIZE
350
30A8
  3
HYPERLINKBASE
350
30A9
  3
STYLESHEET
350
30AA
  3
LAYOUTDICT
350
30AB
  3
PLOTSETDICT
350
30AC
  3
PLOTSTYLNAMDICT
350
30AD
  3
LWETCUNION
350
30AE
  3
INSUNITS
350
30AF
  3
CEPSNTYPE
350
30B0
  3
FINGERPRINTGUID
350
30B1
  3
VERSIONGUID
350
30B2
  3
PSVPSCALE
350
30B3
  3
DIMSTYLEDATA
350
30B4
  3
PUCSORTHOREF
350
30B5
  3
PUCSORTHOVIEW
350
30B6
  3
PUCSBASE
350
30B7
  3
PUCSORGTOP
350
30B8
  3
PUCSORGBOTTOM
350
30B9
  3
PUCSORGLEFT
350
30BA
  3
PUCSORGRIGHT
350
30BB
  3
PUCSORGFRONT
350
30BC
  3
PUCSORGBACK
350
30BD
  3
UCSORTHOREF
350
30BE
  3
UCSORTHOVIEW
350
30BF
  3
UCSBASE
350
30C0
  3
UCSORGTOP
350
30C1
  3
UCSORGBOTTOM
350
30C2
  3
UCSORGLEFT
350
30C3
  3
UCSORGRIGHT
350
30C4
  3
UCSORGFRONT
350
30C5
  3
UCSORGBACK
350
30C6
  0
DICTIONARY
  5
309C
102
{ACAD_REACTORS
330
74
102
}
330
74
100
AcDbDictionary
  3
*A1
350
309D
  0
XRECORD
  5
30C9
102
{ACAD_REACTORS
330
74
102
}
330
74
100
AcDbXrecord
340
1F
  0
XRECORD
  5
30CF
102
{ACAD_REACTORS
330
30CE
102
}
330
30CE
100
AcDbXrecord
340
101
  0
MLINESTYLE
  5
18
102
{ACAD_REACTORS
330
17
102
}
330
17
100
AcDbMlineStyle
  2
STANDARD
 70
     0
  3

 62
   256
 51
90.0
 52
90.0
 71
     2
 49
0.5
 62
   256
  6
BYLAYER
 49
-0.5
 62
   256
  6
BYLAYER
  0
ACDBPLACEHOLDER
  5
F
102
{ACAD_REACTORS
330
E
102
}
330
E
100
AcDbPlaceHolder
280
     0
  0
DICTIONARYVAR
  5
35
102
{ACAD_REACTORS
330
34
102
}
330
34
100
DictionaryVariables
280
     0
  1
1
  0
DICTIONARYVAR
  5
B5E
102
{ACAD_REACTORS
330
34
102
}
330
34
100
DictionaryVariables
280
     0
  1
96
  0
DICTIONARY
  5
260
102
{ACAD_REACTORS
330
43
102
}
330
43
100
AcDbDictionary
  0
DICTIONARY
  5
2C
102
{ACAD_REACTORS
330
2B
102
}
330
2B
100
AcDbDictionary
  3
DWGSETTINGS
350
2D
  0
XRECORD
  5
30A7
102
{ACAD_REACTORS
330
30A6
102
}
330
30A6
100
AcDbXrecord
 90
        1
  0
XRECORD
  5
30A8
102
{ACAD_REACTORS
330
30A6
102
}
330
30A6
100
AcDbXrecord
 90
       70
  0
XRECORD
  5
30A9
102
{ACAD_REACTORS
330
30A6
102
}
330
30A6
100
AcDbXrecord
  1

  0
XRECORD
  5
30AA
102
{ACAD_REACTORS
330
30A6
102
}
330
30A6
100
AcDbXrecord
  1
ASAMI.ctb
  0
XRECORD
  5
30AB
102
{ACAD_REACTORS
330
30A6
102
}
330
30A6
100
AcDbXrecord
340
1A
  0
XRECORD
  5
30AC
102
{ACAD_REACTORS
330
30A6
102
}
330
30A6
100
AcDbXrecord
340
19
  0
XRECORD
  5
30AD
102
{ACAD_REACTORS
330
30A6
102
}
330
30A6
100
AcDbXrecord
340
E
  0
XRECORD
  5
30AE
102
{ACAD_REACTORS
330
30A6
102
}
330
30A6
100
AcDbXrecord
 90
    10781
  0
XRECORD
  5
30AF
102
{ACAD_REACTORS
330
30A6
102
}
330
30A6
100
AcDbXrecord
 90
        4
  0
XRECORD
  5
30B0
102
{ACAD_REACTORS
330
30A6
102
}
330
30A6
100
AcDbXrecord
 90
        0
  0
XRECORD
  5
30B1
102
{ACAD_REACTORS
330
30A6
102
}
330
30A6
100
AcDbXrecord
  1
{AFB28963-8C59-40AE-9337-C84526B81ACE}
  0
XRECORD
  5
30B2
102
{ACAD_REACTORS
330
30A6
102
}
330
30A6
100
AcDbXrecord
  1
{98292CDD-93B7-4A3D-B4B4-DD419A6192F1}
  0
XRECORD
  5
30B3
102
{ACAD_REACTORS
330
30A6
102
}
330
30A6
100
AcDbXrecord
 40
0.0
  0
XRECORD
  5
30B4
102
{ACAD_REACTORS
330
30A6
102
}
330
30A6
100
AcDbXrecord
1000
DSTYLE
1002
{
1070
    79
 70
     2
1070
   341
340
59
1070
   342
340
59
1070
   371
 70
    -1
1070
   372
 70
    -1
1002
}
  0
XRECORD
  5
30B5
102
{ACAD_REACTORS
330
30A6
102
}
330
30A6
100
AcDbXrecord
340
0
  0
XRECORD
  5
30B6
102
{ACAD_REACTORS
330
30A6
102
}
330
30A6
100
AcDbXrecord
 70
     0
  0
XRECORD
  5
30B7
102
{ACAD_REACTORS
330
30A6
102
}
330
30A6
100
AcDbXrecord
340
0
  0
XRECORD
  5
30B8
102
{ACAD_REACTORS
330
30A6
102
}
330
30A6
100
AcDbXrecord
 10
0.0
 20
0.0
 30
0.0
  0
XRECORD
  5
30B9
102
{ACAD_REACTORS
330
30A6
102
}
330
30A6
100
AcDbXrecord
 10
0.0
 20
0.0
 30
0.0
  0
XRECORD
  5
30BA
102
{ACAD_REACTORS
330
30A6
102
}
330
30A6
100
AcDbXrecord
 10
0.0
 20
0.0
 30
0.0
  0
XRECORD
  5
30BB
102
{ACAD_REACTORS
330
30A6
102
}
330
30A6
100
AcDbXrecord
 10
0.0
 20
0.0
 30
0.0
  0
XRECORD
  5
30BC
102
{ACAD_REACTORS
330
30A6
102
}
330
30A6
100
AcDbXrecord
 10
0.0
 20
0.0
 30
0.0
  0
XRECORD
  5
30BD
102
{ACAD_REACTORS
330
30A6
102
}
330
30A6
100
AcDbXrecord
 10
0.0
 20
0.0
 30
0.0
  0
XRECORD
  5
30BE
102
{ACAD_REACTORS
330
30A6
102
}
330
30A6
100
AcDbXrecord
340
0
  0
XRECORD
  5
30BF
102
{ACAD_REACTORS
330
30A6
102
}
330
30A6
100
AcDbXrecord
 70
     0
  0
XRECORD
  5
30C0
102
{ACAD_REACTORS
330
30A6
102
}
330
30A6
100
AcDbXrecord
340
0
  0
XRECORD
  5
30C1
102
{ACAD_REACTORS
330
30A6
102
}
330
30A6
100
AcDbXrecord
 10
0.0
 20
0.0
 30
0.0
  0
XRECORD
  5
30C2
102
{ACAD_REACTORS
330
30A6
102
}
330
30A6
100
AcDbXrecord
 10
0.0
 20
0.0
 30
0.0
  0
XRECORD
  5
30C3
102
{ACAD_REACTORS
330
30A6
102
}
330
30A6
100
AcDbXrecord
 10
0.0
 20
0.0
 30
0.0
  0
XRECORD
  5
30C4
102
{ACAD_REACTORS
330
30A6
102
}
330
30A6
100
AcDbXrecord
 10
0.0
 20
0.0
 30
0.0
  0
XRECORD
  5
30C5
102
{ACAD_REACTORS
330
30A6
102
}
330
30A6
100
AcDbXrecord
 10
0.0
 20
0.0
 30
0.0
  0
XRECORD
  5
30C6
102
{ACAD_REACTORS
330
30A6
102
}
330
30A6
100
AcDbXrecord
 10
0.0
 20
0.0
 30
0.0
  0
LAYER_INDEX
  5
309D
102
{ACAD_REACTORS
330
309C
102
}
330
309C
100
AcDbIndex
 40
2453151.569447326
100
AcDbLayerIndex
  8
0
360
309E
 90
        0
  8
AM_0
360
309F
 90
       38
  8
AM_7
360
30A0
 90
        1
  8
AM_11
360
30A1
 90
       17
  8
AM_5
360
30A2
 90
        5
  8
Defpoints
360
30A3
 90
        0
  8
AM_6
360
30A4
 90
        1
  0
XRECORD
  5
2D
102
{ACAD_REACTORS
330
2C
102
}
330
2C
100
AcDbXrecord
  1
VERSION
140
15.0
  1
PRODUCT
  2
AutoCAD Mechanical 2000
  0
IDBUFFER
  5
309E
330
0
100
AcDbIdBuffer
  0
IDBUFFER
  5
309F
330
0
100
AcDbIdBuffer
330
2FF2
330
2FF4
330
2FF5
330
2FF6
330
2FF7
330
2FF8
330
2FF9
330
2FFA
330
2FFB
330
2FFC
330
2FFD
330
2FFE
330
2FFF
330
3000
330
3001
330
3002
330
3003
330
3004
330
3005
330
3006
330
3007
330
3008
330
C1D
330
1D9D
330
1D9E
330
1DA4
330
1DA5
330
23D5
330
2500
330
2503
330
2567
330
2568
330
2569
330
2E35
330
2FEB
330
2FED
330
2FEF
330
2FF0
  0
IDBUFFER
  5
30A0
330
0
100
AcDbIdBuffer
330
1D14
  0
IDBUFFER
  5
30A1
330
0
100
AcDbIdBuffer
330
2FF3
330
144A
330
144B
330
1F77
330
1F78
330
1F79
330
1F7A
330
231A
330
2324
330
2325
330
2327
330
2328
330
232D
330
232E
330
2FEC
330
2FEE
330
2FF1
  0
IDBUFFER
  5
30A2
330
0
100
AcDbIdBuffer
330
CC6
330
DF5
330
1F93
330
2577
330
2CA4
  0
IDBUFFER
  5
30A3
330
0
100
AcDbIdBuffer
  0
IDBUFFER
  5
30A4
330
0
100
AcDbIdBuffer
330
19BD
  0
ENDSEC
  0
EOF
