  0
SECTION
  2
HEADER
  9
$ACADVER
  1
AC1014
  9
$ACADMAINTVER
 70
     9
  9
$DWGCODEPAGE
  3
ANSI_932
  9
$INSBASE
 10
0.0
 20
0.0
 30
0.0
  9
$EXTMIN
 10
-107.6500009999999
 20
-27.25000236965382
 30
-0.00000001
  9
$EXTMAX
 10
13.57912314870398
 20
13.23003657063421
 30
0.00000001
  9
$LIMMIN
 10
-138.8290064717842
 20
-45.22474571374511
  9
$LIMMAX
 10
23.05023987897198
 20
30.30997914579825
  9
$ORTHOMODE
 70
     0
  9
$REGENMODE
 70
     1
  9
$FILLMODE
 70
     1
  9
$QTEXTMODE
 70
     0
  9
$MIRRTEXT
 70
     0
  9
$DRAGMODE
 70
     2
  9
$LTSCALE
 40
1.0
  9
$OSMODE
 70
    55
  9
$ATTMODE
 70
     1
  9
$TEXTSIZE
 40
2.5
  9
$TRACEWID
 40
1.0
  9
$TEXTSTYLE
  7
STANDARD
  9
$CLAYER
  8
AM_0
  9
$CELTYPE
  6
BYLAYER
  9
$CECOLOR
 62
   256
  9
$CELTSCALE
 40
1.0
  9
$DELOBJ
 70
     1
  9
$DISPSILH
 70
     0
  9
$DIMSCALE
 40
0.5
  9
$DIMASZ
 40
2.5
  9
$DIMEXO
 40
1.0
  9
$DIMDLI
 40
12.0
  9
$DIMRND
 40
0.0
  9
$DIMDLE
 40
0.0
  9
$DIMEXE
 40
1.0
  9
$DIMTP
 40
0.1
  9
$DIMTM
 40
0.1
  9
$DIMTXT
 40
3.2
  9
$DIMCEN
 40
0.0
  9
$DIMTSZ
 40
0.0
  9
$DIMTOL
 70
     0
  9
$DIMLIM
 70
     0
  9
$DIMTIH
 70
     0
  9
$DIMTOH
 70
     0
  9
$DIMSE1
 70
     0
  9
$DIMSE2
 70
     0
  9
$DIMTAD
 70
     3
  9
$DIMZIN
 70
     8
  9
$DIMBLK
  1
OPEN30
  9
$DIMASO
 70
     1
  9
$DIMSHO
 70
     1
  9
$DIMPOST
  1

  9
$DIMAPOST
  1
"
  9
$DIMALT
 70
     0
  9
$DIMALTD
 70
     2
  9
$DIMALTF
 40
0.0393701
  9
$DIMLFAC
 40
1.0
  9
$DIMTOFL
 70
     1
  9
$DIMTVP
 40
0.0
  9
$DIMTIX
 70
     0
  9
$DIMSOXD
 70
     0
  9
$DIMSAH
 70
     0
  9
$DIMBLK1
  1

  9
$DIMBLK2
  1

  9
$DIMSTYLE
  2
AM_JIS
  9
$DIMCLRD
 70
   256
  9
$DIMCLRE
 70
   256
  9
$DIMCLRT
 70
     2
  9
$DIMTFAC
 40
0.71
  9
$DIMGAP
 40
1.5
  9
$DIMJUST
 70
     0
  9
$DIMSD1
 70
     0
  9
$DIMSD2
 70
     0
  9
$DIMTOLJ
 70
     0
  9
$DIMTZIN
 70
     0
  9
$DIMALTZ
 70
     0
  9
$DIMALTTZ
 70
     0
  9
$DIMFIT
 70
     3
  9
$DIMUPT
 70
     0
  9
$DIMUNIT
 70
     2
  9
$DIMDEC
 70
     3
  9
$DIMTDEC
 70
     3
  9
$DIMALTU
 70
     2
  9
$DIMALTTD
 70
     2
  9
$DIMTXSTY
  7
ASAMI
  9
$DIMAUNIT
 70
     0
  9
$LUNITS
 70
     2
  9
$LUPREC
 70
     2
  9
$SKETCHINC
 40
1.0
  9
$FILLETRAD
 40
2.5
  9
$AUNITS
 70
     0
  9
$AUPREC
 70
     0
  9
$MENU
  1
.
  9
$ELEVATION
 40
0.0
  9
$PELEVATION
 40
0.0
  9
$THICKNESS
 40
0.0
  9
$LIMCHECK
 70
     0
  9
$BLIPMODE
 70
     0
  9
$CHAMFERA
 40
0.5
  9
$CHAMFERB
 40
0.5
  9
$CHAMFERC
 40
20.0
  9
$CHAMFERD
 40
0.0
  9
$SKPOLY
 70
     0
  9
$TDCREATE
 40
2452800.443498622
  9
$TDUPDATE
 40
2453151.569558541
  9
$TDINDWG
 40
0.0391179977
  9
$TDUSRTIMER
 40
0.0391179977
  9
$USRTIMER
 70
     1
  9
$ANGBASE
 50
0.0
  9
$ANGDIR
 70
     0
  9
$PDMODE
 70
     3
  9
$PDSIZE
 40
0.0
  9
$PLINEWID
 40
0.0
  9
$COORDS
 70
     1
  9
$SPLFRAME
 70
     0
  9
$SPLINETYPE
 70
     6
  9
$SPLINESEGS
 70
     8
  9
$ATTDIA
 70
     1
  9
$ATTREQ
 70
     1
  9
$HANDLING
 70
 12289
  9
$HANDSEED
  5
28FF
  9
$SURFTAB1
 70
     6
  9
$SURFTAB2
 70
     6
  9
$SURFTYPE
 70
     6
  9
$SURFU
 70
     6
  9
$SURFV
 70
     6
  9
$UCSNAME
  2

  9
$UCSORG
 10
0.0
 20
0.0
 30
0.0
  9
$UCSXDIR
 10
1.0
 20
0.0000000000000027
 30
0.0
  9
$UCSYDIR
 10
-0.0000000000000027
 20
1.0
 30
0.0
  9
$PUCSNAME
  2

  9
$PUCSORG
 10
0.0
 20
0.0
 30
0.0
  9
$PUCSXDIR
 10
1.0
 20
0.0
 30
0.0
  9
$PUCSYDIR
 10
0.0
 20
1.0
 30
0.0
  9
$USERI1
 70
     0
  9
$USERI2
 70
     0
  9
$USERI3
 70
     0
  9
$USERI4
 70
     0
  9
$USERI5
 70
     0
  9
$USERR1
 40
0.0
  9
$USERR2
 40
0.0
  9
$USERR3
 40
0.0
  9
$USERR4
 40
0.0
  9
$USERR5
 40
0.0
  9
$WORLDVIEW
 70
     1
  9
$SHADEDGE
 70
     3
  9
$SHADEDIF
 70
    70
  9
$TILEMODE
 70
     1
  9
$MAXACTVP
 70
    64
  9
$PINSBASE
 10
0.0
 20
0.0
 30
0.0
  9
$PLIMCHECK
 70
     0
  9
$PEXTMIN
 10
1.000000000000000E+20
 20
1.000000000000000E+20
 30
1.000000000000000E+20
  9
$PEXTMAX
 10
-1.000000000000000E+20
 20
-1.000000000000000E+20
 30
-1.000000000000000E+20
  9
$PLIMMIN
 10
0.0
 20
0.0
  9
$PLIMMAX
 10
841.0
 20
594.0
  9
$UNITMODE
 70
     0
  9
$VISRETAIN
 70
     1
  9
$PLINEGEN
 70
     0
  9
$PSLTSCALE
 70
     0
  9
$TREEDEPTH
 70
  3020
  9
$PICKSTYLE
 70
     0
  9
$CMLSTYLE
  2
STANDARD
  9
$CMLJUST
 70
     0
  9
$CMLSCALE
 40
20.0
  9
$PROXYGRAPHICS
 70
     1
  9
$MEASUREMENT
 70
     1
  0
ENDSEC
  0
SECTION
  2
CLASSES
  0
CLASS
  1
ACDBDICTIONARYWDFLT
  2
AcDbDictionaryWithDefault
  3
AutoCAD 2000
 90
        0
280
     0
281
     0
  0
CLASS
  1
ACDBPLACEHOLDER
  2
AcDbPlaceHolder
  3
AutoCAD 2000
 90
        0
280
     0
281
     0
  0
CLASS
  1
LAYOUT
  2
AcDbLayout
  3
AutoCAD 2000
 90
        0
280
     0
281
     0
  0
CLASS
  1
AMGSETTINGSOBJ
  2
AmgSettingsObj
  3
"AcadM|Product Description: AutoCAD Mechanical 2000|Company: Autodesk"
 90
        0
280
     0
281
     0
  0
CLASS
  1
ACME_DOCUMENT
  2
AcMeDbDoc
  3
AcMeServices
 90
        0
280
     0
281
     0
  0
CLASS
  1
ACMESCOPE
  2
AcMeScope
  3
AcMeServices
 90
        0
280
     0
281
     0
  0
CLASS
  1
ACMECOMMANDHISTORY
  2
AcMeCommandHistory
  3
AcMeServices
 90
        0
280
     0
281
     0
  0
CLASS
  1
DICTIONARYVAR
  2
AcDbDictionaryVar
  3
AutoCAD 2000
 90
        0
280
     0
281
     0
  0
CLASS
  1
ACIMSYSVARMAN
  2
AcImSysVarManager
  3
AcMeServices
 90
        0
280
     0
281
     0
  0
CLASS
  1
ACIMREALSYSVAR
  2
AcImRealSysVar
  3
AcMeServices
 90
        0
280
     0
281
     0
  0
CLASS
  1
ACIMINTSYSVAR
  2
AcImIntSysVar
  3
AcMeServices
 90
        0
280
     0
281
     0
  0
CLASS
  1
ACMEDRAWINGMAN
  2
AcMeDrawingMan
  3
AcMeServices
 90
        0
280
     0
281
     0
  0
CLASS
  1
ACMEVIEW
  2
AcMeView
  3
AcMeServices
 90
        0
280
     0
281
     0
  0
CLASS
  1
ACDBENTITYCACHE
  2
AcMeEntityCache
  3
AcMeServices
 90
        0
280
     0
281
     0
  0
CLASS
  1
GSMANAGER
  2
AcMeGSManager
  3
AcMeServices
 90
        0
280
     0
281
     0
  0
CLASS
  1
AmdtInternalReactor
  2
AmdtInternalReactor
  3
AcMeServices
 90
        0
280
     0
281
     0
  0
CLASS
  1
ACMESTATEMGR
  2
AcMeStateMgr
  3
AcMeServices
 90
        0
280
     0
281
     0
  0
CLASS
  1
ACME_DATABASE
  2
AcMeDbDatabase
  3
AcMeServices
 90
        0
280
     0
281
     0
  0
CLASS
  1
ACRFINSADJUSTERMGR
  2
AcRfInsAdjusterMgr
  3
AcMeServices
 90
        0
280
     0
281
     0
  0
CLASS
  1
ACMDATADICTIONARY
  2
AcmDataDictionary
  3
"AcmSymBB|Product Description: AutoCAD Mechanical 2000|Company: Autodesk"
 90
        0
280
     0
281
     0
  0
CLASS
  1
ACMDATAENTRYBLOCK
  2
AcmDataEntryBlock
  3
"AcmSymBB|Product Description: AutoCAD Mechanical 2000|Company: Autodesk"
 90
        0
280
     0
281
     0
  0
CLASS
  1
AMGOBJPROPCFG
  2
AmgObjPropCfg
  3
"AmgLay|Product Description: AutoCAD Mechanical 2000|Company: Autodesk"
 90
        1
280
     0
281
     0
  0
CLASS
  1
ACAMGFILTERDAT
  2
AcAmgFilterDat
  3
"AcadM|Product Description: AutoCAD Mechanical 2000|Company: Autodesk"
 90
        0
280
     0
281
     0
  0
CLASS
  1
LAYER_INDEX
  2
AcDbLayerIndex
  3
AutoCAD 2000
 90
        0
280
     0
281
     0
  0
CLASS
  1
IDBUFFER
  2
AcDbIdBuffer
  3
AutoCAD 2000
 90
        0
280
     0
281
     0
  0
CLASS
  1
ACIMSTRSYSVAR
  2
AcImStrSysVar
  3
AcMeServices
 90
        0
280
     0
281
     0
  0
CLASS
  1
ACMSTANDARDJIS
  2
AcmStandardJIS
  3
"AcmSymBB|Product Description: AutoCAD Mechanical 2000|Company: Autodesk"
 90
        0
280
     0
281
     0
  0
CLASS
  1
ACMSURFSTANDARDJIS
  2
AcmSurfTextStdJIS
  3
"AcmSymBB|Product Description: AutoCAD Mechanical 2000|Company: Autodesk"
 90
        0
280
     0
281
     0
  0
CLASS
  1
ACMFCFSTANDARDJIS
  2
AcmFCFStdJIS
  3
"AcmSymBB|Product Description: AutoCAD Mechanical 2000|Company: Autodesk"
 90
        0
280
     0
281
     0
  0
CLASS
  1
ACMWELDSTANDARDJIS
  2
AcmWeldingStdJIS
  3
"AcmSymBB|Product Description: AutoCAD Mechanical 2000|Company: Autodesk"
 90
        0
280
     0
281
     0
  0
CLASS
  1
ACMIDSTANDARDJIS
  2
AcmIdStdJIS
  3
"AcmSymBB|Product Description: AutoCAD Mechanical 2000|Company: Autodesk"
 90
        0
280
     0
281
     0
  0
CLASS
  1
ACMDATUMSTANDARDJIS
  2
AcmDatumStdJIS
  3
"AcmSymBB|Product Description: AutoCAD Mechanical 2000|Company: Autodesk"
 90
        0
280
     0
281
     0
  0
CLASS
  1
ACMBOMSTANDARDJIS
  2
AcmBOMStdJIS
  3
"AcmSymBB|Product Description: AutoCAD Mechanical 2000|Company: Autodesk"
 90
        0
280
     0
281
     0
  0
CLASS
  1
ACMSTANDARDANSI
  2
AcmStandardANSI
  3
"AcmSymBB|Product Description: AutoCAD Mechanical 2000|Company: Autodesk"
 90
        0
280
     0
281
     0
  0
CLASS
  1
ACMSURFSTANDARDANSI
  2
AcmSurfTextStdANSI
  3
"AcmSymBB|Product Description: AutoCAD Mechanical 2000|Company: Autodesk"
 90
        0
280
     0
281
     0
  0
CLASS
  1
ACMFCFSTANDARDANSI
  2
AcmFCFStdANSI
  3
"AcmSymBB|Product Description: AutoCAD Mechanical 2000|Company: Autodesk"
 90
        0
280
     0
281
     0
  0
CLASS
  1
ACMWELDSTANDARDANSI
  2
AcmWeldingStdANSI
  3
"AcmSymBB|Product Description: AutoCAD Mechanical 2000|Company: Autodesk"
 90
        0
280
     0
281
     0
  0
CLASS
  1
ACMIDSTANDARDANSI
  2
AcmIdStdANSI
  3
"AcmSymBB|Product Description: AutoCAD Mechanical 2000|Company: Autodesk"
 90
        0
280
     0
281
     0
  0
CLASS
  1
ACMDATUMSTANDARDANSI
  2
AcmDatumStdANSI
  3
"AcmSymBB|Product Description: AutoCAD Mechanical 2000|Company: Autodesk"
 90
        0
280
     0
281
     0
  0
CLASS
  1
ACMBOMSTANDARDANSI
  2
AcmBOMStdANSI
  3
"AcmSymBB|Product Description: AutoCAD Mechanical 2000|Company: Autodesk"
 90
        0
280
     0
281
     0
  0
CLASS
  1
ACMSTANDARDBSI
  2
AcmStandardBSI
  3
"AcmSymBB|Product Description: AutoCAD Mechanical 2000|Company: Autodesk"
 90
        0
280
     0
281
     0
  0
CLASS
  1
ACMSURFSTANDARDBSI
  2
AcmSurfTextStdBSI
  3
"AcmSymBB|Product Description: AutoCAD Mechanical 2000|Company: Autodesk"
 90
        0
280
     0
281
     0
  0
CLASS
  1
ACMFCFSTANDARDBSI
  2
AcmFCFStdBSI
  3
"AcmSymBB|Product Description: AutoCAD Mechanical 2000|Company: Autodesk"
 90
        0
280
     0
281
     0
  0
CLASS
  1
ACMWELDSTANDARDBSI
  2
AcmWeldingStdBSI
  3
"AcmSymBB|Product Description: AutoCAD Mechanical 2000|Company: Autodesk"
 90
        0
280
     0
281
     0
  0
CLASS
  1
ACMIDSTANDARDBSI
  2
AcmIdStdBSI
  3
"AcmSymBB|Product Description: AutoCAD Mechanical 2000|Company: Autodesk"
 90
        0
280
     0
281
     0
  0
CLASS
  1
ACMDATUMSTANDARDBSI
  2
AcmDatumStdBSI
  3
"AcmSymBB|Product Description: AutoCAD Mechanical 2000|Company: Autodesk"
 90
        0
280
     0
281
     0
  0
CLASS
  1
ACMBOMSTANDARDBSI
  2
AcmBOMStdBSI
  3
"AcmSymBB|Product Description: AutoCAD Mechanical 2000|Company: Autodesk"
 90
        0
280
     0
281
     0
  0
CLASS
  1
LONG_TRANSACTION
  2
AcDbLongTransaction
  3
AutoCAD 2000
 90
        0
280
     0
281
     0
  0
CLASS
  1
LWPOLYLINE
  2
AcDbPolyline
  3
AutoCAD 2000
 90
        0
280
     0
281
     1
  0
CLASS
  1
HATCH
  2
AcDbHatch
  3
AutoCAD 2000
 90
        0
280
     0
281
     1
  0
CLASS
  1
XRECORD
  2
AcDbXrecord
  3
AutoCAD 2000
 90
        0
280
     0
281
     0
  0
ENDSEC
  0
SECTION
  2
TABLES
  0
TABLE
  2
VPORT
  5
8
330
0
100
AcDbSymbolTable
 70
     3
  0
VPORT
  5
28C9
330
8
100
AcDbSymbolTableRecord
100
AcDbViewportTableRecord
  2
*ACTIVE
 70
     0
 10
0.0
 20
0.0
 11
1.0
 21
1.0
 12
-44.79295122465982
 22
-7.010762839594292
 13
0.0
 23
0.0
 14
2.5
 24
2.5
 15
10.0
 25
10.0
 16
0.0
 26
0.0
 36
1.0
 17
0.0
 27
0.0
 37
0.0
 40
80.69196397521244
 41
1.56570841889117
 42
50.0
 43
0.0
 44
0.0
 50
0.0
 51
0.0
 71
     0
 72
   100
 73
     1
 74
     1
 75
     0
 76
     0
 77
     0
 78
     0
  0
ENDTAB
  0
TABLE
  2
LTYPE
  5
5
330
0
100
AcDbSymbolTable
 70
    10
  0
LTYPE
  5
14
330
5
100
AcDbSymbolTableRecord
100
AcDbLinetypeTableRecord
  2
BYBLOCK
 70
     0
  3

 72
    65
 73
     0
 40
0.0
  0
LTYPE
  5
15
330
5
100
AcDbSymbolTableRecord
100
AcDbLinetypeTableRecord
  2
BYLAYER
 70
     0
  3

 72
    65
 73
     0
 40
0.0
  0
LTYPE
  5
16
330
5
100
AcDbSymbolTableRecord
100
AcDbLinetypeTableRecord
  2
CONTINUOUS
 70
     0
  3
Solid line
 72
    65
 73
     0
 40
0.0
  0
LTYPE
  5
4B
330
5
100
AcDbSymbolTableRecord
100
AcDbLinetypeTableRecord
  2
AM_ISO02W050
 70
     0
  3
__ __ __ __ __ __ __ __ __ __ __ __ __ __ __
 72
    65
 73
     2
 40
7.5
 49
6.0
 74
     0
 49
-1.5
 74
     0
  0
LTYPE
  5
4C
330
5
100
AcDbSymbolTableRecord
100
AcDbLinetypeTableRecord
  2
AM_ISO08W050
 70
     0
  3
____ . ____ . ____ . ____ . ____ . ____ . ____
 72
    65
 73
     4
 40
18.0
 49
12.0
 74
     0
 49
-1.5
 74
     0
 49
3.0
 74
     0
 49
-1.5
 74
     0
  0
LTYPE
  5
4D
330
5
100
AcDbSymbolTableRecord
100
AcDbLinetypeTableRecord
  2
AM_ISO09W050
 70
     0
  3
_____ . . _____ . . _____ . . ____ .. ____
 72
    65
 73
     6
 40
22.5
 49
12.0
 74
     0
 49
-1.5
 74
     0
 49
3.0
 74
     0
 49
-1.5
 74
     0
 49
3.0
 74
     0
 49
-1.5
 74
     0
  0
LTYPE
  5
4E
330
5
100
AcDbSymbolTableRecord
100
AcDbLinetypeTableRecord
  2
AMCONSTR
 70
     0
  3
_______________________
 72
    65
 73
     2
 40
9999.0
 49
9999.0
 74
     0
 49
0.0
 74
     0
  0
LTYPE
  5
4F
330
5
100
AcDbSymbolTableRecord
100
AcDbLinetypeTableRecord
  2
AM_ISO02W050X2
 70
     0
  3
 _ _ _ _ _ _ _ _ _ _ _ _
 72
    65
 73
     2
 40
3.75
 49
3.0
 74
     0
 49
-0.75
 74
     0
  0
LTYPE
  5
50
330
5
100
AcDbSymbolTableRecord
100
AcDbLinetypeTableRecord
  2
AM_ISO08W050X2
 70
     0
  3
__ . __ . __ . __ . __ . __
 72
    65
 73
     4
 40
9.0
 49
6.0
 74
     0
 49
-0.75
 74
     0
 49
1.5
 74
     0
 49
-0.75
 74
     0
  0
LTYPE
  5
53
330
5
100
AcDbSymbolTableRecord
100
AcDbLinetypeTableRecord
  2
AMZIGZAG
 70
     0
  3
/\/-/\/-/\/-/\/-/\/-/\/
 72
    65
 73
     2
 40
11.00009999999999
 49
0.0001
 74
     4
 75
   135
340
52
 46
0.04
 50
0.0
 44
0.0
 45
0.0
 49
-11.0
 74
     0
  0
LTYPE
  5
166
330
5
100
AcDbSymbolTableRecord
100
AcDbLinetypeTableRecord
  2
ACJISTGL
 70
     0
  3
_ _ _ _ _
 72
    65
 73
     2
 40
3.0
 49
2.0
 74
     0
 49
-1.0
 74
     0
  0
LTYPE
  5
26A
330
5
100
AcDbSymbolTableRecord
100
AcDbLinetypeTableRecord
  2
ACJISTGB
 70
     0
  3
__ . . __ . .
 72
    65
 73
     6
 40
9.0
 49
4.0
 74
     0
 49
-1.0
 74
     0
 49
1.0
 74
     0
 49
-1.0
 74
     0
 49
1.0
 74
     0
 49
-1.0
 74
     0
  0
ENDTAB
  0
TABLE
  2
LAYER
  5
2
330
0
100
AcDbSymbolTable
 70
     8
  0
LAYER
  5
10
330
2
100
AcDbSymbolTableRecord
100
AcDbLayerTableRecord
  2
0
 70
     0
 62
     7
  6
CONTINUOUS
  0
LAYER
  5
3F9
330
2
100
AcDbSymbolTableRecord
100
AcDbLayerTableRecord
  2
AM_0
 70
     0
 62
     7
  6
CONTINUOUS
  0
LAYER
  5
C7C
330
2
100
AcDbSymbolTableRecord
100
AcDbLayerTableRecord
  2
AM_7
 70
     0
 62
     4
  6
AM_ISO08W050
  0
LAYER
  5
C97
330
2
100
AcDbSymbolTableRecord
100
AcDbLayerTableRecord
  2
AM_11
 70
     0
 62
     3
  6
AM_ISO09W050
  0
LAYER
  5
CC5
330
2
100
AcDbSymbolTableRecord
100
AcDbLayerTableRecord
  2
AM_5
 70
     0
 62
     3
  6
CONTINUOUS
  0
LAYER
  5
CC7
330
2
100
AcDbSymbolTableRecord
100
AcDbLayerTableRecord
  2
DEFPOINTS
 70
     0
 62
     7
  6
CONTINUOUS
  0
LAYER
  5
19BC
330
2
100
AcDbSymbolTableRecord
100
AcDbLayerTableRecord
  2
AM_6
 70
     0
 62
     2
  6
CONTINUOUS
  0
LAYER
  5
285D
330
2
100
AcDbSymbolTableRecord
100
AcDbLayerTableRecord
  2
AM_CL
 70
     0
 62
     1
  6
AMCONSTR
  0
ENDTAB
  0
TABLE
  2
STYLE
  5
3
330
0
100
AcDbSymbolTable
 70
     5
  0
STYLE
  5
11
330
3
100
AcDbSymbolTableRecord
100
AcDbTextStyleTableRecord
  2
STANDARD
 70
     0
 40
0.0
 41
1.0
 50
0.0
 71
     0
 42
2.5
  3
simplex.shx
  4
EXTFONT.SHX
  0
STYLE
  5
52
330
3
100
AcDbSymbolTableRecord
100
AcDbTextStyleTableRecord
  2

 70
     1
 40
0.0
 41
1.0
 50
0.0
 71
     0
 42
2.5
  3
ltypeshp.shx
  4

  0
STYLE
  5
6B
330
3
100
AcDbSymbolTableRecord
100
AcDbTextStyleTableRecord
  2
ASAMI
 70
     0
 40
0.0
 41
1.0
 50
0.0
 71
     0
 42
2.5
  3
simplex.shx
  4
EXTFONT.SHX
  0
STYLE
  5
262
330
3
100
AcDbSymbolTableRecord
100
AcDbTextStyleTableRecord
  2
ACJISTS
 70
     0
 40
1.0
 41
1.0
 50
0.0
 71
     0
 42
2.5
  3
simplex.shx
  4
bigfont.shx
  0
STYLE
  5
269
330
3
100
AcDbSymbolTableRecord
100
AcDbTextStyleTableRecord
  2
ACJISGDT
 70
     0
 40
0.0
 41
1.0
 50
0.0
 71
     0
 42
2.5
  3
amgdtans.shx
  4

  0
ENDTAB
  0
TABLE
  2
VIEW
  5
6
330
0
100
AcDbSymbolTable
 70
     0
  0
ENDTAB
  0
TABLE
  2
UCS
  5
7
330
0
100
AcDbSymbolTable
 70
     0
  0
ENDTAB
  0
TABLE
  2
APPID
  5
9
330
0
100
AcDbSymbolTable
 70
    16
  0
APPID
  5
12
330
9
100
AcDbSymbolTableRecord
100
AcDbRegAppTableRecord
  2
ACAD
 70
     0
  0
APPID
  5
30
330
9
100
AcDbSymbolTableRecord
100
AcDbRegAppTableRecord
  2
MCAD_NO_VIS
 70
     0
  0
APPID
  5
31
330
9
100
AcDbSymbolTableRecord
100
AcDbRegAppTableRecord
  2
ACAD_TEMP_GRAPHIC
 70
     0
  0
APPID
  5
2C2
330
9
100
AcDbSymbolTableRecord
100
AcDbRegAppTableRecord
  2
GENIUS_GENDTOL_13
 70
     0
  0
APPID
  5
339
330
9
100
AcDbSymbolTableRecord
100
AcDbRegAppTableRecord
  2
GENIUS_GENODEF_13
 70
     0
  0
APPID
  5
33A
330
9
100
AcDbSymbolTableRecord
100
AcDbRegAppTableRecord
  2
GENIUS_GENOBJ-N-RSBK_13
 70
     0
  0
APPID
  5
33B
330
9
100
AcDbSymbolTableRecord
100
AcDbRegAppTableRecord
  2
GENIUS_GENOBJ-N-LIB_13
 70
     0
  0
APPID
  5
33C
330
9
100
AcDbSymbolTableRecord
100
AcDbRegAppTableRecord
  2
GENIUS_GENSCALE_13
 70
     0
  0
APPID
  5
378
330
9
100
AcDbSymbolTableRecord
100
AcDbRegAppTableRecord
  2
GENIUS_GENDIMSH_14
 70
     0
  0
APPID
  5
C82
330
9
100
AcDbSymbolTableRecord
100
AcDbRegAppTableRecord
  2
GENIUS_GENOBJ-N-CRS_13
 70
     0
  0
APPID
  5
C83
330
9
100
AcDbSymbolTableRecord
100
AcDbRegAppTableRecord
  2
GENIUS_GENOENT_13
 70
     0
  0
APPID
  5
C84
330
9
100
AcDbSymbolTableRecord
100
AcDbRegAppTableRecord
  2
GENIUS_GENOREF_13
 70
     0
  0
APPID
  5
C85
330
9
100
AcDbSymbolTableRecord
100
AcDbRegAppTableRecord
  2
GENIUS_GENOLIS_13
 70
     0
  0
APPID
  5
CA0
330
9
100
AcDbSymbolTableRecord
100
AcDbRegAppTableRecord
  2
GENIUS_GENOBJ-N-CEN_13
 70
     0
  0
APPID
  5
1E1E
330
9
100
AcDbSymbolTableRecord
100
AcDbRegAppTableRecord
  2
GENIUS_GENFIL_13
 70
     0
  0
APPID
  5
1E1F
330
9
100
AcDbSymbolTableRecord
100
AcDbRegAppTableRecord
  2
GENIUS_GENOBJ-N-CHA_13
 70
     0
  0
ENDTAB
  0
TABLE
  2
DIMSTYLE
  5
A
330
0
100
AcDbSymbolTable
 70
     9
  0
DIMSTYLE
105
58
330
A
100
AcDbSymbolTableRecord
100
AcDbDimStyleTableRecord
  2
AM_JIS
 70
     0
  3

  4
"
  5
OPEN30
  6

  7

 40
0.5
 41
2.5
 42
1.0
 43
12.0
 44
1.0
 45
0.0
 46
0.0
 47
0.1
 48
0.1
140
3.2
141
0.0
142
0.0
143
0.0393701
144
1.0
145
0.0
146
0.71
147
1.5
 71
     0
 72
     0
 73
     0
 74
     0
 75
     0
 76
     0
 77
     3
 78
     8
170
     0
171
     2
172
     1
173
     0
174
     0
175
     0
176
   256
177
   256
178
     2
270
     2
271
     3
272
     3
273
     2
274
     2
340
6B
275
     0
280
     0
281
     0
282
     0
283
     0
284
     0
285
     0
286
     0
287
     3
288
     0
  0
DIMSTYLE
105
5F
330
A
100
AcDbSymbolTableRecord
100
AcDbDimStyleTableRecord
  2
AM_JIS$3
 70
     0
  3

  4
"
  5
OPEN30
  6

  7

 40
0.5
 41
2.5
 42
1.0
 43
10.0
 44
1.0
 45
0.0
 46
0.0
 47
0.1
 48
0.1
140
3.2
141
0.0
142
0.0
143
0.0393701
144
1.0
145
0.0
146
0.71
147
1.5
 71
     0
 72
     0
 73
     0
 74
     1
 75
     0
 76
     0
 77
     3
 78
     8
170
     0
171
     2
172
     0
173
     0
174
     0
175
     0
176
   256
177
   256
178
     2
270
     2
271
     2
272
     3
273
     2
274
     2
340
6B
275
     0
280
     0
281
     0
282
     0
283
     0
284
     0
285
     0
286
     0
287
     0
288
     1
  0
DIMSTYLE
105
60
330
A
100
AcDbSymbolTableRecord
100
AcDbDimStyleTableRecord
  2
AM_JIS$4
 70
     0
  3

  4
"
  5
OPEN30
  6

  7

 40
0.5
 41
2.5
 42
1.0
 43
10.0
 44
1.0
 45
0.0
 46
0.0
 47
0.1
 48
0.1
140
3.2
141
0.0
142
0.0
143
0.0393701
144
1.0
145
0.0
146
0.71
147
1.5
 71
     0
 72
     0
 73
     0
 74
     1
 75
     0
 76
     0
 77
     3
 78
     8
170
     0
171
     2
172
     0
173
     0
174
     0
175
     0
176
   256
177
   256
178
     2
270
     2
271
     2
272
     3
273
     2
274
     2
340
6B
275
     0
280
     0
281
     0
282
     0
283
     0
284
     0
285
     0
286
     0
287
     0
288
     1
  0
DIMSTYLE
105
61
330
A
100
AcDbSymbolTableRecord
100
AcDbDimStyleTableRecord
  2
AM_JIS$6
 70
     0
  3

  4
"
  5
OPEN30
  6

  7

 40
0.5
 41
2.5
 42
1.0
 43
10.0
 44
1.0
 45
0.0
 46
0.0
 47
0.1
 48
0.1
140
3.2
141
0.0
142
0.0
143
0.0393701
144
1.0
145
0.0
146
0.71
147
1.5
 71
     0
 72
     0
 73
     0
 74
     0
 75
     0
 76
     0
 77
     0
 78
     8
170
     0
171
     2
172
     1
173
     0
174
     0
175
     0
176
   256
177
   256
178
     2
270
     2
271
     2
272
     2
273
     2
274
     2
340
6B
275
     0
280
     0
281
     0
282
     0
283
     0
284
     0
285
     0
286
     0
287
     3
288
     0
  0
DIMSTYLE
105
62
330
A
100
AcDbSymbolTableRecord
100
AcDbDimStyleTableRecord
  2
AM_JIS$7
 70
     0
  3

  4
"
  5
OPEN30
  6

  7

 40
0.5
 41
2.5
 42
1.0
 43
10.0
 44
1.0
 45
0.0
 46
0.0
 47
0.1
 48
0.1
140
3.2
141
0.0
142
0.0
143
0.0393701
144
1.0
145
0.0
146
0.71
147
1.5
 71
     0
 72
     0
 73
     0
 74
     0
 75
     0
 76
     0
 77
     3
 78
     8
170
     0
171
     2
172
     1
173
     0
174
     0
175
     0
176
   256
177
   256
178
     2
270
     2
271
     2
272
     3
273
     2
274
     2
340
6B
275
     0
280
     0
281
     0
282
     0
283
     0
284
     0
285
     0
286
     0
287
     3
288
     0
  0
DIMSTYLE
105
63
330
A
100
AcDbSymbolTableRecord
100
AcDbDimStyleTableRecord
  2
AM_JIS$SF
 70
     0
  3

  4
"
  5
OPEN30
  6

  7

 40
0.5
 41
2.5
 42
1.0
 43
10.0
 44
1.0
 45
0.0
 46
0.0
 47
0.1
 48
0.1
140
3.2
141
0.0
142
0.0
143
0.0393701
144
1.0
145
0.0
146
0.71
147
1.5
 71
     0
 72
     0
 73
     0
 74
     0
 75
     1
 76
     1
 77
     3
 78
     8
170
     0
171
     2
172
     1
173
     0
174
     0
175
     0
176
   256
177
   256
178
     2
270
     2
271
     2
272
     2
273
     2
274
     2
340
6B
275
     0
280
     0
281
     0
282
     0
283
     0
284
     0
285
     0
286
     0
287
     3
288
     0
  0
DIMSTYLE
105
68
330
A
100
AcDbSymbolTableRecord
100
AcDbDimStyleTableRecord
  2
AM_JIS$SH
 70
     0
  3

  4
"
  5

  6
GENAXEH
  7
OPEN30
 40
0.5
 41
2.5
 42
1.0
 43
10.0
 44
1.0
 45
0.0
 46
0.0
 47
0.1
 48
0.1
140
3.2
141
0.0
142
0.0
143
0.0393701
144
2.0
145
0.0
146
0.71
147
1.5
 71
     0
 72
     0
 73
     0
 74
     0
 75
     1
 76
     1
 77
     3
 78
     8
170
     0
171
     2
172
     1
173
     1
174
     0
175
     0
176
   256
177
   256
178
     2
270
     2
271
     2
272
     2
273
     2
274
     2
340
6B
275
     0
280
     0
281
     0
282
     0
283
     0
284
     0
285
     0
286
     0
287
     3
288
     0
  0
DIMSTYLE
105
B34
102
{ACAD_REACTORS
330
26BF
102
}
330
A
100
AcDbSymbolTableRecord
100
AcDbDimStyleTableRecord
  2
AM_JIS$2
 70
     0
  3

  4
"
  5
OPEN30
  6

  7

 40
0.5
 41
2.5
 42
1.0
 43
12.0
 44
1.0
 45
0.0
 46
0.0
 47
0.1
 48
0.1
140
3.2
141
0.0
142
0.0
143
0.0393701
144
1.0
145
0.0
146
0.71
147
1.5
 71
     0
 72
     0
 73
     0
 74
     0
 75
     0
 76
     0
 77
     3
 78
     8
170
     0
171
     2
172
     1
173
     0
174
     0
175
     0
176
   256
177
   256
178
     2
270
     2
271
     3
272
     3
273
     2
274
     2
340
6B
275
     0
280
     0
281
     0
282
     0
283
     0
284
     0
285
     0
286
     0
287
     3
288
     0
  0
DIMSTYLE
105
BA5
102
{ACAD_REACTORS
330
CC6
330
DF5
330
228A
330
23E9
102
}
330
A
100
AcDbSymbolTableRecord
100
AcDbDimStyleTableRecord
  2
AM_JIS$0
 70
     0
  3

  4
"
  5
OPEN30
  6

  7

 40
0.5
 41
2.5
 42
0.0
 43
10.0
 44
1.0
 45
0.0
 46
0.0
 47
0.1
 48
0.1000000001
140
3.799999999999999
141
0.0
142
0.0
143
0.0393701
144
1.0
145
0.0
146
0.71
147
1.5
 71
     0
 72
     0
 73
     0
 74
     0
 75
     0
 76
     0
 77
     3
 78
     1
170
     0
171
     2
172
     1
173
     0
174
     0
175
     0
176
     3
177
     3
178
     2
270
     2
271
     2
272
     2
273
     2
274
     2
340
11
275
     1
280
     0
281
     0
282
     0
283
     0
284
     8
285
     0
286
     0
287
     0
288
     0
  0
ENDTAB
  0
TABLE
  2
BLOCK_RECORD
  5
1
330
0
100
AcDbSymbolTable
 70
    10
  0
BLOCK_RECORD
  5
1F
102
{ACAD_XDICTIONARY
360
74
102
}
330
1
100
AcDbSymbolTableRecord
100
AcDbBlockTableRecord
  2
*MODEL_SPACE
  0
BLOCK_RECORD
  5
101
102
{ACAD_XDICTIONARY
360
28F2
102
}
330
1
100
AcDbSymbolTableRecord
100
AcDbBlockTableRecord
  2
*PAPER_SPACE
  0
BLOCK_RECORD
  5
59
330
1
100
AcDbSymbolTableRecord
100
AcDbBlockTableRecord
  2
_OPEN30
  0
BLOCK_RECORD
  5
64
330
1
100
AcDbSymbolTableRecord
100
AcDbBlockTableRecord
  2
GENAXEH
  0
BLOCK_RECORD
  5
CC8
330
1
100
AcDbSymbolTableRecord
100
AcDbBlockTableRecord
  2
*D5
  0
BLOCK_RECORD
  5
DF6
330
1
100
AcDbSymbolTableRecord
100
AcDbBlockTableRecord
  2
*D6
  0
BLOCK_RECORD
  5
228B
330
1
100
AcDbSymbolTableRecord
100
AcDbBlockTableRecord
  2
*D7
  0
BLOCK_RECORD
  5
23EA
330
1
100
AcDbSymbolTableRecord
100
AcDbBlockTableRecord
  2
*D8
  0
BLOCK_RECORD
  5
26C0
330
1
100
AcDbSymbolTableRecord
100
AcDbBlockTableRecord
  2
*D9
  0
ENDTAB
  0
ENDSEC
  0
SECTION
  2
BLOCKS
  0
BLOCK
  5
20
330
1F
100
AcDbEntity
  8
0
100
AcDbBlockBegin
  2
*MODEL_SPACE
 70
     0
 10
0.0
 20
0.0
 30
0.0
  3
*MODEL_SPACE
  1

  0
ENDBLK
  5
21
330
1F
100
AcDbEntity
  8
0
100
AcDbBlockEnd
  0
BLOCK
  5
103
330
101
100
AcDbEntity
 67
     1
  8
0
100
AcDbBlockBegin
  2
*PAPER_SPACE
 70
     0
 10
0.0
 20
0.0
 30
0.0
  3
*PAPER_SPACE
  1

  0
ENDBLK
  5
104
330
101
100
AcDbEntity
 67
     1
  8
0
100
AcDbBlockEnd
  0
BLOCK
  5
5D
330
59
100
AcDbEntity
  8
0
100
AcDbBlockBegin
  2
_OPEN30
 70
     0
 10
0.0
 20
0.0
 30
0.0
  3
_OPEN30
  1

  0
LINE
  5
5A
330
59
100
AcDbEntity
  8
0
 62
     0
100
AcDbLine
 10
-1.0
 20
0.26794919
 30
0.0
 11
0.0
 21
0.0
 31
0.0
  0
LINE
  5
5B
330
59
100
AcDbEntity
  8
0
 62
     0
100
AcDbLine
 10
0.0
 20
0.0
 30
0.0
 11
-1.0
 21
-0.26794919
 31
0.0
  0
LINE
  5
5C
330
59
100
AcDbEntity
  8
0
 62
     0
100
AcDbLine
 10
0.0
 20
0.0
 30
0.0
 11
-1.0
 21
0.0
 31
0.0
  0
ENDBLK
  5
5E
330
59
100
AcDbEntity
  8
0
100
AcDbBlockEnd
  0
BLOCK
  5
66
330
64
100
AcDbEntity
  8
0
100
AcDbBlockBegin
  2
GENAXEH
 70
     0
 10
0.0
 20
0.0
 30
0.0
  3
GENAXEH
  1

  0
LINE
  5
65
330
64
100
AcDbEntity
  8
0
100
AcDbLine
 10
-1.0
 20
0.0
 30
0.0
 11
1.0
 21
0.0
 31
0.0
  0
ENDBLK
  5
67
330
64
100
AcDbEntity
  8
0
100
AcDbBlockEnd
  0
BLOCK
  5
CD2
330
CC8
100
AcDbEntity
  8
0
100
AcDbBlockBegin
  2
*D5
 70
     1
 10
0.0
 20
0.0
 30
0.0
  3
*D5
  1

  0
LINE
  5
2875
330
CC8
100
AcDbEntity
  8
AM_5
 62
     3
100
AcDbLine
 10
-95.99999999999999
 20
-3.499999999999984
 30
0.0
 11
-95.99999999999999
 21
-16.50000236965379
 31
0.0
  0
LINE
  5
2876
330
CC8
100
AcDbEntity
  8
AM_5
 62
     3
100
AcDbLine
 10
-1.999999999999996
 20
-3.550000748517284
 30
0.0
 11
-1.999999999999997
 21
-16.50000236965379
 31
0.0
  0
LINE
  5
2877
330
CC8
100
AcDbEntity
  8
AM_5
 62
     3
100
AcDbLine
 10
-94.74999999999999
 20
-16.00000236965379
 30
0.0
 11
-3.249999999999997
 21
-16.00000236965379
 31
0.0
  0
INSERT
  5
2878
330
CC8
100
AcDbEntity
  8
AM_5
 62
     3
100
AcDbBlockReference
  2
_OPEN30
 10
-95.99999999999999
 20
-16.00000236965379
 30
0.0
 41
1.25
 42
1.25
 43
1.25
 50
180.0
  0
INSERT
  5
2879
330
CC8
100
AcDbEntity
  8
AM_5
 62
     3
100
AcDbBlockReference
  2
_OPEN30
 10
-1.999999999999997
 20
-16.00000236965379
 30
0.0
 41
1.25
 42
1.25
 43
1.25
  0
MTEXT
  5
287A
330
CC8
100
AcDbEntity
  8
AM_5
 62
     2
100
AcDbMText
 10
-48.99999999999999
 20
-14.30000236965379
 30
0.0
 40
1.9
 41
0.0
 71
     5
 72
     1
  1
94
1001
ACAD
1000
MTEXTBEGIN
1070
    73
1070
     1
1070
    44
1040
1.0
1070
    74
1070
     0
1000
MTEXTEND
  0
POINT
  5
287B
330
CC8
100
AcDbEntity
  8
DEFPOINTS
 62
     0
100
AcDbPoint
 10
-95.99999999999999
 20
-3.499999999999984
 30
0.0
  0
POINT
  5
287C
330
CC8
100
AcDbEntity
  8
DEFPOINTS
 62
     0
100
AcDbPoint
 10
-1.999999999999996
 20
-3.550000748517284
 30
0.0
  0
POINT
  5
287D
330
CC8
100
AcDbEntity
  8
DEFPOINTS
 62
     0
100
AcDbPoint
 10
-1.999999999999997
 20
-16.00000236965379
 30
0.0
  0
ENDBLK
  5
CD3
330
CC8
100
AcDbEntity
  8
0
100
AcDbBlockEnd
  0
BLOCK
  5
E00
330
DF6
100
AcDbEntity
  8
0
100
AcDbBlockBegin
  2
*D6
 70
     1
 10
0.0
 20
0.0
 30
0.0
  3
*D6
  1

  0
LINE
  5
2892
330
DF6
100
AcDbEntity
  8
AM_5
 62
     3
100
AcDbLine
 10
-41.99999999999998
 20
-4.000001369653864
 30
0.0
 11
-41.99999999999998
 21
-11.50000236965371
 31
0.0
  0
LINE
  5
2893
330
DF6
100
AcDbEntity
  8
AM_5
 62
     3
100
AcDbLine
 10
-1.999999999999996
 20
-3.550000748517284
 30
0.0
 11
-1.999999999999996
 21
-11.50000236965371
 31
0.0
  0
LINE
  5
2894
330
DF6
100
AcDbEntity
  8
AM_5
 62
     3
100
AcDbLine
 10
-40.74999999999998
 20
-11.00000236965371
 30
0.0
 11
-3.249999999999996
 21
-11.00000236965371
 31
0.0
  0
INSERT
  5
2895
330
DF6
100
AcDbEntity
  8
AM_5
 62
     3
100
AcDbBlockReference
  2
_OPEN30
 10
-41.99999999999998
 20
-11.00000236965371
 30
0.0
 41
1.25
 42
1.25
 43
1.25
 50
180.0
  0
INSERT
  5
2896
330
DF6
100
AcDbEntity
  8
AM_5
 62
     3
100
AcDbBlockReference
  2
_OPEN30
 10
-1.999999999999996
 20
-11.00000236965371
 30
0.0
 41
1.25
 42
1.25
 43
1.25
  0
MTEXT
  5
2897
330
DF6
100
AcDbEntity
  8
AM_5
 62
     2
100
AcDbMText
 10
-21.99999999999999
 20
-9.300002369653716
 30
0.0
 40
1.9
 41
0.0
 71
     5
 72
     1
  1
40
1001
ACAD
1000
MTEXTBEGIN
1070
    73
1070
     1
1070
    44
1040
1.0
1070
    74
1070
     0
1000
MTEXTEND
  0
POINT
  5
2898
330
DF6
100
AcDbEntity
  8
DEFPOINTS
 62
     0
100
AcDbPoint
 10
-41.99999999999998
 20
-4.000001369653864
 30
0.0
  0
POINT
  5
2899
330
DF6
100
AcDbEntity
  8
DEFPOINTS
 62
     0
100
AcDbPoint
 10
-1.999999999999996
 20
-3.550000748517284
 30
0.0
  0
POINT
  5
289A
330
DF6
100
AcDbEntity
  8
DEFPOINTS
 62
     0
100
AcDbPoint
 10
-1.999999999999996
 20
-11.00000236965371
 30
0.0
  0
ENDBLK
  5
E01
330
DF6
100
AcDbEntity
  8
0
100
AcDbBlockEnd
  0
BLOCK
  5
2297
330
228B
100
AcDbEntity
  8
0
100
AcDbBlockBegin
  2
*D7
 70
     1
 10
0.0
 20
0.0
 30
0.0
  3
*D7
  1

  0
LINE
  5
287E
330
228B
100
AcDbEntity
  8
AM_5
 62
     3
100
AcDbLine
 10
-95.49999999999998
 20
-4.000000000000281
 30
0.0
 11
-105.5000009999999
 21
-4.000000000000309
 31
0.0
  0
LINE
  5
287F
330
228B
100
AcDbEntity
  8
AM_5
 62
     3
100
AcDbLine
 10
-95.5
 20
4.000000000000013
 30
0.0
 11
-105.5000009999999
 21
3.999999999999984
 31
0.0
  0
LINE
  5
2880
330
228B
100
AcDbEntity
  8
AM_5
 62
     3
100
AcDbLine
 10
-105.0000009999999
 20
-2.750000000000308
 30
0.0
 11
-105.0000009999999
 21
2.749999999999986
 31
0.0
  0
INSERT
  5
2881
330
228B
100
AcDbEntity
  8
AM_5
 62
     3
100
AcDbBlockReference
  2
_OPEN30
 10
-105.0000009999999
 20
-4.000000000000308
 30
0.0
 41
1.25
 42
1.25
 43
1.25
 50
270.0000000000001
  0
INSERT
  5
2882
330
228B
100
AcDbEntity
  8
AM_5
 62
     3
100
AcDbBlockReference
  2
_OPEN30
 10
-105.0000009999999
 20
3.999999999999986
 30
0.0
 41
1.25
 42
1.25
 43
1.25
 50
90.00000000000015
  0
MTEXT
  5
2883
330
228B
100
AcDbEntity
  8
AM_5
 62
     2
100
AcDbMText
 10
-106.7000009999999
 20
-0.0000000000002963
 30
0.0
 40
1.9
 41
0.0
 71
     5
 72
     1
  1
%%c8
 11
-0.0000000000000028
 21
1.0
 31
0.0
1001
ACAD
1000
MTEXTBEGIN
1070
    73
1070
     1
1070
    44
1040
1.0
1070
    74
1070
     0
1000
MTEXTEND
  0
POINT
  5
2884
330
228B
100
AcDbEntity
  8
DEFPOINTS
 62
     0
100
AcDbPoint
 10
-95.5
 20
-3.999999999999984
 30
0.0
  0
POINT
  5
2885
330
228B
100
AcDbEntity
  8
DEFPOINTS
 62
     0
100
AcDbPoint
 10
-95.49999999999998
 20
4.000000000000309
 30
0.0
  0
POINT
  5
2886
330
228B
100
AcDbEntity
  8
DEFPOINTS
 62
     0
100
AcDbPoint
 10
-105.0000009999999
 20
4.000000000000312
 30
0.0
  0
ENDBLK
  5
2298
330
228B
100
AcDbEntity
  8
0
100
AcDbBlockEnd
  0
BLOCK
  5
23F4
330
23EA
100
AcDbEntity
  8
0
100
AcDbBlockBegin
  2
*D8
 70
     1
 10
0.0
 20
0.0
 30
0.0
  3
*D8
  1

  0
LINE
  5
289B
330
23EA
100
AcDbEntity
  8
AM_5
 62
     3
100
AcDbLine
 10
-2.000000000000007
 20
3.550000748517248
 30
0.0
 11
9.055921024857919
 21
3.550000748517279
 31
0.0
  0
LINE
  5
289C
330
23EA
100
AcDbEntity
  8
AM_5
 62
     3
100
AcDbLine
 10
-1.999998253225023
 20
-3.549999251482744
 30
0.0
 11
9.055921024857941
 21
-3.549999251482713
 31
0.0
  0
LINE
  5
289D
330
23EA
100
AcDbEntity
  8
AM_5
 62
     3
100
AcDbLine
 10
8.555921024857923
 20
2.300000748517278
 30
0.0
 11
8.555921024857937
 21
-2.299999251482713
 31
0.0
  0
INSERT
  5
289E
330
23EA
100
AcDbEntity
  8
AM_5
 62
     3
100
AcDbBlockReference
  2
_OPEN30
 10
8.555921024857919
 20
3.550000748517278
 30
0.0
 41
1.25
 42
1.25
 43
1.25
 50
90.00000000000017
  0
INSERT
  5
289F
330
23EA
100
AcDbEntity
  8
AM_5
 62
     3
100
AcDbBlockReference
  2
_OPEN30
 10
8.555921024857941
 20
-3.549999251482713
 30
0.0
 41
1.25
 42
1.25
 43
1.25
 50
270.0000000000001
  0
MTEXT
  5
28A0
330
23EA
100
AcDbEntity
  8
AM_5
 62
     2
100
AcDbMText
 10
6.85592102485793
 20
0.0000007485172769
 30
0.0
 40
1.9
 41
0.0
 71
     5
 72
     1
  1
%%c7.1
 11
-0.0000000000000028
 21
1.0
 31
0.0
1001
ACAD
1000
MTEXTBEGIN
1070
    73
1070
     1
1070
    44
1040
1.0
1070
    74
1070
     0
1000
MTEXTEND
  0
POINT
  5
28A1
330
23EA
100
AcDbEntity
  8
DEFPOINTS
 62
     0
100
AcDbPoint
 10
-1.999999999999996
 20
3.550000748517254
 30
0.0
  0
POINT
  5
28A2
330
23EA
100
AcDbEntity
  8
DEFPOINTS
 62
     0
100
AcDbPoint
 10
-1.999998253225034
 20
-3.549999251482737
 30
0.0
  0
POINT
  5
28A3
330
23EA
100
AcDbEntity
  8
DEFPOINTS
 62
     0
100
AcDbPoint
 10
8.55592102485793
 20
-3.54999925148274
 30
0.0
  0
ENDBLK
  5
23F5
330
23EA
100
AcDbEntity
  8
0
100
AcDbBlockEnd
  0
BLOCK
  5
26CE
330
26C0
100
AcDbEntity
  8
0
100
AcDbBlockBegin
  2
*D9
 70
     1
 10
0.0
 20
0.0
 30
0.0
  3
*D9
  1

  0
LINE
  5
28F4
330
26C0
100
AcDbEntity
  8
AM_5
100
AcDbLine
 10
0.1710101364597437
 20
-0.4698462868088015
 30
0.0
 11
4.815345541789722
 21
-13.23004746589303
 31
0.0
  0
LINE
  5
28F5
330
26C0
100
AcDbEntity
  8
AM_5
100
AcDbLine
 10
0.17101119953587
 20
0.4698458998792111
 30
0.0
 11
4.815375476149121
 21
13.23003657063421
 31
0.0
  0
ARC
  5
28F6
330
26C0
100
AcDbEntity
  8
AM_5
100
AcDbCircle
 10
0.0000000000000021
 20
0.0000000000000021
 30
0.0
 40
13.57912314871267
100
AcDbArc
 50
295.2761243918641
 51
64.72374597041788
  0
INSERT
  5
28F7
330
26C0
100
AcDbEntity
  8
AM_5
100
AcDbBlockReference
  2
_OPEN30
 10
4.64433540532998
 20
-12.76020117908423
 30
0.0
 41
1.25
 42
1.25
 43
1.25
 50
202.6380661467871
  0
INSERT
  5
28F8
330
26C0
100
AcDbEntity
  8
AM_5
100
AcDbBlockReference
  2
_OPEN30
 10
4.644364276613253
 20
12.760190670755
 30
0.0
 41
1.25
 42
1.25
 43
1.25
 50
157.3618042154948
  0
MTEXT
  5
28F9
330
26C0
100
AcDbEntity
  8
AM_5
 62
     2
100
AcDbMText
 10
12.02912314870497
 20
-0.0000136085771639
 30
0.0
 40
1.6
 41
0.0
 71
     5
 72
     1
  1
140°
  7
ASAMI
 11
0.0000011313025075
 21
0.9999999999993601
 31
0.0
  0
POINT
  5
28FA
330
26C0
100
AcDbEntity
  8
DEFPOINTS
 62
     0
100
AcDbPoint
 10
12.46856578329266
 20
-5.378424750389998
 30
0.0
  0
POINT
  5
28FB
330
26C0
100
AcDbEntity
  8
DEFPOINTS
 62
     0
100
AcDbPoint
 10
0.0000000000000021
 20
0.0000000000000021
 30
0.0
  0
POINT
  5
28FC
330
26C0
100
AcDbEntity
  8
DEFPOINTS
 62
     0
100
AcDbPoint
 10
0.0000000000000021
 20
0.0000000000000021
 30
0.0
  0
POINT
  5
28FD
330
26C0
100
AcDbEntity
  8
DEFPOINTS
 62
     0
100
AcDbPoint
 10
-0.4497187230507488
 20
1.235591506492581
 30
0.0
  0
POINT
  5
28FE
330
26C0
100
AcDbEntity
  8
DEFPOINTS
 62
     0
100
AcDbPoint
 10
-0.4497245551032959
 20
-1.235598831326631
 30
0.0
  0
ENDBLK
  5
26CF
330
26C0
100
AcDbEntity
  8
0
100
AcDbBlockEnd
  0
ENDSEC
  0
SECTION
  2
ENTITIES
  0
LINE
  5
C1D
330
1F
100
AcDbEntity
  8
AM_0
 48
0.5
100
AcDbLine
 10
0.0000000000000178
 20
0.0000000000000071
 30
0.0
 11
-0.4497187230507488
 21
1.235591506492581
 31
0.0
  0
LINE
  5
C20
330
1F
100
AcDbEntity
  8
AM_0
 48
0.5
100
AcDbLine
 10
0.0000000000000178
 20
0.0000000000000071
 30
0.0
 11
-0.4497245551032958
 21
-1.235598831326631
 31
0.0
  0
LINE
  5
C30
330
1F
100
AcDbEntity
  8
AM_0
 48
0.5
100
AcDbLine
 10
-95.99999999999999
 20
-3.499999999999984
 30
0.0
 11
-96.0
 21
3.500000000000015
 31
0.0
  0
LINE
  5
C9F
330
1F
100
AcDbEntity
  8
AM_7
100
AcDbLine
 10
-97.99999999999997
 20
0.0000000000000133
 30
0.0
 11
1.555920024858062
 21
0.0000000000000059
 31
0.0
1001
GENIUS_GENODEF_13
1002
{
1000
HIER
1070
     0
1002
}
1002
{
1000
MANEDIT
1070
     0
1002
}
1002
{
1000
NOSEL
1070
     0
1002
}
1002
{
1000
BEHIND
1070
     0
1002
}
1002
{
1000
REACTOR
1002
}
1001
GENIUS_GENOBJ-N-CEN_13
1002
{
1000
OWNER
1000
GEN
1002
}
  0
DIMENSION
  5
CC6
330
1F
100
AcDbEntity
  8
AM_5
100
AcDbDimension
  2
*D5
 10
-1.999999999999997
 20
-16.00000236965379
 30
0.0
 11
-48.99999999999999
 21
-14.30000236965379
 31
0.0
 70
    32
  1
<>
  3
AM_JIS$0
100
AcDbAlignedDimension
 13
-95.99999999999999
 23
-3.499999999999984
 33
0.0
 14
-1.999999999999996
 24
-3.550000748517284
 34
0.0
 50
0.0000000000001132
100
AcDbRotatedDimension
1001
GENIUS_GENDTOL_13
1000

1000
h7
1000

1040
0.0
1001
ACAD
1000
DSTYLE
1002
{
1070
   271
1070
     0
1002
}
  0
DIMENSION
  5
DF5
330
1F
100
AcDbEntity
  8
AM_5
100
AcDbDimension
  2
*D6
 10
-1.999999999999996
 20
-11.00000236965371
 30
0.0
 11
-21.99999999999999
 21
-9.300002369653716
 31
0.0
 70
    32
  1
<>
  3
AM_JIS$0
100
AcDbAlignedDimension
 13
-41.99999999999998
 23
-4.000001369653864
 33
0.0
 14
-1.999999999999996
 24
-3.550000748517284
 34
0.0
 50
0.0000000000001527
100
AcDbRotatedDimension
1001
GENIUS_GENDTOL_13
1000

1000
h7
1000

1040
0.0
1001
ACAD
1000
DSTYLE
1002
{
1070
   271
1070
     0
1002
}
  0
TEXT
  5
19BD
330
1F
100
AcDbEntity
  8
AM_6
100
AcDbText
 10
-60.01190476190472
 20
-27.25000236965382
 30
0.0
 40
2.5
  1
MDW071MHK
 50
0.0000000000001527
 72
     4
 11
-48.99999999999995
 21
-26.00000236965379
 31
0.0
100
AcDbText
  0
ARC
  5
1BE8
330
1F
100
AcDbEntity
  8
AM_11
 48
0.5
100
AcDbCircle
 10
-65.18578898111988
 20
17.66787048062785
 30
0.0
 40
19.53452809651666
100
AcDbArc
 50
244.7482808787518
 51
295.2516148471758
  0
ARC
  5
1BE9
330
1F
100
AcDbEntity
  8
AM_11
 48
0.5
100
AcDbCircle
 10
-65.18578898111991
 20
-17.66785848258814
 30
0.0
 40
19.53452809651666
100
AcDbArc
 50
64.74833051131179
 51
115.2516644797366
  0
LINE
  5
1CA9
330
1F
100
AcDbEntity
  8
AM_0
 48
0.5
100
AcDbLine
 10
-41.99999999999998
 20
-4.000001369653864
 30
0.0
 11
-41.99999999999998
 21
4.000029622605994
 31
0.0
  0
LINE
  5
1E12
330
1F
100
AcDbEntity
  8
AM_0
 48
0.5
100
AcDbLine
 10
-95.5
 20
4.000000000000014
 30
0.0
 11
-41.99999999999998
 21
3.999999999999899
 31
0.0
1001
GENIUS_GENODEF_13
1002
{
1000
HIER
1070
     0
1002
}
1002
{
1000
MANEDIT
1070
     0
1002
}
1002
{
1000
NOSEL
1070
     0
1002
}
1002
{
1000
BEHIND
1070
     0
1002
}
1002
{
1000
REACTOR
1002
}
1001
GENIUS_GENOBJ-N-CEN_13
1002
{
1000
OWNER
1000
GEN
1002
}
  0
LINE
  5
1E16
330
1F
100
AcDbEntity
  8
AM_0
 48
0.5
100
AcDbLine
 10
-95.49999999999998
 20
-3.999999999999984
 30
0.0
 11
-41.99999999999998
 21
-4.0000000000001
 31
0.0
1001
GENIUS_GENODEF_13
1002
{
1000
HIER
1070
     0
1002
}
1002
{
1000
MANEDIT
1070
     0
1002
}
1002
{
1000
NOSEL
1070
     0
1002
}
1002
{
1000
BEHIND
1070
     0
1002
}
1002
{
1000
REACTOR
1002
}
1001
GENIUS_GENOBJ-N-CEN_13
1002
{
1000
OWNER
1000
GEN
1002
}
  0
LINE
  5
1E22
330
1F
100
AcDbEntity
  8
AM_0
100
AcDbLine
 10
-95.5
 20
-3.999999999999689
 30
0.0
 11
-95.49999999999998
 21
4.000000000000309
 31
0.0
  0
LINE
  5
1E25
330
1F
100
AcDbEntity
  8
AM_0
100
AcDbLine
 10
-41.99999999999998
 20
-4.000001369653864
 30
0.0
 11
-41.22057346781247
 21
-3.549999251481882
 31
0.0
  0
LINE
  5
1E26
330
1F
100
AcDbEntity
  8
AM_0
100
AcDbLine
 10
-41.99999999999998
 20
3.999999999999968
 30
0.0
 11
-41.2205784330654
 21
3.550000748518108
 31
0.0
  0
ARC
  5
1F66
330
1F
100
AcDbEntity
  8
AM_11
 48
0.5
100
AcDbCircle
 10
-81.85241919041599
 20
17.66787048062779
 30
0.0
 40
19.53452809651666
100
AcDbArc
 50
244.7482808787518
 51
295.2516148471758
  0
ARC
  5
1F67
330
1F
100
AcDbEntity
  8
AM_11
 48
0.5
100
AcDbCircle
 10
-81.85241919041601
 20
-17.6678584825882
 30
0.0
 40
19.53452809651666
100
AcDbArc
 50
64.74833051131179
 51
115.2516644797366
  0
LINE
  5
2200
330
1F
100
AcDbEntity
  8
AM_0
 48
0.5
100
AcDbLine
 10
0.0000000000000178
 20
0.0000000000000071
 30
0.0
 11
-2.124211688966218
 21
1.363092916689207
 31
0.0
  0
ELLIPSE
  5
2201
330
1F
100
AcDbEntity
  8
AM_0
 48
0.5
100
AcDbEllipse
 10
-7.797187151882895
 20
9.655214350757429
 30
0.0
 11
13.91041057335329
 21
8.046461386324251
 31
0.0
210
0.0
220
0.0
230
1.0
 40
0.7685015136845078
 41
-1.535300689115733
 42
-1.451355310054113
  0
LINE
  5
2202
330
1F
100
AcDbEntity
  8
AM_0
 48
0.5
100
AcDbLine
 10
-4.035022337317901
 20
3.549984381872031
 30
0.0
 11
-1.999999999999996
 21
3.550000748517254
 31
0.0
  0
LINE
  5
2203
330
1F
100
AcDbEntity
  8
AM_0
 48
0.5
100
AcDbLine
 10
-1.53240432354867
 20
3.149258293794726
 30
0.0
 11
-1.999999999999996
 21
3.550000748517254
 31
0.0
  0
LINE
  5
2204
330
1F
100
AcDbEntity
  8
AM_0
 48
0.5
100
AcDbLine
 10
-4.352431852174726
 20
-3.550013361109016
 30
0.0
 11
-1.999999999999996
 21
-3.550000748517284
 31
0.0
  0
LINE
  5
220F
330
1F
100
AcDbEntity
  8
AM_0
100
AcDbLine
 10
-41.2205743388979
 20
-3.549999251481882
 30
0.0
 11
-41.22057433889767
 21
3.550000748518108
 31
0.0
  0
LINE
  5
2210
330
1F
100
AcDbEntity
  8
AM_0
100
AcDbLine
 10
-38.26434618904916
 20
-3.549999251481902
 30
0.0
 11
-41.2205743388979
 21
-3.549999251481882
 31
0.0
  0
LINE
  5
2211
330
1F
100
AcDbEntity
  8
AM_0
100
AcDbLine
 10
-36.85625710476972
 20
3.550000748518073
 30
0.0
 11
-41.2205784330654
 21
3.550000748518108
 31
0.0
  0
ELLIPSE
  5
2214
330
1F
100
AcDbEntity
  8
AM_0
 48
0.5
100
AcDbEllipse
 10
1.696122473890673
 20
-1.857502689582783
 30
0.0
 11
2.874530660947758
 21
2.874530660947758
 31
0.0
210
0.0
220
0.0
230
1.0
 40
1.0
 41
2.27050059065867
 42
2.785608195011142
  0
ELLIPSE
  5
221F
330
1F
100
AcDbEntity
  8
AM_0
 48
0.5
100
AcDbEllipse
 10
-1.398529907197494
 20
-0.9251803542356723
 30
0.0
 11
-0.1127192276203408
 21
0.5819213632777353
 31
0.0
210
0.0
220
0.0
230
1.0
 40
0.5262575420080589
 41
1.792210517326747
 42
4.927552407038722
  0
ELLIPSE
  5
2220
330
1F
100
AcDbEntity
  8
AM_0
 48
0.5
100
AcDbEllipse
 10
-1.398529907197494
 20
-0.9251803542356723
 30
0.0
 11
-0.5457380397712114
 21
0.2879635301837035
 31
0.0
210
0.0
220
0.0
230
1.0
 40
0.4856077968565577
 41
4.453640882461058
 42
7.597081223790569
  0
SPLINE
  5
2224
330
1F
100
AcDbEntity
  8
AM_0
 48
0.5
100
AcDbSpline
210
0.0
220
0.0
230
1.0
 70
     8
 71
     3
 72
    10
 73
     6
 74
     0
 42
0.0000000001
 43
0.0000000001
 40
0.0
 40
0.0
 40
0.0
 40
0.0
 40
2.69986029516136
 40
4.147722969032201
 40
6.285750005020438
 40
6.285750005020438
 40
6.285750005020438
 40
6.285750005020438
 10
-4.851062498461632
 20
0.6425318255842827
 30
0.0
 10
-3.957057130436679
 20
0.3127122939786432
 30
0.0
 10
-3.266011749881509
 20
-0.193980607623662
 30
0.0
 10
-1.631782254665278
 20
0.0513183025527737
 30
0.0
 10
-1.939555203110046
 20
0.877517489904088
 30
0.0
 10
-2.142911903022833
 20
1.381111340844784
 30
0.0
  0
ELLIPSE
  5
222C
330
1F
100
AcDbEntity
  8
AM_0
 48
0.5
100
AcDbEllipse
 10
2.112631897001981
 20
4.261994156720303
 30
0.0
 11
-11.12201369621605
 21
9.147776797821368
 31
0.0
210
0.0
220
0.0
230
1.0
 40
0.5066248885709711
 41
1.362310154860882
 42
1.585828163760329
  0
ELLIPSE
  5
222D
330
1F
100
AcDbEntity
  8
AM_0
 48
0.5
100
AcDbEllipse
 10
-6.772684951752999
 20
5.95818772463197
 30
0.0
 11
9.041647315025329
 21
0.0000000000043431
 31
0.0
210
0.0
220
0.0
230
1.0
 40
0.9466666666666528
 41
-1.060213001566983
 42
-0.9717182238874924
  0
ELLIPSE
  5
222E
330
1F
100
AcDbEntity
  8
AM_11
 48
0.5
100
AcDbEllipse
 10
-15.18578898112438
 20
16.72558433296426
 30
0.0
 11
-19.53452809651665
 21
0.000000000000166
 31
0.0
210
0.0
220
0.0
230
1.0
 40
0.9466666666666663
 41
1.130070686340305
 42
2.011520147323594
  0
ELLIPSE
  5
222F
330
1F
100
AcDbEntity
  8
AM_11
 48
0.5
100
AcDbEllipse
 10
-15.18578898112475
 20
-16.72557241888021
 30
0.0
 11
-19.53452809651663
 21
0.0000000000000489
 31
0.0
210
0.0
220
0.0
230
1.0
 40
0.9466666666666668
 41
4.271664206181679
 42
5.153113667164986
  0
ELLIPSE
  5
2230
330
1F
100
AcDbEntity
  8
AM_11
 48
0.5
100
AcDbEllipse
 10
-48.51912231445306
 20
16.7255843329646
 30
0.0
 11
-19.53452809651663
 21
0.000000000000114
 31
0.0
210
0.0
220
0.0
230
1.0
 40
0.946666666666667
 41
1.130070686340299
 42
2.011520147323592
  0
ELLIPSE
  5
2231
330
1F
100
AcDbEntity
  8
AM_11
 48
0.5
100
AcDbEllipse
 10
-48.51912231445343
 20
-16.72557241887986
 30
0.0
 11
-19.53452809651663
 21
0.0000000000000055
 31
0.0
210
0.0
220
0.0
230
1.0
 40
0.946666666666667
 41
4.271664206181676
 42
5.153113667164983
  0
ELLIPSE
  5
2232
330
1F
100
AcDbEntity
  8
AM_11
 48
0.5
100
AcDbEllipse
 10
-31.85245564779143
 20
-16.72557241888003
 30
0.0
 11
-19.53452809651665
 21
0.0000000000000576
 31
0.0
210
0.0
220
0.0
230
1.0
 40
0.9466666666666657
 41
4.271664206181679
 42
5.153113667164985
  0
ELLIPSE
  5
2233
330
1F
100
AcDbEntity
  8
AM_11
 48
0.5
100
AcDbEllipse
 10
-31.85245564779106
 20
16.72558433296444
 30
0.0
 11
19.53452809651663
 21
0.0000000000000446
 31
0.0
210
0.0
220
0.0
230
1.0
 40
0.9466666666666672
 41
4.271663339930084
 42
5.153112800913377
  0
ELLIPSE
  5
2234
330
1F
100
AcDbEntity
  8
AM_11
 48
0.5
100
AcDbEllipse
 10
1.480877685542295
 20
16.7255843329641
 30
0.0
 11
-19.53452809651675
 21
0.0000000000005521
 31
0.0
210
0.0
220
0.0
230
1.0
 40
0.946666666666662
 41
1.130070686340324
 42
1.291800737381015
  0
ELLIPSE
  5
2235
330
1F
100
AcDbEntity
  8
AM_0
 48
0.5
100
AcDbEllipse
 10
5.42529405604588
 20
5.329039651754263
 30
0.0
 11
7.270283370024307
 21
0.8228207667782656
 31
0.0
210
0.0
220
0.0
230
1.0
 40
0.9148199423618684
 41
3.349788544839671
 42
3.675583716501283
  0
DIMENSION
  5
228A
330
1F
100
AcDbEntity
  8
AM_5
100
AcDbDimension
  2
*D7
 10
-105.0000009999999
 20
4.000000000000312
 30
0.0
 11
-105.0000009999999
 21
0.000000000000014
 31
0.0
 70
   160
  1
%%c<>
 51
359.9999999999998
  3
AM_JIS$0
100
AcDbAlignedDimension
 13
-95.5
 23
-3.999999999999984
 33
0.0
 14
-95.49999999999998
 24
4.000000000000309
 34
0.0
 50
270.0000000000002
100
AcDbRotatedDimension
1001
ACAD
1000
DSTYLE
1002
{
1070
   271
1070
     0
1002
}
1001
GENIUS_GENDTOL_13
1000

1000
h7
1000

1040
0.0
  0
DIMENSION
  5
23E9
330
1F
100
AcDbEntity
  8
AM_5
100
AcDbDimension
  2
*D8
 10
8.55592102485793
 20
-3.54999925148274
 30
0.0
 11
6.85592102485793
 21
0.000000748517257
 31
0.0
 70
    32
  1
%%c<>
 51
359.9999999999998
  3
AM_JIS$0
100
AcDbAlignedDimension
 13
-1.999999999999996
 23
3.550000748517254
 33
0.0
 14
-1.999998253225034
 24
-3.549999251482737
 34
0.0
 50
89.999999999999
100
AcDbRotatedDimension
1001
ACAD
1000
DSTYLE
1002
{
1070
   271
1070
     1
1002
}
1001
GENIUS_GENDTOL_13
1000

1000
h7
1000

1040
0.0
  0
ARC
  5
24F5
330
1F
100
AcDbEntity
  8
AM_11
 48
0.5
100
AcDbCircle
 10
-98.51902396212658
 20
-17.66785848258826
 30
0.0
 40
19.53452809651666
100
AcDbArc
 50
64.74833051131179
 51
82.59094121931479
  0
ARC
  5
24F6
330
1F
100
AcDbEntity
  8
AM_11
 48
0.5
100
AcDbCircle
 10
-98.51902396212656
 20
17.66787048062773
 30
0.0
 40
19.53452809651666
100
AcDbArc
 50
277.409058780685
 51
295.2516148471758
  0
LINE
  5
24F9
330
1F
100
AcDbEntity
  8
AM_0
 48
0.5
100
AcDbLine
 10
-95.5
 20
4.000000000000014
 30
0.0
 11
-96.0
 21
3.500000000000015
 31
0.0
1001
GENIUS_GENFIL_13
1070
     0
1040
0.5
1040
0.5
1040
20.0
1040
0.0
1002
{
1002
}
1001
GENIUS_GENODEF_13
1002
{
1000
HIER
1070
     0
1002
}
1002
{
1000
MANEDIT
1070
     0
1002
}
1002
{
1000
NOSEL
1070
     0
1002
}
1002
{
1000
BEHIND
1070
     0
1002
}
1002
{
1000
REACTOR
1002
}
1001
GENIUS_GENOBJ-N-CHA_13
1002
{
1000
OWNER
1000
GEN
1002
}
  0
LINE
  5
24FC
330
1F
100
AcDbEntity
  8
AM_0
 48
0.5
100
AcDbLine
 10
-95.99999999999999
 20
-3.499999999999984
 30
0.0
 11
-95.49999999999998
 21
-3.999999999999984
 31
0.0
1001
GENIUS_GENFIL_13
1070
     0
1040
0.5
1040
0.5
1040
20.0
1040
0.0
1002
{
1002
}
1001
GENIUS_GENODEF_13
1002
{
1000
HIER
1070
     0
1002
}
1002
{
1000
MANEDIT
1070
     0
1002
}
1002
{
1000
NOSEL
1070
     0
1002
}
1002
{
1000
BEHIND
1070
     0
1002
}
1002
{
1000
REACTOR
1002
}
1001
GENIUS_GENOBJ-N-CHA_13
1002
{
1000
OWNER
1000
GEN
1002
}
  0
ELLIPSE
  5
2541
330
1F
100
AcDbEntity
  8
AM_0
 48
0.5
100
AcDbEllipse
 10
5.425294056045909
 20
-5.329039651754238
 30
0.0
 11
7.270283370024311
 21
-0.8228207667782269
 31
0.0
210
0.0
220
0.0
230
-1.0
 40
0.9148199423618684
 41
3.349788544839671
 42
3.675583716501283
  0
LINE
  5
2542
330
1F
100
AcDbEntity
  8
AM_0
 48
0.5
100
AcDbLine
 10
-1.532404323548653
 20
-3.149258293794738
 30
0.0
 11
-1.999999999999977
 21
-3.550000748517268
 31
0.0
  0
SPLINE
  5
2689
330
1F
100
AcDbEntity
  8
AM_0
 48
0.5
100
AcDbSpline
210
0.0
220
0.0
230
1.0
 70
     8
 71
     3
 72
    17
 73
    13
 74
     0
 42
0.0000000001
 43
0.0000000001
 40
0.0
 40
0.0
 40
0.0
 40
0.0
 40
1.010743614677189
 40
2.022833924044153
 40
3.037578959561199
 40
4.056212747067873
 40
5.079857613375832
 40
6.109500119648989
 40
7.14596120163808
 40
8.18989512056258
 40
9.241717674284874
 40
9.693948937866434
 40
9.693948937866434
 40
9.693948937866434
 40
9.693948937866434
 10
-4.034795923166134
 20
3.549986638891077
 30
0.0
 10
-4.246526184446553
 20
3.547875997023176
 30
0.0
 10
-4.670268812196495
 20
3.543651901110131
 30
0.0
 10
-5.305727741726249
 20
3.509567073210625
 30
0.0
 10
-5.941160509780743
 20
3.455401657813794
 30
0.0
 10
-6.576553759324747
 20
3.379478583213433
 30
0.0
 10
-7.21189992300882
 20
3.282827540571872
 30
0.0
 10
-7.847191240707566
 20
3.16589663871278
 30
0.0
 10
-8.482419185743836
 20
3.029438600521842
 30
0.0
 10
-9.117608407511728
 20
2.874372096655569
 30
0.0
 10
-9.63034971069316
 20
2.734680616764137
 30
0.0
 10
-9.931461466497506
 20
2.647353353318209
 30
0.0
 10
-10.02183906074456
 20
2.620623062571766
 30
0.0
  0
SPLINE
  5
268A
330
1F
100
AcDbEntity
  8
AM_0
100
AcDbSpline
210
0.0
220
0.0
230
1.0
 70
     8
 71
     3
 72
    55
 73
    51
 74
     0
 42
0.0000000001
 43
0.0000000001
 40
0.0
 40
0.0
 40
0.0
 40
0.0
 40
1.010743684496582
 40
2.022833576467832
 40
3.037578957496688
 40
4.056212745003489
 40
5.079857003664532
 40
6.109500240690281
 40
7.145961322679372
 40
8.189895241603872
 40
9.241717795325891
 40
10.30168407291828
 40
11.36983447792315
 40
12.44600489715814
 40
13.52984294512926
 40
14.62081576220742
 40
15.7182257034828
 40
16.82123173843959
 40
17.92886860250316
 40
19.0400688939571
 40
20.15368796660465
 40
21.26852814259644
 40
22.38336992938901
 40
23.49698739941135
 40
24.6081876908653
 40
25.71582455492886
 40
26.81883757994213
 40
27.91624752121713
 40
29.00722033829659
 40
30.09105838626677
 40
31.16722880550176
 40
32.23537921050758
 40
33.29534548809967
 40
34.347168041821
 40
35.39108718934584
 40
36.42754827133493
 40
37.45720575381954
 40
38.48085062012849
 40
39.49948440763516
 40
40.51422944315121
 40
41.52631975251916
 40
42.53706336719636
 40
43.54780698187354
 40
44.55989729124051
 40
45.57464232675757
 40
46.59327611426424
 40
47.6169209805722
 40
48.64656348684535
 40
49.68302456883444
 40
50.58557219878025
 40
50.58557219878025
 40
50.58557219878025
 40
50.58557219878025
 10
-4.352431852174726
 20
-3.550013361109016
 30
0.0
 10
-4.562149367856445
 20
-3.547903454131997
 30
0.0
 10
-4.981863721556059
 20
-3.543676312953046
 30
0.0
 10
-5.611282510052031
 20
-3.509600809489128
 30
0.0
 10
-6.240674431033149
 20
-3.455429660496115
 30
0.0
 10
-6.870027398833492
 20
-3.379506734898505
 30
0.0
 10
-7.499335133501254
 20
-3.282860933902021
 30
0.0
 10
-8.1285852202018
 20
-3.165922025982148
 30
0.0
 10
-8.757779763748791
 20
-3.029477753303211
 30
0.0
 10
-9.386913184458139
 20
-2.874363635307503
 30
0.0
 10
-10.01598119678475
 20
-2.701532063269667
 30
0.0
 10
-10.64498693628484
 20
-2.512067883101586
 30
0.0
 10
-11.27393208756123
 20
-2.307130628574697
 30
0.0
 10
-11.90282450877981
 20
-2.087996086156024
 30
0.0
 10
-12.53166707924432
 20
-1.856010884559701
 30
0.0
 10
-13.16046563004712
 20
-1.612605699467742
 30
0.0
 10
-13.78922713464919
 20
-1.359282146492411
 30
0.0
 10
-14.41795711139721
 20
-1.097598045628302
 30
0.0
 10
-15.04666166218728
 20
-0.8291628558933581
 30
0.0
 10
-15.67534751442515
 20
-0.5556287639887075
 30
0.0
 10
-16.30402018228434
 20
-0.2786773450987354
 30
0.0
 10
-16.93268854359662
 20
-0.000016342456604
 30
0.0
 10
-17.56135408271399
 20
0.2786496762572241
 30
0.0
 10
-18.1900288577469
 20
0.5555967822810857
 30
0.0
 10
-18.8187139338637
 20
0.829131702157845
 30
0.0
 10
-19.447419605627
 20
1.097567914511209
 30
0.0
 10
-20.07615219064857
 20
1.359249782117252
 30
0.0
 10
-20.70491468760244
 20
1.612574619795481
 30
0.0
 10
-21.33371332918281
 20
1.85597960751091
 30
0.0
 10
-21.96255587676575
 20
2.087964857892849
 30
0.0
 10
-22.59144829959466
 20
2.307099400632083
 30
0.0
 10
-23.2203934668908
 20
2.512036606155398
 30
0.0
 10
-23.84939914147065
 20
2.701500979783844
 30
0.0
 10
-24.47846445029401
 20
2.87433102572109
 30
0.0
 10
-25.10759398053987
 20
3.029447175324747
 30
0.0
 10
-25.73678829068832
 20
3.165894191726366
 30
0.0
 10
-26.36604287044535
 20
3.28281974359966
 30
0.0
 10
-26.99535268416802
 20
3.379495458514604
 30
0.0
 10
-27.62470583853679
 20
3.455328387283501
 30
0.0
 10
-28.25409819683849
 20
3.509828497930705
 30
0.0
 10
-28.88351645166234
 20
3.542668843291323
 30
0.0
 10
-29.51294853757064
 20
3.553639716020434
 30
0.0
 10
-30.14238062255281
 20
3.542668843274149
 30
0.0
 10
-30.77179888016041
 20
3.509828497999784
 30
0.0
 10
-31.40119122821313
 20
3.455328387023527
 30
0.0
 10
-32.03054442100789
 20
3.37949545949197
 30
0.0
 10
-32.65985102226737
 20
3.282820211234806
 30
0.0
 10
-33.28910312300092
 20
3.165895387227131
 30
0.0
 10
-33.88968933332695
 20
3.035641006018252
 30
0.0
 10
-34.27935650625666
 20
2.940384745657823
 30
0.0
 10
-34.46013936305061
 20
2.893961723103949
 30
0.0
  0
SPLINE
  5
268B
330
1F
100
AcDbEntity
  8
AM_0
 48
0.5
100
AcDbSpline
210
0.0
220
0.0
230
1.0
 70
     8
 71
     3
 72
    25
 73
    21
 74
     0
 42
0.0000000001
 43
0.0000000001
 40
6.846175049578289
 40
6.846175049578289
 40
6.846175049578289
 40
6.846175049578289
 40
7.604337694224321
 40
8.711974558287883
 40
9.814980593243754
 40
10.91239053451967
 40
12.0033633515982
 40
13.08720139956839
 40
14.16337181880432
 40
15.23152222380919
 40
16.29148850140128
 40
17.34331105512262
 40
18.38723020264746
 40
19.42369128463655
 40
20.45333379090873
 40
21.47697865721768
 40
22.49561244472435
 40
23.5103574802404
 40
24.52244778960836
 40
25.53320666051913
 40
25.53320666051913
 40
25.53320666051913
 40
25.53320666051913
 10
-4.775901600737553
 20
0.6425598802115573
 30
0.0
 10
-4.920256238673351
 20
0.7048915665598017
 30
0.0
 10
-5.275809423704771
 20
0.8576629226918228
 30
0.0
 10
-5.843089545675415
 20
1.097568946871341
 30
0.0
 10
-6.477853515316015
 20
1.359253199121482
 30
0.0
 10
-7.112649407648929
 20
1.612576711503294
 30
0.0
 10
-7.747482676753898
 20
1.855981908602494
 30
0.0
 10
-8.38236039624018
 20
2.087967102491013
 30
0.0
 10
-9.017288436732512
 20
2.307101663650371
 30
0.0
 10
-9.652269737613304
 20
2.512038851590432
 30
0.0
 10
-10.28731212022324
 20
2.70150327674122
 30
0.0
 10
-10.9224147246391
 20
2.874333136129251
 30
0.0
 10
-11.55758211266968
 20
3.029449973241504
 30
0.0
 10
-12.19281204278002
 20
3.165893794157675
 30
0.0
 10
-12.82810203344094
 20
3.282828295876491
 30
0.0
 10
-13.4634485495623
 20
3.379478382282002
 30
0.0
 10
-14.09884170540738
 20
3.455401711767621
 30
0.0
 10
-14.73427449829877
 20
3.509567057149389
 30
0.0
 10
-15.36973661324744
 20
3.543652082802566
 30
0.0
 10
-15.79348244111709
 20
3.547876046932074
 30
0.0
 10
-16.00521590039139
 20
3.549986638891134
 30
0.0
  0
SPLINE
  5
268C
330
1F
100
AcDbEntity
  8
AM_0
100
AcDbSpline
210
0.0
220
0.0
230
1.0
 70
     8
 71
     3
 72
    11
 73
     7
 74
     0
 42
0.0000000001
 43
0.0000000001
 40
11.27226913003534
 40
11.27226913003534
 40
11.27226913003534
 40
11.2722691300354
 40
12.28301561507924
 40
13.29510212255852
 40
14.30984805882082
 40
15.18258238371378
 40
15.18258238371378
 40
15.18258238371378
 40
15.18258238371378
 10
-16.20906104147076
 20
-3.55001336110908
 30
0.0
 10
-16.41798110515535
 20
-3.532640886504388
 30
0.0
 10
-16.83542716955692
 20
-3.490577417423658
 30
0.0
 10
-17.45944065250585
 20
-3.405724995913409
 30
0.0
 10
-18.05164045089545
 20
-3.3043780821246
 30
0.0
 10
-18.43464051906308
 20
-3.226469693217474
 30
0.0
 10
-18.6111378563917
 20
-3.187985101004599
 30
0.0
  0
SPLINE
  5
268D
330
1F
100
AcDbEntity
  8
AM_0
100
AcDbSpline
210
0.0
220
0.0
230
1.0
 70
     8
 71
     3
 72
    22
 73
    18
 74
     0
 42
0.0000000001
 43
0.0000000001
 40
17.17441611292
 40
17.17441611292
 40
17.17441611292
 40
17.17441611292
 40
17.38177636558528
 40
18.41823744757437
 40
19.46215659509824
 40
20.51397914882054
 40
21.57394542641293
 40
22.64209583141747
 40
23.71826625065247
 40
24.80210429862395
 40
25.8930771157021
 40
26.99048705697709
 40
28.09349309193389
 40
29.20112995599786
 40
30.31233024745139
 40
31.42594771747373
 40
32.5407895042663
 40
32.54078950426994
 40
32.54078950426994
 40
32.54078950426994
 10
-18.61141312292245
 20
-3.187941311781749
 30
0.0
 10
-18.65355990140203
 20
-3.179723409972027
 30
0.0
 10
-18.90620682069082
 20
-3.129667271810234
 30
0.0
 10
-19.36904174023066
 20
-3.029298199844383
 30
0.0
 10
-19.99817118051461
 20
-2.874181604590809
 30
0.0
 10
-20.62723651382923
 20
-2.701351679660099
 30
0.0
 10
-21.25624218134047
 20
-2.511887272297371
 30
0.0
 10
-21.88518735217562
 20
-2.306950079446437
 30
0.0
 10
-22.51407976792036
 20
-2.087815519958745
 30
0.0
 10
-23.14292234052341
 20
-1.855830324330234
 30
0.0
 10
-23.77172088827395
 20
-1.61242513255101
 30
0.0
 10
-24.40048240301312
 20
-1.359101600478929
 30
0.0
 10
-25.02921234201144
 20
-1.097417422173407
 30
0.0
 10
-25.65791703445239
 20
-0.8289825229187002
 30
0.0
 10
-26.28660205325578
 20
-0.5554474734943611
 30
0.0
 10
-26.91527671184347
 20
-0.2785001330032486
 30
0.0
 10
-27.33431088336401
 20
-0.0927574263779434
 30
0.0
 10
-27.54394308082809
 20
0.0001649442103471
 30
0.0
  0
SPLINE
  5
268E
330
1F
100
AcDbEntity
  8
AM_0
100
AcDbSpline
210
0.0
220
0.0
230
1.0
 70
     8
 71
     3
 72
    17
 73
    13
 74
     0
 42
0.0000000001
 43
0.0000000001
 40
1.580019955310467
 40
1.580019955310467
 40
1.580019955310467
 40
1.580019955310467
 40
2.030549285115227
 40
3.082371838836284
 40
4.126290986361125
 40
5.162752068350215
 40
6.192395305374981
 40
7.216039564037012
 40
8.234688489606833
 40
9.249433870634691
 40
10.26152376260694
 40
11.27226744710342
 40
11.27226744710342
 40
11.27226744710342
 40
11.27226744710352
 10
-10.28028392327045
 20
-2.620020153523611
 30
0.0
 10
-10.36933617588803
 20
-2.647004023701121
 30
0.0
 10
-10.66680061782108
 20
-2.735447262419
 30
0.0
 10
-11.17464618829531
 20
-2.874173646901972
 30
0.0
 10
-11.80368805520061
 20
-3.029528794209142
 30
0.0
 10
-12.4329030967429
 20
-3.165909986786331
 30
0.0
 10
-13.06214696869882
 20
-3.282859225936768
 30
0.0
 10
-13.69145939564676
 20
-3.379525817247042
 30
0.0
 10
-14.32081529998451
 20
-3.455358127104624
 30
0.0
 10
-14.95021039305881
 20
-3.509864736767845
 30
0.0
 10
-15.57962916820444
 20
-3.54269478086033
 30
0.0
 10
-15.99934352855577
 20
-3.550015638440953
 30
0.0
 10
-16.20906104147071
 20
-3.55001336110908
 30
0.0
  0
ELLIPSE
  5
268F
330
1F
100
AcDbEntity
  8
AM_0
 48
0.5
100
AcDbEllipse
 10
-38.26456482403917
 20
-2.366864929523678
 30
0.0
 11
1.244857477602373
 21
0.001955349359048
 31
0.0
210
0.0
220
0.0
230
1.0
 40
0.950427540620134
 41
3.151188519071707
 42
4.710895791552045
  0
ELLIPSE
  5
2690
330
1F
100
AcDbEntity
  8
AM_0
 48
0.5
100
AcDbEllipse
 10
-38.57600803038895
 20
-2.402918714211948
 30
0.0
 11
-0.9336457964454957
 21
0.0000000000003295
 31
0.0
210
0.0
220
0.0
230
1.0
 40
0.9505746219592298
 41
4.317028824483418
 42
6.257553905069706
  0
SPLINE
  5
2691
330
1F
100
AcDbEntity
  8
AM_0
100
AcDbSpline
210
0.0
220
0.0
230
1.0
 70
     8
 71
     3
 72
    13
 73
     9
 74
     0
 42
0.0000000001
 43
0.0000000001
 40
16.03460056234195
 40
16.03460056234195
 40
16.03460056234195
 40
16.03460056234195
 40
16.35212717791071
 40
17.38177067057215
 40
18.41822498539278
 40
19.46214186516937
 40
20.5139635832251
 40
21.34083983469381
 40
21.34083983469381
 40
21.34083983469381
 40
21.34083983469381
 10
-38.26456521482164
 20
-3.550013361109171
 30
0.0
 10
-38.08636884455066
 20
-3.53853729780983
 30
0.0
 10
-37.81228974107774
 20
-3.486351021236237
 30
0.0
 10
-37.32949711135957
 20
-3.38409597756648
 30
0.0
 10
-36.70427897250019
 20
-3.232046042702633
 30
0.0
 10
-36.07964166557259
 20
-3.061318722446947
 30
0.0
 10
-35.50164667017973
 20
-2.88682007791577
 30
0.0
 10
-35.13289604155584
 20
-2.76666534273206
 30
0.0
 10
-34.97112735085606
 20
-2.712354307578876
 30
0.0
  0
SPLINE
  5
2692
330
1F
100
AcDbEntity
  8
AM_0
 48
0.5
100
AcDbSpline
210
0.0
220
0.0
230
1.0
 70
     8
 71
     3
 72
    26
 73
    22
 74
     0
 42
0.0000000001
 43
0.0000000001
 40
0.0
 40
0.0
 40
0.0
 40
0.0
 40
0.2526859211241313
 40
0.5057083941171959
 40
0.7593947393741639
 40
1.01405318625086
 40
1.26996425091637
 40
1.527375060172565
 40
1.786490330669834
 40
2.047470117551047
 40
2.310425755981314
 40
2.575417325379407
 40
2.842456731169063
 40
3.111495753801943
 40
3.382458822635121
 40
3.655202026904655
 40
3.929554512223505
 40
4.205306020962704
 40
4.482215236978595
 40
4.76001530984208
 40
5.029821427366006
 40
5.029821427366006
 40
5.029821427366006
 40
5.029821427366006
 10
-27.57728853941066
 20
-3.550198262857313
 30
0.0
 10
-27.78700605511764
 20
-3.548086098953361
 30
0.0
 10
-28.20672040886794
 20
-3.543858957958597
 30
0.0
 10
-28.83613919698446
 20
-3.509783453110606
 30
0.0
 10
-29.46553111941328
 20
-3.45561230939885
 30
0.0
 10
-30.09488408177189
 20
-3.379689363949295
 30
0.0
 10
-30.72419183690282
 20
-3.283043637604115
 30
0.0
 10
-31.35344184655446
 20
-3.166104448603987
 30
0.0
 10
-31.98263369211462
 20
-3.029661883482474
 30
0.0
 10
-32.6117630825089
 20
-2.874544625662166
 30
0.0
 10
-33.24082853041442
 20
-2.701715151810616
 30
0.0
 10
-33.86983521306338
 20
-2.512249166948534
 30
0.0
 10
-34.49878052405756
 20
-2.307316562461024
 30
0.0
 10
-35.1276715895243
 20
-2.088174445761963
 30
0.0
 10
-35.75651681817072
 20
-1.856195936104689
 30
0.0
 10
-36.38531756869501
 20
-1.612788274910442
 30
0.0
 10
-37.01407852847636
 20
-1.359463698261236
 30
0.0
 10
-37.64281124397004
 20
-1.097785164101892
 30
0.0
 10
-38.27150532466998
 20
-0.8293286082458939
 30
0.0
 10
-38.89374135124747
 20
-0.5586970963929537
 30
0.0
 10
-39.30599612980927
 20
-0.3768849483616909
 30
0.0
 10
-39.50934715555736
 20
-0.287303664214078
 30
0.0
  0
SPLINE
  5
2693
330
1F
100
AcDbEntity
  8
AM_0
 48
0.5
100
AcDbSpline
210
0.0
220
0.0
230
1.0
 70
     8
 71
     3
 72
    22
 73
    18
 74
     0
 42
0.0000000001
 43
0.0000000001
 40
0.0
 40
0.0
 40
0.0
 40
0.0
 40
1.010743684496582
 40
2.022833993863546
 40
3.037578683882831
 40
4.056212471389632
 40
5.079857945358201
 40
6.109499720892564
 40
7.145961650132166
 40
8.189873411961459
 40
9.241710626092514
 40
10.30166235592959
 40
11.36982472628033
 40
12.44598212828784
 40
13.52983440361964
 40
14.62080578343036
 40
14.90544694398022
 40
14.90544694398022
 40
14.90544694398022
 40
14.90544694398022
 10
-29.31688845014529
 20
-3.550013361109136
 30
0.0
 10
-29.54895101677021
 20
-3.548086729874539
 30
0.0
 10
-29.9686655372748
 20
-3.543860850690612
 30
0.0
 10
-30.5980836662581
 20
-3.509775855102986
 30
0.0
 10
-31.22747626830783
 20
-3.455613826015777
 30
0.0
 10
-31.85682957075718
 20
-3.379690830428208
 30
0.0
 10
-32.48613559140002
 20
-3.283036012798965
 30
0.0
 10
-33.11538776512762
 20
-3.166106934593044
 30
0.0
 10
-33.74457687116218
 20
-3.029659411288974
 30
0.0
 10
-34.37370723602758
 20
-2.874539907688769
 30
0.0
 10
-35.00277319347903
 20
-2.701716964040463
 30
0.0
 10
-35.63177803095332
 20
-2.512242400246456
 30
0.0
 10
-36.26072580322058
 20
-2.307321929585007
 30
0.0
 10
-36.88961603786718
 20
-2.088173795579236
 30
0.0
 10
-37.5184605164109
 20
-1.856194071062829
 30
0.0
 10
-37.99108108847269
 20
-1.673252959003767
 30
0.0
 10
-38.25444176396834
 20
-1.568689699834656
 30
0.0
 10
-38.2164231407592
 20
-1.583882315923957
 30
0.0
  0
SPLINE
  5
2694
330
1F
100
AcDbEntity
  8
AM_0
100
AcDbSpline
210
0.0
220
0.0
230
1.0
 70
     8
 71
     3
 72
    23
 73
    19
 74
     0
 42
0.0000000001
 43
0.0000000001
 40
16.03460024169435
 40
16.03460024169435
 40
16.03460024169435
 40
16.03460024169435
 40
16.35212704903564
 40
17.38177054169784
 40
18.41822485651776
 40
19.46214173629503
 40
20.51396345435107
 40
21.57393551351153
 40
22.64208202342361
 40
23.7182574881101
 40
24.80209208578934
 40
25.89306333925047
 40
26.99048218457928
 40
28.09348763352352
 40
29.20111863782268
 40
30.31232390128032
 40
31.42594612798585
 40
32.5407912310448
 40
32.5407912310486
 40
32.5407912310486
 40
32.5407912310486
 10
-37.07667161201534
 20
3.549986638890828
 30
0.0
 10
-37.01471471530711
 20
3.538504548952381
 30
0.0
 10
-36.74063583862883
 20
3.486316840516316
 30
0.0
 10
-36.25784294573283
 20
3.384062990684242
 30
0.0
 10
-35.63262488555428
 20
3.232012634221163
 30
0.0
 10
-35.00798755731834
 20
3.06128542814163
 30
0.0
 10
-34.3838940507071
 20
2.872869454434543
 30
0.0
 10
-33.76032221553595
 20
2.667815136371324
 30
0.0
 10
-33.13723601084736
 20
2.447294650908155
 30
0.0
 10
-32.51459204728631
 20
2.212591371956001
 30
0.0
 10
-31.89235494398645
 20
1.965034410499519
 30
0.0
 10
-31.27047481394296
 20
1.70606424281533
 30
0.0
 10
-30.64890126072549
 20
1.437186115405665
 30
0.0
 10
-30.02759287066111
 20
1.159945964782174
 30
0.0
 10
-29.40649765963136
 20
0.8759559044542584
 30
0.0
 10
-28.78555810106573
 20
0.5868742280229214
 30
0.0
 10
-28.16472363295601
 20
0.2943760855224937
 30
0.0
 10
-27.75094515816389
 20
0.0982720746090777
 30
0.0
 10
-27.54394308082529
 20
0.0001649442090823
 30
0.0
  0
LINE
  5
2695
330
1F
100
AcDbEntity
  8
AM_0
100
AcDbLine
 10
-29.51293357660302
 20
3.549986638890857
 30
0.0
 11
-16.0052159003914
 21
3.54998663889113
 31
0.0
  0
LINE
  5
2696
330
1F
100
AcDbEntity
  8
AM_0
 48
0.5
100
AcDbLine
 10
-29.63541014704684
 20
-3.550013361109137
 30
0.0
 11
-16.20906104147076
 21
-3.55001336110908
 31
0.0
  0
LINE
  5
2697
330
1F
100
AcDbEntity
  8
AM_11
 48
0.5
100
AcDbLine
 10
-38.2649622701029
 20
-3.550013361109164
 30
0.0
 11
-29.63541014704684
 21
-3.550013361109137
 31
0.0
  0
LINE
  5
2698
330
1F
100
AcDbEntity
  8
AM_0
 48
0.5
100
AcDbLine
 10
-31.1283347437819
 20
1.643792775593689
 30
0.0
 11
-39.50934715555733
 21
-0.2873036642140816
 31
0.0
  0
LINE
  5
2699
330
1F
100
AcDbEntity
  8
AM_11
 48
0.5
100
AcDbLine
 10
-37.07667161194907
 20
3.549986638890825
 30
0.0
 11
-29.51293357660302
 21
3.549986638890857
 31
0.0
  0
LINE
  5
269A
330
1F
100
AcDbEntity
  8
AM_11
 48
0.5
100
AcDbLine
 10
-16.20906104147076
 20
-3.55001336110908
 30
0.0
 11
-4.352431852174726
 21
-3.550013361109026
 31
0.0
  0
LINE
  5
269B
330
1F
100
AcDbEntity
  8
AM_11
 48
0.5
100
AcDbLine
 10
-16.00498947749542
 20
3.549984381872381
 30
0.0
 11
-4.035022337317901
 21
3.549984381872031
 31
0.0
  0
SPLINE
  5
269C
330
1F
100
AcDbEntity
  8
AM_0
100
AcDbSpline
210
0.0
220
0.0
230
1.0
 70
     8
 71
     3
 72
    46
 73
    42
 74
     0
 42
0.0000000001
 43
0.0000000001
 40
0.0
 40
0.0
 40
0.0
 40
0.0
 40
0.5056245176053715
 40
0.759310862862336
 40
1.013969309739036
 40
1.269880374404297
 40
1.527291183660732
 40
1.786406454158005
 40
2.047386241038974
 40
2.310345544571907
 40
2.575337113970003
 40
2.842374715221223
 40
3.111417320030211
 40
3.382376832022752
 40
3.655120036292296
 40
3.929472521611371
 40
4.205224030350333
 40
4.482133246366229
 40
4.759933319229942
 40
5.038338087391601
 40
5.317048131389549
 40
5.595758175387723
 40
5.874162943549383
 40
6.151963016412869
 40
6.428872232428759
 40
6.704623741167955
 40
6.978976226486705
 40
7.251719430756336
 40
7.522680721168327
 40
7.791723325977311
 40
8.058760927228529
 40
8.32375249662655
 40
8.586708135057122
 40
8.84768792193809
 40
9.106803192435362
 40
9.364213819003406
 40
9.620125035580644
 40
9.87478726697307
 40
10.12847352585208
 40
10.38149610319407
 40
10.63418200686337
 40
10.63418200686337
 40
10.63418200686337
 40
10.63418200686337
 10
-2.590486930570369
 20
-3.55001561812805
 30
0.0
 10
-3.010221790844392
 20
-3.541928443709792
 30
0.0
 10
-3.640549687991262
 20
-3.529783701570458
 30
0.0
 10
-4.478724180315706
 20
-3.455010755326433
 30
0.0
 10
-5.108083909860738
 20
-3.379619735027056
 30
0.0
 10
-5.737389844131069
 20
-3.282830471324921
 30
0.0
 10
-6.366640325319417
 20
-3.165930006117413
 30
0.0
 10
-6.995832120842602
 20
-3.02947722321813
 30
0.0
 10
-7.624964176898953
 20
-2.874361025887957
 30
0.0
 10
-8.254033693628564
 20
-2.701533850540634
 30
0.0
 10
-8.883041928390554
 20
-2.512067635409486
 30
0.0
 10
-9.51198718934407
 20
-2.307130695704152
 30
0.0
 10
-10.14087958083118
 20
-2.087996067953142
 30
0.0
 10
-10.76972215939457
 20
-1.856010889562561
 30
0.0
 10
-11.39852070782832
 20
-1.612605697828549
 30
0.0
 10
-12.02728221373862
 20
-1.359282148013001
 30
0.0
 10
-12.65601218762313
 20
-1.0975980411676
 30
0.0
 10
-13.28471674861084
 20
-0.8291628723000172
 30
0.0
 10
-13.9134025627623
 20
-0.5556287025825384
 30
0.0
 10
-14.54207537316356
 20
-0.278677574881236
 30
0.0
 10
-15.17074289883018
 20
-0.0000156181840723
 30
0.0
 10
-15.79941042435869
 20
0.2786463388516935
 30
0.0
 10
-16.42808323517423
 20
0.5555974655376233
 30
0.0
 10
-17.05676904781149
 20
0.8291316389659257
 30
0.0
 10
-17.68547361441389
 20
1.097566794071397
 30
0.0
 10
-18.31420356747966
 20
1.359250951945242
 30
0.0
 10
-18.9429651504889
 20
1.612574312784545
 30
0.0
 10
-19.57176478071602
 20
1.855980732695876
 30
0.0
 10
-20.20060980265832
 20
2.087963803383509
 30
0.0
 10
-20.82950331599302
 20
2.307099554781842
 30
0.0
 10
-21.45844856230292
 20
2.512036555466835
 30
0.0
 10
-22.08745421317054
 20
2.701501029565378
 30
0.0
 10
-22.71651953853933
 20
2.874330878402702
 30
0.0
 10
-23.34564902652084
 20
3.029447709399519
 30
0.0
 10
-23.97484045790088
 20
3.165891564841373
 30
0.0
 10
-24.60409140041714
 20
3.282825935790391
 30
0.0
 10
-25.23340135096651
 20
3.379476983182861
 30
0.0
 10
-25.8627578375804
 20
3.455398742220445
 30
0.0
 10
-26.49215326217386
 20
3.509564919548509
 30
0.0
 10
-27.12157153335306
 20
3.543649618320856
 30
0.0
 10
-27.54128606282463
 20
3.547873731418299
 30
0.0
 10
-27.75100361581202
 20
3.549984381872668
 30
0.0
  0
DIMENSION
  5
26BF
330
1F
100
AcDbEntity
  8
AM_5
100
AcDbDimension
  2
*D9
 10
-0.4497245551032958
 20
-1.235598831326631
 30
0.0
 11
12.02912314870497
 21
-0.0000136085771995
 31
0.0
 70
    34
  1
<>
 51
359.9999999999998
  3
AM_JIS$2
100
AcDb2LineAngularDimension
 13
0.0000000000000021
 23
0.0000000000000021
 33
0.0
 14
-0.4497187230507488
 24
1.235591506492581
 34
0.0
 15
0.0000000000000021
 25
0.0000000000000021
 35
0.0
 16
12.46856578329266
 26
-5.378424750389998
 36
0.0
1001
GENIUS_GENDTOL_13
1000

1000
h7
1000

1040
0.0
1001
ACAD
1000
DSTYLE
1002
{
1070
   271
1070
     0
1002
}
  0
VIEWPORT
  5
110
330
101
100
AcDbEntity
 67
     1
  8
0
100
AcDbViewport
 10
420.5
 20
297.0
 30
0.0
 40
948.9782706766916
 41
628.452
 68
     1
 69
     1
1001
ACAD
1000
MVIEW
1002
{
1070
    16
1010
0.0
1020
0.0
1030
0.0
1010
0.0
1020
0.0
1030
1.0
1040
0.0
1040
628.452
1040
420.5
1040
297.0
1040
50.0
1040
0.0
1040
0.0
1070
     0
1070
   100
1070
     1
1070
     1
1070
     0
1070
     0
1070
     0
1070
     0
1040
0.0
1040
0.0
1040
0.0
1040
10.0
1040
10.0
1040
10.0
1040
10.0
1070
     0
1002
{
1002
}
1002
}
  0
ENDSEC
  0
SECTION
  2
OBJECTS
  0
DICTIONARY
  5
C
330
0
100
AcDbDictionary
  3
ACAD_GROUP
350
D
  3
ACAD_LAYOUT
350
1A
  3
ACAD_MLINESTYLE
350
17
  3
ACAD_PLOTSETTINGS
350
19
  3
ACAD_PLOTSTYLENAME
350
E
  3
ACDBVARIABLEDICTIONARY
350
34
  3
ACMDICTIONARY
350
43
  3
AMG
350
2B
  3
AMGSNAPSETTINGS
350
6E
  3
DWGPROPS
350
28BD
  3
ACDBHEADERROUNDTRIPXREC
350
28CA
  0
DICTIONARY
  5
74
330
1F
100
AcDbDictionary
280
     1
  3
ACAD_INDEX
360
28BF
  3
ACAD_LAYOUTSELFREF
360
28ED
  0
DICTIONARY
  5
28F2
330
101
100
AcDbDictionary
280
     1
  3
ACAD_LAYOUTSELFREF
360
28F3
  0
DICTIONARY
  5
D
102
{ACAD_REACTORS
330
C
102
}
330
C
100
AcDbDictionary
  0
DICTIONARY
  5
1A
102
{ACAD_REACTORS
330
C
102
}
330
C
100
AcDbDictionary
  0
DICTIONARY
  5
17
102
{ACAD_REACTORS
330
C
102
}
330
C
100
AcDbDictionary
  3
STANDARD
350
18
  0
DICTIONARY
  5
19
102
{ACAD_REACTORS
330
C
102
}
330
C
100
AcDbDictionary
  0
ACDBDICTIONARYWDFLT
  5
E
102
{ACAD_REACTORS
330
C
102
}
330
C
100
AcDbDictionary
281
     1
  3
Normal
350
F
100
AcDbDictionaryWithDefault
340
F
  0
DICTIONARY
  5
34
102
{ACAD_REACTORS
330
C
102
}
330
C
100
AcDbDictionary
  3
INDEXCTL
350
35
  3
SORTENTS
350
B5E
  0
DICTIONARY
  5
43
102
{ACAD_REACTORS
330
C
102
}
330
C
100
AcDbDictionary
  3
ACMSTDDICTIONARY
350
260
  0
DICTIONARY
  5
2B
102
{ACAD_REACTORS
330
C
102
}
330
C
100
AcDbDictionary
  3
ACMGSETTINGS
350
2C
  0
DICTIONARY
  5
6E
102
{ACAD_REACTORS
330
C
102
}
330
C
100
AcDbDictionary
  0
XRECORD
  5
28BD
102
{ACAD_REACTORS
330
C
102
}
330
C
100
AcDbXrecord
  1
DWGPROPS COOKIE
  2

  3

  4

  6

  7

  8

  9

300
AmdtFileType=82
301
=
302
=
303
=
304
=
305
=
306
=
307
=
308
=
309
=
 40
0.0390371643518519
 41
2452800.443498622
 42
2452946.61071831
  1

 90
        1
  0
DICTIONARY
  5
28CA
102
{ACAD_REACTORS
330
C
102
}
330
C
100
AcDbDictionary
  3
TSTACKALIGN
350
28CB
  3
TSTACKSIZE
350
28CC
  3
HYPERLINKBASE
350
28CD
  3
STYLESHEET
350
28CE
  3
LAYOUTDICT
350
28CF
  3
PLOTSETDICT
350
28D0
  3
PLOTSTYLNAMDICT
350
28D1
  3
LWETCUNION
350
28D2
  3
INSUNITS
350
28D3
  3
CEPSNTYPE
350
28D4
  3
FINGERPRINTGUID
350
28D5
  3
VERSIONGUID
350
28D6
  3
PSVPSCALE
350
28D7
  3
DIMSTYLEDATA
350
28D8
  3
PUCSORTHOREF
350
28D9
  3
PUCSORTHOVIEW
350
28DA
  3
PUCSBASE
350
28DB
  3
PUCSORGTOP
350
28DC
  3
PUCSORGBOTTOM
350
28DD
  3
PUCSORGLEFT
350
28DE
  3
PUCSORGRIGHT
350
28DF
  3
PUCSORGFRONT
350
28E0
  3
PUCSORGBACK
350
28E1
  3
UCSORTHOREF
350
28E2
  3
UCSORTHOVIEW
350
28E3
  3
UCSBASE
350
28E4
  3
UCSORGTOP
350
28E5
  3
UCSORGBOTTOM
350
28E6
  3
UCSORGLEFT
350
28E7
  3
UCSORGRIGHT
350
28E8
  3
UCSORGFRONT
350
28E9
  3
UCSORGBACK
350
28EA
  0
DICTIONARY
  5
28BF
102
{ACAD_REACTORS
330
74
102
}
330
74
100
AcDbDictionary
  3
*A1
350
28C0
  0
XRECORD
  5
28ED
102
{ACAD_REACTORS
330
74
102
}
330
74
100
AcDbXrecord
340
1F
  0
XRECORD
  5
28F3
102
{ACAD_REACTORS
330
28F2
102
}
330
28F2
100
AcDbXrecord
340
101
  0
MLINESTYLE
  5
18
102
{ACAD_REACTORS
330
17
102
}
330
17
100
AcDbMlineStyle
  2
STANDARD
 70
     0
  3

 62
   256
 51
90.0
 52
90.0
 71
     2
 49
0.5
 62
   256
  6
BYLAYER
 49
-0.5
 62
   256
  6
BYLAYER
  0
ACDBPLACEHOLDER
  5
F
102
{ACAD_REACTORS
330
E
102
}
330
E
100
AcDbPlaceHolder
280
     0
  0
DICTIONARYVAR
  5
35
102
{ACAD_REACTORS
330
34
102
}
330
34
100
DictionaryVariables
280
     0
  1
1
  0
DICTIONARYVAR
  5
B5E
102
{ACAD_REACTORS
330
34
102
}
330
34
100
DictionaryVariables
280
     0
  1
96
  0
DICTIONARY
  5
260
102
{ACAD_REACTORS
330
43
102
}
330
43
100
AcDbDictionary
  0
DICTIONARY
  5
2C
102
{ACAD_REACTORS
330
2B
102
}
330
2B
100
AcDbDictionary
  3
DWGSETTINGS
350
2D
  0
XRECORD
  5
28CB
102
{ACAD_REACTORS
330
28CA
102
}
330
28CA
100
AcDbXrecord
 90
        1
  0
XRECORD
  5
28CC
102
{ACAD_REACTORS
330
28CA
102
}
330
28CA
100
AcDbXrecord
 90
       70
  0
XRECORD
  5
28CD
102
{ACAD_REACTORS
330
28CA
102
}
330
28CA
100
AcDbXrecord
  1

  0
XRECORD
  5
28CE
102
{ACAD_REACTORS
330
28CA
102
}
330
28CA
100
AcDbXrecord
  1
ASAMI.ctb
  0
XRECORD
  5
28CF
102
{ACAD_REACTORS
330
28CA
102
}
330
28CA
100
AcDbXrecord
340
1A
  0
XRECORD
  5
28D0
102
{ACAD_REACTORS
330
28CA
102
}
330
28CA
100
AcDbXrecord
340
19
  0
XRECORD
  5
28D1
102
{ACAD_REACTORS
330
28CA
102
}
330
28CA
100
AcDbXrecord
340
E
  0
XRECORD
  5
28D2
102
{ACAD_REACTORS
330
28CA
102
}
330
28CA
100
AcDbXrecord
 90
    10781
  0
XRECORD
  5
28D3
102
{ACAD_REACTORS
330
28CA
102
}
330
28CA
100
AcDbXrecord
 90
        4
  0
XRECORD
  5
28D4
102
{ACAD_REACTORS
330
28CA
102
}
330
28CA
100
AcDbXrecord
 90
        0
  0
XRECORD
  5
28D5
102
{ACAD_REACTORS
330
28CA
102
}
330
28CA
100
AcDbXrecord
  1
{AFB28963-8C59-40AE-9337-C84526B81ACE}
  0
XRECORD
  5
28D6
102
{ACAD_REACTORS
330
28CA
102
}
330
28CA
100
AcDbXrecord
  1
{27171C2E-07CD-4827-B714-F11BFC26BFDC}
  0
XRECORD
  5
28D7
102
{ACAD_REACTORS
330
28CA
102
}
330
28CA
100
AcDbXrecord
 40
0.0
  0
XRECORD
  5
28D8
102
{ACAD_REACTORS
330
28CA
102
}
330
28CA
100
AcDbXrecord
1000
DSTYLE
1002
{
1070
    79
 70
     2
1070
   341
340
59
1070
   342
340
59
1070
   371
 70
    -1
1070
   372
 70
    -1
1002
}
  0
XRECORD
  5
28D9
102
{ACAD_REACTORS
330
28CA
102
}
330
28CA
100
AcDbXrecord
340
0
  0
XRECORD
  5
28DA
102
{ACAD_REACTORS
330
28CA
102
}
330
28CA
100
AcDbXrecord
 70
     0
  0
XRECORD
  5
28DB
102
{ACAD_REACTORS
330
28CA
102
}
330
28CA
100
AcDbXrecord
340
0
  0
XRECORD
  5
28DC
102
{ACAD_REACTORS
330
28CA
102
}
330
28CA
100
AcDbXrecord
 10
0.0
 20
0.0
 30
0.0
  0
XRECORD
  5
28DD
102
{ACAD_REACTORS
330
28CA
102
}
330
28CA
100
AcDbXrecord
 10
0.0
 20
0.0
 30
0.0
  0
XRECORD
  5
28DE
102
{ACAD_REACTORS
330
28CA
102
}
330
28CA
100
AcDbXrecord
 10
0.0
 20
0.0
 30
0.0
  0
XRECORD
  5
28DF
102
{ACAD_REACTORS
330
28CA
102
}
330
28CA
100
AcDbXrecord
 10
0.0
 20
0.0
 30
0.0
  0
XRECORD
  5
28E0
102
{ACAD_REACTORS
330
28CA
102
}
330
28CA
100
AcDbXrecord
 10
0.0
 20
0.0
 30
0.0
  0
XRECORD
  5
28E1
102
{ACAD_REACTORS
330
28CA
102
}
330
28CA
100
AcDbXrecord
 10
0.0
 20
0.0
 30
0.0
  0
XRECORD
  5
28E2
102
{ACAD_REACTORS
330
28CA
102
}
330
28CA
100
AcDbXrecord
340
0
  0
XRECORD
  5
28E3
102
{ACAD_REACTORS
330
28CA
102
}
330
28CA
100
AcDbXrecord
 70
     0
  0
XRECORD
  5
28E4
102
{ACAD_REACTORS
330
28CA
102
}
330
28CA
100
AcDbXrecord
340
0
  0
XRECORD
  5
28E5
102
{ACAD_REACTORS
330
28CA
102
}
330
28CA
100
AcDbXrecord
 10
0.0
 20
0.0
 30
0.0
  0
XRECORD
  5
28E6
102
{ACAD_REACTORS
330
28CA
102
}
330
28CA
100
AcDbXrecord
 10
0.0
 20
0.0
 30
0.0
  0
XRECORD
  5
28E7
102
{ACAD_REACTORS
330
28CA
102
}
330
28CA
100
AcDbXrecord
 10
0.0
 20
0.0
 30
0.0
  0
XRECORD
  5
28E8
102
{ACAD_REACTORS
330
28CA
102
}
330
28CA
100
AcDbXrecord
 10
0.0
 20
0.0
 30
0.0
  0
XRECORD
  5
28E9
102
{ACAD_REACTORS
330
28CA
102
}
330
28CA
100
AcDbXrecord
 10
0.0
 20
0.0
 30
0.0
  0
XRECORD
  5
28EA
102
{ACAD_REACTORS
330
28CA
102
}
330
28CA
100
AcDbXrecord
 10
0.0
 20
0.0
 30
0.0
  0
LAYER_INDEX
  5
28C0
102
{ACAD_REACTORS
330
28BF
102
}
330
28BF
100
AcDbIndex
 40
2453151.569558541
100
AcDbLayerIndex
  8
0
360
28C1
 90
        0
  8
AM_0
360
28C2
 90
       44
  8
AM_7
360
28C3
 90
        1
  8
AM_11
360
28C4
 90
       17
  8
AM_5
360
28C5
 90
        5
  8
Defpoints
360
28C6
 90
        0
  8
AM_6
360
28C7
 90
        1
  8
AM_CL
360
28C8
 90
        0
  0
XRECORD
  5
2D
102
{ACAD_REACTORS
330
2C
102
}
330
2C
100
AcDbXrecord
  1
VERSION
140
15.0
  1
PRODUCT
  2
AutoCAD Mechanical 2000
  0
IDBUFFER
  5
28C1
330
0
100
AcDbIdBuffer
  0
IDBUFFER
  5
28C2
330
0
100
AcDbIdBuffer
330
2211
330
2214
330
221F
330
2220
330
2224
330
222C
330
222D
330
2235
330
24F9
330
24FC
330
2541
330
2542
330
2689
330
268A
330
268B
330
268C
330
268D
330
268E
330
268F
330
2690
330
2691
330
2692
330
2693
330
2694
330
2695
330
2696
330
2698
330
269C
330
C1D
330
C20
330
C30
330
1CA9
330
1E12
330
1E16
330
1E22
330
1E25
330
1E26
330
2200
330
2201
330
2202
330
2203
330
2204
330
220F
330
2210
  0
IDBUFFER
  5
28C3
330
0
100
AcDbIdBuffer
330
C9F
  0
IDBUFFER
  5
28C4
330
0
100
AcDbIdBuffer
330
269B
330
1BE8
330
1BE9
330
1F66
330
1F67
330
222E
330
222F
330
2230
330
2231
330
2232
330
2233
330
2234
330
24F5
330
24F6
330
2697
330
2699
330
269A
  0
IDBUFFER
  5
28C5
330
0
100
AcDbIdBuffer
330
CC6
330
DF5
330
228A
330
23E9
330
26BF
  0
IDBUFFER
  5
28C6
330
0
100
AcDbIdBuffer
  0
IDBUFFER
  5
28C7
330
0
100
AcDbIdBuffer
330
19BD
  0
IDBUFFER
  5
28C8
330
0
100
AcDbIdBuffer
  0
ENDSEC
  0
EOF
