  0
SECTION
  2
HEADER
  9
$ACADVER
  1
AC1014
  9
$ACADMAINTVER
 70
     9
  9
$DWGCODEPAGE
  3
ANSI_932
  9
$INSBASE
 10
0.0
 20
0.0
 30
0.0
  9
$EXTMIN
 10
-131.6500009999998
 20
-26.97293740283332
 30
-0.00000001
  9
$EXTMAX
 10
13.54182334646827
 20
13.24320052285234
 30
0.00000001
  9
$LIMMIN
 10
-138.8290064717842
 20
-45.22474571374511
  9
$LIMMAX
 10
23.05023987897198
 20
30.30997914579825
  9
$ORTHOMODE
 70
     0
  9
$REGENMODE
 70
     1
  9
$FILLMODE
 70
     1
  9
$QTEXTMODE
 70
     0
  9
$MIRRTEXT
 70
     0
  9
$DRAGMODE
 70
     2
  9
$LTSCALE
 40
1.0
  9
$OSMODE
 70
    55
  9
$ATTMODE
 70
     1
  9
$TEXTSIZE
 40
2.5
  9
$TRACEWID
 40
1.0
  9
$TEXTSTYLE
  7
STANDARD
  9
$CLAYER
  8
AM_0
  9
$CELTYPE
  6
BYLAYER
  9
$CECOLOR
 62
   256
  9
$CELTSCALE
 40
1.0
  9
$DELOBJ
 70
     1
  9
$DISPSILH
 70
     0
  9
$DIMSCALE
 40
0.5
  9
$DIMASZ
 40
2.5
  9
$DIMEXO
 40
1.0
  9
$DIMDLI
 40
12.0
  9
$DIMRND
 40
0.0
  9
$DIMDLE
 40
0.0
  9
$DIMEXE
 40
1.0
  9
$DIMTP
 40
0.1
  9
$DIMTM
 40
0.1
  9
$DIMTXT
 40
3.2
  9
$DIMCEN
 40
0.0
  9
$DIMTSZ
 40
0.0
  9
$DIMTOL
 70
     0
  9
$DIMLIM
 70
     0
  9
$DIMTIH
 70
     0
  9
$DIMTOH
 70
     0
  9
$DIMSE1
 70
     0
  9
$DIMSE2
 70
     0
  9
$DIMTAD
 70
     3
  9
$DIMZIN
 70
     8
  9
$DIMBLK
  1
OPEN30
  9
$DIMASO
 70
     1
  9
$DIMSHO
 70
     1
  9
$DIMPOST
  1

  9
$DIMAPOST
  1
"
  9
$DIMALT
 70
     0
  9
$DIMALTD
 70
     2
  9
$DIMALTF
 40
0.0393701
  9
$DIMLFAC
 40
1.0
  9
$DIMTOFL
 70
     1
  9
$DIMTVP
 40
0.0
  9
$DIMTIX
 70
     0
  9
$DIMSOXD
 70
     0
  9
$DIMSAH
 70
     0
  9
$DIMBLK1
  1

  9
$DIMBLK2
  1

  9
$DIMSTYLE
  2
AM_JIS
  9
$DIMCLRD
 70
   256
  9
$DIMCLRE
 70
   256
  9
$DIMCLRT
 70
     2
  9
$DIMTFAC
 40
0.71
  9
$DIMGAP
 40
1.5
  9
$DIMJUST
 70
     0
  9
$DIMSD1
 70
     0
  9
$DIMSD2
 70
     0
  9
$DIMTOLJ
 70
     0
  9
$DIMTZIN
 70
     0
  9
$DIMALTZ
 70
     0
  9
$DIMALTTZ
 70
     0
  9
$DIMFIT
 70
     3
  9
$DIMUPT
 70
     0
  9
$DIMUNIT
 70
     2
  9
$DIMDEC
 70
     3
  9
$DIMTDEC
 70
     3
  9
$DIMALTU
 70
     2
  9
$DIMALTTD
 70
     2
  9
$DIMTXSTY
  7
ASAMI
  9
$DIMAUNIT
 70
     0
  9
$LUNITS
 70
     2
  9
$LUPREC
 70
     2
  9
$SKETCHINC
 40
1.0
  9
$FILLETRAD
 40
2.5
  9
$AUNITS
 70
     0
  9
$AUPREC
 70
     0
  9
$MENU
  1
.
  9
$ELEVATION
 40
0.0
  9
$PELEVATION
 40
0.0
  9
$THICKNESS
 40
0.0
  9
$LIMCHECK
 70
     0
  9
$BLIPMODE
 70
     0
  9
$CHAMFERA
 40
0.25
  9
$CHAMFERB
 40
0.25
  9
$CHAMFERC
 40
20.0
  9
$CHAMFERD
 40
0.0
  9
$SKPOLY
 70
     0
  9
$TDCREATE
 40
2452800.443498622
  9
$TDUPDATE
 40
2453151.677382801
  9
$TDINDWG
 40
0.0374200463
  9
$TDUSRTIMER
 40
0.0374200463
  9
$USRTIMER
 70
     1
  9
$ANGBASE
 50
0.0
  9
$ANGDIR
 70
     0
  9
$PDMODE
 70
     3
  9
$PDSIZE
 40
0.0
  9
$PLINEWID
 40
0.0
  9
$COORDS
 70
     1
  9
$SPLFRAME
 70
     0
  9
$SPLINETYPE
 70
     6
  9
$SPLINESEGS
 70
     8
  9
$ATTDIA
 70
     1
  9
$ATTREQ
 70
     1
  9
$HANDLING
 70
 12289
  9
$HANDSEED
  5
2782
  9
$SURFTAB1
 70
     6
  9
$SURFTAB2
 70
     6
  9
$SURFTYPE
 70
     6
  9
$SURFU
 70
     6
  9
$SURFV
 70
     6
  9
$UCSNAME
  2

  9
$UCSORG
 10
-0.0000000000001474
 20
-0.0000000000002219
 30
0.0
  9
$UCSXDIR
 10
1.0
 20
0.0000000000000027
 30
0.0
  9
$UCSYDIR
 10
-0.0000000000000027
 20
1.0
 30
0.0
  9
$PUCSNAME
  2

  9
$PUCSORG
 10
0.0
 20
0.0
 30
0.0
  9
$PUCSXDIR
 10
1.0
 20
0.0
 30
0.0
  9
$PUCSYDIR
 10
0.0
 20
1.0
 30
0.0
  9
$USERI1
 70
     0
  9
$USERI2
 70
     0
  9
$USERI3
 70
     0
  9
$USERI4
 70
     0
  9
$USERI5
 70
     0
  9
$USERR1
 40
0.0
  9
$USERR2
 40
0.0
  9
$USERR3
 40
0.0
  9
$USERR4
 40
0.0
  9
$USERR5
 40
0.0
  9
$WORLDVIEW
 70
     1
  9
$SHADEDGE
 70
     3
  9
$SHADEDIF
 70
    70
  9
$TILEMODE
 70
     1
  9
$MAXACTVP
 70
    64
  9
$PINSBASE
 10
0.0
 20
0.0
 30
0.0
  9
$PLIMCHECK
 70
     0
  9
$PEXTMIN
 10
1.000000000000000E+20
 20
1.000000000000000E+20
 30
1.000000000000000E+20
  9
$PEXTMAX
 10
-1.000000000000000E+20
 20
-1.000000000000000E+20
 30
-1.000000000000000E+20
  9
$PLIMMIN
 10
0.0
 20
0.0
  9
$PLIMMAX
 10
841.0
 20
594.0
  9
$UNITMODE
 70
     0
  9
$VISRETAIN
 70
     1
  9
$PLINEGEN
 70
     0
  9
$PSLTSCALE
 70
     0
  9
$TREEDEPTH
 70
  3020
  9
$PICKSTYLE
 70
     0
  9
$CMLSTYLE
  2
STANDARD
  9
$CMLJUST
 70
     0
  9
$CMLSCALE
 40
20.0
  9
$PROXYGRAPHICS
 70
     1
  9
$MEASUREMENT
 70
     1
  0
ENDSEC
  0
SECTION
  2
CLASSES
  0
CLASS
  1
ACDBDICTIONARYWDFLT
  2
AcDbDictionaryWithDefault
  3
AutoCAD 2000
 90
        0
280
     0
281
     0
  0
CLASS
  1
ACDBPLACEHOLDER
  2
AcDbPlaceHolder
  3
AutoCAD 2000
 90
        0
280
     0
281
     0
  0
CLASS
  1
LAYOUT
  2
AcDbLayout
  3
AutoCAD 2000
 90
        0
280
     0
281
     0
  0
CLASS
  1
AMGSETTINGSOBJ
  2
AmgSettingsObj
  3
"AcadM|Product Description: AutoCAD Mechanical 2000|Company: Autodesk"
 90
        0
280
     0
281
     0
  0
CLASS
  1
ACME_DOCUMENT
  2
AcMeDbDoc
  3
AcMeServices
 90
        0
280
     0
281
     0
  0
CLASS
  1
ACMESCOPE
  2
AcMeScope
  3
AcMeServices
 90
        0
280
     0
281
     0
  0
CLASS
  1
ACMECOMMANDHISTORY
  2
AcMeCommandHistory
  3
AcMeServices
 90
        0
280
     0
281
     0
  0
CLASS
  1
DICTIONARYVAR
  2
AcDbDictionaryVar
  3
AutoCAD 2000
 90
        0
280
     0
281
     0
  0
CLASS
  1
ACIMSYSVARMAN
  2
AcImSysVarManager
  3
AcMeServices
 90
        0
280
     0
281
     0
  0
CLASS
  1
ACIMREALSYSVAR
  2
AcImRealSysVar
  3
AcMeServices
 90
        0
280
     0
281
     0
  0
CLASS
  1
ACIMINTSYSVAR
  2
AcImIntSysVar
  3
AcMeServices
 90
        0
280
     0
281
     0
  0
CLASS
  1
ACMEDRAWINGMAN
  2
AcMeDrawingMan
  3
AcMeServices
 90
        0
280
     0
281
     0
  0
CLASS
  1
ACMEVIEW
  2
AcMeView
  3
AcMeServices
 90
        0
280
     0
281
     0
  0
CLASS
  1
ACDBENTITYCACHE
  2
AcMeEntityCache
  3
AcMeServices
 90
        0
280
     0
281
     0
  0
CLASS
  1
GSMANAGER
  2
AcMeGSManager
  3
AcMeServices
 90
        0
280
     0
281
     0
  0
CLASS
  1
AmdtInternalReactor
  2
AmdtInternalReactor
  3
AcMeServices
 90
        0
280
     0
281
     0
  0
CLASS
  1
ACMESTATEMGR
  2
AcMeStateMgr
  3
AcMeServices
 90
        0
280
     0
281
     0
  0
CLASS
  1
ACME_DATABASE
  2
AcMeDbDatabase
  3
AcMeServices
 90
        0
280
     0
281
     0
  0
CLASS
  1
ACRFINSADJUSTERMGR
  2
AcRfInsAdjusterMgr
  3
AcMeServices
 90
        0
280
     0
281
     0
  0
CLASS
  1
ACMDATADICTIONARY
  2
AcmDataDictionary
  3
"AcmSymBB|Product Description: AutoCAD Mechanical 2000|Company: Autodesk"
 90
        0
280
     0
281
     0
  0
CLASS
  1
ACMDATAENTRYBLOCK
  2
AcmDataEntryBlock
  3
"AcmSymBB|Product Description: AutoCAD Mechanical 2000|Company: Autodesk"
 90
        0
280
     0
281
     0
  0
CLASS
  1
AMGOBJPROPCFG
  2
AmgObjPropCfg
  3
"AmgLay|Product Description: AutoCAD Mechanical 2000|Company: Autodesk"
 90
        1
280
     0
281
     0
  0
CLASS
  1
ACAMGFILTERDAT
  2
AcAmgFilterDat
  3
"AcadM|Product Description: AutoCAD Mechanical 2000|Company: Autodesk"
 90
        0
280
     0
281
     0
  0
CLASS
  1
LAYER_INDEX
  2
AcDbLayerIndex
  3
AutoCAD 2000
 90
        0
280
     0
281
     0
  0
CLASS
  1
IDBUFFER
  2
AcDbIdBuffer
  3
AutoCAD 2000
 90
        0
280
     0
281
     0
  0
CLASS
  1
ACIMSTRSYSVAR
  2
AcImStrSysVar
  3
AcMeServices
 90
        0
280
     0
281
     0
  0
CLASS
  1
ACMSTANDARDJIS
  2
AcmStandardJIS
  3
"AcmSymBB|Product Description: AutoCAD Mechanical 2000|Company: Autodesk"
 90
        0
280
     0
281
     0
  0
CLASS
  1
ACMSURFSTANDARDJIS
  2
AcmSurfTextStdJIS
  3
"AcmSymBB|Product Description: AutoCAD Mechanical 2000|Company: Autodesk"
 90
        0
280
     0
281
     0
  0
CLASS
  1
ACMFCFSTANDARDJIS
  2
AcmFCFStdJIS
  3
"AcmSymBB|Product Description: AutoCAD Mechanical 2000|Company: Autodesk"
 90
        0
280
     0
281
     0
  0
CLASS
  1
ACMWELDSTANDARDJIS
  2
AcmWeldingStdJIS
  3
"AcmSymBB|Product Description: AutoCAD Mechanical 2000|Company: Autodesk"
 90
        0
280
     0
281
     0
  0
CLASS
  1
ACMIDSTANDARDJIS
  2
AcmIdStdJIS
  3
"AcmSymBB|Product Description: AutoCAD Mechanical 2000|Company: Autodesk"
 90
        0
280
     0
281
     0
  0
CLASS
  1
ACMDATUMSTANDARDJIS
  2
AcmDatumStdJIS
  3
"AcmSymBB|Product Description: AutoCAD Mechanical 2000|Company: Autodesk"
 90
        0
280
     0
281
     0
  0
CLASS
  1
ACMBOMSTANDARDJIS
  2
AcmBOMStdJIS
  3
"AcmSymBB|Product Description: AutoCAD Mechanical 2000|Company: Autodesk"
 90
        0
280
     0
281
     0
  0
CLASS
  1
ACMSTANDARDANSI
  2
AcmStandardANSI
  3
"AcmSymBB|Product Description: AutoCAD Mechanical 2000|Company: Autodesk"
 90
        0
280
     0
281
     0
  0
CLASS
  1
ACMSURFSTANDARDANSI
  2
AcmSurfTextStdANSI
  3
"AcmSymBB|Product Description: AutoCAD Mechanical 2000|Company: Autodesk"
 90
        0
280
     0
281
     0
  0
CLASS
  1
ACMFCFSTANDARDANSI
  2
AcmFCFStdANSI
  3
"AcmSymBB|Product Description: AutoCAD Mechanical 2000|Company: Autodesk"
 90
        0
280
     0
281
     0
  0
CLASS
  1
ACMWELDSTANDARDANSI
  2
AcmWeldingStdANSI
  3
"AcmSymBB|Product Description: AutoCAD Mechanical 2000|Company: Autodesk"
 90
        0
280
     0
281
     0
  0
CLASS
  1
ACMIDSTANDARDANSI
  2
AcmIdStdANSI
  3
"AcmSymBB|Product Description: AutoCAD Mechanical 2000|Company: Autodesk"
 90
        0
280
     0
281
     0
  0
CLASS
  1
ACMDATUMSTANDARDANSI
  2
AcmDatumStdANSI
  3
"AcmSymBB|Product Description: AutoCAD Mechanical 2000|Company: Autodesk"
 90
        0
280
     0
281
     0
  0
CLASS
  1
ACMBOMSTANDARDANSI
  2
AcmBOMStdANSI
  3
"AcmSymBB|Product Description: AutoCAD Mechanical 2000|Company: Autodesk"
 90
        0
280
     0
281
     0
  0
CLASS
  1
ACMSTANDARDBSI
  2
AcmStandardBSI
  3
"AcmSymBB|Product Description: AutoCAD Mechanical 2000|Company: Autodesk"
 90
        0
280
     0
281
     0
  0
CLASS
  1
ACMSURFSTANDARDBSI
  2
AcmSurfTextStdBSI
  3
"AcmSymBB|Product Description: AutoCAD Mechanical 2000|Company: Autodesk"
 90
        0
280
     0
281
     0
  0
CLASS
  1
ACMFCFSTANDARDBSI
  2
AcmFCFStdBSI
  3
"AcmSymBB|Product Description: AutoCAD Mechanical 2000|Company: Autodesk"
 90
        0
280
     0
281
     0
  0
CLASS
  1
ACMWELDSTANDARDBSI
  2
AcmWeldingStdBSI
  3
"AcmSymBB|Product Description: AutoCAD Mechanical 2000|Company: Autodesk"
 90
        0
280
     0
281
     0
  0
CLASS
  1
ACMIDSTANDARDBSI
  2
AcmIdStdBSI
  3
"AcmSymBB|Product Description: AutoCAD Mechanical 2000|Company: Autodesk"
 90
        0
280
     0
281
     0
  0
CLASS
  1
ACMDATUMSTANDARDBSI
  2
AcmDatumStdBSI
  3
"AcmSymBB|Product Description: AutoCAD Mechanical 2000|Company: Autodesk"
 90
        0
280
     0
281
     0
  0
CLASS
  1
ACMBOMSTANDARDBSI
  2
AcmBOMStdBSI
  3
"AcmSymBB|Product Description: AutoCAD Mechanical 2000|Company: Autodesk"
 90
        0
280
     0
281
     0
  0
CLASS
  1
LONG_TRANSACTION
  2
AcDbLongTransaction
  3
AutoCAD 2000
 90
        0
280
     0
281
     0
  0
CLASS
  1
LWPOLYLINE
  2
AcDbPolyline
  3
AutoCAD 2000
 90
        0
280
     0
281
     1
  0
CLASS
  1
HATCH
  2
AcDbHatch
  3
AutoCAD 2000
 90
        0
280
     0
281
     1
  0
CLASS
  1
XRECORD
  2
AcDbXrecord
  3
AutoCAD 2000
 90
        0
280
     0
281
     0
  0
ENDSEC
  0
SECTION
  2
TABLES
  0
TABLE
  2
VPORT
  5
8
330
0
100
AcDbSymbolTable
 70
     3
  0
VPORT
  5
2757
330
8
100
AcDbSymbolTableRecord
100
AcDbViewportTableRecord
  2
*ACTIVE
 70
     0
 10
0.0
 20
0.0
 11
1.0
 21
1.0
 12
-56.34031553300201
 22
-6.863810364148676
 13
0.0
 23
0.0
 14
2.5
 24
2.5
 15
10.0
 25
10.0
 16
0.0
 26
0.0
 36
1.0
 17
0.0
 27
0.0
 37
0.0
 40
96.67089625713479
 41
1.56570841889117
 42
50.0
 43
0.0
 44
0.0
 50
0.0
 51
0.0
 71
     0
 72
   100
 73
     1
 74
     1
 75
     0
 76
     0
 77
     0
 78
     0
  0
ENDTAB
  0
TABLE
  2
LTYPE
  5
5
330
0
100
AcDbSymbolTable
 70
    10
  0
LTYPE
  5
14
330
5
100
AcDbSymbolTableRecord
100
AcDbLinetypeTableRecord
  2
BYBLOCK
 70
     0
  3

 72
    65
 73
     0
 40
0.0
  0
LTYPE
  5
15
330
5
100
AcDbSymbolTableRecord
100
AcDbLinetypeTableRecord
  2
BYLAYER
 70
     0
  3

 72
    65
 73
     0
 40
0.0
  0
LTYPE
  5
16
330
5
100
AcDbSymbolTableRecord
100
AcDbLinetypeTableRecord
  2
CONTINUOUS
 70
     0
  3
Solid line
 72
    65
 73
     0
 40
0.0
  0
LTYPE
  5
4B
330
5
100
AcDbSymbolTableRecord
100
AcDbLinetypeTableRecord
  2
AM_ISO02W050
 70
     0
  3
__ __ __ __ __ __ __ __ __ __ __ __ __ __ __
 72
    65
 73
     2
 40
7.5
 49
6.0
 74
     0
 49
-1.5
 74
     0
  0
LTYPE
  5
4C
330
5
100
AcDbSymbolTableRecord
100
AcDbLinetypeTableRecord
  2
AM_ISO08W050
 70
     0
  3
____ . ____ . ____ . ____ . ____ . ____ . ____
 72
    65
 73
     4
 40
18.0
 49
12.0
 74
     0
 49
-1.5
 74
     0
 49
3.0
 74
     0
 49
-1.5
 74
     0
  0
LTYPE
  5
4D
330
5
100
AcDbSymbolTableRecord
100
AcDbLinetypeTableRecord
  2
AM_ISO09W050
 70
     0
  3
_____ . . _____ . . _____ . . ____ .. ____
 72
    65
 73
     6
 40
22.5
 49
12.0
 74
     0
 49
-1.5
 74
     0
 49
3.0
 74
     0
 49
-1.5
 74
     0
 49
3.0
 74
     0
 49
-1.5
 74
     0
  0
LTYPE
  5
4E
330
5
100
AcDbSymbolTableRecord
100
AcDbLinetypeTableRecord
  2
AMCONSTR
 70
     0
  3
_______________________
 72
    65
 73
     2
 40
9999.0
 49
9999.0
 74
     0
 49
0.0
 74
     0
  0
LTYPE
  5
4F
330
5
100
AcDbSymbolTableRecord
100
AcDbLinetypeTableRecord
  2
AM_ISO02W050X2
 70
     0
  3
 _ _ _ _ _ _ _ _ _ _ _ _
 72
    65
 73
     2
 40
3.75
 49
3.0
 74
     0
 49
-0.75
 74
     0
  0
LTYPE
  5
50
330
5
100
AcDbSymbolTableRecord
100
AcDbLinetypeTableRecord
  2
AM_ISO08W050X2
 70
     0
  3
__ . __ . __ . __ . __ . __
 72
    65
 73
     4
 40
9.0
 49
6.0
 74
     0
 49
-0.75
 74
     0
 49
1.5
 74
     0
 49
-0.75
 74
     0
  0
LTYPE
  5
53
330
5
100
AcDbSymbolTableRecord
100
AcDbLinetypeTableRecord
  2
AMZIGZAG
 70
     0
  3
/\/-/\/-/\/-/\/-/\/-/\/
 72
    65
 73
     2
 40
11.00009999999999
 49
0.0001
 74
     4
 75
   135
340
52
 46
0.04
 50
0.0
 44
0.0
 45
0.0
 49
-11.0
 74
     0
  0
LTYPE
  5
166
330
5
100
AcDbSymbolTableRecord
100
AcDbLinetypeTableRecord
  2
ACJISTGL
 70
     0
  3
_ _ _ _ _
 72
    65
 73
     2
 40
3.0
 49
2.0
 74
     0
 49
-1.0
 74
     0
  0
LTYPE
  5
26A
330
5
100
AcDbSymbolTableRecord
100
AcDbLinetypeTableRecord
  2
ACJISTGB
 70
     0
  3
__ . . __ . .
 72
    65
 73
     6
 40
9.0
 49
4.0
 74
     0
 49
-1.0
 74
     0
 49
1.0
 74
     0
 49
-1.0
 74
     0
 49
1.0
 74
     0
 49
-1.0
 74
     0
  0
ENDTAB
  0
TABLE
  2
LAYER
  5
2
330
0
100
AcDbSymbolTable
 70
     8
  0
LAYER
  5
10
330
2
100
AcDbSymbolTableRecord
100
AcDbLayerTableRecord
  2
0
 70
     0
 62
     7
  6
CONTINUOUS
  0
LAYER
  5
3F9
330
2
100
AcDbSymbolTableRecord
100
AcDbLayerTableRecord
  2
AM_0
 70
     0
 62
     7
  6
CONTINUOUS
  0
LAYER
  5
C7C
330
2
100
AcDbSymbolTableRecord
100
AcDbLayerTableRecord
  2
AM_7
 70
     0
 62
     4
  6
AM_ISO08W050
  0
LAYER
  5
C97
330
2
100
AcDbSymbolTableRecord
100
AcDbLayerTableRecord
  2
AM_11
 70
     0
 62
     3
  6
AM_ISO09W050
  0
LAYER
  5
CC5
330
2
100
AcDbSymbolTableRecord
100
AcDbLayerTableRecord
  2
AM_5
 70
     0
 62
     3
  6
CONTINUOUS
  0
LAYER
  5
CC7
330
2
100
AcDbSymbolTableRecord
100
AcDbLayerTableRecord
  2
DEFPOINTS
 70
     0
 62
     7
  6
CONTINUOUS
  0
LAYER
  5
19BC
330
2
100
AcDbSymbolTableRecord
100
AcDbLayerTableRecord
  2
AM_6
 70
     0
 62
     2
  6
CONTINUOUS
  0
LAYER
  5
24DD
330
2
100
AcDbSymbolTableRecord
100
AcDbLayerTableRecord
  2
AM_CL
 70
     0
 62
     1
  6
AMCONSTR
  0
ENDTAB
  0
TABLE
  2
STYLE
  5
3
330
0
100
AcDbSymbolTable
 70
     5
  0
STYLE
  5
11
330
3
100
AcDbSymbolTableRecord
100
AcDbTextStyleTableRecord
  2
STANDARD
 70
     0
 40
0.0
 41
1.0
 50
0.0
 71
     0
 42
2.5
  3
simplex.shx
  4
EXTFONT.SHX
  0
STYLE
  5
52
330
3
100
AcDbSymbolTableRecord
100
AcDbTextStyleTableRecord
  2

 70
     1
 40
0.0
 41
1.0
 50
0.0
 71
     0
 42
2.5
  3
ltypeshp.shx
  4

  0
STYLE
  5
6B
330
3
100
AcDbSymbolTableRecord
100
AcDbTextStyleTableRecord
  2
ASAMI
 70
     0
 40
0.0
 41
1.0
 50
0.0
 71
     0
 42
2.5
  3
simplex.shx
  4
EXTFONT.SHX
  0
STYLE
  5
262
330
3
100
AcDbSymbolTableRecord
100
AcDbTextStyleTableRecord
  2
ACJISTS
 70
     0
 40
1.0
 41
1.0
 50
0.0
 71
     0
 42
2.5
  3
simplex.shx
  4
bigfont.shx
  0
STYLE
  5
269
330
3
100
AcDbSymbolTableRecord
100
AcDbTextStyleTableRecord
  2
ACJISGDT
 70
     0
 40
0.0
 41
1.0
 50
0.0
 71
     0
 42
2.5
  3
amgdtans.shx
  4

  0
ENDTAB
  0
TABLE
  2
VIEW
  5
6
330
0
100
AcDbSymbolTable
 70
     0
  0
ENDTAB
  0
TABLE
  2
UCS
  5
7
330
0
100
AcDbSymbolTable
 70
     0
  0
ENDTAB
  0
TABLE
  2
APPID
  5
9
330
0
100
AcDbSymbolTable
 70
    16
  0
APPID
  5
12
330
9
100
AcDbSymbolTableRecord
100
AcDbRegAppTableRecord
  2
ACAD
 70
     0
  0
APPID
  5
30
330
9
100
AcDbSymbolTableRecord
100
AcDbRegAppTableRecord
  2
MCAD_NO_VIS
 70
     0
  0
APPID
  5
31
330
9
100
AcDbSymbolTableRecord
100
AcDbRegAppTableRecord
  2
ACAD_TEMP_GRAPHIC
 70
     0
  0
APPID
  5
2C2
330
9
100
AcDbSymbolTableRecord
100
AcDbRegAppTableRecord
  2
GENIUS_GENDTOL_13
 70
     0
  0
APPID
  5
339
330
9
100
AcDbSymbolTableRecord
100
AcDbRegAppTableRecord
  2
GENIUS_GENODEF_13
 70
     0
  0
APPID
  5
33A
330
9
100
AcDbSymbolTableRecord
100
AcDbRegAppTableRecord
  2
GENIUS_GENOBJ-N-RSBK_13
 70
     0
  0
APPID
  5
33B
330
9
100
AcDbSymbolTableRecord
100
AcDbRegAppTableRecord
  2
GENIUS_GENOBJ-N-LIB_13
 70
     0
  0
APPID
  5
33C
330
9
100
AcDbSymbolTableRecord
100
AcDbRegAppTableRecord
  2
GENIUS_GENSCALE_13
 70
     0
  0
APPID
  5
378
330
9
100
AcDbSymbolTableRecord
100
AcDbRegAppTableRecord
  2
GENIUS_GENDIMSH_14
 70
     0
  0
APPID
  5
C82
330
9
100
AcDbSymbolTableRecord
100
AcDbRegAppTableRecord
  2
GENIUS_GENOBJ-N-CRS_13
 70
     0
  0
APPID
  5
C83
330
9
100
AcDbSymbolTableRecord
100
AcDbRegAppTableRecord
  2
GENIUS_GENOENT_13
 70
     0
  0
APPID
  5
C84
330
9
100
AcDbSymbolTableRecord
100
AcDbRegAppTableRecord
  2
GENIUS_GENOREF_13
 70
     0
  0
APPID
  5
C85
330
9
100
AcDbSymbolTableRecord
100
AcDbRegAppTableRecord
  2
GENIUS_GENOLIS_13
 70
     0
  0
APPID
  5
CA0
330
9
100
AcDbSymbolTableRecord
100
AcDbRegAppTableRecord
  2
GENIUS_GENOBJ-N-CEN_13
 70
     0
  0
APPID
  5
1E1E
330
9
100
AcDbSymbolTableRecord
100
AcDbRegAppTableRecord
  2
GENIUS_GENFIL_13
 70
     0
  0
APPID
  5
1E1F
330
9
100
AcDbSymbolTableRecord
100
AcDbRegAppTableRecord
  2
GENIUS_GENOBJ-N-CHA_13
 70
     0
  0
ENDTAB
  0
TABLE
  2
DIMSTYLE
  5
A
330
0
100
AcDbSymbolTable
 70
     9
  0
DIMSTYLE
105
58
330
A
100
AcDbSymbolTableRecord
100
AcDbDimStyleTableRecord
  2
AM_JIS
 70
     0
  3

  4
"
  5
OPEN30
  6

  7

 40
0.5
 41
2.5
 42
1.0
 43
12.0
 44
1.0
 45
0.0
 46
0.0
 47
0.1
 48
0.1
140
3.2
141
0.0
142
0.0
143
0.0393701
144
1.0
145
0.0
146
0.71
147
1.5
 71
     0
 72
     0
 73
     0
 74
     0
 75
     0
 76
     0
 77
     3
 78
     8
170
     0
171
     2
172
     1
173
     0
174
     0
175
     0
176
   256
177
   256
178
     2
270
     2
271
     3
272
     3
273
     2
274
     2
340
6B
275
     0
280
     0
281
     0
282
     0
283
     0
284
     0
285
     0
286
     0
287
     3
288
     0
  0
DIMSTYLE
105
5F
330
A
100
AcDbSymbolTableRecord
100
AcDbDimStyleTableRecord
  2
AM_JIS$3
 70
     0
  3

  4
"
  5
OPEN30
  6

  7

 40
0.5
 41
2.5
 42
1.0
 43
10.0
 44
1.0
 45
0.0
 46
0.0
 47
0.1
 48
0.1
140
3.2
141
0.0
142
0.0
143
0.0393701
144
1.0
145
0.0
146
0.71
147
1.5
 71
     0
 72
     0
 73
     0
 74
     1
 75
     0
 76
     0
 77
     3
 78
     8
170
     0
171
     2
172
     0
173
     0
174
     0
175
     0
176
   256
177
   256
178
     2
270
     2
271
     2
272
     3
273
     2
274
     2
340
6B
275
     0
280
     0
281
     0
282
     0
283
     0
284
     0
285
     0
286
     0
287
     0
288
     1
  0
DIMSTYLE
105
60
330
A
100
AcDbSymbolTableRecord
100
AcDbDimStyleTableRecord
  2
AM_JIS$4
 70
     0
  3

  4
"
  5
OPEN30
  6

  7

 40
0.5
 41
2.5
 42
1.0
 43
10.0
 44
1.0
 45
0.0
 46
0.0
 47
0.1
 48
0.1
140
3.2
141
0.0
142
0.0
143
0.0393701
144
1.0
145
0.0
146
0.71
147
1.5
 71
     0
 72
     0
 73
     0
 74
     1
 75
     0
 76
     0
 77
     3
 78
     8
170
     0
171
     2
172
     0
173
     0
174
     0
175
     0
176
   256
177
   256
178
     2
270
     2
271
     2
272
     3
273
     2
274
     2
340
6B
275
     0
280
     0
281
     0
282
     0
283
     0
284
     0
285
     0
286
     0
287
     0
288
     1
  0
DIMSTYLE
105
61
330
A
100
AcDbSymbolTableRecord
100
AcDbDimStyleTableRecord
  2
AM_JIS$6
 70
     0
  3

  4
"
  5
OPEN30
  6

  7

 40
0.5
 41
2.5
 42
1.0
 43
10.0
 44
1.0
 45
0.0
 46
0.0
 47
0.1
 48
0.1
140
3.2
141
0.0
142
0.0
143
0.0393701
144
1.0
145
0.0
146
0.71
147
1.5
 71
     0
 72
     0
 73
     0
 74
     0
 75
     0
 76
     0
 77
     0
 78
     8
170
     0
171
     2
172
     1
173
     0
174
     0
175
     0
176
   256
177
   256
178
     2
270
     2
271
     2
272
     2
273
     2
274
     2
340
6B
275
     0
280
     0
281
     0
282
     0
283
     0
284
     0
285
     0
286
     0
287
     3
288
     0
  0
DIMSTYLE
105
62
330
A
100
AcDbSymbolTableRecord
100
AcDbDimStyleTableRecord
  2
AM_JIS$7
 70
     0
  3

  4
"
  5
OPEN30
  6

  7

 40
0.5
 41
2.5
 42
1.0
 43
10.0
 44
1.0
 45
0.0
 46
0.0
 47
0.1
 48
0.1
140
3.2
141
0.0
142
0.0
143
0.0393701
144
1.0
145
0.0
146
0.71
147
1.5
 71
     0
 72
     0
 73
     0
 74
     0
 75
     0
 76
     0
 77
     3
 78
     8
170
     0
171
     2
172
     1
173
     0
174
     0
175
     0
176
   256
177
   256
178
     2
270
     2
271
     2
272
     3
273
     2
274
     2
340
6B
275
     0
280
     0
281
     0
282
     0
283
     0
284
     0
285
     0
286
     0
287
     3
288
     0
  0
DIMSTYLE
105
63
330
A
100
AcDbSymbolTableRecord
100
AcDbDimStyleTableRecord
  2
AM_JIS$SF
 70
     0
  3

  4
"
  5
OPEN30
  6

  7

 40
0.5
 41
2.5
 42
1.0
 43
10.0
 44
1.0
 45
0.0
 46
0.0
 47
0.1
 48
0.1
140
3.2
141
0.0
142
0.0
143
0.0393701
144
1.0
145
0.0
146
0.71
147
1.5
 71
     0
 72
     0
 73
     0
 74
     0
 75
     1
 76
     1
 77
     3
 78
     8
170
     0
171
     2
172
     1
173
     0
174
     0
175
     0
176
   256
177
   256
178
     2
270
     2
271
     2
272
     2
273
     2
274
     2
340
6B
275
     0
280
     0
281
     0
282
     0
283
     0
284
     0
285
     0
286
     0
287
     3
288
     0
  0
DIMSTYLE
105
68
330
A
100
AcDbSymbolTableRecord
100
AcDbDimStyleTableRecord
  2
AM_JIS$SH
 70
     0
  3

  4
"
  5

  6
GENAXEH
  7
OPEN30
 40
0.5
 41
2.5
 42
1.0
 43
10.0
 44
1.0
 45
0.0
 46
0.0
 47
0.1
 48
0.1
140
3.2
141
0.0
142
0.0
143
0.0393701
144
2.0
145
0.0
146
0.71
147
1.5
 71
     0
 72
     0
 73
     0
 74
     0
 75
     1
 76
     1
 77
     3
 78
     8
170
     0
171
     2
172
     1
173
     1
174
     0
175
     0
176
   256
177
   256
178
     2
270
     2
271
     2
272
     2
273
     2
274
     2
340
6B
275
     0
280
     0
281
     0
282
     0
283
     0
284
     0
285
     0
286
     0
287
     3
288
     0
  0
DIMSTYLE
105
B34
102
{ACAD_REACTORS
330
258B
102
}
330
A
100
AcDbSymbolTableRecord
100
AcDbDimStyleTableRecord
  2
AM_JIS$2
 70
     0
  3

  4
"
  5
OPEN30
  6

  7

 40
0.5
 41
2.5
 42
1.0
 43
12.0
 44
1.0
 45
0.0
 46
0.0
 47
0.1
 48
0.1
140
3.2
141
0.0
142
0.0
143
0.0393701
144
1.0
145
0.0
146
0.71
147
1.5
 71
     0
 72
     0
 73
     0
 74
     0
 75
     0
 76
     0
 77
     3
 78
     8
170
     0
171
     2
172
     1
173
     0
174
     0
175
     0
176
   256
177
   256
178
     2
270
     2
271
     3
272
     3
273
     2
274
     2
340
6B
275
     0
280
     0
281
     0
282
     0
283
     0
284
     0
285
     0
286
     0
287
     3
288
     0
  0
DIMSTYLE
105
BA5
102
{ACAD_REACTORS
330
CC6
330
DF5
330
228A
330
26D6
102
}
330
A
100
AcDbSymbolTableRecord
100
AcDbDimStyleTableRecord
  2
AM_JIS$0
 70
     0
  3

  4
"
  5
OPEN30
  6

  7

 40
0.5
 41
2.5
 42
0.0
 43
10.0
 44
1.0
 45
0.0
 46
0.0
 47
0.1
 48
0.1000000001
140
3.799999999999999
141
0.0
142
0.0
143
0.0393701
144
1.0
145
0.0
146
0.71
147
1.5
 71
     0
 72
     0
 73
     0
 74
     0
 75
     0
 76
     0
 77
     3
 78
     1
170
     0
171
     2
172
     1
173
     0
174
     0
175
     0
176
     3
177
     3
178
     2
270
     2
271
     2
272
     2
273
     2
274
     2
340
11
275
     1
280
     0
281
     0
282
     0
283
     0
284
     8
285
     0
286
     0
287
     0
288
     0
  0
ENDTAB
  0
TABLE
  2
BLOCK_RECORD
  5
1
330
0
100
AcDbSymbolTable
 70
    12
  0
BLOCK_RECORD
  5
1F
102
{ACAD_XDICTIONARY
360
74
102
}
330
1
100
AcDbSymbolTableRecord
100
AcDbBlockTableRecord
  2
*MODEL_SPACE
  0
BLOCK_RECORD
  5
101
102
{ACAD_XDICTIONARY
360
2780
102
}
330
1
100
AcDbSymbolTableRecord
100
AcDbBlockTableRecord
  2
*PAPER_SPACE
  0
BLOCK_RECORD
  5
59
330
1
100
AcDbSymbolTableRecord
100
AcDbBlockTableRecord
  2
_OPEN30
  0
BLOCK_RECORD
  5
64
330
1
100
AcDbSymbolTableRecord
100
AcDbBlockTableRecord
  2
GENAXEH
  0
BLOCK_RECORD
  5
CC8
330
1
100
AcDbSymbolTableRecord
100
AcDbBlockTableRecord
  2
*D5
  0
BLOCK_RECORD
  5
DF6
330
1
100
AcDbSymbolTableRecord
100
AcDbBlockTableRecord
  2
*D6
  0
BLOCK_RECORD
  5
228B
330
1
100
AcDbSymbolTableRecord
100
AcDbBlockTableRecord
  2
*D7
  0
BLOCK_RECORD
  5
24FF
330
1
100
AcDbSymbolTableRecord
100
AcDbBlockTableRecord
  2
A$C0A020B99
  0
BLOCK_RECORD
  5
258C
330
1
100
AcDbSymbolTableRecord
100
AcDbBlockTableRecord
  2
*D10
  0
BLOCK_RECORD
  5
26D7
330
1
100
AcDbSymbolTableRecord
100
AcDbBlockTableRecord
  2
*D11
  0
ENDTAB
  0
ENDSEC
  0
SECTION
  2
BLOCKS
  0
BLOCK
  5
20
330
1F
100
AcDbEntity
  8
0
100
AcDbBlockBegin
  2
*MODEL_SPACE
 70
     0
 10
0.0
 20
0.0
 30
0.0
  3
*MODEL_SPACE
  1

  0
ENDBLK
  5
21
330
1F
100
AcDbEntity
  8
0
100
AcDbBlockEnd
  0
BLOCK
  5
103
330
101
100
AcDbEntity
 67
     1
  8
0
100
AcDbBlockBegin
  2
*PAPER_SPACE
 70
     0
 10
0.0
 20
0.0
 30
0.0
  3
*PAPER_SPACE
  1

  0
ENDBLK
  5
104
330
101
100
AcDbEntity
 67
     1
  8
0
100
AcDbBlockEnd
  0
BLOCK
  5
5D
330
59
100
AcDbEntity
  8
0
100
AcDbBlockBegin
  2
_OPEN30
 70
     0
 10
0.0
 20
0.0
 30
0.0
  3
_OPEN30
  1

  0
LINE
  5
5A
330
59
100
AcDbEntity
  8
0
 62
     0
100
AcDbLine
 10
-1.0
 20
0.26794919
 30
0.0
 11
0.0
 21
0.0
 31
0.0
  0
LINE
  5
5B
330
59
100
AcDbEntity
  8
0
 62
     0
100
AcDbLine
 10
0.0
 20
0.0
 30
0.0
 11
-1.0
 21
-0.26794919
 31
0.0
  0
LINE
  5
5C
330
59
100
AcDbEntity
  8
0
 62
     0
100
AcDbLine
 10
0.0
 20
0.0
 30
0.0
 11
-1.0
 21
0.0
 31
0.0
  0
ENDBLK
  5
5E
330
59
100
AcDbEntity
  8
0
100
AcDbBlockEnd
  0
BLOCK
  5
66
330
64
100
AcDbEntity
  8
0
100
AcDbBlockBegin
  2
GENAXEH
 70
     0
 10
0.0
 20
0.0
 30
0.0
  3
GENAXEH
  1

  0
LINE
  5
65
330
64
100
AcDbEntity
  8
0
100
AcDbLine
 10
-1.0
 20
0.0
 30
0.0
 11
1.0
 21
0.0
 31
0.0
  0
ENDBLK
  5
67
330
64
100
AcDbEntity
  8
0
100
AcDbBlockEnd
  0
BLOCK
  5
CD2
330
CC8
100
AcDbEntity
  8
0
100
AcDbBlockBegin
  2
*D5
 70
     1
 10
0.0
 20
0.0
 30
0.0
  3
*D5
  1

  0
LINE
  5
2716
330
CC8
100
AcDbEntity
  8
AM_5
 62
     3
100
AcDbLine
 10
-119.9999999999998
 20
-3.764324189635425
 30
0.0
 11
-119.9999999999998
 21
-16.5000023696538
 31
0.0
  0
LINE
  5
2717
330
CC8
100
AcDbEntity
  8
AM_5
 62
     3
100
AcDbLine
 10
-1.999999999999987
 20
-3.600000759061799
 30
0.0
 11
-1.999999999999988
 21
-16.5000023696538
 31
0.0
  0
LINE
  5
2718
330
CC8
100
AcDbEntity
  8
AM_5
 62
     3
100
AcDbLine
 10
-118.7499999999998
 20
-16.0000023696538
 30
0.0
 11
-3.249999999999988
 21
-16.0000023696538
 31
0.0
  0
INSERT
  5
2719
330
CC8
100
AcDbEntity
  8
AM_5
 62
     3
100
AcDbBlockReference
  2
_OPEN30
 10
-119.9999999999998
 20
-16.0000023696538
 30
0.0
 41
1.25
 42
1.25
 43
1.25
 50
180.0
  0
INSERT
  5
271A
330
CC8
100
AcDbEntity
  8
AM_5
 62
     3
100
AcDbBlockReference
  2
_OPEN30
 10
-1.999999999999988
 20
-16.0000023696538
 30
0.0
 41
1.25
 42
1.25
 43
1.25
  0
MTEXT
  5
271B
330
CC8
100
AcDbEntity
  8
AM_5
 62
     2
100
AcDbMText
 10
-60.99999999999994
 20
-14.3000023696538
 30
0.0
 40
1.9
 41
0.0
 71
     5
 72
     1
  1
118
1001
ACAD
1000
MTEXTBEGIN
1070
    73
1070
     1
1070
    44
1040
1.0
1070
    74
1070
     0
1000
MTEXTEND
  0
POINT
  5
271C
330
CC8
100
AcDbEntity
  8
DEFPOINTS
 62
     0
100
AcDbPoint
 10
-119.9999999999998
 20
-3.764324189635425
 30
0.0
  0
POINT
  5
271D
330
CC8
100
AcDbEntity
  8
DEFPOINTS
 62
     0
100
AcDbPoint
 10
-1.999999999999987
 20
-3.600000759061799
 30
0.0
  0
POINT
  5
271E
330
CC8
100
AcDbEntity
  8
DEFPOINTS
 62
     0
100
AcDbPoint
 10
-1.999999999999988
 20
-16.0000023696538
 30
0.0
  0
ENDBLK
  5
CD3
330
CC8
100
AcDbEntity
  8
0
100
AcDbBlockEnd
  0
BLOCK
  5
E00
330
DF6
100
AcDbEntity
  8
0
100
AcDbBlockBegin
  2
*D6
 70
     1
 10
0.0
 20
0.0
 30
0.0
  3
*D6
  1

  0
LINE
  5
270D
330
DF6
100
AcDbEntity
  8
AM_5
 62
     3
100
AcDbLine
 10
-65.9999999999999
 20
-4.000001369653888
 30
0.0
 11
-65.9999999999999
 21
-11.50000236965372
 31
0.0
  0
LINE
  5
270E
330
DF6
100
AcDbEntity
  8
AM_5
 62
     3
100
AcDbLine
 10
-1.999999999999987
 20
-3.600000759061799
 30
0.0
 11
-1.999999999999987
 21
-11.50000236965372
 31
0.0
  0
LINE
  5
270F
330
DF6
100
AcDbEntity
  8
AM_5
 62
     3
100
AcDbLine
 10
-64.7499999999999
 20
-11.00000236965372
 30
0.0
 11
-3.249999999999988
 21
-11.00000236965372
 31
0.0
  0
INSERT
  5
2710
330
DF6
100
AcDbEntity
  8
AM_5
 62
     3
100
AcDbBlockReference
  2
_OPEN30
 10
-65.9999999999999
 20
-11.00000236965372
 30
0.0
 41
1.25
 42
1.25
 43
1.25
 50
180.0
  0
INSERT
  5
2711
330
DF6
100
AcDbEntity
  8
AM_5
 62
     3
100
AcDbBlockReference
  2
_OPEN30
 10
-1.999999999999987
 20
-11.00000236965372
 30
0.0
 41
1.25
 42
1.25
 43
1.25
  0
MTEXT
  5
2712
330
DF6
100
AcDbEntity
  8
AM_5
 62
     2
100
AcDbMText
 10
-33.99999999999994
 20
-9.300002369653721
 30
0.0
 40
1.9
 41
0.0
 71
     5
 72
     1
  1
64
1001
ACAD
1000
MTEXTBEGIN
1070
    73
1070
     1
1070
    44
1040
1.0
1070
    74
1070
     0
1000
MTEXTEND
  0
POINT
  5
2713
330
DF6
100
AcDbEntity
  8
DEFPOINTS
 62
     0
100
AcDbPoint
 10
-65.9999999999999
 20
-4.000001369653888
 30
0.0
  0
POINT
  5
2714
330
DF6
100
AcDbEntity
  8
DEFPOINTS
 62
     0
100
AcDbPoint
 10
-1.999999999999987
 20
-3.600000759061799
 30
0.0
  0
POINT
  5
2715
330
DF6
100
AcDbEntity
  8
DEFPOINTS
 62
     0
100
AcDbPoint
 10
-1.999999999999987
 20
-11.00000236965372
 30
0.0
  0
ENDBLK
  5
E01
330
DF6
100
AcDbEntity
  8
0
100
AcDbBlockEnd
  0
BLOCK
  5
2297
330
228B
100
AcDbEntity
  8
0
100
AcDbBlockBegin
  2
*D7
 70
     1
 10
0.0
 20
0.0
 30
0.0
  3
*D7
  1

  0
LINE
  5
2674
330
228B
100
AcDbEntity
  8
AM_5
 62
     3
100
AcDbLine
 10
-119.7499999999998
 20
-4.000000000000473
 30
0.0
 11
-129.5000009999998
 21
-4.0000000000005
 31
0.0
  0
LINE
  5
2675
330
228B
100
AcDbEntity
  8
AM_5
 62
     3
100
AcDbLine
 10
-119.7499999999999
 20
3.999999999999525
 30
0.0
 11
-129.5000009999998
 21
3.999999999999497
 31
0.0
  0
LINE
  5
2676
330
228B
100
AcDbEntity
  8
AM_5
 62
     3
100
AcDbLine
 10
-129.0000009999998
 20
-2.750000000000499
 30
0.0
 11
-129.0000009999998
 21
2.749999999999499
 31
0.0
  0
INSERT
  5
2677
330
228B
100
AcDbEntity
  8
AM_5
 62
     3
100
AcDbBlockReference
  2
_OPEN30
 10
-129.0000009999998
 20
-4.000000000000499
 30
0.0
 41
1.25
 42
1.25
 43
1.25
 50
270.0000000000001
  0
INSERT
  5
2678
330
228B
100
AcDbEntity
  8
AM_5
 62
     3
100
AcDbBlockReference
  2
_OPEN30
 10
-129.0000009999998
 20
3.999999999999499
 30
0.0
 41
1.25
 42
1.25
 43
1.25
 50
90.00000000000015
  0
MTEXT
  5
2679
330
228B
100
AcDbEntity
  8
AM_5
 62
     2
100
AcDbMText
 10
-130.7000009999998
 20
-0.0000000000004826
 30
0.0
 40
1.9
 41
0.0
 71
     5
 72
     1
  1
%%c8
 11
-0.0000000000000028
 21
1.0
 31
0.0
1001
ACAD
1000
MTEXTBEGIN
1070
    73
1070
     1
1070
    44
1040
1.0
1070
    74
1070
     0
1000
MTEXTEND
  0
POINT
  5
267A
330
228B
100
AcDbEntity
  8
DEFPOINTS
 62
     0
100
AcDbPoint
 10
-119.7499999999999
 20
-4.000000000000101
 30
0.0
  0
POINT
  5
267B
330
228B
100
AcDbEntity
  8
DEFPOINTS
 62
     0
100
AcDbPoint
 10
-119.7499999999998
 20
3.999999999999897
 30
0.0
  0
POINT
  5
267C
330
228B
100
AcDbEntity
  8
DEFPOINTS
 62
     0
100
AcDbPoint
 10
-129.0000009999998
 20
3.9999999999999
 30
0.0
  0
ENDBLK
  5
2298
330
228B
100
AcDbEntity
  8
0
100
AcDbBlockEnd
  0
BLOCK
  5
2510
330
24FF
100
AcDbEntity
  8
0
100
AcDbBlockBegin
  2
A$C0A020B99
 70
     0
 10
0.0
 20
0.0
 30
0.0
  3
A$C0A020B99
  1

  0
LINE
  5
2500
330
24FF
100
AcDbEntity
  8
AM_7
100
AcDbLine
 10
-74.38224513128917
 20
24.85810575281464
 30
0.0
 11
29.76325868653128
 21
24.85810575281515
 31
0.0
1001
GENIUS_GENODEF_13
1002
{
1000
HIER
1070
     0
1002
}
1002
{
1000
MANEDIT
1070
     0
1002
}
1002
{
1000
NOSEL
1070
     0
1002
}
1002
{
1000
BEHIND
1070
     0
1002
}
1002
{
1000
REACTOR
1002
}
1001
GENIUS_GENOBJ-N-CEN_13
1002
{
1000
OWNER
1000
GEN
1002
}
  0
ELLIPSE
  5
2501
330
24FF
100
AcDbEntity
  8
AM_0
 48
0.5
100
AcDbEllipse
 10
31.31258671685181
 20
24.19124746588331
 30
0.0
 11
-1.058250394791793
 21
4.682134020979026
 31
0.0
210
0.0
220
0.0
230
1.0
 40
0.9999502701631778
 41
1.475699570616931
 42
1.85608536665152
  0
ELLIPSE
  5
2502
330
24FF
100
AcDbEntity
  8
AM_0
 48
0.5
100
AcDbEllipse
 10
22.83091094204556
 20
30.56443632065709
 30
0.0
 11
-4.677330502882373
 21
6.340044255684268
 31
0.0
210
0.0
220
0.0
230
1.0
 40
0.5700206404056103
 41
3.14653163117385
 42
3.335796059594246
  0
SPLINE
  5
2503
330
24FF
100
AcDbEntity
  8
AM_0
 48
0.5
100
AcDbSpline
210
0.0
220
0.0
230
1.0
 70
     8
 71
     3
 72
    10
 73
     6
 74
     0
 42
0.0000000001
 43
0.0000000001
 40
0.0
 40
0.0
 40
0.0
 40
0.0
 40
2.69986029516136
 40
4.147722969032201
 40
6.285750005020438
 40
6.285750005020438
 40
6.285750005020438
 40
6.285750005020438
 10
24.90918248101182
 20
25.40109014776791
 30
0.0
 10
25.26903794851445
 20
25.12236941683357
 30
0.0
 10
25.82187425295859
 20
24.69417823238092
 30
0.0
 10
27.12925784913157
 20
24.90147308605115
 30
0.0
 10
26.88303949037575
 20
25.59966958240437
 30
0.0
 10
26.72035413044552
 20
26.02524185080496
 30
0.0
  0
ELLIPSE
  5
2504
330
24FF
100
AcDbEntity
  8
AM_0
 48
0.5
100
AcDbEllipse
 10
27.3158597271058
 20
24.07626295355387
 30
0.0
 11
-0.4330139403188403
 21
0.2500000007491372
 31
0.0
210
0.0
220
0.0
230
1.0
 40
0.5000000000001405
 41
4.483836531792615
 42
7.627276873122125
  0
ELLIPSE
  5
2505
330
24FF
100
AcDbEntity
  8
AM_0
 48
0.5
100
AcDbEllipse
 10
27.3158597271058
 20
24.07626295355387
 30
0.0
 11
-0.0868224929270402
 21
0.4924030382084758
 31
0.0
210
0.0
220
0.0
230
1.0
 40
0.4999981224495358
 41
1.805862328724633
 42
4.941204218436607
  0
ELLIPSE
  5
2506
330
24FF
100
AcDbEntity
  8
AM_0
 48
0.5
100
AcDbEllipse
 10
30.12478917046536
 20
28.45979070929133
 30
0.0
 11
-4.275403961277681
 21
4.275403961277646
 31
0.0
210
0.0
220
0.0
230
1.0
 40
0.9999999999999943
 41
1.315765716631529
 42
1.723886646826419
  0
ELLIPSE
  5
2507
330
24FF
100
AcDbEntity
  8
AM_0
 48
0.5
100
AcDbEllipse
 10
23.01653569146137
 20
29.89319372442792
 30
0.0
 11
5.114728103641502
 21
5.114728103641544
 31
0.0
210
0.0
220
0.0
230
0.9999999999999998
 40
0.9999999999999122
 41
4.437574142215648
 42
4.526068919895139
  0
ELLIPSE
  5
2508
330
24FF
100
AcDbEntity
  8
AM_0
 48
0.5
100
AcDbEllipse
 10
32.4909394524757
 20
21.22800122998464
 30
0.0
 11
0.8512848445242719
 21
-5.756478471581333
 31
0.0
210
0.0
220
0.0
230
-1.0
 40
0.8991184301885631
 41
1.890270824098471
 42
2.197796108596753
  0
ELLIPSE
  5
2509
330
24FF
100
AcDbEntity
  8
AM_0
 48
0.5
100
AcDbEllipse
 10
32.49093945247566
 20
28.48821027564568
 30
0.0
 11
0.8512848445242168
 21
5.756478471581342
 31
0.0
210
0.0
220
0.0
230
1.0
 40
0.8991184301885631
 41
1.890270824098471
 42
2.197796108596753
  0
SPLINE
  5
250A
330
24FF
100
AcDbEntity
  8
AM_0
 48
0.5
100
AcDbSpline
210
0.0
220
0.0
230
1.0
 70
     8
 71
     3
 72
    25
 73
    21
 74
     0
 42
0.0000000001
 43
0.0000000001
 40
6.846175049578289
 40
6.846175049578289
 40
6.846175049578289
 40
6.846175049578289
 40
7.604337694224321
 40
8.711974558287883
 40
9.814980593243754
 40
10.91239053451967
 40
12.0033633515982
 40
13.08720139956839
 40
14.16337181880432
 40
15.23152222380919
 40
16.29148850140128
 40
17.34331105512262
 40
18.38723020264746
 40
19.42369128463655
 40
20.45333379090873
 40
21.47697865721768
 40
22.49561244472435
 40
23.5103574802404
 40
24.52244778960836
 40
25.53320666051913
 40
25.53320666051913
 40
25.53320666051913
 40
25.53320666051913
 10
24.90910164451512
 20
25.40112577953142
 30
0.0
 10
24.79424352306328
 20
25.45380044405106
 30
0.0
 10
24.51134183391152
 20
25.58290299852883
 30
0.0
 10
24.0599761550651
 20
25.78564048375096
 30
0.0
 10
23.55491585246049
 20
26.0067821053708
 30
0.0
 10
23.04983015004523
 20
26.2208583130174
 30
0.0
 10
22.54471470819184
 20
26.42655284577731
 30
0.0
 10
22.03956389866776
 20
26.62259667159859
 30
0.0
 10
21.53437305041471
 20
26.80778080778959
 30
0.0
 10
21.02913982466514
 20
26.98096716379529
 30
0.0
 10
20.52385799824182
 20
27.14107794561286
 30
0.0
 10
20.01852825535664
 20
27.28713134791261
 30
0.0
 10
19.5131469663321
 20
27.41821599899339
 30
0.0
 10
19.00771591468202
 20
27.53352063638733
 30
0.0
 10
18.50223707487552
 20
27.63233852516381
 30
0.0
 10
17.99671325966477
 20
27.71401465452058
 30
0.0
 10
17.49115233479734
 20
27.77817521464926
 30
0.0
 10
16.98555987206773
 20
27.82394874595782
 30
0.0
 10
16.47994407876512
 20
27.85275299298867
 30
0.0
 10
16.14278380142226
 20
27.85632254014037
 30
0.0
 10
15.97431462212535
 20
27.85810613897902
 30
0.0
  0
LINE
  5
250B
330
24FF
100
AcDbEntity
  8
AM_0
 48
0.5
100
AcDbLine
 10
27.30971268062518
 20
22.3092483259079
 30
0.0
 11
27.11777775689078
 21
21.85810613897888
 31
0.0
  0
LINE
  5
250C
330
24FF
100
AcDbEntity
  8
AM_0
 48
0.5
100
AcDbLine
 10
28.11775486871086
 20
24.85810575281511
 30
0.0
 11
26.73531430169081
 21
26.01001501349039
 31
0.0
  0
LINE
  5
250D
330
24FF
100
AcDbEntity
  8
AM_0
100
AcDbLine
 10
27.80019266734598
 20
25.73060073033737
 30
0.0
 11
28.11775486871082
 21
24.85810575281514
 31
0.0
  0
LINE
  5
250E
330
24FF
100
AcDbEntity
  8
AM_0
100
AcDbLine
 10
28.11775486871082
 20
24.85810575281514
 30
0.0
 11
27.80019266734599
 21
23.9856107752929
 31
0.0
  0
LINE
  5
250F
330
24FF
100
AcDbEntity
  8
AM_0
 48
0.5
100
AcDbLine
 10
27.30971268062516
 20
27.40696317972237
 30
0.0
 11
27.11775486871083
 21
27.85810613897888
 31
0.0
  0
ENDBLK
  5
2511
330
24FF
100
AcDbEntity
  8
0
100
AcDbBlockEnd
  0
BLOCK
  5
259C
330
258C
100
AcDbEntity
  8
0
100
AcDbBlockBegin
  2
*D10
 70
     1
 10
0.0
 20
0.0
 30
0.0
  3
*D10
  1

  0
LINE
  5
267D
330
258C
100
AcDbEntity
  8
AM_5
100
AcDbLine
 10
0.1710100716627608
 20
-0.4698463103929546
 30
0.0
 11
4.820130796736513
 21
-13.24320052285225
 31
0.0
  0
LINE
  5
267E
330
258C
100
AcDbEntity
  8
AM_5
100
AcDbLine
 10
0.1710100716627526
 20
0.4698463103929626
 30
0.0
 11
4.820130796736282
 21
13.24320052285234
 31
0.0
  0
ARC
  5
267F
330
258C
100
AcDbEntity
  8
AM_5
100
AcDbCircle
 10
-0.0000000000000657
 20
0.0000000000000025
 30
0.0
 40
13.59311963286066
100
AcDbArc
 50
295.2706799729924
 51
64.72932002700855
  0
INSERT
  5
2680
330
258C
100
AcDbEntity
  8
AM_5
100
AcDbBlockReference
  2
_OPEN30
 10
4.649120725073687
 20
-12.7733542124593
 30
0.0
 41
1.25
 42
1.25
 43
1.25
 50
202.6353399864956
  0
INSERT
  5
2681
330
258C
100
AcDbEntity
  8
AM_5
100
AcDbBlockReference
  2
_OPEN30
 10
4.649120725073464
 20
12.77335421245938
 30
0.0
 41
1.25
 42
1.25
 43
1.25
 50
157.3646600135052
  0
MTEXT
  5
2682
330
258C
100
AcDbEntity
  8
AM_5
 62
     2
100
AcDbMText
 10
12.0431196328606
 20
0.0000000000001189
 30
0.0
 40
1.6
 41
0.0
 71
     5
 72
     1
  1
140°
  7
ASAMI
 11
-0.0000000000000028
 21
1.0
 31
0.0
1001
ACAD
1000
MTEXTBEGIN
1070
    73
1070
     1
1070
    44
1040
1.0
1070
    74
1070
     0
1000
MTEXTEND
  0
POINT
  5
2683
330
258C
100
AcDbEntity
  8
DEFPOINTS
 62
     0
100
AcDbPoint
 10
12.48142138964305
 20
-5.383959643925755
 30
0.0
  0
POINT
  5
2684
330
258C
100
AcDbEntity
  8
DEFPOINTS
 62
     0
100
AcDbPoint
 10
-0.0000000000000657
 20
0.0000000000000025
 30
0.0
  0
POINT
  5
2685
330
258C
100
AcDbEntity
  8
DEFPOINTS
 62
     0
100
AcDbPoint
 10
-0.3757819382817846
 20
1.032452390067979
 30
0.0
  0
POINT
  5
2686
330
258C
100
AcDbEntity
  8
DEFPOINTS
 62
     0
100
AcDbPoint
 10
-0.0000000000000657
 20
0.0000000000000025
 30
0.0
  0
POINT
  5
2687
330
258C
100
AcDbEntity
  8
DEFPOINTS
 62
     0
100
AcDbPoint
 10
-0.3757819382817722
 20
-1.032452390067978
 30
0.0
  0
ENDBLK
  5
259D
330
258C
100
AcDbEntity
  8
0
100
AcDbBlockEnd
  0
BLOCK
  5
26E1
330
26D7
100
AcDbEntity
  8
0
100
AcDbBlockBegin
  2
*D11
 70
     1
 10
0.0
 20
0.0
 30
0.0
  3
*D11
  1

  0
LINE
  5
2704
330
26D7
100
AcDbEntity
  8
AM_5
 62
     3
100
AcDbLine
 10
-1.999999999999993
 20
3.600000759059747
 30
0.0
 11
9.055921024857992
 21
3.600000759059778
 31
0.0
  0
LINE
  5
2705
330
26D7
100
AcDbEntity
  8
AM_5
 62
     3
100
AcDbLine
 10
-2.000000462318714
 20
-3.599999240940551
 30
0.0
 11
9.055921024858015
 21
-3.599999240940519
 31
0.0
  0
LINE
  5
2706
330
26D7
100
AcDbEntity
  8
AM_5
 62
     3
100
AcDbLine
 10
8.555921024857996
 20
2.350000759059777
 30
0.0
 11
8.55592102485801
 21
-2.34999924094052
 31
0.0
  0
INSERT
  5
2707
330
26D7
100
AcDbEntity
  8
AM_5
 62
     3
100
AcDbBlockReference
  2
_OPEN30
 10
8.555921024857992
 20
3.600000759059777
 30
0.0
 41
1.25
 42
1.25
 43
1.25
 50
90.00000000000017
  0
INSERT
  5
2708
330
26D7
100
AcDbEntity
  8
AM_5
 62
     3
100
AcDbBlockReference
  2
_OPEN30
 10
8.555921024858013
 20
-3.59999924094052
 30
0.0
 41
1.25
 42
1.25
 43
1.25
 50
270.0000000000001
  0
MTEXT
  5
2709
330
26D7
100
AcDbEntity
  8
AM_5
 62
     2
100
AcDbMText
 10
6.855921024858003
 20
0.000000759059623
 30
0.0
 40
1.9
 41
0.0
 71
     5
 72
     1
  1
%%c7.2
 11
-0.0000000000000028
 21
1.0
 31
0.0
1001
ACAD
1000
MTEXTBEGIN
1070
    73
1070
     1
1070
    44
1040
1.0
1070
    74
1070
     0
1000
MTEXTEND
  0
POINT
  5
270A
330
26D7
100
AcDbEntity
  8
DEFPOINTS
 62
     0
100
AcDbPoint
 10
-1.999999999999982
 20
3.600000759059753
 30
0.0
  0
POINT
  5
270B
330
26D7
100
AcDbEntity
  8
DEFPOINTS
 62
     0
100
AcDbPoint
 10
-2.000000462318725
 20
-3.599999240940544
 30
0.0
  0
POINT
  5
270C
330
26D7
100
AcDbEntity
  8
DEFPOINTS
 62
     0
100
AcDbPoint
 10
8.555921024858003
 20
-3.599999240940547
 30
0.0
  0
ENDBLK
  5
26E2
330
26D7
100
AcDbEntity
  8
0
100
AcDbBlockEnd
  0
ENDSEC
  0
SECTION
  2
ENTITIES
  0
LINE
  5
C30
330
1F
100
AcDbEntity
  8
AM_0
 48
0.5
100
AcDbLine
 10
-119.9999999999999
 20
-3.750000000000101
 30
0.0
 11
-119.9999999999998
 21
3.749999999999897
 31
0.0
  0
LINE
  5
C9F
330
1F
100
AcDbEntity
  8
AM_7
100
AcDbLine
 10
-121.9999999999998
 20
-0.0000000000001033
 30
0.0
 11
1.555920024858144
 21
0.0000000000000013
 31
0.0
1001
GENIUS_GENODEF_13
1002
{
1000
HIER
1070
     0
1002
}
1002
{
1000
MANEDIT
1070
     0
1002
}
1002
{
1000
NOSEL
1070
     0
1002
}
1002
{
1000
BEHIND
1070
     0
1002
}
1002
{
1000
REACTOR
1002
}
1001
GENIUS_GENOBJ-N-CEN_13
1002
{
1000
OWNER
1000
GEN
1002
}
  0
DIMENSION
  5
CC6
330
1F
100
AcDbEntity
  8
AM_5
100
AcDbDimension
  2
*D5
 10
-1.999999999999988
 20
-16.0000023696538
 30
0.0
 11
-60.99999999999994
 21
-14.3000023696538
 31
0.0
 70
    32
  1
<>
  3
AM_JIS$0
100
AcDbAlignedDimension
 13
-119.9999999999998
 23
-3.764324189635425
 33
0.0
 14
-1.999999999999987
 24
-3.600000759061799
 34
0.0
 50
0.0000000000001132
100
AcDbRotatedDimension
1001
GENIUS_GENDTOL_13
1000

1000
h7
1000

1040
0.0
1001
ACAD
1000
DSTYLE
1002
{
1070
   271
1070
     0
1002
}
  0
DIMENSION
  5
DF5
330
1F
100
AcDbEntity
  8
AM_5
100
AcDbDimension
  2
*D6
 10
-1.999999999999987
 20
-11.00000236965372
 30
0.0
 11
-33.99999999999994
 21
-9.300002369653721
 31
0.0
 70
    32
  1
<>
  3
AM_JIS$0
100
AcDbAlignedDimension
 13
-65.9999999999999
 23
-4.000001369653888
 33
0.0
 14
-1.999999999999987
 24
-3.600000759061799
 34
0.0
 50
0.0000000000001527
100
AcDbRotatedDimension
1001
GENIUS_GENDTOL_13
1000

1000
h7
1000

1040
0.0
1001
ACAD
1000
DSTYLE
1002
{
1070
   271
1070
     0
1002
}
  0
TEXT
  5
19BD
330
1F
100
AcDbEntity
  8
AM_6
100
AcDbText
 10
-69.59568372748309
 20
-26.97293740283332
 30
0.0
 40
2.5
  1
MDW072LHK
 50
0.0000000000001527
 72
     4
 11
-58.76235039414975
 21
-25.72293740283329
 31
0.0
100
AcDbText
  0
ARC
  5
1BE8
330
1F
100
AcDbEntity
  8
AM_11
 48
0.5
100
AcDbCircle
 10
-65.1857889811198
 20
17.66787048062784
 30
0.0
 40
19.53452809651666
100
AcDbArc
 50
244.7482808787518
 51
295.2516148471758
  0
ARC
  5
1BE9
330
1F
100
AcDbEntity
  8
AM_11
 48
0.5
100
AcDbCircle
 10
-65.18578898111982
 20
-17.66785848258815
 30
0.0
 40
19.53452809651666
100
AcDbArc
 50
64.74833051131179
 51
115.2516644797366
  0
LINE
  5
1CA9
330
1F
100
AcDbEntity
  8
AM_0
 48
0.5
100
AcDbLine
 10
-65.9999999999999
 20
-4.000001369653889
 30
0.0
 11
-65.9999999999999
 21
4.000029622605968
 31
0.0
  0
LINE
  5
1E12
330
1F
100
AcDbEntity
  8
AM_0
 48
0.5
100
AcDbLine
 10
-119.7499999999998
 20
3.999999999999897
 30
0.0
 11
-65.9999999999999
 21
3.999999999999942
 31
0.0
1001
GENIUS_GENODEF_13
1002
{
1000
HIER
1070
     0
1002
}
1002
{
1000
MANEDIT
1070
     0
1002
}
1002
{
1000
NOSEL
1070
     0
1002
}
1002
{
1000
BEHIND
1070
     0
1002
}
1002
{
1000
REACTOR
1002
}
1001
GENIUS_GENOBJ-N-CEN_13
1002
{
1000
OWNER
1000
GEN
1002
}
  0
LINE
  5
1E16
330
1F
100
AcDbEntity
  8
AM_0
 48
0.5
100
AcDbLine
 10
-119.7499999999999
 20
-4.000000000000101
 30
0.0
 11
-65.9999999999999
 21
-4.000000000000056
 31
0.0
1001
GENIUS_GENODEF_13
1002
{
1000
HIER
1070
     0
1002
}
1002
{
1000
MANEDIT
1070
     0
1002
}
1002
{
1000
NOSEL
1070
     0
1002
}
1002
{
1000
BEHIND
1070
     0
1002
}
1002
{
1000
REACTOR
1002
}
1001
GENIUS_GENOBJ-N-CEN_13
1002
{
1000
OWNER
1000
GEN
1002
}
  0
LINE
  5
1E1D
330
1F
100
AcDbEntity
  8
AM_0
 48
0.5
100
AcDbLine
 10
-119.9999999999998
 20
3.749999999999897
 30
0.0
 11
-119.7499999999998
 21
3.999999999999897
 31
0.0
1001
GENIUS_GENFIL_13
1070
     0
1040
0.25
1040
0.25
1040
20.0
1040
0.0
1002
{
1002
}
1001
GENIUS_GENODEF_13
1002
{
1000
HIER
1070
     0
1002
}
1002
{
1000
MANEDIT
1070
     0
1002
}
1002
{
1000
NOSEL
1070
     0
1002
}
1002
{
1000
BEHIND
1070
     0
1002
}
1002
{
1000
REACTOR
1002
}
1001
GENIUS_GENOBJ-N-CHA_13
1002
{
1000
OWNER
1000
GEN
1002
}
  0
LINE
  5
1E21
330
1F
100
AcDbEntity
  8
AM_0
 48
0.5
100
AcDbLine
 10
-119.9999999999999
 20
-3.750000000000101
 30
0.0
 11
-119.7499999999999
 21
-4.000000000000101
 31
0.0
1001
GENIUS_GENFIL_13
1070
     0
1040
0.25
1040
0.25
1040
20.0
1040
0.0
1002
{
1002
}
1001
GENIUS_GENODEF_13
1002
{
1000
HIER
1070
     0
1002
}
1002
{
1000
MANEDIT
1070
     0
1002
}
1002
{
1000
NOSEL
1070
     0
1002
}
1002
{
1000
BEHIND
1070
     0
1002
}
1002
{
1000
REACTOR
1002
}
1001
GENIUS_GENOBJ-N-CHA_13
1002
{
1000
OWNER
1000
GEN
1002
}
  0
LINE
  5
1E22
330
1F
100
AcDbEntity
  8
AM_0
100
AcDbLine
 10
-119.7499999999999
 20
-4.000000000000101
 30
0.0
 11
-119.7499999999998
 21
3.999999999999897
 31
0.0
  0
LINE
  5
1E25
330
1F
100
AcDbEntity
  8
AM_0
100
AcDbLine
 10
-65.9999999999999
 20
-4.000001369653889
 30
0.0
 11
-65.30717689753671
 21
-3.599999764945989
 31
0.0
  0
LINE
  5
1E26
330
1F
100
AcDbEntity
  8
AM_0
100
AcDbLine
 10
-65.9999999999999
 20
3.999999999999942
 30
0.0
 11
-65.30717689753648
 21
3.599998395291908
 31
0.0
  0
ARC
  5
1F66
330
1F
100
AcDbEntity
  8
AM_11
 48
0.5
100
AcDbCircle
 10
-81.8524191904159
 20
17.66787048062779
 30
0.0
 40
19.53452809651666
100
AcDbArc
 50
244.7482808787518
 51
295.2516148471758
  0
ARC
  5
1F67
330
1F
100
AcDbEntity
  8
AM_11
 48
0.5
100
AcDbCircle
 10
-81.85241919041592
 20
-17.66785848258821
 30
0.0
 40
19.53452809651666
100
AcDbArc
 50
64.74833051131179
 51
115.2516644797366
  0
ARC
  5
1F68
330
1F
100
AcDbEntity
  8
AM_11
 48
0.5
100
AcDbCircle
 10
-98.519049399712
 20
17.66787048062773
 30
0.0
 40
19.53452809651666
100
AcDbArc
 50
244.7482808787518
 51
295.2516148471758
  0
ARC
  5
1F69
330
1F
100
AcDbEntity
  8
AM_11
 48
0.5
100
AcDbCircle
 10
-98.51904939971204
 20
-17.66785848258826
 30
0.0
 40
19.53452809651666
100
AcDbArc
 50
64.74833051131179
 51
115.2516644797366
  0
ARC
  5
1F6A
330
1F
100
AcDbEntity
  8
AM_11
 48
0.5
100
AcDbCircle
 10
-115.1856796090081
 20
17.66787048062767
 30
0.0
 40
19.53452809651666
100
AcDbArc
 50
255.732350805167
 51
295.2516148471758
  0
ARC
  5
1F6B
330
1F
100
AcDbEntity
  8
AM_11
 48
0.5
100
AcDbCircle
 10
-115.1856796090081
 20
-17.66785848258832
 30
0.0
 40
19.53452809651666
100
AcDbArc
 50
64.74833051131179
 51
104.2676491948328
  0
LINE
  5
220F
330
1F
100
AcDbEntity
  8
AM_0
100
AcDbLine
 10
-65.30717689753671
 20
-3.59999976494599
 30
0.0
 11
-65.30717689753648
 21
3.600000759060754
 31
0.0
  0
LINE
  5
2210
330
1F
100
AcDbEntity
  8
AM_0
100
AcDbLine
 10
-60.63639217811179
 20
-3.600326645073208
 30
0.0
 11
-65.30774307052498
 21
-3.600326645073182
 31
0.0
  0
LINE
  5
2211
330
1F
100
AcDbEntity
  8
AM_0
100
AcDbLine
 10
-59.47305978347124
 20
3.600000759060721
 30
0.0
 11
-65.30718099170421
 21
3.600000759060754
 31
0.0
  0
ELLIPSE
  5
222E
330
1F
100
AcDbEntity
  8
AM_11
 48
0.5
100
AcDbEllipse
 10
-15.1857889811243
 20
16.72558433296426
 30
0.0
 11
-19.53452809651665
 21
0.000000000000166
 31
0.0
210
0.0
220
0.0
230
1.0
 40
0.9466666666666663
 41
1.130070686340305
 42
2.011520147323594
  0
ELLIPSE
  5
222F
330
1F
100
AcDbEntity
  8
AM_11
 48
0.5
100
AcDbEllipse
 10
-15.18578898112467
 20
-16.72557241888021
 30
0.0
 11
-19.53452809651663
 21
0.0000000000000489
 31
0.0
210
0.0
220
0.0
230
1.0
 40
0.9466666666666668
 41
4.271664206181679
 42
5.153113667164986
  0
ELLIPSE
  5
2230
330
1F
100
AcDbEntity
  8
AM_11
 48
0.5
100
AcDbEllipse
 10
-48.51912231445297
 20
16.7255843329646
 30
0.0
 11
-19.53452809651663
 21
0.000000000000114
 31
0.0
210
0.0
220
0.0
230
1.0
 40
0.946666666666667
 41
1.130070686340299
 42
2.011520147323592
  0
ELLIPSE
  5
2231
330
1F
100
AcDbEntity
  8
AM_11
 48
0.5
100
AcDbEllipse
 10
-48.51912231445334
 20
-16.72557241887987
 30
0.0
 11
-19.53452809651663
 21
0.0000000000000055
 31
0.0
210
0.0
220
0.0
230
1.0
 40
0.946666666666667
 41
4.271664206181676
 42
5.153113667164983
  0
ELLIPSE
  5
2232
330
1F
100
AcDbEntity
  8
AM_11
 48
0.5
100
AcDbEllipse
 10
-31.85245564779135
 20
-16.72557241888003
 30
0.0
 11
-19.53452809651665
 21
0.0000000000000576
 31
0.0
210
0.0
220
0.0
230
1.0
 40
0.9466666666666657
 41
4.271664206181679
 42
5.153113667164985
  0
ELLIPSE
  5
2233
330
1F
100
AcDbEntity
  8
AM_11
 48
0.5
100
AcDbEllipse
 10
-31.85245564779098
 20
16.72558433296443
 30
0.0
 11
19.53452809651663
 21
0.0000000000000446
 31
0.0
210
0.0
220
0.0
230
1.0
 40
0.9466666666666672
 41
4.271663339930084
 42
5.153112800913377
  0
DIMENSION
  5
228A
330
1F
100
AcDbEntity
  8
AM_5
100
AcDbDimension
  2
*D7
 10
-129.0000009999998
 20
3.9999999999999
 30
0.0
 11
-129.0000009999998
 21
-0.0000000000001026
 31
0.0
 70
   160
  1
%%c<>
 51
359.9999999999998
  3
AM_JIS$0
100
AcDbAlignedDimension
 13
-119.7499999999999
 23
-4.000000000000101
 33
0.0
 14
-119.7499999999998
 24
3.999999999999897
 34
0.0
 50
270.0000000000002
100
AcDbRotatedDimension
1001
ACAD
1000
DSTYLE
1002
{
1070
   271
1070
     0
1002
}
1001
GENIUS_GENDTOL_13
1000

1000
h7
1000

1040
0.0
  0
ELLIPSE
  5
252F
330
1F
100
AcDbEntity
  8
AM_0
 48
0.5
100
AcDbEllipse
 10
6.998938941977094
 20
6.518511470746472
 30
0.0
 11
-6.499359672245508
 21
6.499359672245508
 31
0.0
210
0.0
220
0.0
230
1.0
 40
0.9999999999999978
 41
1.171329590070667
 42
1.424984195904709
  0
LINE
  5
2532
330
1F
100
AcDbEntity
  8
AM_0
 48
0.5
100
AcDbLine
 10
-0.0000000000000195
 20
-0.0000000000000312
 30
0.0
 11
-1.635888004307071
 21
1.363092625132378
 31
0.0
  0
LINE
  5
2533
330
1F
100
AcDbEntity
  8
AM_0
100
AcDbLine
 10
-0.3757819382817846
 20
1.032452390067979
 30
0.0
 11
-0.0000000000000657
 21
0.0000000000000025
 31
0.0
  0
LINE
  5
2534
330
1F
100
AcDbEntity
  8
AM_0
100
AcDbLine
 10
-0.0000000000000657
 20
0.0000000000000025
 30
0.0
 11
-0.3757819382817722
 21
-1.032452390067978
 31
0.0
  0
LINE
  5
2535
330
1F
100
AcDbEntity
  8
AM_0
 48
0.5
100
AcDbLine
 10
-1.51649379259026
 20
3.058633200997604
 30
0.0
 11
-1.999999999999993
 21
3.600000759059747
 31
0.0
  0
ELLIPSE
  5
254F
330
1F
100
AcDbEntity
  8
AM_0
 48
0.5
100
AcDbEllipse
 10
6.998938941978924
 20
-6.518511470744941
 30
0.0
 11
-6.499359672243684
 21
-6.499359672247334
 31
0.0
210
0.0
220
0.0
230
-1.0
 40
0.9999999999999978
 41
1.171329590070667
 42
1.424984195904709
  0
LINE
  5
2550
330
1F
100
AcDbEntity
  8
AM_0
 48
0.5
100
AcDbLine
 10
-1.516493792589402
 20
-3.058633200998463
 30
0.0
 11
-1.999999999999987
 21
-3.600000759061799
 31
0.0
  0
DIMENSION
  5
258B
330
1F
100
AcDbEntity
  8
AM_5
100
AcDbDimension
  2
*D10
 10
-0.3757819382817722
 20
-1.032452390067978
 30
0.0
 11
12.0431196328606
 21
0.0000000000000819
 31
0.0
 70
    34
  1
<>
 51
359.9999999999998
  3
AM_JIS$2
100
AcDb2LineAngularDimension
 13
-0.3757819382817846
 23
1.032452390067979
 33
0.0
 14
-0.0000000000000657
 24
0.0000000000000025
 34
0.0
 15
-0.0000000000000657
 25
0.0000000000000025
 35
0.0
 16
12.48142138964305
 26
-5.383959643925755
 36
0.0
1001
ACAD
1000
DSTYLE
1002
{
1070
   179
1070
     3
1002
}
1001
GENIUS_GENDTOL_13
1000

1000
h7
1000

1040
0.0
  0
ELLIPSE
  5
26CE
330
1F
100
AcDbEntity
  8
AM_0
 48
0.5
100
AcDbEllipse
 10
-6.256098646553951
 20
6.847596681410344
 30
0.0
 11
-5.348192193457299
 21
7.752679351334502
 31
0.0
210
0.0
220
0.0
230
0.9999999999999998
 40
0.6103982612805912
 41
3.078819594837618
 42
3.3627821327773
  0
ELLIPSE
  5
26CF
330
1F
100
AcDbEntity
  8
AM_0
 48
0.5
100
AcDbEllipse
 10
-6.036442693078567
 20
6.042105565935341
 30
0.0
 11
8.546469193215473
 21
5.98956685042853
 31
0.0
210
0.0
220
0.0
230
1.0
 40
0.8280070107577081
 41
4.577076006400372
 42
4.637006525598237
  0
ELLIPSE
  5
26D0
330
1F
100
AcDbEntity
  8
AM_0
 48
0.5
100
AcDbEllipse
 10
-1.475464632491059
 20
-1.279684729511855
 30
0.0
 11
-0.5111744286842908
 21
0.3021123184687573
 31
0.0
210
0.0
220
0.0
230
0.9999999999999998
 40
0.5034466433071929
 41
4.49200544038531
 42
7.635445781714821
  0
ELLIPSE
  5
26D1
330
1F
100
AcDbEntity
  8
AM_0
 48
0.5
100
AcDbEllipse
 10
-1.475464632491059
 20
-1.279684729511855
 30
0.0
 11
-0.1018303663598596
 21
0.5910433201064919
 31
0.0
210
0.0
220
0.0
230
1.0
 40
0.4934605124998586
 41
1.808982714204908
 42
4.944324603916882
  0
ELLIPSE
  5
26D2
330
1F
100
AcDbEntity
  8
AM_0
 48
0.5
100
AcDbEllipse
 10
3.908992358985531
 20
-1.749467256279437
 30
0.0
 11
-0.0000000000002659
 21
6.271454859309359
 31
0.0
210
0.0
220
0.0
230
1.0
 40
0.9861111111111098
 41
1.575304363691319
 42
1.870327662799692
  0
ELLIPSE
  5
26D3
330
1F
100
AcDbEntity
  8
AM_0
 48
0.5
100
AcDbEllipse
 10
3.351196164573205
 20
3.550910307842274
 30
0.0
 11
0.0000000000000903
 21
7.80704542210621
 31
0.0
210
0.0
220
0.0
230
0.9999999999999998
 40
0.986111111111111
 41
1.951257656000361
 42
2.322034022628351
  0
LINE
  5
26D4
330
1F
100
AcDbEntity
  8
AM_0
 48
0.5
100
AcDbLine
 10
-4.113971477865004
 20
3.600000759059792
 30
0.0
 11
-1.999999999999982
 21
3.600000759059753
 31
0.0
  0
LINE
  5
26D5
330
1F
100
AcDbEntity
  8
AM_0
 48
0.5
100
AcDbLine
 10
-4.113971477865143
 20
-3.599999240940205
 30
0.0
 11
-2.000000462318725
 21
-3.599999240940544
 31
0.0
  0
DIMENSION
  5
26D6
330
1F
100
AcDbEntity
  8
AM_5
100
AcDbDimension
  2
*D11
 10
8.555921024858003
 20
-3.599999240940547
 30
0.0
 11
6.855921024858003
 21
0.0000007590596031
 31
0.0
 70
    32
  1
%%c<>
 51
359.9999999999998
  3
AM_JIS$0
100
AcDbAlignedDimension
 13
-1.999999999999982
 23
3.600000759059753
 33
0.0
 14
-2.000000462318725
 24
-3.599999240940544
 34
0.0
 50
89.99999999999886
100
AcDbRotatedDimension
1001
ACAD
1000
DSTYLE
1002
{
1070
   271
1070
     1
1002
}
1001
GENIUS_GENDTOL_13
1000

1000
h7
1000

1040
0.0
  0
LINE
  5
26E3
330
1F
100
AcDbEntity
  8
AM_0
 48
0.5
100
AcDbLine
 10
-26.61365581253421
 20
-3.599999240939872
 30
0.0
 11
-16.01954627644888
 21
-3.599999240939991
 31
0.0
  0
LINE
  5
26E4
330
1F
100
AcDbEntity
  8
AM_0
 48
0.5
100
AcDbLine
 10
-29.37834907185875
 20
3.600000759060251
 30
0.0
 11
-16.01954627644873
 21
3.600000759060008
 31
0.0
  0
LINE
  5
26E5
330
1F
100
AcDbEntity
  8
AM_0
 48
0.5
100
AcDbLine
 10
-51.87812495841702
 20
-3.599999240939367
 30
0.0
 11
-38.51922885703528
 21
-3.59999924093958
 31
0.0
  0
LINE
  5
26E6
330
1F
100
AcDbEntity
  8
AM_0
100
AcDbLine
 10
-51.87812019002315
 20
3.600000759060585
 30
0.0
 11
-36.97602021297582
 21
3.600512204393613
 31
0.0
  0
LINE
  5
26E7
330
1F
100
AcDbEntity
  8
AM_11
 48
0.5
100
AcDbLine
 10
-36.97602021297582
 20
3.600512204393613
 30
0.0
 11
-29.3783388176572
 21
3.600000759060251
 31
0.0
  0
LINE
  5
26E8
330
1F
100
AcDbEntity
  8
AM_11
 48
0.5
100
AcDbLine
 10
-38.51923061111643
 20
-3.599999240939659
 30
0.0
 11
-26.61365581253422
 21
-3.600510686273087
 31
0.0
  0
LINE
  5
26E9
330
1F
100
AcDbEntity
  8
AM_11
 48
0.5
100
AcDbLine
 10
-16.01954627644888
 20
-3.599999240939991
 30
0.0
 11
-4.113971477865143
 21
-3.599999240940205
 31
0.0
  0
LINE
  5
26EA
330
1F
100
AcDbEntity
  8
AM_11
 48
0.5
100
AcDbLine
 10
-16.01954627644873
 20
3.600000759060008
 30
0.0
 11
-4.113971477865004
 21
3.600000759059792
 31
0.0
  0
SPLINE
  5
26EB
330
1F
100
AcDbEntity
  8
AM_0
 48
0.5
100
AcDbSpline
210
0.0
220
0.0
230
1.0
 70
     8
 71
     3
 72
    25
 73
    21
 74
     0
 42
0.0000000001
 43
0.0000000001
 40
6.846175049578289
 40
6.846175049578289
 40
6.846175049578289
 40
6.846175049578289
 40
7.604337694224321
 40
8.711974558287883
 40
9.814980593243754
 40
10.91239053451967
 40
12.0033633515982
 40
13.08720139956839
 40
14.16337181880432
 40
15.23152222380919
 40
16.29148850140128
 40
17.34331105512262
 40
18.38723020264746
 40
19.42369128463655
 40
20.45333379090873
 40
21.47697865721768
 40
22.49561244472435
 40
23.5103574802404
 40
24.52244778960836
 40
25.53320666051913
 40
25.53320666051913
 40
25.53320666051913
 40
25.53320666051913
 10
-3.796906315298306
 20
0.6516240320595457
 30
0.0
 10
-3.932821759016315
 20
0.7148336294831214
 30
0.0
 10
-4.267588757845897
 20
0.8697566948564395
 30
0.0
 10
-4.801704811147488
 20
1.113041677122987
 30
0.0
 10
-5.399359502562955
 20
1.378411623066801
 30
0.0
 10
-5.997044250421001
 20
1.635303072242726
 30
0.0
 10
-6.594764189947516
 20
1.882136511554607
 30
0.0
 10
-7.192525981217672
 20
2.11738910254015
 30
0.0
 10
-7.79033515165045
 20
2.339610065969349
 30
0.0
 10
-8.388194468787439
 20
2.547433693176183
 30
0.0
 10
-8.986111296721713
 20
2.739566631357266
 30
0.0
 10
-9.584084825802506
 20
2.914830714116968
 30
0.0
 10
-10.18211935114821
 20
3.072132295413913
 30
0.0
 10
-10.78021276226747
 20
3.210497860286638
 30
0.0
 10
-11.37836272270516
 20
3.329079326818408
 30
0.0
 10
-11.97656590403788
 20
3.427090682046528
 30
0.0
 10
-12.57481299846433
 20
3.50408335420096
 30
0.0
 10
-13.17309741269437
 20
3.559011591771219
 30
0.0
 10
-13.77140943476913
 20
3.593576688208243
 30
0.0
 10
-14.17038242962485
 20
3.597860144790286
 30
0.0
 10
-14.3697376251262
 20
3.600000463396662
 30
0.0
  0
SPLINE
  5
26EC
330
1F
100
AcDbEntity
  8
AM_0
 48
0.5
100
AcDbSpline
210
0.0
220
0.0
230
1.0
 70
     8
 71
     3
 72
    10
 73
     6
 74
     0
 42
0.0000000001
 43
0.0000000001
 40
0.0
 40
0.0
 40
0.0
 40
0.0
 40
2.69986029516136
 40
4.147722969032201
 40
6.285750005020438
 40
6.285750005020438
 40
6.285750005020438
 40
6.285750005020438
 10
-3.796810658777213
 20
0.6515812739433346
 30
0.0
 10
-3.370981688899095
 20
0.3171163968221227
 30
0.0
 10
-2.716792061973535
 20
-0.1967130245210598
 30
0.0
 10
-1.169721473168839
 20
0.0520407998832214
 30
0.0
 10
-1.461079864363218
 20
0.8898765955070844
 30
0.0
 10
-1.653590873613999
 20
1.400563317587796
 30
0.0
  0
ELLIPSE
  5
26ED
330
1F
100
AcDbEntity
  8
AM_11
 48
0.5
100
AcDbEllipse
 10
1.480877685542422
 20
16.96115594328753
 30
0.0
 11
19.53452809651621
 21
0.0000000000041132
 31
0.0
210
0.0
220
0.0
230
1.0
 40
0.9600000000000177
 41
4.271663339929872
 42
4.433393390970569
  0
SPLINE
  5
26EE
330
1F
100
AcDbEntity
  8
AM_0
100
AcDbSpline
210
0.0
220
0.0
230
1.0
 70
     8
 71
     3
 72
    17
 73
    13
 74
     0
 42
0.0000000001
 43
0.0000000001
 40
1.580019955310467
 40
1.580019955310467
 40
1.580019955310467
 40
1.580019955310467
 40
2.030549285115227
 40
3.082371838836284
 40
4.126290986361125
 40
5.162752068350215
 40
6.192395305374981
 40
7.216039564037012
 40
8.234688489606833
 40
9.249433870634691
 40
10.26152376260694
 40
11.27226744710342
 40
11.27226744710342
 40
11.27226744710342
 40
11.27226744710352
 10
-10.06629444425115
 20
-2.656905248665395
 30
0.0
 10
-10.15571431541303
 20
-2.684269173352458
 30
0.0
 10
-10.45440672678996
 20
-2.773958091488894
 30
0.0
 10
-10.96434874562856
 20
-2.914638368711071
 30
0.0
 10
-11.59598737397016
 20
-3.07218161668455
 30
0.0
 10
-12.22779989183476
 20
-3.210483671129032
 30
0.0
 10
-12.85964135912837
 20
-3.329080082661871
 30
0.0
 10
-13.49155166441744
 20
-3.427108175258213
 30
0.0
 10
-14.12350562657623
 20
-3.504008545818022
 30
0.0
 10
-14.75549893924744
 20
-3.55928285420889
 30
0.0
 10
-15.38751603175251
 20
-3.592575293288597
 30
0.0
 10
-15.80896302409952
 20
-3.599999261539385
 30
0.0
 10
-16.01954627644883
 20
-3.599999240939992
 30
0.0
  0
SPLINE
  5
26EF
330
1F
100
AcDbEntity
  8
AM_0
100
AcDbSpline
210
0.0
220
0.0
230
1.0
 70
     8
 71
     3
 72
    22
 73
    18
 74
     0
 42
0.0000000001
 43
0.0000000001
 40
17.17441611292
 40
17.17441611292
 40
17.17441611292
 40
17.17441611292
 40
17.38177636558528
 40
18.41823744757437
 40
19.46215659509824
 40
20.51397914882054
 40
21.57394542641293
 40
22.64209583141747
 40
23.71826625065247
 40
24.80210429862395
 40
25.8930771157021
 40
26.99048705697709
 40
28.09349309193389
 40
29.20112995599786
 40
30.31233024745139
 40
31.42594771747373
 40
32.5407895042663
 40
32.54078950426994
 40
32.54078950426994
 40
32.54078950426994
 10
-18.43181555987029
 20
-3.232825296476558
 30
0.0
 10
-18.47413632538441
 20
-3.224491649570929
 30
0.0
 10
-18.72782620192536
 20
-3.173730495378682
 30
0.0
 10
-19.19257176038076
 20
-3.071947774511916
 30
0.0
 10
-19.82429832361457
 20
-2.914646438480122
 30
0.0
 10
-20.45596051523766
 20
-2.739382289254615
 30
0.0
 10
-21.08756279474969
 20
-2.547249369112148
 30
0.0
 10
-21.71910432784796
 20
-2.339425736925283
 30
0.0
 10
-22.35059288807644
 20
-2.1172047751913
 30
0.0
 10
-22.98203139940463
 20
-1.881952182441261
 30
0.0
 10
-23.61342570414033
 20
-1.635118748524308
 30
0.0
 10
-24.2447828229879
 20
-1.378227279380802
 30
0.0
 10
-24.87610823574617
 20
-1.112857408423098
 30
0.0
 10
-25.50740829772615
 20
-0.840641735939447
 30
0.0
 10
-26.13868860485338
 20
-0.563254080185202
 30
0.0
 10
-26.76995850899666
 20
-0.2824060729266125
 30
0.0
 10
-27.19072250461057
 20
-0.0940472718417964
 30
0.0
 10
-27.40122008931644
 20
0.0001838645294253
 30
0.0
  0
SPLINE
  5
26F0
330
1F
100
AcDbEntity
  8
AM_0
100
AcDbSpline
210
0.0
220
0.0
230
1.0
 70
     8
 71
     3
 72
    11
 73
     7
 74
     0
 42
0.0000000001
 43
0.0000000001
 40
11.27226913003534
 40
11.27226913003534
 40
11.27226913003534
 40
11.2722691300354
 40
12.28301561507924
 40
13.29510212255852
 40
14.30984805882082
 40
15.18258238371378
 40
15.18258238371378
 40
15.18258238371378
 40
15.18258238371378
 10
-16.01954627644886
 20
-3.599999240939992
 30
0.0
 10
-16.2293287876003
 20
-3.582379794786819
 30
0.0
 10
-16.64849812019561
 20
-3.539723882479599
 30
0.0
 10
-17.27508760679946
 20
-3.453676356441042
 30
0.0
 10
-17.86973207807962
 20
-3.350902021331257
 30
0.0
 10
-18.25431321717343
 20
-3.271896331171938
 30
0.0
 10
-18.43153915700577
 20
-3.232869702449031
 30
0.0
  0
SPLINE
  5
26F1
330
1F
100
AcDbEntity
  8
AM_0
100
AcDbSpline
210
0.0
220
0.0
230
1.0
 70
     8
 71
     3
 72
    55
 73
    51
 74
     0
 42
0.0000000001
 43
0.0000000001
 40
0.0
 40
0.0
 40
0.0
 40
0.0
 40
1.010743684496582
 40
2.022833576467832
 40
3.037578957496688
 40
4.056212745003489
 40
5.079857003664532
 40
6.109500240690281
 40
7.145961322679372
 40
8.189895241603872
 40
9.241717795325891
 40
10.30168407291828
 40
11.36983447792315
 40
12.44600489715814
 40
13.52984294512926
 40
14.62081576220742
 40
15.7182257034828
 40
16.82123173843959
 40
17.92886860250316
 40
19.0400688939571
 40
20.15368796660465
 40
21.26852814259644
 40
22.38336992938901
 40
23.49698739941135
 40
24.6081876908653
 40
25.71582455492886
 40
26.81883757994213
 40
27.91624752121713
 40
29.00722033829659
 40
30.09105838626677
 40
31.16722880550176
 40
32.23537921050758
 40
33.29534548809967
 40
34.347168041821
 40
35.39108718934584
 40
36.42754827133493
 40
37.45720575381954
 40
38.48085062012849
 40
39.49948440763516
 40
40.51422944315121
 40
41.52631975251916
 40
42.53706336719636
 40
43.54780698187354
 40
44.55989729124051
 40
45.57464232675757
 40
46.59327611426424
 40
47.6169209805722
 40
48.64656348684535
 40
49.68302456883444
 40
50.58557219878025
 40
50.58557219878025
 40
50.58557219878025
 40
50.58557219878025
 10
-4.113971477865143
 20
-3.599999240940206
 30
0.0
 10
-4.324554732992672
 20
-3.597857328155534
 30
0.0
 10
-4.746001718660488
 20
-3.593570649776882
 30
0.0
 10
-5.37801882457099
 20
-3.559015209644468
 30
0.0
 10
-6.010008952054231
 20
-3.504081086721988
 30
0.0
 10
-6.641959965553276
 20
-3.427088824144123
 30
0.0
 10
-7.273865559191809
 20
-3.32908181468291
 30
0.0
 10
-7.90571326688531
 20
-3.210495879890941
 30
0.0
 10
-8.537505202136344
 20
-3.07212985689258
 30
0.0
 10
-9.16923576222727
 20
-2.914831033009614
 30
0.0
 10
-9.800900643921648
 20
-2.739565213478306
 30
0.0
 10
-10.4325029957197
 20
-2.5474325237304
 30
0.0
 10
-11.06404450917849
 20
-2.339608828998903
 30
0.0
 10
-11.69553307490336
 20
-2.117387884574336
 30
0.0
 10
-12.32697158408419
 20
-1.882135285772436
 30
0.0
 10
-12.95836589188476
 20
-1.635301858636943
 30
0.0
 10
-13.58972300055339
 20
-1.378410368295759
 30
0.0
 10
-14.22104845121716
 20
-1.113040575870188
 30
0.0
 10
-14.85234837096148
 20
-0.8408246088150447
 30
0.0
 10
-15.48362951496378
 20
-0.5634379240666804
 30
0.0
 10
-16.11489742016061
 20
-0.2825857809669899
 30
0.0
 10
-16.74616100103261
 20
0.0000000245292498
 30
0.0
 10
-17.37742174805932
 20
0.282590916746098
 30
0.0
 10
-18.00869176912858
 20
0.56343868623505
 30
0.0
 10
-18.63997213380583
 20
0.840826210617117
 30
0.0
 10
-19.27127317915093
 20
1.113043214693762
 30
0.0
 10
-19.90260124885551
 20
1.378410742406927
 30
0.0
 10
-20.53395935397247
 20
1.6353035355454
 30
0.0
 10
-21.16535375292537
 20
1.882136762524432
 30
0.0
 10
-21.79679223913016
 20
2.11738941079907
 30
0.0
 10
-22.42828080647202
 20
2.339610355548702
 30
0.0
 10
-23.05982233601668
 20
2.54743400058642
 30
0.0
 10
-23.69142462262648
 20
2.739566886519475
 30
0.0
 10
-24.32308678965724
 20
2.914831158455843
 30
0.0
 10
-24.95481344322431
 20
3.072132042560953
 30
0.0
 10
-25.58660514411332
 20
3.210500847925967
 30
0.0
 10
-26.21845736341122
 20
3.329073238558035
 30
0.0
 10
-26.85036504468726
 20
3.42711058326051
 30
0.0
 10
-27.48231624552486
 20
3.504011581448681
 30
0.0
 10
-28.11430681213405
 20
3.559279299288092
 30
0.0
 10
-28.74632338216936
 20
3.592582184724196
 30
0.0
 10
-29.37835384038552
 20
3.603707576787523
 30
0.0
 10
-30.01038429767172
 20
3.592582184706773
 30
0.0
 10
-30.64240087050228
 20
3.559279299358105
 30
0.0
 10
-31.27439142682016
 20
3.504011581185008
 30
0.0
 10
-31.90634266624238
 20
3.427110584251587
 30
0.0
 10
-32.53824712179385
 20
3.329073712779516
 30
0.0
 10
-33.1700968518345
 20
3.210502060264681
 30
0.0
 10
-33.77316235518092
 20
3.078413110306391
 30
0.0
 10
-34.16443812165725
 20
2.981815212476081
 30
0.0
 10
-34.3459672721012
 20
2.934738344534134
 30
0.0
  0
SPLINE
  5
26F2
330
1F
100
AcDbEntity
  8
AM_0
100
AcDbSpline
210
0.0
220
0.0
230
1.0
 70
     8
 71
     3
 72
    46
 73
    42
 74
     0
 42
0.0000000001
 43
0.0000000001
 40
0.0
 40
0.0
 40
0.0
 40
0.0
 40
1.348332046947657
 40
2.024828967632895
 40
2.703918159304097
 40
3.386347665078124
 40
4.072776489761952
 40
4.763750544421347
 40
5.459696642770596
 40
6.160921452191754
 40
6.867565637253344
 40
7.579665907256596
 40
8.297112853413899
 40
9.019671552060676
 40
9.746986763446127
 40
10.47859339096366
 40
11.21393074760089
 40
11.95235532364328
 40
12.69315551794651
 40
13.43556823304427
 40
14.1787950170388
 40
14.92202180103393
 40
15.66443451613169
 40
16.40523471043432
 40
17.14365928647669
 40
17.87899664311455
 40
18.61060327063121
 40
19.3379184820169
 40
20.06048192311554
 40
20.77792886927283
 40
21.49002913927608
 40
22.19667332433747
 40
22.89788836015233
 40
23.59383445850158
 40
24.28480851316097
 40
24.97123685067576
 40
25.65366676154838
 40
26.33276604526152
 40
27.00926273560555
 40
27.68398960851751
 40
28.357818684969
 40
28.357818684969
 40
28.357818684969
 40
28.357818684969
 10
-2.344753033040764
 20
-3.59999924094024
 30
0.0
 10
-2.766220609936655
 20
-3.59179816265694
 30
0.0
 10
-3.399150577409254
 20
-3.579482367811419
 30
0.0
 10
-4.240785156117567
 20
-3.503656281479473
 30
0.0
 10
-4.872742959274572
 20
-3.42720341582377
 30
0.0
 10
-5.504646745083441
 20
-3.329050923055412
 30
0.0
 10
-6.136494848893228
 20
-3.210503972422444
 30
0.0
 10
-6.768284024776308
 20
-3.072129319341492
 30
0.0
 10
-7.400013214580748
 20
-2.914828386837667
 30
0.0
 10
-8.031679606888509
 20
-2.739567025922076
 30
0.0
 10
-8.663284464249221
 20
-2.547432272549652
 30
0.0
 10
-9.29482608783787
 20
-2.33960889707382
 30
0.0
 10
-9.926314623708508
 20
-2.117387866115052
 30
0.0
 10
-10.55775314102167
 20
-1.882135290845747
 30
0.0
 10
-11.18914744644343
 20
-1.63530185697463
 30
0.0
 10
-11.82050455642568
 20
-1.378410369837755
 30
0.0
 10
-12.4518300042141
 20
-1.113040571346642
 30
0.0
 10
-13.08312993419817
 20
-0.8408246254527746
 30
0.0
 10
-13.71441103995682
 20
-0.5634378617956106
 30
0.0
 10
-14.34567908828418
 20
-0.282586013985848
 30
0.0
 10
-14.97694183006086
 20
0.000000759002812
 30
0.0
 10
-15.60820457169886
 20
0.2825875323348722
 30
0.0
 10
-16.2394726204422
 20
0.5634393791149382
 30
0.0
 10
-16.87075372468039
 20
0.8408261465351859
 30
0.0
 10
-17.50205366030234
 20
1.113042078473138
 30
0.0
 10
-18.13337908718606
 20
1.378411928711384
 30
0.0
 10
-18.76473627458554
 20
1.635303224210404
 30
0.0
 10
-19.39613166626644
 20
1.882137903557091
 30
0.0
 10
-20.02757263704505
 20
2.117388341437498
 30
0.0
 10
-20.65906229939446
 20
2.339610511869609
 30
0.0
 10
-21.29060390827902
 20
2.547433949183955
 30
0.0
 10
-21.92220617107874
 20
2.739566937002191
 30
0.0
 10
-22.55386835472322
 20
2.914831009062572
 30
0.0
 10
-23.18559496585148
 20
3.072132584157921
 30
0.0
 10
-23.81738377608817
 20
3.210498184042613
 30
0.0
 10
-24.44923234313031
 20
3.329079517962737
 30
0.0
 10
-25.08114016179789
 20
3.427091847712845
 30
0.0
 10
-25.71309470863655
 20
3.504082927300239
 30
0.0
 10
-26.3450883541955
 20
3.559012008534323
 30
0.0
 10
-26.97710494065366
 20
3.593576773486571
 30
0.0
 10
-27.39855210281906
 20
3.597860381134664
 30
0.0
 10
-27.60913539540626
 20
3.600000759060219
 30
0.0
  0
SPLINE
  5
26F3
330
1F
100
AcDbEntity
  8
AM_0
 48
0.5
100
AcDbSpline
210
0.0
220
0.0
230
1.0
 70
     8
 71
     3
 72
    16
 73
    12
 74
     0
 42
0.0000000001
 43
0.0000000001
 40
0.0
 40
0.0
 40
0.0
 40
0.0
 40
1.010743614677189
 40
2.022833924044153
 40
3.037578959561199
 40
4.056212747067873
 40
5.079857613375832
 40
6.109500119648989
 40
7.14596120163808
 40
8.18989512056258
 40
8.545190612624931
 40
8.545190612624931
 40
8.545190612624931
 40
8.545190612624931
 10
-4.113971477865004
 20
3.600000759059792
 30
0.0
 10
-4.324543064256066
 20
3.599979126122443
 30
0.0
 10
-4.746007377002233
 20
3.592592241134258
 30
0.0
 10
-5.378017040498194
 20
3.559276583598359
 30
0.0
 10
-6.010009477237351
 20
3.504012358150924
 30
0.0
 10
-6.641960126843167
 20
3.427110203765489
 30
0.0
 10
-7.273865054254437
 20
3.329074458255485
 30
0.0
 10
-7.905713479462184
 20
3.210499438101675
 30
0.0
 10
-8.537505636593511
 20
3.072132019848499
 30
0.0
 10
-9.028753321398442
 20
2.94980835508266
 30
0.0
 10
-9.309540454009628
 20
2.874576272529995
 30
0.0
 10
-9.380746502673602
 20
2.855162087592634
 30
0.0
  0
SPLINE
  5
26F4
330
1F
100
AcDbEntity
  8
AM_0
100
AcDbSpline
210
0.0
220
0.0
230
1.0
 70
     8
 71
     3
 72
    55
 73
    51
 74
     0
 42
0.0000000001
 43
0.0000000001
 40
0.0
 40
0.0
 40
0.0
 40
0.0
 40
1.010743684496582
 40
2.022833576467832
 40
3.037578957496688
 40
4.056212745003489
 40
5.079857003664532
 40
6.109500240690281
 40
7.145961322679372
 40
8.189895241603872
 40
9.241717795325891
 40
10.30168407291828
 40
11.36983447792315
 40
12.44600489715814
 40
13.52984294512926
 40
14.62081576220742
 40
15.7182257034828
 40
16.82123173843959
 40
17.92886860250316
 40
19.0400688939571
 40
20.15368796660465
 40
21.26852814259644
 40
22.38336992938901
 40
23.49698739941135
 40
24.6081876908653
 40
25.71582455492886
 40
26.81883757994213
 40
27.91624752121713
 40
29.00722033829659
 40
30.09105838626677
 40
31.16722880550176
 40
32.23537921050758
 40
33.29534548809967
 40
34.347168041821
 40
35.39108718934584
 40
36.42754827133493
 40
37.45720575381954
 40
38.48085062012849
 40
39.49948440763516
 40
40.51422944315121
 40
41.52631975251916
 40
42.53706336719636
 40
43.54780698187354
 40
44.55989729124051
 40
45.57464232675757
 40
46.59327611426424
 40
47.6169209805722
 40
48.64656348684535
 40
49.68302456883444
 40
50.58557219878025
 40
50.58557219878025
 40
50.58557219878025
 40
50.58557219878025
 10
-26.61365581253421
 20
-3.599999240939873
 30
0.0
 10
-26.82423906766174
 20
-3.597857328155201
 30
0.0
 10
-27.24568605332956
 20
-3.593570649776548
 30
0.0
 10
-27.87770315924006
 20
-3.559015209644134
 30
0.0
 10
-28.5096932867233
 20
-3.504081086721655
 30
0.0
 10
-29.14164430022235
 20
-3.42708882414379
 30
0.0
 10
-29.77354989386088
 20
-3.329081814682577
 30
0.0
 10
-30.40539760155437
 20
-3.210495879890608
 30
0.0
 10
-31.03718953680539
 20
-3.072129856892248
 30
0.0
 10
-31.66892009689632
 20
-2.91483103300928
 30
0.0
 10
-32.30058497859071
 20
-2.739565213477972
 30
0.0
 10
-32.93218733038877
 20
-2.547432523730066
 30
0.0
 10
-33.56372884384757
 20
-2.33960882899857
 30
0.0
 10
-34.19521740957243
 20
-2.117387884574003
 30
0.0
 10
-34.82665591875327
 20
-1.882135285772103
 30
0.0
 10
-35.45805022655385
 20
-1.63530185863661
 30
0.0
 10
-36.08940733522249
 20
-1.378410368295426
 30
0.0
 10
-36.7207327858862
 20
-1.113040575869856
 30
0.0
 10
-37.35203270563054
 20
-0.8408246088147116
 30
0.0
 10
-37.98331384963285
 20
-0.5634379240663474
 30
0.0
 10
-38.61458175482968
 20
-0.2825857809666569
 30
0.0
 10
-39.24584533570168
 20
0.0000000245295829
 30
0.0
 10
-39.87710608272839
 20
0.2825909167464311
 30
0.0
 10
-40.50837610379764
 20
0.5634386862353832
 30
0.0
 10
-41.13965646847492
 20
0.84082621061745
 30
0.0
 10
-41.77095751382003
 20
1.113043214694095
 30
0.0
 10
-42.40228558352455
 20
1.378410742407259
 30
0.0
 10
-43.0336436886415
 20
1.635303535545732
 30
0.0
 10
-43.66503808759442
 20
1.882136762524765
 30
0.0
 10
-44.29647657379923
 20
2.117389410799404
 30
0.0
 10
-44.9279651411411
 20
2.339610355549035
 30
0.0
 10
-45.55950667068575
 20
2.547434000586753
 30
0.0
 10
-46.19110895729554
 20
2.739566886519809
 30
0.0
 10
-46.82277112432631
 20
2.914831158456177
 30
0.0
 10
-47.45449777789338
 20
3.072132042561287
 30
0.0
 10
-48.0862894787824
 20
3.210500847926301
 30
0.0
 10
-48.71814169808031
 20
3.329073238558368
 30
0.0
 10
-49.35004937935636
 20
3.427110583260843
 30
0.0
 10
-49.98200058019396
 20
3.504011581449014
 30
0.0
 10
-50.61399114680315
 20
3.559279299288425
 30
0.0
 10
-51.24600771683845
 20
3.592582184724528
 30
0.0
 10
-51.8780381750546
 20
3.603707576787856
 30
0.0
 10
-52.51006863234081
 20
3.592582184707105
 30
0.0
 10
-53.14208520517137
 20
3.559279299358439
 30
0.0
 10
-53.77407576148925
 20
3.504011581185341
 30
0.0
 10
-54.40602700091147
 20
3.427110584251921
 30
0.0
 10
-55.03793145646291
 20
3.329073712779849
 30
0.0
 10
-55.66978118650356
 20
3.210502060265013
 30
0.0
 10
-56.27284668984998
 20
3.078413110306724
 30
0.0
 10
-56.66412245632631
 20
2.981815212476415
 30
0.0
 10
-56.84565160677027
 20
2.934738344534467
 30
0.0
  0
SPLINE
  5
26F5
330
1F
100
AcDbEntity
  8
AM_0
100
AcDbSpline
210
0.0
220
0.0
230
1.0
 70
     8
 71
     3
 72
    46
 73
    42
 74
     0
 42
0.0000000001
 43
0.0000000001
 40
0.0
 40
0.0
 40
0.0
 40
0.0
 40
1.348332046947654
 40
2.024828967632893
 40
2.703918159304094
 40
3.386347665078122
 40
4.072776489761951
 40
4.763750544421345
 40
5.459696642770595
 40
6.160921452191748
 40
6.867565637253344
 40
7.579665907256597
 40
8.297112853413899
 40
9.019671552060666
 40
9.746986763446125
 40
10.47859339096365
 40
11.21393074760088
 40
11.95235532364327
 40
12.69315551794651
 40
13.43556823304427
 40
14.1787950170388
 40
14.92202180103393
 40
15.66443451613169
 40
16.40523471043432
 40
17.14365928647669
 40
17.87899664311455
 40
18.61060327063121
 40
19.33791848201689
 40
20.06048192311554
 40
20.77792886927282
 40
21.49002913927608
 40
22.19667332433747
 40
22.89788836015233
 40
23.59383445850157
 40
24.28480851316097
 40
24.97123685067575
 40
25.65366676154837
 40
26.33276604526151
 40
27.00926273560554
 40
27.68398960851752
 40
28.35781868496899
 40
28.35781868496899
 40
28.35781868496899
 40
28.35781868496899
 10
-24.84443736770983
 20
-3.599999240939907
 30
0.0
 10
-25.26590494460573
 20
-3.591798162656607
 30
0.0
 10
-25.89883491207833
 20
-3.579482367811085
 30
0.0
 10
-26.74046949078663
 20
-3.503656281479139
 30
0.0
 10
-27.37242729394365
 20
-3.427203415823439
 30
0.0
 10
-28.0043310797525
 20
-3.329050923055076
 30
0.0
 10
-28.63617918356229
 20
-3.210503972422111
 30
0.0
 10
-29.26796835944537
 20
-3.072129319341159
 30
0.0
 10
-29.89969754924979
 20
-2.914828386837334
 30
0.0
 10
-30.53136394155757
 20
-2.73956702592174
 30
0.0
 10
-31.16296879891829
 20
-2.547432272549321
 30
0.0
 10
-31.79451042250693
 20
-2.339608897073486
 30
0.0
 10
-32.42599895837759
 20
-2.117387866114722
 30
0.0
 10
-33.05743747569074
 20
-1.882135290845409
 30
0.0
 10
-33.68883178111252
 20
-1.635301856974303
 30
0.0
 10
-34.32018889109478
 20
-1.378410369837417
 30
0.0
 10
-34.95151433888314
 20
-1.113040571346314
 30
0.0
 10
-35.58281426886721
 20
-0.8408246254524375
 30
0.0
 10
-36.21409537462587
 20
-0.5634378617952797
 30
0.0
 10
-36.84536342295325
 20
-0.2825860139855148
 30
0.0
 10
-37.47662616472993
 20
0.000000759003146
 30
0.0
 10
-38.10788890636794
 20
0.2825875323352045
 30
0.0
 10
-38.73915695511128
 20
0.5634393791152713
 30
0.0
 10
-39.37043805934949
 20
0.8408261465355193
 30
0.0
 10
-40.00173799497144
 20
1.11304207847347
 30
0.0
 10
-40.63306342185511
 20
1.378411928711718
 30
0.0
 10
-41.26442060925458
 20
1.635303224210737
 30
0.0
 10
-41.89581600093549
 20
1.882137903557423
 30
0.0
 10
-42.52725697171412
 20
2.11738834143783
 30
0.0
 10
-43.15874663406353
 20
2.339610511869942
 30
0.0
 10
-43.79028824294809
 20
2.547433949184289
 30
0.0
 10
-44.42189050574781
 20
2.739566937002523
 30
0.0
 10
-45.0535526893923
 20
2.914831009062906
 30
0.0
 10
-45.68527930052057
 20
3.072132584158254
 30
0.0
 10
-46.31706811075725
 20
3.210498184042945
 30
0.0
 10
-46.9489166777994
 20
3.32907951796307
 30
0.0
 10
-47.58082449646698
 20
3.427091847713178
 30
0.0
 10
-48.21277904330565
 20
3.504082927300574
 30
0.0
 10
-48.8447726888646
 20
3.559012008534656
 30
0.0
 10
-49.47678927532276
 20
3.593576773486902
 30
0.0
 10
-49.89823643748815
 20
3.597860381134996
 30
0.0
 10
-50.10881973007535
 20
3.600000759060551
 30
0.0
  0
SPLINE
  5
26F6
330
1F
100
AcDbEntity
  8
AM_0
100
AcDbSpline
210
0.0
220
0.0
230
1.0
 70
     8
 71
     3
 72
    22
 73
    18
 74
     0
 42
0.0000000001
 43
0.0000000001
 40
17.17441611292
 40
17.17441611292
 40
17.17441611292
 40
17.17441611292
 40
17.38177636558528
 40
18.41823744757437
 40
19.46215659509824
 40
20.51397914882054
 40
21.57394542641293
 40
22.64209583141747
 40
23.71826625065247
 40
24.80210429862395
 40
25.8930771157021
 40
26.99048705697709
 40
28.09349309193389
 40
29.20112995599786
 40
30.31233024745139
 40
31.42594771747373
 40
32.5407895042663
 40
32.54078950426994
 40
32.54078950426994
 40
32.54078950426994
 10
-40.93149989453935
 20
-3.232825296476224
 30
0.0
 10
-40.97382066005347
 20
-3.224491649570597
 30
0.0
 10
-41.22751053659443
 20
-3.17373049537835
 30
0.0
 10
-41.69225609504983
 20
-3.071947774511582
 30
0.0
 10
-42.32398265828364
 20
-2.914646438479789
 30
0.0
 10
-42.95564484990673
 20
-2.739382289254282
 30
0.0
 10
-43.58724712941875
 20
-2.547249369111815
 30
0.0
 10
-44.21878866251703
 20
-2.33942573692495
 30
0.0
 10
-44.8502772227455
 20
-2.117204775190967
 30
0.0
 10
-45.48171573407372
 20
-1.881952182440928
 30
0.0
 10
-46.11311003880943
 20
-1.635118748523975
 30
0.0
 10
-46.74446715765699
 20
-1.378227279380469
 30
0.0
 10
-47.37579257041522
 20
-1.112857408422765
 30
0.0
 10
-48.00709263239519
 20
-0.8406417359391138
 30
0.0
 10
-48.63837293952245
 20
-0.563254080184869
 30
0.0
 10
-49.26964284366574
 20
-0.2824060729262794
 30
0.0
 10
-49.69040683927964
 20
-0.0940472718414633
 30
0.0
 10
-49.90090442398551
 20
0.0001838645297584
 30
0.0
  0
SPLINE
  5
26F7
330
1F
100
AcDbEntity
  8
AM_0
100
AcDbSpline
210
0.0
220
0.0
230
1.0
 70
     8
 71
     3
 72
    17
 73
    13
 74
     0
 42
0.0000000001
 43
0.0000000001
 40
1.580019955310467
 40
1.580019955310467
 40
1.580019955310467
 40
1.580019955310467
 40
2.030549285115227
 40
3.082371838836284
 40
4.126290986361125
 40
5.162752068350215
 40
6.192395305374981
 40
7.216039564037012
 40
8.234688489606833
 40
9.249433870634691
 40
10.26152376260694
 40
11.27226744710342
 40
11.27226744710342
 40
11.27226744710342
 40
11.27226744710352
 10
-32.56597877892022
 20
-2.656905248665062
 30
0.0
 10
-32.65539865008209
 20
-2.684269173352124
 30
0.0
 10
-32.95409106145902
 20
-2.773958091488561
 30
0.0
 10
-33.46403308029762
 20
-2.914638368710738
 30
0.0
 10
-34.09567170863921
 20
-3.072181616684217
 30
0.0
 10
-34.72748422650381
 20
-3.210483671128699
 30
0.0
 10
-35.35932569379743
 20
-3.329080082661539
 30
0.0
 10
-35.99123599908649
 20
-3.42710817525788
 30
0.0
 10
-36.62318996124528
 20
-3.504008545817688
 30
0.0
 10
-37.2551832739165
 20
-3.559282854208557
 30
0.0
 10
-37.88720036642156
 20
-3.592575293288264
 30
0.0
 10
-38.30864735876858
 20
-3.599999261539052
 30
0.0
 10
-38.51923061111789
 20
-3.599999240939659
 30
0.0
  0
SPLINE
  5
26F8
330
1F
100
AcDbEntity
  8
AM_0
100
AcDbSpline
210
0.0
220
0.0
230
1.0
 70
     8
 71
     3
 72
    11
 73
     7
 74
     0
 42
0.0000000001
 43
0.0000000001
 40
11.27226913003534
 40
11.27226913003534
 40
11.27226913003534
 40
11.2722691300354
 40
12.28301561507924
 40
13.29510212255852
 40
14.30984805882082
 40
15.18258238371378
 40
15.18258238371378
 40
15.18258238371378
 40
15.18258238371378
 10
-38.51923061111792
 20
-3.599999240939659
 30
0.0
 10
-38.72901312226936
 20
-3.582379794786486
 30
0.0
 10
-39.14818245486466
 20
-3.539723882479266
 30
0.0
 10
-39.7747719414685
 20
-3.453676356440709
 30
0.0
 10
-40.36941641274867
 20
-3.350902021330924
 30
0.0
 10
-40.75399755184249
 20
-3.271896331171605
 30
0.0
 10
-40.93122349167484
 20
-3.232869702448696
 30
0.0
  0
SPLINE
  5
26F9
330
1F
100
AcDbEntity
  8
AM_0
100
AcDbSpline
210
0.0
220
0.0
230
1.0
 70
     8
 71
     3
 72
    23
 73
    19
 74
     0
 42
0.0000000001
 43
0.0000000001
 40
16.03460024169435
 40
16.03460024169435
 40
16.03460024169435
 40
16.03460024169435
 40
16.35212704903564
 40
17.38177054169784
 40
18.41822485651776
 40
19.46214173629503
 40
20.51396345435107
 40
21.57393551351153
 40
22.64208202342361
 40
23.7182574881101
 40
24.80209208578934
 40
25.89306333925047
 40
26.99048218457928
 40
28.09348763352352
 40
29.20111863782268
 40
30.31232390128032
 40
31.42594612798585
 40
32.5407912310448
 40
32.5407912310486
 40
32.5407912310486
 40
32.5407912310486
 10
-36.97602021297582
 20
3.600512204393614
 30
0.0
 10
-36.91108822252825
 20
3.588359238352228
 30
0.0
 10
-36.63587791486755
 20
3.535436491769178
 30
0.0
 10
-36.15109199411131
 20
3.431742446869052
 30
0.0
 10
-35.52329295763638
 20
3.277550536089594
 30
0.0
 10
-34.89607705043618
 20
3.104418721473755
 30
0.0
 10
-34.26940720982255
 20
2.913349001658102
 30
0.0
 10
-33.64326119417231
 20
2.705406594608088
 30
0.0
 10
-33.01760281374641
 20
2.481780186814462
 30
0.0
 10
-32.39238850007325
 20
2.243771227877082
 30
0.0
 10
-31.76758272623001
 20
1.992727548653604
 30
0.0
 10
-31.14313539927219
 20
1.730109913818941
 30
0.0
 10
-30.5189959147269
 20
1.457444770530267
 30
0.0
 10
-29.89512268796044
 20
1.17629982905294
 30
0.0
 10
-29.27146352025762
 20
0.8883099087204165
 30
0.0
 10
-28.64796064757136
 20
0.5951566593815906
 30
0.0
 10
-28.02456329916712
 20
0.2985388247332801
 30
0.0
 10
-27.60907669643785
 20
0.0996727854971556
 30
0.0
 10
-27.40122008931365
 20
0.0001838645281318
 30
0.0
  0
SPLINE
  5
26FA
330
1F
100
AcDbEntity
  8
AM_0
 48
0.5
100
AcDbSpline
210
0.0
220
0.0
230
1.0
 70
     8
 71
     3
 72
    16
 73
    12
 74
     0
 42
0.0000000001
 43
0.0000000001
 40
0.0
 40
0.0
 40
0.0
 40
0.0
 40
1.010743614677189
 40
2.022833924044153
 40
3.037578959561199
 40
4.056212747067873
 40
5.079857613375832
 40
6.109500119648989
 40
7.14596120163808
 40
8.18989512056258
 40
8.547776576703423
 40
8.547776576703423
 40
8.547776576703423
 40
8.547776576703423
 10
-4.113971477865004
 20
3.600000759059792
 30
0.0
 10
-4.32455477131617
 20
3.597860389841631
 30
0.0
 10
-4.746001935210486
 20
3.593576799619967
 30
0.0
 10
-5.378018508675614
 20
3.559011903721888
 30
0.0
 10
-6.01000906238527
 20
3.504083595150455
 30
0.0
 10
-6.641960311660912
 20
3.427091181471229
 30
0.0
 10
-7.273864730146248
 20
3.329078856538951
 30
0.0
 10
-7.905714599753457
 20
3.210501040569176
 30
0.0
 10
-8.537501439995365
 20
3.072121058178374
 30
0.0
 10
-9.029286268159323
 20
2.949709290561162
 30
0.0
 10
-9.310570218406464
 20
2.874276257347753
 30
0.0
 10
-9.382289327129841
 20
2.854705789159235
 30
0.0
  0
ELLIPSE
  5
26FB
330
1F
100
AcDbEntity
  8
AM_0
 48
0.5
100
AcDbEllipse
 10
-61.06280793725353
 20
-2.43656082541187
 30
0.0
 11
0.93398935459113
 21
0.0863001086562137
 31
0.0
210
0.0
220
0.0
230
1.0
 40
0.9634137127676037
 41
1.192267909738277
 42
3.020457264520247
  0
ELLIPSE
  5
26FC
330
1F
100
AcDbEntity
  8
AM_0
 48
0.5
100
AcDbEllipse
 10
-60.7500790554179
 20
-2.399999240939271
 30
0.0
 11
1.249999999999991
 21
0.0000000000001891
 31
0.0
210
0.0
220
0.0
230
1.0
 40
0.9600000000000029
 41
3.152839430981475
 42
4.71238866646802
  0
LINE
  5
26FD
330
1F
100
AcDbEntity
  8
AM_11
 48
0.5
100
AcDbLine
 10
-60.63464327116165
 20
-3.599999240939254
 30
0.0
 11
-51.87812019002326
 21
-3.599999240939415
 31
0.0
  0
SPLINE
  5
26FE
330
1F
100
AcDbEntity
  8
AM_0
 48
0.5
100
AcDbSpline
210
0.0
220
0.0
230
1.0
 70
     8
 71
     3
 72
    22
 73
    18
 74
     0
 42
0.0000000001
 43
0.0000000001
 40
0.0
 40
0.0
 40
0.0
 40
0.0
 40
1.010743684496582
 40
2.022833993863546
 40
3.037578683882831
 40
4.056212471389632
 40
5.079857945358201
 40
6.109499720892564
 40
7.145961650132166
 40
8.189873411961459
 40
9.241710626092514
 40
10.30166235592959
 40
11.36982472628033
 40
12.44598212828784
 40
13.52983440361964
 40
14.62080578343036
 40
14.90544694398022
 40
14.90544694398022
 40
14.90544694398022
 40
14.90544694398022
 10
-51.78821553765668
 20
-3.599999240939416
 30
0.0
 10
-51.99879883302306
 20
-3.597857968055532
 30
0.0
 10
-52.42024598618447
 20
-3.593572569446498
 30
0.0
 10
-53.05226242985973
 20
-3.559007503498486
 30
0.0
 10
-53.68425324122314
 20
-3.504082628931183
 30
0.0
 10
-54.31620459075265
 20
-3.427090295377587
 30
0.0
 10
-54.94810846329059
 20
-3.329074142288789
 30
0.0
 10
-55.57995826662661
 20
-3.210498175657432
 30
0.0
 10
-56.21174474191854
 20
-3.072128856250498
 30
0.0
 10
-56.84347223355061
 20
-2.914824570909461
 30
0.0
 10
-57.47513505188703
 20
-2.739567501294281
 30
0.0
 10
-58.10673649793564
 20
-2.547424281672196
 30
0.0
 10
-58.73828064320506
 20
-2.339617607198613
 30
0.0
 10
-59.36976701333156
 20
-2.117382879756149
 30
0.0
 10
-60.00120743846836
 20
-1.882135835176136
 30
0.0
 10
-60.47577904581111
 20
-1.696618087735966
 30
0.0
 10
-60.74022690624933
 20
-1.590582106606737
 30
0.0
 10
-60.79490593022716
 20
-1.568548773558963
 30
0.0
  0
SPLINE
  5
26FF
330
1F
100
AcDbEntity
  8
AM_0
100
AcDbSpline
210
0.0
220
0.0
230
1.0
 70
     8
 71
     3
 72
    13
 73
     9
 74
     0
 42
0.0000000001
 43
0.0000000001
 40
16.03460056234195
 40
16.03460056234195
 40
16.03460056234195
 40
16.03460056234195
 40
16.35212717791071
 40
17.38177067057215
 40
18.41822498539278
 40
19.46214186516937
 40
20.5139635832251
 40
21.34083983469381
 40
21.34083983469381
 40
21.34083983469381
 40
21.34083983469381
 10
-60.63639217811179
 20
-3.600326645073208
 30
0.0
 10
-60.571460161351
 20
-3.588174036947755
 30
0.0
 10
-60.29624962595942
 20
-3.535252742394242
 30
0.0
 10
-59.81146396946747
 20
-3.431557486841809
 30
0.0
 10
-59.18366485398686
 20
-3.277366003599601
 30
0.0
 10
-58.55644896818298
 20
-3.104234073199454
 30
0.0
 10
-57.97606793905635
 20
-2.927277701280509
 30
0.0
 10
-57.60579506292811
 20
-2.80543064588294
 30
0.0
 10
-57.44335857137166
 20
-2.750354666572666
 30
0.0
  0
SPLINE
  5
2700
330
1F
100
AcDbEntity
  8
AM_0
 48
0.5
100
AcDbSpline
210
0.0
220
0.0
230
1.0
 70
     8
 71
     3
 72
    26
 73
    22
 74
     0
 42
0.0000000001
 43
0.0000000001
 40
0.0
 40
0.0
 40
0.0
 40
0.0
 40
0.6738291229976858
 40
1.34855571764586
 40
2.025052638331105
 40
2.7041418300023
 40
3.386571335776987
 40
4.073000160460178
 40
4.763974215119558
 40
5.459920313469455
 40
6.161135349283505
 40
6.867779534345081
 40
7.579884616450838
 40
8.297322010138517
 40
9.01989019369366
 40
9.747205405079087
 40
10.47881203259601
 40
11.21414938923388
 40
11.95257396527625
 40
12.69337415957888
 40
13.41285713964268
 40
13.41285713964268
 40
13.41285713964268
 40
13.41285713964268
 10
-50.10890651357077
 20
-3.599999240939449
 30
0.0
 10
-50.31948976872361
 20
-3.597857328248114
 30
0.0
 10
-50.74093675444232
 20
-3.593570650056247
 30
0.0
 10
-51.37295385997187
 20
-3.559015208520261
 30
0.0
 10
-52.00494398890876
 20
-3.504081090953424
 30
0.0
 10
-52.6368949969436
 20
-3.42708880824402
 30
0.0
 10
-53.26880061112981
 20
-3.329081874485545
 30
0.0
 10
-53.90064824145632
 20
-3.210495654654434
 30
0.0
 10
-54.53243746758294
 20
-3.072131363263614
 30
0.0
 10
-55.1641639807211
 20
-2.914829355333166
 30
0.0
 10
-55.79582628740819
 20
-2.739565663540064
 30
0.0
 10
-56.42742958624857
 20
-2.547431143679898
 30
0.0
 10
-57.05897126008442
 20
-2.33961216448132
 30
0.0
 10
-57.69045846446079
 20
-2.117383539096357
 30
0.0
 10
-58.32189964279682
 20
-1.882137726486171
 30
0.0
 10
-58.95329615939966
 20
-1.635301788373706
 30
0.0
 10
-59.58465272099846
 20
-1.378409259940717
 30
0.0
 10
-60.21598092171375
 20
-1.113045112624202
 30
0.0
 10
-60.84727032814612
 20
-0.8408074785167144
 30
0.0
 10
-61.47207502082217
 20
-0.5663642552292283
 30
0.0
 10
-61.74264870940075
 20
-0.3819913727186686
 30
0.0
 10
-61.99999999999999
 20
-0.2680017621544998
 30
0.0
  0
LINE
  5
2701
330
1F
100
AcDbEntity
  8
AM_0
 48
0.5
100
AcDbLine
 10
-53.86702228200312
 20
1.824053951199019
 30
0.0
 11
-61.99999999999999
 21
-0.2680017621544998
 31
0.0
  0
SPLINE
  5
2702
330
1F
100
AcDbEntity
  8
AM_0
100
AcDbSpline
210
0.0
220
0.0
230
1.0
 70
     8
 71
     3
 72
    23
 73
    19
 74
     0
 42
0.0000000001
 43
0.0000000001
 40
16.03460024169435
 40
16.03460024169435
 40
16.03460024169435
 40
16.03460024169435
 40
16.35212704903564
 40
17.38177054169784
 40
18.41822485651776
 40
19.46214173629503
 40
20.51396345435107
 40
21.57393551351153
 40
22.64208202342361
 40
23.7182574881101
 40
24.80209208578934
 40
25.89306333925047
 40
26.99048218457928
 40
28.09348763352352
 40
29.20111863782268
 40
30.31232390128032
 40
31.42594612798585
 40
32.5407912310448
 40
32.5407912310486
 40
32.5407912310486
 40
32.5407912310486
 10
-59.47579133114019
 20
3.600512204393943
 30
0.0
 10
-59.41085934069262
 20
3.588359238352558
 30
0.0
 10
-59.13564903303193
 20
3.535436491769509
 30
0.0
 10
-58.65086311227569
 20
3.431742446869382
 30
0.0
 10
-58.02306407580076
 20
3.277550536089925
 30
0.0
 10
-57.39584816860055
 20
3.104418721474085
 30
0.0
 10
-56.76917832798692
 20
2.913349001658432
 30
0.0
 10
-56.14303231233669
 20
2.705406594608419
 30
0.0
 10
-55.51737393191078
 20
2.481780186814794
 30
0.0
 10
-54.89215961823763
 20
2.243771227877413
 30
0.0
 10
-54.26735384439438
 20
1.992727548653935
 30
0.0
 10
-53.64290651743655
 20
1.730109913819271
 30
0.0
 10
-53.01876703289125
 20
1.457444770530598
 30
0.0
 10
-52.39489380612484
 20
1.17629982905327
 30
0.0
 10
-51.77123463842203
 20
0.8883099087207474
 30
0.0
 10
-51.14773176573573
 20
0.5951566593819216
 30
0.0
 10
-50.5243344173315
 20
0.2985388247336109
 30
0.0
 10
-50.10884781460223
 20
0.0996727854974865
 30
0.0
 10
-49.90099120747802
 20
0.0001838645284627
 30
0.0
  0
LINE
  5
2703
330
1F
100
AcDbEntity
  8
AM_11
 48
0.5
100
AcDbLine
 10
-59.47305978347124
 20
3.600000759060721
 30
0.0
 11
-51.87812019002315
 21
3.600000759060585
 31
0.0
  0
VIEWPORT
  5
110
330
101
100
AcDbEntity
 67
     1
  8
0
100
AcDbViewport
 10
420.5
 20
297.0
 30
0.0
 40
948.9782706766916
 41
628.452
 68
     1
 69
     1
1001
ACAD
1000
MVIEW
1002
{
1070
    16
1010
0.0
1020
0.0
1030
0.0
1010
0.0
1020
0.0
1030
1.0
1040
0.0
1040
628.452
1040
420.5
1040
297.0
1040
50.0
1040
0.0
1040
0.0
1070
     0
1070
   100
1070
     1
1070
     1
1070
     0
1070
     0
1070
     0
1070
     0
1040
0.0
1040
0.0
1040
0.0
1040
10.0
1040
10.0
1040
10.0
1040
10.0
1070
     0
1002
{
1002
}
1002
}
  0
ENDSEC
  0
SECTION
  2
OBJECTS
  0
DICTIONARY
  5
C
330
0
100
AcDbDictionary
  3
ACAD_GROUP
350
D
  3
ACAD_LAYOUT
350
1A
  3
ACAD_MLINESTYLE
350
17
  3
ACAD_PLOTSETTINGS
350
19
  3
ACAD_PLOTSTYLENAME
350
E
  3
ACDBVARIABLEDICTIONARY
350
34
  3
ACMDICTIONARY
350
43
  3
AMG
350
2B
  3
AMGSNAPSETTINGS
350
6E
  3
DWGPROPS
350
274B
  3
ACDBHEADERROUNDTRIPXREC
350
2758
  0
DICTIONARY
  5
74
330
1F
100
AcDbDictionary
280
     1
  3
ACAD_INDEX
360
274D
  3
ACAD_LAYOUTSELFREF
360
277B
  0
DICTIONARY
  5
2780
330
101
100
AcDbDictionary
280
     1
  3
ACAD_LAYOUTSELFREF
360
2781
  0
DICTIONARY
  5
D
102
{ACAD_REACTORS
330
C
102
}
330
C
100
AcDbDictionary
  0
DICTIONARY
  5
1A
102
{ACAD_REACTORS
330
C
102
}
330
C
100
AcDbDictionary
  0
DICTIONARY
  5
17
102
{ACAD_REACTORS
330
C
102
}
330
C
100
AcDbDictionary
  3
STANDARD
350
18
  0
DICTIONARY
  5
19
102
{ACAD_REACTORS
330
C
102
}
330
C
100
AcDbDictionary
  0
ACDBDICTIONARYWDFLT
  5
E
102
{ACAD_REACTORS
330
C
102
}
330
C
100
AcDbDictionary
281
     1
  3
Normal
350
F
100
AcDbDictionaryWithDefault
340
F
  0
DICTIONARY
  5
34
102
{ACAD_REACTORS
330
C
102
}
330
C
100
AcDbDictionary
  3
INDEXCTL
350
35
  3
SORTENTS
350
B5E
  0
DICTIONARY
  5
43
102
{ACAD_REACTORS
330
C
102
}
330
C
100
AcDbDictionary
  3
ACMSTDDICTIONARY
350
260
  0
DICTIONARY
  5
2B
102
{ACAD_REACTORS
330
C
102
}
330
C
100
AcDbDictionary
  3
ACMGSETTINGS
350
2C
  0
DICTIONARY
  5
6E
102
{ACAD_REACTORS
330
C
102
}
330
C
100
AcDbDictionary
  0
XRECORD
  5
274B
102
{ACAD_REACTORS
330
C
102
}
330
C
100
AcDbXrecord
  1
DWGPROPS COOKIE
  2

  3

  4

  6

  7

  8

  9

300
AmdtFileType=82
301
=
302
=
303
=
304
=
305
=
306
=
307
=
308
=
309
=
 40
0.0372659606481482
 41
2452800.443498622
 42
2452948.553183043
  1

 90
        1
  0
DICTIONARY
  5
2758
102
{ACAD_REACTORS
330
C
102
}
330
C
100
AcDbDictionary
  3
TSTACKALIGN
350
2759
  3
TSTACKSIZE
350
275A
  3
HYPERLINKBASE
350
275B
  3
STYLESHEET
350
275C
  3
LAYOUTDICT
350
275D
  3
PLOTSETDICT
350
275E
  3
PLOTSTYLNAMDICT
350
275F
  3
LWETCUNION
350
2760
  3
INSUNITS
350
2761
  3
CEPSNTYPE
350
2762
  3
FINGERPRINTGUID
350
2763
  3
VERSIONGUID
350
2764
  3
PSVPSCALE
350
2765
  3
DIMSTYLEDATA
350
2766
  3
PUCSORTHOREF
350
2767
  3
PUCSORTHOVIEW
350
2768
  3
PUCSBASE
350
2769
  3
PUCSORGTOP
350
276A
  3
PUCSORGBOTTOM
350
276B
  3
PUCSORGLEFT
350
276C
  3
PUCSORGRIGHT
350
276D
  3
PUCSORGFRONT
350
276E
  3
PUCSORGBACK
350
276F
  3
UCSORTHOREF
350
2770
  3
UCSORTHOVIEW
350
2771
  3
UCSBASE
350
2772
  3
UCSORGTOP
350
2773
  3
UCSORGBOTTOM
350
2774
  3
UCSORGLEFT
350
2775
  3
UCSORGRIGHT
350
2776
  3
UCSORGFRONT
350
2777
  3
UCSORGBACK
350
2778
  0
DICTIONARY
  5
274D
102
{ACAD_REACTORS
330
74
102
}
330
74
100
AcDbDictionary
  3
*A1
350
274E
  0
XRECORD
  5
277B
102
{ACAD_REACTORS
330
74
102
}
330
74
100
AcDbXrecord
340
1F
  0
XRECORD
  5
2781
102
{ACAD_REACTORS
330
2780
102
}
330
2780
100
AcDbXrecord
340
101
  0
MLINESTYLE
  5
18
102
{ACAD_REACTORS
330
17
102
}
330
17
100
AcDbMlineStyle
  2
STANDARD
 70
     0
  3

 62
   256
 51
90.0
 52
90.0
 71
     2
 49
0.5
 62
   256
  6
BYLAYER
 49
-0.5
 62
   256
  6
BYLAYER
  0
ACDBPLACEHOLDER
  5
F
102
{ACAD_REACTORS
330
E
102
}
330
E
100
AcDbPlaceHolder
280
     0
  0
DICTIONARYVAR
  5
35
102
{ACAD_REACTORS
330
34
102
}
330
34
100
DictionaryVariables
280
     0
  1
1
  0
DICTIONARYVAR
  5
B5E
102
{ACAD_REACTORS
330
34
102
}
330
34
100
DictionaryVariables
280
     0
  1
96
  0
DICTIONARY
  5
260
102
{ACAD_REACTORS
330
43
102
}
330
43
100
AcDbDictionary
  0
DICTIONARY
  5
2C
102
{ACAD_REACTORS
330
2B
102
}
330
2B
100
AcDbDictionary
  3
DWGSETTINGS
350
2D
  0
XRECORD
  5
2759
102
{ACAD_REACTORS
330
2758
102
}
330
2758
100
AcDbXrecord
 90
        1
  0
XRECORD
  5
275A
102
{ACAD_REACTORS
330
2758
102
}
330
2758
100
AcDbXrecord
 90
       70
  0
XRECORD
  5
275B
102
{ACAD_REACTORS
330
2758
102
}
330
2758
100
AcDbXrecord
  1

  0
XRECORD
  5
275C
102
{ACAD_REACTORS
330
2758
102
}
330
2758
100
AcDbXrecord
  1
ASAMI.ctb
  0
XRECORD
  5
275D
102
{ACAD_REACTORS
330
2758
102
}
330
2758
100
AcDbXrecord
340
1A
  0
XRECORD
  5
275E
102
{ACAD_REACTORS
330
2758
102
}
330
2758
100
AcDbXrecord
340
19
  0
XRECORD
  5
275F
102
{ACAD_REACTORS
330
2758
102
}
330
2758
100
AcDbXrecord
340
E
  0
XRECORD
  5
2760
102
{ACAD_REACTORS
330
2758
102
}
330
2758
100
AcDbXrecord
 90
    10781
  0
XRECORD
  5
2761
102
{ACAD_REACTORS
330
2758
102
}
330
2758
100
AcDbXrecord
 90
        4
  0
XRECORD
  5
2762
102
{ACAD_REACTORS
330
2758
102
}
330
2758
100
AcDbXrecord
 90
        0
  0
XRECORD
  5
2763
102
{ACAD_REACTORS
330
2758
102
}
330
2758
100
AcDbXrecord
  1
{AFB28963-8C59-40AE-9337-C84526B81ACE}
  0
XRECORD
  5
2764
102
{ACAD_REACTORS
330
2758
102
}
330
2758
100
AcDbXrecord
  1
{FF044CA1-AFC7-425D-BCE8-713A9ECBB5F5}
  0
XRECORD
  5
2765
102
{ACAD_REACTORS
330
2758
102
}
330
2758
100
AcDbXrecord
 40
0.0
  0
XRECORD
  5
2766
102
{ACAD_REACTORS
330
2758
102
}
330
2758
100
AcDbXrecord
1000
DSTYLE
1002
{
1070
    79
 70
     2
1070
   341
340
59
1070
   342
340
59
1070
   371
 70
    -1
1070
   372
 70
    -1
1002
}
  0
XRECORD
  5
2767
102
{ACAD_REACTORS
330
2758
102
}
330
2758
100
AcDbXrecord
340
0
  0
XRECORD
  5
2768
102
{ACAD_REACTORS
330
2758
102
}
330
2758
100
AcDbXrecord
 70
     0
  0
XRECORD
  5
2769
102
{ACAD_REACTORS
330
2758
102
}
330
2758
100
AcDbXrecord
340
0
  0
XRECORD
  5
276A
102
{ACAD_REACTORS
330
2758
102
}
330
2758
100
AcDbXrecord
 10
0.0
 20
0.0
 30
0.0
  0
XRECORD
  5
276B
102
{ACAD_REACTORS
330
2758
102
}
330
2758
100
AcDbXrecord
 10
0.0
 20
0.0
 30
0.0
  0
XRECORD
  5
276C
102
{ACAD_REACTORS
330
2758
102
}
330
2758
100
AcDbXrecord
 10
0.0
 20
0.0
 30
0.0
  0
XRECORD
  5
276D
102
{ACAD_REACTORS
330
2758
102
}
330
2758
100
AcDbXrecord
 10
0.0
 20
0.0
 30
0.0
  0
XRECORD
  5
276E
102
{ACAD_REACTORS
330
2758
102
}
330
2758
100
AcDbXrecord
 10
0.0
 20
0.0
 30
0.0
  0
XRECORD
  5
276F
102
{ACAD_REACTORS
330
2758
102
}
330
2758
100
AcDbXrecord
 10
0.0
 20
0.0
 30
0.0
  0
XRECORD
  5
2770
102
{ACAD_REACTORS
330
2758
102
}
330
2758
100
AcDbXrecord
340
0
  0
XRECORD
  5
2771
102
{ACAD_REACTORS
330
2758
102
}
330
2758
100
AcDbXrecord
 70
     0
  0
XRECORD
  5
2772
102
{ACAD_REACTORS
330
2758
102
}
330
2758
100
AcDbXrecord
340
0
  0
XRECORD
  5
2773
102
{ACAD_REACTORS
330
2758
102
}
330
2758
100
AcDbXrecord
 10
0.0
 20
0.0
 30
0.0
  0
XRECORD
  5
2774
102
{ACAD_REACTORS
330
2758
102
}
330
2758
100
AcDbXrecord
 10
0.0
 20
0.0
 30
0.0
  0
XRECORD
  5
2775
102
{ACAD_REACTORS
330
2758
102
}
330
2758
100
AcDbXrecord
 10
0.0
 20
0.0
 30
0.0
  0
XRECORD
  5
2776
102
{ACAD_REACTORS
330
2758
102
}
330
2758
100
AcDbXrecord
 10
0.0
 20
0.0
 30
0.0
  0
XRECORD
  5
2777
102
{ACAD_REACTORS
330
2758
102
}
330
2758
100
AcDbXrecord
 10
0.0
 20
0.0
 30
0.0
  0
XRECORD
  5
2778
102
{ACAD_REACTORS
330
2758
102
}
330
2758
100
AcDbXrecord
 10
0.0
 20
0.0
 30
0.0
  0
LAYER_INDEX
  5
274E
102
{ACAD_REACTORS
330
274D
102
}
330
274D
100
AcDbIndex
 40
2453151.677382801
100
AcDbLayerIndex
  8
0
360
274F
 90
        0
  8
AM_0
360
2750
 90
       53
  8
AM_7
360
2751
 90
        1
  8
AM_11
360
2752
 90
       21
  8
AM_5
360
2753
 90
        5
  8
Defpoints
360
2754
 90
        0
  8
AM_6
360
2755
 90
        1
  8
AM_CL
360
2756
 90
        0
  0
XRECORD
  5
2D
102
{ACAD_REACTORS
330
2C
102
}
330
2C
100
AcDbXrecord
  1
VERSION
140
15.0
  1
PRODUCT
  2
AutoCAD Mechanical 2000
  0
IDBUFFER
  5
274F
330
0
100
AcDbIdBuffer
  0
IDBUFFER
  5
2750
330
0
100
AcDbIdBuffer
330
26FE
330
26FF
330
2700
330
2701
330
2702
330
C30
330
1CA9
330
1E12
330
1E16
330
1E1D
330
1E21
330
1E22
330
1E25
330
1E26
330
220F
330
2210
330
2211
330
252F
330
2532
330
2533
330
2534
330
2535
330
254F
330
2550
330
26CE
330
26CF
330
26D0
330
26D1
330
26D2
330
26D3
330
26D4
330
26D5
330
26E3
330
26E4
330
26E5
330
26E6
330
26EB
330
26EC
330
26EE
330
26EF
330
26F0
330
26F1
330
26F2
330
26F3
330
26F4
330
26F5
330
26F6
330
26F7
330
26F8
330
26F9
330
26FA
330
26FB
330
26FC
  0
IDBUFFER
  5
2751
330
0
100
AcDbIdBuffer
330
C9F
  0
IDBUFFER
  5
2752
330
0
100
AcDbIdBuffer
330
26E9
330
26EA
330
26ED
330
26FD
330
2703
330
1BE8
330
1BE9
330
1F66
330
1F67
330
1F68
330
1F69
330
1F6A
330
1F6B
330
222E
330
222F
330
2230
330
2231
330
2232
330
2233
330
26E7
330
26E8
  0
IDBUFFER
  5
2753
330
0
100
AcDbIdBuffer
330
CC6
330
DF5
330
228A
330
258B
330
26D6
  0
IDBUFFER
  5
2754
330
0
100
AcDbIdBuffer
  0
IDBUFFER
  5
2755
330
0
100
AcDbIdBuffer
330
19BD
  0
IDBUFFER
  5
2756
330
0
100
AcDbIdBuffer
  0
ENDSEC
  0
EOF
