  0
SECTION
  2
HEADER
  9
$ACADVER
  1
AC1014
  9
$ACADMAINTVER
 70
     9
  9
$DWGCODEPAGE
  3
ANSI_932
  9
$INSBASE
 10
0.0
 20
0.0
 30
0.0
  9
$EXTMIN
 10
-131.6500009999998
 20
-26.97293740283332
 30
-0.00000001
  9
$EXTMAX
 10
13.54182334646827
 20
13.24320052285234
 30
0.00000001
  9
$LIMMIN
 10
-138.8290064717842
 20
-45.22474571374511
  9
$LIMMAX
 10
23.05023987897198
 20
30.30997914579825
  9
$ORTHOMODE
 70
     0
  9
$REGENMODE
 70
     1
  9
$FILLMODE
 70
     1
  9
$QTEXTMODE
 70
     0
  9
$MIRRTEXT
 70
     0
  9
$DRAGMODE
 70
     2
  9
$LTSCALE
 40
1.0
  9
$OSMODE
 70
    55
  9
$ATTMODE
 70
     1
  9
$TEXTSIZE
 40
2.5
  9
$TRACEWID
 40
1.0
  9
$TEXTSTYLE
  7
STANDARD
  9
$CLAYER
  8
AM_0
  9
$CELTYPE
  6
BYLAYER
  9
$CECOLOR
 62
   256
  9
$CELTSCALE
 40
1.0
  9
$DELOBJ
 70
     1
  9
$DISPSILH
 70
     0
  9
$DIMSCALE
 40
0.5
  9
$DIMASZ
 40
2.5
  9
$DIMEXO
 40
1.0
  9
$DIMDLI
 40
12.0
  9
$DIMRND
 40
0.0
  9
$DIMDLE
 40
0.0
  9
$DIMEXE
 40
1.0
  9
$DIMTP
 40
0.1
  9
$DIMTM
 40
0.1
  9
$DIMTXT
 40
3.2
  9
$DIMCEN
 40
0.0
  9
$DIMTSZ
 40
0.0
  9
$DIMTOL
 70
     0
  9
$DIMLIM
 70
     0
  9
$DIMTIH
 70
     0
  9
$DIMTOH
 70
     0
  9
$DIMSE1
 70
     0
  9
$DIMSE2
 70
     0
  9
$DIMTAD
 70
     3
  9
$DIMZIN
 70
     8
  9
$DIMBLK
  1
OPEN30
  9
$DIMASO
 70
     1
  9
$DIMSHO
 70
     1
  9
$DIMPOST
  1

  9
$DIMAPOST
  1
"
  9
$DIMALT
 70
     0
  9
$DIMALTD
 70
     2
  9
$DIMALTF
 40
0.0393701
  9
$DIMLFAC
 40
1.0
  9
$DIMTOFL
 70
     1
  9
$DIMTVP
 40
0.0
  9
$DIMTIX
 70
     0
  9
$DIMSOXD
 70
     0
  9
$DIMSAH
 70
     0
  9
$DIMBLK1
  1

  9
$DIMBLK2
  1

  9
$DIMSTYLE
  2
AM_JIS
  9
$DIMCLRD
 70
   256
  9
$DIMCLRE
 70
   256
  9
$DIMCLRT
 70
     2
  9
$DIMTFAC
 40
0.71
  9
$DIMGAP
 40
1.5
  9
$DIMJUST
 70
     0
  9
$DIMSD1
 70
     0
  9
$DIMSD2
 70
     0
  9
$DIMTOLJ
 70
     0
  9
$DIMTZIN
 70
     0
  9
$DIMALTZ
 70
     0
  9
$DIMALTTZ
 70
     0
  9
$DIMFIT
 70
     3
  9
$DIMUPT
 70
     0
  9
$DIMUNIT
 70
     2
  9
$DIMDEC
 70
     3
  9
$DIMTDEC
 70
     3
  9
$DIMALTU
 70
     2
  9
$DIMALTTD
 70
     2
  9
$DIMTXSTY
  7
ASAMI
  9
$DIMAUNIT
 70
     0
  9
$LUNITS
 70
     2
  9
$LUPREC
 70
     2
  9
$SKETCHINC
 40
1.0
  9
$FILLETRAD
 40
2.5
  9
$AUNITS
 70
     0
  9
$AUPREC
 70
     0
  9
$MENU
  1
.
  9
$ELEVATION
 40
0.0
  9
$PELEVATION
 40
0.0
  9
$THICKNESS
 40
0.0
  9
$LIMCHECK
 70
     0
  9
$BLIPMODE
 70
     0
  9
$CHAMFERA
 40
0.25
  9
$CHAMFERB
 40
0.25
  9
$CHAMFERC
 40
20.0
  9
$CHAMFERD
 40
0.0
  9
$SKPOLY
 70
     0
  9
$TDCREATE
 40
2452800.443498622
  9
$TDUPDATE
 40
2453151.677571053
  9
$TDINDWG
 40
0.0383976852
  9
$TDUSRTIMER
 40
0.0383976852
  9
$USRTIMER
 70
     1
  9
$ANGBASE
 50
0.0
  9
$ANGDIR
 70
     0
  9
$PDMODE
 70
     3
  9
$PDSIZE
 40
0.0
  9
$PLINEWID
 40
0.0
  9
$COORDS
 70
     1
  9
$SPLFRAME
 70
     0
  9
$SPLINETYPE
 70
     6
  9
$SPLINESEGS
 70
     8
  9
$ATTDIA
 70
     1
  9
$ATTREQ
 70
     1
  9
$HANDLING
 70
 12289
  9
$HANDSEED
  5
2822
  9
$SURFTAB1
 70
     6
  9
$SURFTAB2
 70
     6
  9
$SURFTYPE
 70
     6
  9
$SURFU
 70
     6
  9
$SURFV
 70
     6
  9
$UCSNAME
  2

  9
$UCSORG
 10
-0.0000000000001472
 20
-0.0000000000002212
 30
0.0
  9
$UCSXDIR
 10
1.0
 20
0.0000000000000027
 30
0.0
  9
$UCSYDIR
 10
-0.0000000000000027
 20
1.0
 30
0.0
  9
$PUCSNAME
  2

  9
$PUCSORG
 10
0.0
 20
0.0
 30
0.0
  9
$PUCSXDIR
 10
1.0
 20
0.0
 30
0.0
  9
$PUCSYDIR
 10
0.0
 20
1.0
 30
0.0
  9
$USERI1
 70
     0
  9
$USERI2
 70
     0
  9
$USERI3
 70
     0
  9
$USERI4
 70
     0
  9
$USERI5
 70
     0
  9
$USERR1
 40
0.0
  9
$USERR2
 40
0.0
  9
$USERR3
 40
0.0
  9
$USERR4
 40
0.0
  9
$USERR5
 40
0.0
  9
$WORLDVIEW
 70
     1
  9
$SHADEDGE
 70
     3
  9
$SHADEDIF
 70
    70
  9
$TILEMODE
 70
     1
  9
$MAXACTVP
 70
    64
  9
$PINSBASE
 10
0.0
 20
0.0
 30
0.0
  9
$PLIMCHECK
 70
     0
  9
$PEXTMIN
 10
1.000000000000000E+20
 20
1.000000000000000E+20
 30
1.000000000000000E+20
  9
$PEXTMAX
 10
-1.000000000000000E+20
 20
-1.000000000000000E+20
 30
-1.000000000000000E+20
  9
$PLIMMIN
 10
0.0
 20
0.0
  9
$PLIMMAX
 10
841.0
 20
594.0
  9
$UNITMODE
 70
     0
  9
$VISRETAIN
 70
     1
  9
$PLINEGEN
 70
     0
  9
$PSLTSCALE
 70
     0
  9
$TREEDEPTH
 70
  3020
  9
$PICKSTYLE
 70
     0
  9
$CMLSTYLE
  2
STANDARD
  9
$CMLJUST
 70
     0
  9
$CMLSCALE
 40
20.0
  9
$PROXYGRAPHICS
 70
     1
  9
$MEASUREMENT
 70
     1
  0
ENDSEC
  0
SECTION
  2
CLASSES
  0
CLASS
  1
ACDBDICTIONARYWDFLT
  2
AcDbDictionaryWithDefault
  3
AutoCAD 2000
 90
        0
280
     0
281
     0
  0
CLASS
  1
ACDBPLACEHOLDER
  2
AcDbPlaceHolder
  3
AutoCAD 2000
 90
        0
280
     0
281
     0
  0
CLASS
  1
LAYOUT
  2
AcDbLayout
  3
AutoCAD 2000
 90
        0
280
     0
281
     0
  0
CLASS
  1
AMGSETTINGSOBJ
  2
AmgSettingsObj
  3
"AcadM|Product Description: AutoCAD Mechanical 2000|Company: Autodesk"
 90
        0
280
     0
281
     0
  0
CLASS
  1
ACME_DOCUMENT
  2
AcMeDbDoc
  3
AcMeServices
 90
        0
280
     0
281
     0
  0
CLASS
  1
ACMESCOPE
  2
AcMeScope
  3
AcMeServices
 90
        0
280
     0
281
     0
  0
CLASS
  1
ACMECOMMANDHISTORY
  2
AcMeCommandHistory
  3
AcMeServices
 90
        0
280
     0
281
     0
  0
CLASS
  1
DICTIONARYVAR
  2
AcDbDictionaryVar
  3
AutoCAD 2000
 90
        0
280
     0
281
     0
  0
CLASS
  1
ACIMSYSVARMAN
  2
AcImSysVarManager
  3
AcMeServices
 90
        0
280
     0
281
     0
  0
CLASS
  1
ACIMREALSYSVAR
  2
AcImRealSysVar
  3
AcMeServices
 90
        0
280
     0
281
     0
  0
CLASS
  1
ACIMINTSYSVAR
  2
AcImIntSysVar
  3
AcMeServices
 90
        0
280
     0
281
     0
  0
CLASS
  1
ACMEDRAWINGMAN
  2
AcMeDrawingMan
  3
AcMeServices
 90
        0
280
     0
281
     0
  0
CLASS
  1
ACMEVIEW
  2
AcMeView
  3
AcMeServices
 90
        0
280
     0
281
     0
  0
CLASS
  1
ACDBENTITYCACHE
  2
AcMeEntityCache
  3
AcMeServices
 90
        0
280
     0
281
     0
  0
CLASS
  1
GSMANAGER
  2
AcMeGSManager
  3
AcMeServices
 90
        0
280
     0
281
     0
  0
CLASS
  1
AmdtInternalReactor
  2
AmdtInternalReactor
  3
AcMeServices
 90
        0
280
     0
281
     0
  0
CLASS
  1
ACMESTATEMGR
  2
AcMeStateMgr
  3
AcMeServices
 90
        0
280
     0
281
     0
  0
CLASS
  1
ACME_DATABASE
  2
AcMeDbDatabase
  3
AcMeServices
 90
        0
280
     0
281
     0
  0
CLASS
  1
ACRFINSADJUSTERMGR
  2
AcRfInsAdjusterMgr
  3
AcMeServices
 90
        0
280
     0
281
     0
  0
CLASS
  1
ACMDATADICTIONARY
  2
AcmDataDictionary
  3
"AcmSymBB|Product Description: AutoCAD Mechanical 2000|Company: Autodesk"
 90
        0
280
     0
281
     0
  0
CLASS
  1
ACMDATAENTRYBLOCK
  2
AcmDataEntryBlock
  3
"AcmSymBB|Product Description: AutoCAD Mechanical 2000|Company: Autodesk"
 90
        0
280
     0
281
     0
  0
CLASS
  1
AMGOBJPROPCFG
  2
AmgObjPropCfg
  3
"AmgLay|Product Description: AutoCAD Mechanical 2000|Company: Autodesk"
 90
        1
280
     0
281
     0
  0
CLASS
  1
ACAMGFILTERDAT
  2
AcAmgFilterDat
  3
"AcadM|Product Description: AutoCAD Mechanical 2000|Company: Autodesk"
 90
        0
280
     0
281
     0
  0
CLASS
  1
LAYER_INDEX
  2
AcDbLayerIndex
  3
AutoCAD 2000
 90
        0
280
     0
281
     0
  0
CLASS
  1
IDBUFFER
  2
AcDbIdBuffer
  3
AutoCAD 2000
 90
        0
280
     0
281
     0
  0
CLASS
  1
ACIMSTRSYSVAR
  2
AcImStrSysVar
  3
AcMeServices
 90
        0
280
     0
281
     0
  0
CLASS
  1
ACMSTANDARDJIS
  2
AcmStandardJIS
  3
"AcmSymBB|Product Description: AutoCAD Mechanical 2000|Company: Autodesk"
 90
        0
280
     0
281
     0
  0
CLASS
  1
ACMSURFSTANDARDJIS
  2
AcmSurfTextStdJIS
  3
"AcmSymBB|Product Description: AutoCAD Mechanical 2000|Company: Autodesk"
 90
        0
280
     0
281
     0
  0
CLASS
  1
ACMFCFSTANDARDJIS
  2
AcmFCFStdJIS
  3
"AcmSymBB|Product Description: AutoCAD Mechanical 2000|Company: Autodesk"
 90
        0
280
     0
281
     0
  0
CLASS
  1
ACMWELDSTANDARDJIS
  2
AcmWeldingStdJIS
  3
"AcmSymBB|Product Description: AutoCAD Mechanical 2000|Company: Autodesk"
 90
        0
280
     0
281
     0
  0
CLASS
  1
ACMIDSTANDARDJIS
  2
AcmIdStdJIS
  3
"AcmSymBB|Product Description: AutoCAD Mechanical 2000|Company: Autodesk"
 90
        0
280
     0
281
     0
  0
CLASS
  1
ACMDATUMSTANDARDJIS
  2
AcmDatumStdJIS
  3
"AcmSymBB|Product Description: AutoCAD Mechanical 2000|Company: Autodesk"
 90
        0
280
     0
281
     0
  0
CLASS
  1
ACMBOMSTANDARDJIS
  2
AcmBOMStdJIS
  3
"AcmSymBB|Product Description: AutoCAD Mechanical 2000|Company: Autodesk"
 90
        0
280
     0
281
     0
  0
CLASS
  1
ACMSTANDARDANSI
  2
AcmStandardANSI
  3
"AcmSymBB|Product Description: AutoCAD Mechanical 2000|Company: Autodesk"
 90
        0
280
     0
281
     0
  0
CLASS
  1
ACMSURFSTANDARDANSI
  2
AcmSurfTextStdANSI
  3
"AcmSymBB|Product Description: AutoCAD Mechanical 2000|Company: Autodesk"
 90
        0
280
     0
281
     0
  0
CLASS
  1
ACMFCFSTANDARDANSI
  2
AcmFCFStdANSI
  3
"AcmSymBB|Product Description: AutoCAD Mechanical 2000|Company: Autodesk"
 90
        0
280
     0
281
     0
  0
CLASS
  1
ACMWELDSTANDARDANSI
  2
AcmWeldingStdANSI
  3
"AcmSymBB|Product Description: AutoCAD Mechanical 2000|Company: Autodesk"
 90
        0
280
     0
281
     0
  0
CLASS
  1
ACMIDSTANDARDANSI
  2
AcmIdStdANSI
  3
"AcmSymBB|Product Description: AutoCAD Mechanical 2000|Company: Autodesk"
 90
        0
280
     0
281
     0
  0
CLASS
  1
ACMDATUMSTANDARDANSI
  2
AcmDatumStdANSI
  3
"AcmSymBB|Product Description: AutoCAD Mechanical 2000|Company: Autodesk"
 90
        0
280
     0
281
     0
  0
CLASS
  1
ACMBOMSTANDARDANSI
  2
AcmBOMStdANSI
  3
"AcmSymBB|Product Description: AutoCAD Mechanical 2000|Company: Autodesk"
 90
        0
280
     0
281
     0
  0
CLASS
  1
ACMSTANDARDBSI
  2
AcmStandardBSI
  3
"AcmSymBB|Product Description: AutoCAD Mechanical 2000|Company: Autodesk"
 90
        0
280
     0
281
     0
  0
CLASS
  1
ACMSURFSTANDARDBSI
  2
AcmSurfTextStdBSI
  3
"AcmSymBB|Product Description: AutoCAD Mechanical 2000|Company: Autodesk"
 90
        0
280
     0
281
     0
  0
CLASS
  1
ACMFCFSTANDARDBSI
  2
AcmFCFStdBSI
  3
"AcmSymBB|Product Description: AutoCAD Mechanical 2000|Company: Autodesk"
 90
        0
280
     0
281
     0
  0
CLASS
  1
ACMWELDSTANDARDBSI
  2
AcmWeldingStdBSI
  3
"AcmSymBB|Product Description: AutoCAD Mechanical 2000|Company: Autodesk"
 90
        0
280
     0
281
     0
  0
CLASS
  1
ACMIDSTANDARDBSI
  2
AcmIdStdBSI
  3
"AcmSymBB|Product Description: AutoCAD Mechanical 2000|Company: Autodesk"
 90
        0
280
     0
281
     0
  0
CLASS
  1
ACMDATUMSTANDARDBSI
  2
AcmDatumStdBSI
  3
"AcmSymBB|Product Description: AutoCAD Mechanical 2000|Company: Autodesk"
 90
        0
280
     0
281
     0
  0
CLASS
  1
ACMBOMSTANDARDBSI
  2
AcmBOMStdBSI
  3
"AcmSymBB|Product Description: AutoCAD Mechanical 2000|Company: Autodesk"
 90
        0
280
     0
281
     0
  0
CLASS
  1
LONG_TRANSACTION
  2
AcDbLongTransaction
  3
AutoCAD 2000
 90
        0
280
     0
281
     0
  0
CLASS
  1
LWPOLYLINE
  2
AcDbPolyline
  3
AutoCAD 2000
 90
        0
280
     0
281
     1
  0
CLASS
  1
HATCH
  2
AcDbHatch
  3
AutoCAD 2000
 90
        0
280
     0
281
     1
  0
CLASS
  1
XRECORD
  2
AcDbXrecord
  3
AutoCAD 2000
 90
        0
280
     0
281
     0
  0
ENDSEC
  0
SECTION
  2
TABLES
  0
TABLE
  2
VPORT
  5
8
330
0
100
AcDbSymbolTable
 70
     3
  0
VPORT
  5
27F7
330
8
100
AcDbSymbolTableRecord
100
AcDbViewportTableRecord
  2
*ACTIVE
 70
     0
 10
0.0
 20
0.0
 11
1.0
 21
1.0
 12
-56.34031553300201
 22
-6.863810364148676
 13
0.0
 23
0.0
 14
2.5
 24
2.5
 15
10.0
 25
10.0
 16
0.0
 26
0.0
 36
1.0
 17
0.0
 27
0.0
 37
0.0
 40
96.67089625713479
 41
1.56570841889117
 42
50.0
 43
0.0
 44
0.0
 50
0.0
 51
0.0
 71
     0
 72
   100
 73
     1
 74
     1
 75
     0
 76
     0
 77
     0
 78
     0
  0
ENDTAB
  0
TABLE
  2
LTYPE
  5
5
330
0
100
AcDbSymbolTable
 70
    10
  0
LTYPE
  5
14
330
5
100
AcDbSymbolTableRecord
100
AcDbLinetypeTableRecord
  2
BYBLOCK
 70
     0
  3

 72
    65
 73
     0
 40
0.0
  0
LTYPE
  5
15
330
5
100
AcDbSymbolTableRecord
100
AcDbLinetypeTableRecord
  2
BYLAYER
 70
     0
  3

 72
    65
 73
     0
 40
0.0
  0
LTYPE
  5
16
330
5
100
AcDbSymbolTableRecord
100
AcDbLinetypeTableRecord
  2
CONTINUOUS
 70
     0
  3
Solid line
 72
    65
 73
     0
 40
0.0
  0
LTYPE
  5
4B
330
5
100
AcDbSymbolTableRecord
100
AcDbLinetypeTableRecord
  2
AM_ISO02W050
 70
     0
  3
__ __ __ __ __ __ __ __ __ __ __ __ __ __ __
 72
    65
 73
     2
 40
7.5
 49
6.0
 74
     0
 49
-1.5
 74
     0
  0
LTYPE
  5
4C
330
5
100
AcDbSymbolTableRecord
100
AcDbLinetypeTableRecord
  2
AM_ISO08W050
 70
     0
  3
____ . ____ . ____ . ____ . ____ . ____ . ____
 72
    65
 73
     4
 40
18.0
 49
12.0
 74
     0
 49
-1.5
 74
     0
 49
3.0
 74
     0
 49
-1.5
 74
     0
  0
LTYPE
  5
4D
330
5
100
AcDbSymbolTableRecord
100
AcDbLinetypeTableRecord
  2
AM_ISO09W050
 70
     0
  3
_____ . . _____ . . _____ . . ____ .. ____
 72
    65
 73
     6
 40
22.5
 49
12.0
 74
     0
 49
-1.5
 74
     0
 49
3.0
 74
     0
 49
-1.5
 74
     0
 49
3.0
 74
     0
 49
-1.5
 74
     0
  0
LTYPE
  5
4E
330
5
100
AcDbSymbolTableRecord
100
AcDbLinetypeTableRecord
  2
AMCONSTR
 70
     0
  3
_______________________
 72
    65
 73
     2
 40
9999.0
 49
9999.0
 74
     0
 49
0.0
 74
     0
  0
LTYPE
  5
4F
330
5
100
AcDbSymbolTableRecord
100
AcDbLinetypeTableRecord
  2
AM_ISO02W050X2
 70
     0
  3
 _ _ _ _ _ _ _ _ _ _ _ _
 72
    65
 73
     2
 40
3.75
 49
3.0
 74
     0
 49
-0.75
 74
     0
  0
LTYPE
  5
50
330
5
100
AcDbSymbolTableRecord
100
AcDbLinetypeTableRecord
  2
AM_ISO08W050X2
 70
     0
  3
__ . __ . __ . __ . __ . __
 72
    65
 73
     4
 40
9.0
 49
6.0
 74
     0
 49
-0.75
 74
     0
 49
1.5
 74
     0
 49
-0.75
 74
     0
  0
LTYPE
  5
53
330
5
100
AcDbSymbolTableRecord
100
AcDbLinetypeTableRecord
  2
AMZIGZAG
 70
     0
  3
/\/-/\/-/\/-/\/-/\/-/\/
 72
    65
 73
     2
 40
11.00009999999999
 49
0.0001
 74
     4
 75
   135
340
52
 46
0.04
 50
0.0
 44
0.0
 45
0.0
 49
-11.0
 74
     0
  0
LTYPE
  5
166
330
5
100
AcDbSymbolTableRecord
100
AcDbLinetypeTableRecord
  2
ACJISTGL
 70
     0
  3
_ _ _ _ _
 72
    65
 73
     2
 40
3.0
 49
2.0
 74
     0
 49
-1.0
 74
     0
  0
LTYPE
  5
26A
330
5
100
AcDbSymbolTableRecord
100
AcDbLinetypeTableRecord
  2
ACJISTGB
 70
     0
  3
__ . . __ . .
 72
    65
 73
     6
 40
9.0
 49
4.0
 74
     0
 49
-1.0
 74
     0
 49
1.0
 74
     0
 49
-1.0
 74
     0
 49
1.0
 74
     0
 49
-1.0
 74
     0
  0
ENDTAB
  0
TABLE
  2
LAYER
  5
2
330
0
100
AcDbSymbolTable
 70
     7
  0
LAYER
  5
10
330
2
100
AcDbSymbolTableRecord
100
AcDbLayerTableRecord
  2
0
 70
     0
 62
     7
  6
CONTINUOUS
  0
LAYER
  5
3F9
330
2
100
AcDbSymbolTableRecord
100
AcDbLayerTableRecord
  2
AM_0
 70
     0
 62
     7
  6
CONTINUOUS
  0
LAYER
  5
C7C
330
2
100
AcDbSymbolTableRecord
100
AcDbLayerTableRecord
  2
AM_7
 70
     0
 62
     4
  6
AM_ISO08W050
  0
LAYER
  5
C97
330
2
100
AcDbSymbolTableRecord
100
AcDbLayerTableRecord
  2
AM_11
 70
     0
 62
     3
  6
AM_ISO09W050
  0
LAYER
  5
CC5
330
2
100
AcDbSymbolTableRecord
100
AcDbLayerTableRecord
  2
AM_5
 70
     0
 62
     3
  6
CONTINUOUS
  0
LAYER
  5
CC7
330
2
100
AcDbSymbolTableRecord
100
AcDbLayerTableRecord
  2
DEFPOINTS
 70
     0
 62
     7
  6
CONTINUOUS
  0
LAYER
  5
19BC
330
2
100
AcDbSymbolTableRecord
100
AcDbLayerTableRecord
  2
AM_6
 70
     0
 62
     2
  6
CONTINUOUS
  0
ENDTAB
  0
TABLE
  2
STYLE
  5
3
330
0
100
AcDbSymbolTable
 70
     5
  0
STYLE
  5
11
330
3
100
AcDbSymbolTableRecord
100
AcDbTextStyleTableRecord
  2
STANDARD
 70
     0
 40
0.0
 41
1.0
 50
0.0
 71
     0
 42
2.5
  3
simplex.shx
  4
EXTFONT.SHX
  0
STYLE
  5
52
330
3
100
AcDbSymbolTableRecord
100
AcDbTextStyleTableRecord
  2

 70
     1
 40
0.0
 41
1.0
 50
0.0
 71
     0
 42
2.5
  3
ltypeshp.shx
  4

  0
STYLE
  5
6B
330
3
100
AcDbSymbolTableRecord
100
AcDbTextStyleTableRecord
  2
ASAMI
 70
     0
 40
0.0
 41
1.0
 50
0.0
 71
     0
 42
2.5
  3
simplex.shx
  4
EXTFONT.SHX
  0
STYLE
  5
262
330
3
100
AcDbSymbolTableRecord
100
AcDbTextStyleTableRecord
  2
ACJISTS
 70
     0
 40
1.0
 41
1.0
 50
0.0
 71
     0
 42
2.5
  3
simplex.shx
  4
bigfont.shx
  0
STYLE
  5
269
330
3
100
AcDbSymbolTableRecord
100
AcDbTextStyleTableRecord
  2
ACJISGDT
 70
     0
 40
0.0
 41
1.0
 50
0.0
 71
     0
 42
2.5
  3
amgdtans.shx
  4

  0
ENDTAB
  0
TABLE
  2
VIEW
  5
6
330
0
100
AcDbSymbolTable
 70
     0
  0
ENDTAB
  0
TABLE
  2
UCS
  5
7
330
0
100
AcDbSymbolTable
 70
     0
  0
ENDTAB
  0
TABLE
  2
APPID
  5
9
330
0
100
AcDbSymbolTable
 70
    16
  0
APPID
  5
12
330
9
100
AcDbSymbolTableRecord
100
AcDbRegAppTableRecord
  2
ACAD
 70
     0
  0
APPID
  5
30
330
9
100
AcDbSymbolTableRecord
100
AcDbRegAppTableRecord
  2
MCAD_NO_VIS
 70
     0
  0
APPID
  5
31
330
9
100
AcDbSymbolTableRecord
100
AcDbRegAppTableRecord
  2
ACAD_TEMP_GRAPHIC
 70
     0
  0
APPID
  5
2C2
330
9
100
AcDbSymbolTableRecord
100
AcDbRegAppTableRecord
  2
GENIUS_GENDTOL_13
 70
     0
  0
APPID
  5
339
330
9
100
AcDbSymbolTableRecord
100
AcDbRegAppTableRecord
  2
GENIUS_GENODEF_13
 70
     0
  0
APPID
  5
33A
330
9
100
AcDbSymbolTableRecord
100
AcDbRegAppTableRecord
  2
GENIUS_GENOBJ-N-RSBK_13
 70
     0
  0
APPID
  5
33B
330
9
100
AcDbSymbolTableRecord
100
AcDbRegAppTableRecord
  2
GENIUS_GENOBJ-N-LIB_13
 70
     0
  0
APPID
  5
33C
330
9
100
AcDbSymbolTableRecord
100
AcDbRegAppTableRecord
  2
GENIUS_GENSCALE_13
 70
     0
  0
APPID
  5
378
330
9
100
AcDbSymbolTableRecord
100
AcDbRegAppTableRecord
  2
GENIUS_GENDIMSH_14
 70
     0
  0
APPID
  5
C82
330
9
100
AcDbSymbolTableRecord
100
AcDbRegAppTableRecord
  2
GENIUS_GENOBJ-N-CRS_13
 70
     0
  0
APPID
  5
C83
330
9
100
AcDbSymbolTableRecord
100
AcDbRegAppTableRecord
  2
GENIUS_GENOENT_13
 70
     0
  0
APPID
  5
C84
330
9
100
AcDbSymbolTableRecord
100
AcDbRegAppTableRecord
  2
GENIUS_GENOREF_13
 70
     0
  0
APPID
  5
C85
330
9
100
AcDbSymbolTableRecord
100
AcDbRegAppTableRecord
  2
GENIUS_GENOLIS_13
 70
     0
  0
APPID
  5
CA0
330
9
100
AcDbSymbolTableRecord
100
AcDbRegAppTableRecord
  2
GENIUS_GENOBJ-N-CEN_13
 70
     0
  0
APPID
  5
1E1E
330
9
100
AcDbSymbolTableRecord
100
AcDbRegAppTableRecord
  2
GENIUS_GENFIL_13
 70
     0
  0
APPID
  5
1E1F
330
9
100
AcDbSymbolTableRecord
100
AcDbRegAppTableRecord
  2
GENIUS_GENOBJ-N-CHA_13
 70
     0
  0
ENDTAB
  0
TABLE
  2
DIMSTYLE
  5
A
330
0
100
AcDbSymbolTable
 70
     9
  0
DIMSTYLE
105
58
330
A
100
AcDbSymbolTableRecord
100
AcDbDimStyleTableRecord
  2
AM_JIS
 70
     0
  3

  4
"
  5
OPEN30
  6

  7

 40
0.5
 41
2.5
 42
1.0
 43
12.0
 44
1.0
 45
0.0
 46
0.0
 47
0.1
 48
0.1
140
3.2
141
0.0
142
0.0
143
0.0393701
144
1.0
145
0.0
146
0.71
147
1.5
 71
     0
 72
     0
 73
     0
 74
     0
 75
     0
 76
     0
 77
     3
 78
     8
170
     0
171
     2
172
     1
173
     0
174
     0
175
     0
176
   256
177
   256
178
     2
270
     2
271
     3
272
     3
273
     2
274
     2
340
6B
275
     0
280
     0
281
     0
282
     0
283
     0
284
     0
285
     0
286
     0
287
     3
288
     0
  0
DIMSTYLE
105
5F
330
A
100
AcDbSymbolTableRecord
100
AcDbDimStyleTableRecord
  2
AM_JIS$3
 70
     0
  3

  4
"
  5
OPEN30
  6

  7

 40
0.5
 41
2.5
 42
1.0
 43
10.0
 44
1.0
 45
0.0
 46
0.0
 47
0.1
 48
0.1
140
3.2
141
0.0
142
0.0
143
0.0393701
144
1.0
145
0.0
146
0.71
147
1.5
 71
     0
 72
     0
 73
     0
 74
     1
 75
     0
 76
     0
 77
     3
 78
     8
170
     0
171
     2
172
     0
173
     0
174
     0
175
     0
176
   256
177
   256
178
     2
270
     2
271
     2
272
     3
273
     2
274
     2
340
6B
275
     0
280
     0
281
     0
282
     0
283
     0
284
     0
285
     0
286
     0
287
     0
288
     1
  0
DIMSTYLE
105
60
330
A
100
AcDbSymbolTableRecord
100
AcDbDimStyleTableRecord
  2
AM_JIS$4
 70
     0
  3

  4
"
  5
OPEN30
  6

  7

 40
0.5
 41
2.5
 42
1.0
 43
10.0
 44
1.0
 45
0.0
 46
0.0
 47
0.1
 48
0.1
140
3.2
141
0.0
142
0.0
143
0.0393701
144
1.0
145
0.0
146
0.71
147
1.5
 71
     0
 72
     0
 73
     0
 74
     1
 75
     0
 76
     0
 77
     3
 78
     8
170
     0
171
     2
172
     0
173
     0
174
     0
175
     0
176
   256
177
   256
178
     2
270
     2
271
     2
272
     3
273
     2
274
     2
340
6B
275
     0
280
     0
281
     0
282
     0
283
     0
284
     0
285
     0
286
     0
287
     0
288
     1
  0
DIMSTYLE
105
61
330
A
100
AcDbSymbolTableRecord
100
AcDbDimStyleTableRecord
  2
AM_JIS$6
 70
     0
  3

  4
"
  5
OPEN30
  6

  7

 40
0.5
 41
2.5
 42
1.0
 43
10.0
 44
1.0
 45
0.0
 46
0.0
 47
0.1
 48
0.1
140
3.2
141
0.0
142
0.0
143
0.0393701
144
1.0
145
0.0
146
0.71
147
1.5
 71
     0
 72
     0
 73
     0
 74
     0
 75
     0
 76
     0
 77
     0
 78
     8
170
     0
171
     2
172
     1
173
     0
174
     0
175
     0
176
   256
177
   256
178
     2
270
     2
271
     2
272
     2
273
     2
274
     2
340
6B
275
     0
280
     0
281
     0
282
     0
283
     0
284
     0
285
     0
286
     0
287
     3
288
     0
  0
DIMSTYLE
105
62
330
A
100
AcDbSymbolTableRecord
100
AcDbDimStyleTableRecord
  2
AM_JIS$7
 70
     0
  3

  4
"
  5
OPEN30
  6

  7

 40
0.5
 41
2.5
 42
1.0
 43
10.0
 44
1.0
 45
0.0
 46
0.0
 47
0.1
 48
0.1
140
3.2
141
0.0
142
0.0
143
0.0393701
144
1.0
145
0.0
146
0.71
147
1.5
 71
     0
 72
     0
 73
     0
 74
     0
 75
     0
 76
     0
 77
     3
 78
     8
170
     0
171
     2
172
     1
173
     0
174
     0
175
     0
176
   256
177
   256
178
     2
270
     2
271
     2
272
     3
273
     2
274
     2
340
6B
275
     0
280
     0
281
     0
282
     0
283
     0
284
     0
285
     0
286
     0
287
     3
288
     0
  0
DIMSTYLE
105
63
330
A
100
AcDbSymbolTableRecord
100
AcDbDimStyleTableRecord
  2
AM_JIS$SF
 70
     0
  3

  4
"
  5
OPEN30
  6

  7

 40
0.5
 41
2.5
 42
1.0
 43
10.0
 44
1.0
 45
0.0
 46
0.0
 47
0.1
 48
0.1
140
3.2
141
0.0
142
0.0
143
0.0393701
144
1.0
145
0.0
146
0.71
147
1.5
 71
     0
 72
     0
 73
     0
 74
     0
 75
     1
 76
     1
 77
     3
 78
     8
170
     0
171
     2
172
     1
173
     0
174
     0
175
     0
176
   256
177
   256
178
     2
270
     2
271
     2
272
     2
273
     2
274
     2
340
6B
275
     0
280
     0
281
     0
282
     0
283
     0
284
     0
285
     0
286
     0
287
     3
288
     0
  0
DIMSTYLE
105
68
330
A
100
AcDbSymbolTableRecord
100
AcDbDimStyleTableRecord
  2
AM_JIS$SH
 70
     0
  3

  4
"
  5

  6
GENAXEH
  7
OPEN30
 40
0.5
 41
2.5
 42
1.0
 43
10.0
 44
1.0
 45
0.0
 46
0.0
 47
0.1
 48
0.1
140
3.2
141
0.0
142
0.0
143
0.0393701
144
2.0
145
0.0
146
0.71
147
1.5
 71
     0
 72
     0
 73
     0
 74
     0
 75
     1
 76
     1
 77
     3
 78
     8
170
     0
171
     2
172
     1
173
     1
174
     0
175
     0
176
   256
177
   256
178
     2
270
     2
271
     2
272
     2
273
     2
274
     2
340
6B
275
     0
280
     0
281
     0
282
     0
283
     0
284
     0
285
     0
286
     0
287
     3
288
     0
  0
DIMSTYLE
105
B34
102
{ACAD_REACTORS
330
258B
102
}
330
A
100
AcDbSymbolTableRecord
100
AcDbDimStyleTableRecord
  2
AM_JIS$2
 70
     0
  3

  4
"
  5
OPEN30
  6

  7

 40
0.5
 41
2.5
 42
1.0
 43
12.0
 44
1.0
 45
0.0
 46
0.0
 47
0.1
 48
0.1
140
3.2
141
0.0
142
0.0
143
0.0393701
144
1.0
145
0.0
146
0.71
147
1.5
 71
     0
 72
     0
 73
     0
 74
     0
 75
     0
 76
     0
 77
     3
 78
     8
170
     0
171
     2
172
     1
173
     0
174
     0
175
     0
176
   256
177
   256
178
     2
270
     2
271
     3
272
     3
273
     2
274
     2
340
6B
275
     0
280
     0
281
     0
282
     0
283
     0
284
     0
285
     0
286
     0
287
     3
288
     0
  0
DIMSTYLE
105
BA5
102
{ACAD_REACTORS
330
CC6
330
DF5
330
228A
330
26D6
102
}
330
A
100
AcDbSymbolTableRecord
100
AcDbDimStyleTableRecord
  2
AM_JIS$0
 70
     0
  3

  4
"
  5
OPEN30
  6

  7

 40
0.5
 41
2.5
 42
0.0
 43
10.0
 44
1.0
 45
0.0
 46
0.0
 47
0.1
 48
0.1000000001
140
3.799999999999999
141
0.0
142
0.0
143
0.0393701
144
1.0
145
0.0
146
0.71
147
1.5
 71
     0
 72
     0
 73
     0
 74
     0
 75
     0
 76
     0
 77
     3
 78
     1
170
     0
171
     2
172
     1
173
     0
174
     0
175
     0
176
     3
177
     3
178
     2
270
     2
271
     2
272
     2
273
     2
274
     2
340
11
275
     1
280
     0
281
     0
282
     0
283
     0
284
     8
285
     0
286
     0
287
     0
288
     0
  0
ENDTAB
  0
TABLE
  2
BLOCK_RECORD
  5
1
330
0
100
AcDbSymbolTable
 70
    10
  0
BLOCK_RECORD
  5
1F
102
{ACAD_XDICTIONARY
360
74
102
}
330
1
100
AcDbSymbolTableRecord
100
AcDbBlockTableRecord
  2
*MODEL_SPACE
  0
BLOCK_RECORD
  5
101
102
{ACAD_XDICTIONARY
360
2820
102
}
330
1
100
AcDbSymbolTableRecord
100
AcDbBlockTableRecord
  2
*PAPER_SPACE
  0
BLOCK_RECORD
  5
59
330
1
100
AcDbSymbolTableRecord
100
AcDbBlockTableRecord
  2
_OPEN30
  0
BLOCK_RECORD
  5
64
330
1
100
AcDbSymbolTableRecord
100
AcDbBlockTableRecord
  2
GENAXEH
  0
BLOCK_RECORD
  5
CC8
330
1
100
AcDbSymbolTableRecord
100
AcDbBlockTableRecord
  2
*D5
  0
BLOCK_RECORD
  5
DF6
330
1
100
AcDbSymbolTableRecord
100
AcDbBlockTableRecord
  2
*D6
  0
BLOCK_RECORD
  5
228B
330
1
100
AcDbSymbolTableRecord
100
AcDbBlockTableRecord
  2
*D7
  0
BLOCK_RECORD
  5
258C
330
1
100
AcDbSymbolTableRecord
100
AcDbBlockTableRecord
  2
*D8
  0
BLOCK_RECORD
  5
26D7
330
1
100
AcDbSymbolTableRecord
100
AcDbBlockTableRecord
  2
*D9
  0
ENDTAB
  0
ENDSEC
  0
SECTION
  2
BLOCKS
  0
BLOCK
  5
20
330
1F
100
AcDbEntity
  8
0
100
AcDbBlockBegin
  2
*MODEL_SPACE
 70
     0
 10
0.0
 20
0.0
 30
0.0
  3
*MODEL_SPACE
  1

  0
ENDBLK
  5
21
330
1F
100
AcDbEntity
  8
0
100
AcDbBlockEnd
  0
BLOCK
  5
103
330
101
100
AcDbEntity
 67
     1
  8
0
100
AcDbBlockBegin
  2
*PAPER_SPACE
 70
     0
 10
0.0
 20
0.0
 30
0.0
  3
*PAPER_SPACE
  1

  0
ENDBLK
  5
104
330
101
100
AcDbEntity
 67
     1
  8
0
100
AcDbBlockEnd
  0
BLOCK
  5
5D
330
59
100
AcDbEntity
  8
0
100
AcDbBlockBegin
  2
_OPEN30
 70
     0
 10
0.0
 20
0.0
 30
0.0
  3
_OPEN30
  1

  0
LINE
  5
5A
330
59
100
AcDbEntity
  8
0
 62
     0
100
AcDbLine
 10
-1.0
 20
0.26794919
 30
0.0
 11
0.0
 21
0.0
 31
0.0
  0
LINE
  5
5B
330
59
100
AcDbEntity
  8
0
 62
     0
100
AcDbLine
 10
0.0
 20
0.0
 30
0.0
 11
-1.0
 21
-0.26794919
 31
0.0
  0
LINE
  5
5C
330
59
100
AcDbEntity
  8
0
 62
     0
100
AcDbLine
 10
0.0
 20
0.0
 30
0.0
 11
-1.0
 21
0.0
 31
0.0
  0
ENDBLK
  5
5E
330
59
100
AcDbEntity
  8
0
100
AcDbBlockEnd
  0
BLOCK
  5
66
330
64
100
AcDbEntity
  8
0
100
AcDbBlockBegin
  2
GENAXEH
 70
     0
 10
0.0
 20
0.0
 30
0.0
  3
GENAXEH
  1

  0
LINE
  5
65
330
64
100
AcDbEntity
  8
0
100
AcDbLine
 10
-1.0
 20
0.0
 30
0.0
 11
1.0
 21
0.0
 31
0.0
  0
ENDBLK
  5
67
330
64
100
AcDbEntity
  8
0
100
AcDbBlockEnd
  0
BLOCK
  5
CD2
330
CC8
100
AcDbEntity
  8
0
100
AcDbBlockBegin
  2
*D5
 70
     1
 10
0.0
 20
0.0
 30
0.0
  3
*D5
  1

  0
LINE
  5
27B1
330
CC8
100
AcDbEntity
  8
AM_5
 62
     3
100
AcDbLine
 10
-119.9999999999998
 20
-3.764324189635425
 30
0.0
 11
-119.9999999999998
 21
-16.5000023696538
 31
0.0
  0
LINE
  5
27B2
330
CC8
100
AcDbEntity
  8
AM_5
 62
     3
100
AcDbLine
 10
-2.000000462318735
 20
-3.649999230398043
 30
0.0
 11
-2.000000462318736
 21
-16.5000023696538
 31
0.0
  0
LINE
  5
27B3
330
CC8
100
AcDbEntity
  8
AM_5
 62
     3
100
AcDbLine
 10
-118.7499999999998
 20
-16.0000023696538
 30
0.0
 11
-3.250000462318736
 21
-16.0000023696538
 31
0.0
  0
INSERT
  5
27B4
330
CC8
100
AcDbEntity
  8
AM_5
 62
     3
100
AcDbBlockReference
  2
_OPEN30
 10
-119.9999999999998
 20
-16.0000023696538
 30
0.0
 41
1.25
 42
1.25
 43
1.25
 50
180.0
  0
INSERT
  5
27B5
330
CC8
100
AcDbEntity
  8
AM_5
 62
     3
100
AcDbBlockReference
  2
_OPEN30
 10
-2.000000462318736
 20
-16.0000023696538
 30
0.0
 41
1.25
 42
1.25
 43
1.25
  0
MTEXT
  5
27B6
330
CC8
100
AcDbEntity
  8
AM_5
 62
     2
100
AcDbMText
 10
-61.00000023115931
 20
-14.3000023696538
 30
0.0
 40
1.9
 41
0.0
 71
     5
 72
     1
  1
118
1001
ACAD
1000
MTEXTBEGIN
1070
    73
1070
     1
1070
    44
1040
1.0
1070
    74
1070
     0
1000
MTEXTEND
  0
POINT
  5
27B7
330
CC8
100
AcDbEntity
  8
DEFPOINTS
 62
     0
100
AcDbPoint
 10
-119.9999999999998
 20
-3.764324189635425
 30
0.0
  0
POINT
  5
27B8
330
CC8
100
AcDbEntity
  8
DEFPOINTS
 62
     0
100
AcDbPoint
 10
-2.000000462318735
 20
-3.649999230398043
 30
0.0
  0
POINT
  5
27B9
330
CC8
100
AcDbEntity
  8
DEFPOINTS
 62
     0
100
AcDbPoint
 10
-2.000000462318736
 20
-16.0000023696538
 30
0.0
  0
ENDBLK
  5
CD3
330
CC8
100
AcDbEntity
  8
0
100
AcDbBlockEnd
  0
BLOCK
  5
E00
330
DF6
100
AcDbEntity
  8
0
100
AcDbBlockBegin
  2
*D6
 70
     1
 10
0.0
 20
0.0
 30
0.0
  3
*D6
  1

  0
LINE
  5
27A8
330
DF6
100
AcDbEntity
  8
AM_5
 62
     3
100
AcDbLine
 10
-65.9999999999999
 20
-4.000001369653888
 30
0.0
 11
-65.9999999999999
 21
-11.50000236965372
 31
0.0
  0
LINE
  5
27A9
330
DF6
100
AcDbEntity
  8
AM_5
 62
     3
100
AcDbLine
 10
-2.000000462318735
 20
-3.649999230398043
 30
0.0
 11
-2.000000462318735
 21
-11.50000236965372
 31
0.0
  0
LINE
  5
27AA
330
DF6
100
AcDbEntity
  8
AM_5
 62
     3
100
AcDbLine
 10
-64.7499999999999
 20
-11.00000236965372
 30
0.0
 11
-3.250000462318735
 21
-11.00000236965372
 31
0.0
  0
INSERT
  5
27AB
330
DF6
100
AcDbEntity
  8
AM_5
 62
     3
100
AcDbBlockReference
  2
_OPEN30
 10
-65.9999999999999
 20
-11.00000236965372
 30
0.0
 41
1.25
 42
1.25
 43
1.25
 50
180.0
  0
INSERT
  5
27AC
330
DF6
100
AcDbEntity
  8
AM_5
 62
     3
100
AcDbBlockReference
  2
_OPEN30
 10
-2.000000462318735
 20
-11.00000236965372
 30
0.0
 41
1.25
 42
1.25
 43
1.25
  0
MTEXT
  5
27AD
330
DF6
100
AcDbEntity
  8
AM_5
 62
     2
100
AcDbMText
 10
-34.00000023115932
 20
-9.300002369653721
 30
0.0
 40
1.9
 41
0.0
 71
     5
 72
     1
  1
64
1001
ACAD
1000
MTEXTBEGIN
1070
    73
1070
     1
1070
    44
1040
1.0
1070
    74
1070
     0
1000
MTEXTEND
  0
POINT
  5
27AE
330
DF6
100
AcDbEntity
  8
DEFPOINTS
 62
     0
100
AcDbPoint
 10
-65.9999999999999
 20
-4.000001369653888
 30
0.0
  0
POINT
  5
27AF
330
DF6
100
AcDbEntity
  8
DEFPOINTS
 62
     0
100
AcDbPoint
 10
-2.000000462318735
 20
-3.649999230398043
 30
0.0
  0
POINT
  5
27B0
330
DF6
100
AcDbEntity
  8
DEFPOINTS
 62
     0
100
AcDbPoint
 10
-2.000000462318735
 20
-11.00000236965372
 30
0.0
  0
ENDBLK
  5
E01
330
DF6
100
AcDbEntity
  8
0
100
AcDbBlockEnd
  0
BLOCK
  5
2297
330
228B
100
AcDbEntity
  8
0
100
AcDbBlockBegin
  2
*D7
 70
     1
 10
0.0
 20
0.0
 30
0.0
  3
*D7
  1

  0
LINE
  5
2674
330
228B
100
AcDbEntity
  8
AM_5
 62
     3
100
AcDbLine
 10
-119.7499999999998
 20
-4.000000000000473
 30
0.0
 11
-129.5000009999998
 21
-4.0000000000005
 31
0.0
  0
LINE
  5
2675
330
228B
100
AcDbEntity
  8
AM_5
 62
     3
100
AcDbLine
 10
-119.7499999999999
 20
3.999999999999525
 30
0.0
 11
-129.5000009999998
 21
3.999999999999497
 31
0.0
  0
LINE
  5
2676
330
228B
100
AcDbEntity
  8
AM_5
 62
     3
100
AcDbLine
 10
-129.0000009999998
 20
-2.750000000000499
 30
0.0
 11
-129.0000009999998
 21
2.749999999999499
 31
0.0
  0
INSERT
  5
2677
330
228B
100
AcDbEntity
  8
AM_5
 62
     3
100
AcDbBlockReference
  2
_OPEN30
 10
-129.0000009999998
 20
-4.000000000000499
 30
0.0
 41
1.25
 42
1.25
 43
1.25
 50
270.0000000000001
  0
INSERT
  5
2678
330
228B
100
AcDbEntity
  8
AM_5
 62
     3
100
AcDbBlockReference
  2
_OPEN30
 10
-129.0000009999998
 20
3.999999999999499
 30
0.0
 41
1.25
 42
1.25
 43
1.25
 50
90.00000000000015
  0
MTEXT
  5
2679
330
228B
100
AcDbEntity
  8
AM_5
 62
     2
100
AcDbMText
 10
-130.7000009999998
 20
-0.0000000000004826
 30
0.0
 40
1.9
 41
0.0
 71
     5
 72
     1
  1
%%c8
 11
-0.0000000000000028
 21
1.0
 31
0.0
1001
ACAD
1000
MTEXTBEGIN
1070
    73
1070
     1
1070
    44
1040
1.0
1070
    74
1070
     0
1000
MTEXTEND
  0
POINT
  5
267A
330
228B
100
AcDbEntity
  8
DEFPOINTS
 62
     0
100
AcDbPoint
 10
-119.7499999999999
 20
-4.000000000000101
 30
0.0
  0
POINT
  5
267B
330
228B
100
AcDbEntity
  8
DEFPOINTS
 62
     0
100
AcDbPoint
 10
-119.7499999999998
 20
3.999999999999897
 30
0.0
  0
POINT
  5
267C
330
228B
100
AcDbEntity
  8
DEFPOINTS
 62
     0
100
AcDbPoint
 10
-129.0000009999998
 20
3.9999999999999
 30
0.0
  0
ENDBLK
  5
2298
330
228B
100
AcDbEntity
  8
0
100
AcDbBlockEnd
  0
BLOCK
  5
259C
330
258C
100
AcDbEntity
  8
0
100
AcDbBlockBegin
  2
*D8
 70
     1
 10
0.0
 20
0.0
 30
0.0
  3
*D8
  1

  0
LINE
  5
267D
330
258C
100
AcDbEntity
  8
AM_5
100
AcDbLine
 10
0.1710100716627608
 20
-0.4698463103929546
 30
0.0
 11
4.820130796736513
 21
-13.24320052285225
 31
0.0
  0
LINE
  5
267E
330
258C
100
AcDbEntity
  8
AM_5
100
AcDbLine
 10
0.1710100716627526
 20
0.4698463103929626
 30
0.0
 11
4.820130796736282
 21
13.24320052285234
 31
0.0
  0
ARC
  5
267F
330
258C
100
AcDbEntity
  8
AM_5
100
AcDbCircle
 10
-0.0000000000000657
 20
0.0000000000000025
 30
0.0
 40
13.59311963286066
100
AcDbArc
 50
295.2706799729924
 51
64.72932002700855
  0
INSERT
  5
2680
330
258C
100
AcDbEntity
  8
AM_5
100
AcDbBlockReference
  2
_OPEN30
 10
4.649120725073687
 20
-12.7733542124593
 30
0.0
 41
1.25
 42
1.25
 43
1.25
 50
202.6353399864956
  0
INSERT
  5
2681
330
258C
100
AcDbEntity
  8
AM_5
100
AcDbBlockReference
  2
_OPEN30
 10
4.649120725073464
 20
12.77335421245938
 30
0.0
 41
1.25
 42
1.25
 43
1.25
 50
157.3646600135052
  0
MTEXT
  5
2682
330
258C
100
AcDbEntity
  8
AM_5
 62
     2
100
AcDbMText
 10
12.0431196328606
 20
0.0000000000001189
 30
0.0
 40
1.6
 41
0.0
 71
     5
 72
     1
  1
140°
  7
ASAMI
 11
-0.0000000000000028
 21
1.0
 31
0.0
1001
ACAD
1000
MTEXTBEGIN
1070
    73
1070
     1
1070
    44
1040
1.0
1070
    74
1070
     0
1000
MTEXTEND
  0
POINT
  5
2683
330
258C
100
AcDbEntity
  8
DEFPOINTS
 62
     0
100
AcDbPoint
 10
12.48142138964305
 20
-5.383959643925755
 30
0.0
  0
POINT
  5
2684
330
258C
100
AcDbEntity
  8
DEFPOINTS
 62
     0
100
AcDbPoint
 10
-0.0000000000000657
 20
0.0000000000000025
 30
0.0
  0
POINT
  5
2685
330
258C
100
AcDbEntity
  8
DEFPOINTS
 62
     0
100
AcDbPoint
 10
-0.3757819382817846
 20
1.032452390067979
 30
0.0
  0
POINT
  5
2686
330
258C
100
AcDbEntity
  8
DEFPOINTS
 62
     0
100
AcDbPoint
 10
-0.0000000000000657
 20
0.0000000000000025
 30
0.0
  0
POINT
  5
2687
330
258C
100
AcDbEntity
  8
DEFPOINTS
 62
     0
100
AcDbPoint
 10
-0.3757819382817722
 20
-1.032452390067978
 30
0.0
  0
ENDBLK
  5
259D
330
258C
100
AcDbEntity
  8
0
100
AcDbBlockEnd
  0
BLOCK
  5
26E1
330
26D7
100
AcDbEntity
  8
0
100
AcDbBlockBegin
  2
*D9
 70
     1
 10
0.0
 20
0.0
 30
0.0
  3
*D9
  1

  0
LINE
  5
27BA
330
26D7
100
AcDbEntity
  8
AM_5
 62
     3
100
AcDbLine
 10
-1.999999999999983
 20
3.650000769602252
 30
0.0
 11
9.055921024857992
 21
3.650000769602283
 31
0.0
  0
LINE
  5
27BB
330
26D7
100
AcDbEntity
  8
AM_5
 62
     3
100
AcDbLine
 10
-2.000000462318702
 20
-3.649999230398024
 30
0.0
 11
9.055921024858013
 21
-3.649999230397993
 31
0.0
  0
LINE
  5
27BC
330
26D7
100
AcDbEntity
  8
AM_5
 62
     3
100
AcDbLine
 10
8.555921024857996
 20
2.400000769602282
 30
0.0
 11
8.55592102485801
 21
-2.399999230397994
 31
0.0
  0
INSERT
  5
27BD
330
26D7
100
AcDbEntity
  8
AM_5
 62
     3
100
AcDbBlockReference
  2
_OPEN30
 10
8.555921024857992
 20
3.650000769602282
 30
0.0
 41
1.25
 42
1.25
 43
1.25
 50
90.00000000000017
  0
INSERT
  5
27BE
330
26D7
100
AcDbEntity
  8
AM_5
 62
     3
100
AcDbBlockReference
  2
_OPEN30
 10
8.555921024858013
 20
-3.649999230397994
 30
0.0
 41
1.25
 42
1.25
 43
1.25
 50
270.0000000000001
  0
MTEXT
  5
27BF
330
26D7
100
AcDbEntity
  8
AM_5
 62
     2
100
AcDbMText
 10
6.855921024858003
 20
0.0000007696021388
 30
0.0
 40
1.9
 41
0.0
 71
     5
 72
     1
  1
%%c7.3
 11
-0.0000000000000028
 21
1.0
 31
0.0
1001
ACAD
1000
MTEXTBEGIN
1070
    73
1070
     1
1070
    44
1040
1.0
1070
    74
1070
     0
1000
MTEXTEND
  0
POINT
  5
27C0
330
26D7
100
AcDbEntity
  8
DEFPOINTS
 62
     0
100
AcDbPoint
 10
-1.999999999999972
 20
3.650000769602258
 30
0.0
  0
POINT
  5
27C1
330
26D7
100
AcDbEntity
  8
DEFPOINTS
 62
     0
100
AcDbPoint
 10
-2.000000462318714
 20
-3.649999230398018
 30
0.0
  0
POINT
  5
27C2
330
26D7
100
AcDbEntity
  8
DEFPOINTS
 62
     0
100
AcDbPoint
 10
8.555921024858003
 20
-3.64999923039802
 30
0.0
  0
ENDBLK
  5
26E2
330
26D7
100
AcDbEntity
  8
0
100
AcDbBlockEnd
  0
ENDSEC
  0
SECTION
  2
ENTITIES
  0
LINE
  5
C30
330
1F
100
AcDbEntity
  8
AM_0
 48
0.5
100
AcDbLine
 10
-119.9999999999999
 20
-3.750000000000101
 30
0.0
 11
-119.9999999999998
 21
3.749999999999897
 31
0.0
  0
LINE
  5
C9F
330
1F
100
AcDbEntity
  8
AM_7
100
AcDbLine
 10
-121.9999999999998
 20
-0.0000000000001033
 30
0.0
 11
1.555920024858144
 21
0.0000000000000013
 31
0.0
1001
GENIUS_GENODEF_13
1002
{
1000
HIER
1070
     0
1002
}
1002
{
1000
MANEDIT
1070
     0
1002
}
1002
{
1000
NOSEL
1070
     0
1002
}
1002
{
1000
BEHIND
1070
     0
1002
}
1002
{
1000
REACTOR
1002
}
1001
GENIUS_GENOBJ-N-CEN_13
1002
{
1000
OWNER
1000
GEN
1002
}
  0
DIMENSION
  5
CC6
330
1F
100
AcDbEntity
  8
AM_5
100
AcDbDimension
  2
*D5
 10
-2.000000462318736
 20
-16.0000023696538
 30
0.0
 11
-61.00000023115931
 21
-14.3000023696538
 31
0.0
 70
    32
  1
<>
  3
AM_JIS$0
100
AcDbAlignedDimension
 13
-119.9999999999998
 23
-3.764324189635425
 33
0.0
 14
-2.000000462318735
 24
-3.649999230398043
 34
0.0
 50
0.0000000000001132
100
AcDbRotatedDimension
1001
GENIUS_GENDTOL_13
1000

1000
h7
1000

1040
0.0
1001
ACAD
1000
DSTYLE
1002
{
1070
   271
1070
     0
1002
}
  0
DIMENSION
  5
DF5
330
1F
100
AcDbEntity
  8
AM_5
100
AcDbDimension
  2
*D6
 10
-2.000000462318735
 20
-11.00000236965372
 30
0.0
 11
-34.00000023115932
 21
-9.300002369653721
 31
0.0
 70
    32
  1
<>
  3
AM_JIS$0
100
AcDbAlignedDimension
 13
-65.9999999999999
 23
-4.000001369653888
 33
0.0
 14
-2.000000462318735
 24
-3.649999230398043
 34
0.0
 50
0.0000000000001527
100
AcDbRotatedDimension
1001
GENIUS_GENDTOL_13
1000

1000
h7
1000

1040
0.0
1001
ACAD
1000
DSTYLE
1002
{
1070
   271
1070
     0
1002
}
  0
TEXT
  5
19BD
330
1F
100
AcDbEntity
  8
AM_6
100
AcDbText
 10
-69.59568372748309
 20
-26.97293740283332
 30
0.0
 40
2.5
  1
MDW073LHK
 50
0.0000000000001527
 72
     4
 11
-58.76235039414975
 21
-25.72293740283329
 31
0.0
100
AcDbText
  0
ARC
  5
1BE8
330
1F
100
AcDbEntity
  8
AM_11
 48
0.5
100
AcDbCircle
 10
-65.1857889811198
 20
17.66787048062784
 30
0.0
 40
19.53452809651666
100
AcDbArc
 50
244.7482808787518
 51
295.2516148471758
  0
ARC
  5
1BE9
330
1F
100
AcDbEntity
  8
AM_11
 48
0.5
100
AcDbCircle
 10
-65.18578898111982
 20
-17.66785848258815
 30
0.0
 40
19.53452809651666
100
AcDbArc
 50
64.74833051131179
 51
115.2516644797366
  0
LINE
  5
1CA9
330
1F
100
AcDbEntity
  8
AM_0
 48
0.5
100
AcDbLine
 10
-65.9999999999999
 20
-4.000001369653889
 30
0.0
 11
-65.9999999999999
 21
4.000029622605968
 31
0.0
  0
LINE
  5
1E12
330
1F
100
AcDbEntity
  8
AM_0
 48
0.5
100
AcDbLine
 10
-119.7499999999998
 20
3.999999999999897
 30
0.0
 11
-65.9999999999999
 21
3.999999999999942
 31
0.0
1001
GENIUS_GENODEF_13
1002
{
1000
HIER
1070
     0
1002
}
1002
{
1000
MANEDIT
1070
     0
1002
}
1002
{
1000
NOSEL
1070
     0
1002
}
1002
{
1000
BEHIND
1070
     0
1002
}
1002
{
1000
REACTOR
1002
}
1001
GENIUS_GENOBJ-N-CEN_13
1002
{
1000
OWNER
1000
GEN
1002
}
  0
LINE
  5
1E16
330
1F
100
AcDbEntity
  8
AM_0
 48
0.5
100
AcDbLine
 10
-119.7499999999999
 20
-4.000000000000101
 30
0.0
 11
-65.9999999999999
 21
-4.000000000000056
 31
0.0
1001
GENIUS_GENODEF_13
1002
{
1000
HIER
1070
     0
1002
}
1002
{
1000
MANEDIT
1070
     0
1002
}
1002
{
1000
NOSEL
1070
     0
1002
}
1002
{
1000
BEHIND
1070
     0
1002
}
1002
{
1000
REACTOR
1002
}
1001
GENIUS_GENOBJ-N-CEN_13
1002
{
1000
OWNER
1000
GEN
1002
}
  0
LINE
  5
1E1D
330
1F
100
AcDbEntity
  8
AM_0
 48
0.5
100
AcDbLine
 10
-119.9999999999998
 20
3.749999999999897
 30
0.0
 11
-119.7499999999998
 21
3.999999999999897
 31
0.0
1001
GENIUS_GENFIL_13
1070
     0
1040
0.25
1040
0.25
1040
20.0
1040
0.0
1002
{
1002
}
1001
GENIUS_GENODEF_13
1002
{
1000
HIER
1070
     0
1002
}
1002
{
1000
MANEDIT
1070
     0
1002
}
1002
{
1000
NOSEL
1070
     0
1002
}
1002
{
1000
BEHIND
1070
     0
1002
}
1002
{
1000
REACTOR
1002
}
1001
GENIUS_GENOBJ-N-CHA_13
1002
{
1000
OWNER
1000
GEN
1002
}
  0
LINE
  5
1E21
330
1F
100
AcDbEntity
  8
AM_0
 48
0.5
100
AcDbLine
 10
-119.9999999999999
 20
-3.750000000000101
 30
0.0
 11
-119.7499999999999
 21
-4.000000000000101
 31
0.0
1001
GENIUS_GENFIL_13
1070
     0
1040
0.25
1040
0.25
1040
20.0
1040
0.0
1002
{
1002
}
1001
GENIUS_GENODEF_13
1002
{
1000
HIER
1070
     0
1002
}
1002
{
1000
MANEDIT
1070
     0
1002
}
1002
{
1000
NOSEL
1070
     0
1002
}
1002
{
1000
BEHIND
1070
     0
1002
}
1002
{
1000
REACTOR
1002
}
1001
GENIUS_GENOBJ-N-CHA_13
1002
{
1000
OWNER
1000
GEN
1002
}
  0
LINE
  5
1E22
330
1F
100
AcDbEntity
  8
AM_0
100
AcDbLine
 10
-119.7499999999999
 20
-4.000000000000101
 30
0.0
 11
-119.7499999999998
 21
3.999999999999897
 31
0.0
  0
LINE
  5
1E25
330
1F
100
AcDbEntity
  8
AM_0
100
AcDbLine
 10
-65.9999999999999
 20
-4.000001369653889
 30
0.0
 11
-65.39435346876231
 21
-3.650331181810132
 31
0.0
  0
LINE
  5
1E26
330
1F
100
AcDbEntity
  8
AM_0
100
AcDbLine
 10
-65.9999999999999
 20
3.999999999999942
 30
0.0
 11
-65.39468170310811
 21
3.650519318344075
 31
0.0
  0
ARC
  5
1F66
330
1F
100
AcDbEntity
  8
AM_11
 48
0.5
100
AcDbCircle
 10
-81.8524191904159
 20
17.66787048062779
 30
0.0
 40
19.53452809651666
100
AcDbArc
 50
244.7482808787518
 51
295.2516148471758
  0
ARC
  5
1F67
330
1F
100
AcDbEntity
  8
AM_11
 48
0.5
100
AcDbCircle
 10
-81.85241919041592
 20
-17.66785848258821
 30
0.0
 40
19.53452809651666
100
AcDbArc
 50
64.74833051131179
 51
115.2516644797366
  0
ARC
  5
1F68
330
1F
100
AcDbEntity
  8
AM_11
 48
0.5
100
AcDbCircle
 10
-98.519049399712
 20
17.66787048062773
 30
0.0
 40
19.53452809651666
100
AcDbArc
 50
244.7482808787518
 51
295.2516148471758
  0
ARC
  5
1F69
330
1F
100
AcDbEntity
  8
AM_11
 48
0.5
100
AcDbCircle
 10
-98.51904939971204
 20
-17.66785848258826
 30
0.0
 40
19.53452809651666
100
AcDbArc
 50
64.74833051131179
 51
115.2516644797366
  0
ARC
  5
1F6A
330
1F
100
AcDbEntity
  8
AM_11
 48
0.5
100
AcDbCircle
 10
-115.1856796090081
 20
17.66787048062767
 30
0.0
 40
19.53452809651666
100
AcDbArc
 50
255.732350805167
 51
295.2516148471758
  0
ARC
  5
1F6B
330
1F
100
AcDbEntity
  8
AM_11
 48
0.5
100
AcDbCircle
 10
-115.1856796090081
 20
-17.66785848258832
 30
0.0
 40
19.53452809651666
100
AcDbArc
 50
64.74833051131179
 51
104.2676491948328
  0
LINE
  5
220F
330
1F
100
AcDbEntity
  8
AM_0
100
AcDbLine
 10
-65.39468170310833
 20
-3.650331181810133
 30
0.0
 11
-65.39468170310811
 21
3.650519318344075
 31
0.0
  0
DIMENSION
  5
228A
330
1F
100
AcDbEntity
  8
AM_5
100
AcDbDimension
  2
*D7
 10
-129.0000009999998
 20
3.9999999999999
 30
0.0
 11
-129.0000009999998
 21
-0.0000000000001026
 31
0.0
 70
   160
  1
%%c<>
 51
359.9999999999998
  3
AM_JIS$0
100
AcDbAlignedDimension
 13
-119.7499999999999
 23
-4.000000000000101
 33
0.0
 14
-119.7499999999998
 24
3.999999999999897
 34
0.0
 50
270.0000000000002
100
AcDbRotatedDimension
1001
ACAD
1000
DSTYLE
1002
{
1070
   271
1070
     0
1002
}
1001
GENIUS_GENDTOL_13
1000

1000
h7
1000

1040
0.0
  0
ELLIPSE
  5
252F
330
1F
100
AcDbEntity
  8
AM_0
 48
0.5
100
AcDbEllipse
 10
6.998938941977094
 20
6.518511470746472
 30
0.0
 11
-6.499359672245508
 21
6.499359672245508
 31
0.0
210
0.0
220
0.0
230
1.0
 40
0.9999999999999978
 41
1.171329590070667
 42
1.424984195904709
  0
LINE
  5
2533
330
1F
100
AcDbEntity
  8
AM_0
100
AcDbLine
 10
-0.3757819382817846
 20
1.032452390067979
 30
0.0
 11
-0.0000000000000657
 21
0.0000000000000025
 31
0.0
  0
LINE
  5
2534
330
1F
100
AcDbEntity
  8
AM_0
100
AcDbLine
 10
-0.0000000000000657
 20
0.0000000000000025
 30
0.0
 11
-0.3757819382817722
 21
-1.032452390067978
 31
0.0
  0
LINE
  5
2535
330
1F
100
AcDbEntity
  8
AM_0
 48
0.5
100
AcDbLine
 10
-1.51649379259026
 20
3.058633200997604
 30
0.0
 11
-1.999999999999972
 21
3.650000769602258
 31
0.0
  0
ELLIPSE
  5
254F
330
1F
100
AcDbEntity
  8
AM_0
 48
0.5
100
AcDbEllipse
 10
6.998938941978924
 20
-6.518511470744941
 30
0.0
 11
-6.499359672243684
 21
-6.499359672247334
 31
0.0
210
0.0
220
0.0
230
-1.0
 40
0.9999999999999978
 41
1.171329590070667
 42
1.424984195904709
  0
LINE
  5
2550
330
1F
100
AcDbEntity
  8
AM_0
 48
0.5
100
AcDbLine
 10
-1.516493792589402
 20
-3.058633200998463
 30
0.0
 11
-2.000000462318735
 21
-3.649999230398043
 31
0.0
  0
DIMENSION
  5
258B
330
1F
100
AcDbEntity
  8
AM_5
100
AcDbDimension
  2
*D8
 10
-0.3757819382817722
 20
-1.032452390067978
 30
0.0
 11
12.0431196328606
 21
0.0000000000000819
 31
0.0
 70
    34
  1
<>
 51
359.9999999999998
  3
AM_JIS$2
100
AcDb2LineAngularDimension
 13
-0.3757819382817846
 23
1.032452390067979
 33
0.0
 14
-0.0000000000000657
 24
0.0000000000000025
 34
0.0
 15
-0.0000000000000657
 25
0.0000000000000025
 35
0.0
 16
12.48142138964305
 26
-5.383959643925755
 36
0.0
1001
ACAD
1000
DSTYLE
1002
{
1070
   179
1070
     3
1002
}
1001
GENIUS_GENDTOL_13
1000

1000
h7
1000

1040
0.0
  0
DIMENSION
  5
26D6
330
1F
100
AcDbEntity
  8
AM_5
100
AcDbDimension
  2
*D9
 10
8.555921024858003
 20
-3.64999923039802
 30
0.0
 11
6.855921024858003
 21
0.0000007696021188
 31
0.0
 70
    32
  1
%%c<>
 51
359.9999999999998
  3
AM_JIS$0
100
AcDbAlignedDimension
 13
-1.999999999999972
 23
3.650000769602258
 33
0.0
 14
-2.000000462318714
 24
-3.649999230398018
 34
0.0
 50
89.99999999999886
100
AcDbRotatedDimension
1001
ACAD
1000
DSTYLE
1002
{
1070
   271
1070
     1
1002
}
1001
GENIUS_GENDTOL_13
1000

1000
h7
1000

1040
0.0
  0
LINE
  5
276D
330
1F
100
AcDbEntity
  8
AM_0
100
AcDbLine
 10
-60.6363921781118
 20
-3.650331181810168
 30
0.0
 11
-65.39468170310835
 21
-3.650331181810133
 31
0.0
  0
LINE
  5
276E
330
1F
100
AcDbEntity
  8
AM_0
100
AcDbLine
 10
-59.47579133114018
 20
3.650519318344023
 30
0.0
 11
-65.39468170310811
 21
3.650519318344075
 31
0.0
  0
LINE
  5
276F
330
1F
100
AcDbEntity
  8
AM_0
 48
0.5
100
AcDbLine
 10
-4.113971477864994
 20
3.650000769602304
 30
0.0
 11
-1.999999999999972
 21
3.650000769602258
 31
0.0
  0
LINE
  5
2770
330
1F
100
AcDbEntity
  8
AM_0
 48
0.5
100
AcDbLine
 10
-0.0000000000000195
 20
-0.0000000000000286
 30
0.0
 11
-1.635888004307068
 21
1.382024467148113
 31
0.0
  0
LINE
  5
2771
330
1F
100
AcDbEntity
  8
AM_0
 48
0.5
100
AcDbLine
 10
-4.113971477865153
 20
-3.649999230397694
 30
0.0
 11
-2.000000462318735
 21
-3.649999230398043
 31
0.0
  0
LINE
  5
2772
330
1F
100
AcDbEntity
  8
AM_0
 48
0.5
100
AcDbLine
 10
-26.61365581253422
 20
-3.649999230397295
 30
0.0
 11
-16.01954627644889
 21
-3.649999230397444
 31
0.0
  0
LINE
  5
2773
330
1F
100
AcDbEntity
  8
AM_0
 48
0.5
100
AcDbLine
 10
-29.37834907185874
 20
3.650000769602836
 30
0.0
 11
-16.01954627644873
 21
3.650000769602554
 31
0.0
  0
LINE
  5
2774
330
1F
100
AcDbEntity
  8
AM_0
100
AcDbLine
 10
-51.87812019002315
 20
3.650000769603236
 30
0.0
 11
-36.97602021297582
 21
3.650519318343627
 31
0.0
  0
LINE
  5
2775
330
1F
100
AcDbEntity
  8
AM_0
 48
0.5
100
AcDbLine
 10
-51.87812495841702
 20
-3.649999230396715
 30
0.0
 11
-38.51922885703529
 21
-3.649999230396967
 31
0.0
  0
LINE
  5
2776
330
1F
100
AcDbEntity
  8
AM_11
 48
0.5
100
AcDbLine
 10
-36.97602021297582
 20
3.650519318343627
 30
0.0
 11
-29.37833881765719
 21
3.650000769602836
 31
0.0
  0
LINE
  5
2777
330
1F
100
AcDbEntity
  8
AM_11
 48
0.5
100
AcDbLine
 10
-38.51923061111644
 20
-3.649999230397047
 30
0.0
 11
-26.61365581253423
 21
-3.650517779137916
 31
0.0
  0
LINE
  5
2778
330
1F
100
AcDbEntity
  8
AM_11
 48
0.5
100
AcDbLine
 10
-16.01954627644889
 20
-3.649999230397444
 30
0.0
 11
-4.113971477865153
 21
-3.649999230397694
 31
0.0
  0
LINE
  5
2779
330
1F
100
AcDbEntity
  8
AM_11
 48
0.5
100
AcDbLine
 10
-16.01954627644873
 20
3.650000769602554
 30
0.0
 11
-4.113971477864994
 21
3.650000769602304
 31
0.0
  0
ELLIPSE
  5
277A
330
1F
100
AcDbEntity
  8
AM_11
 48
0.5
100
AcDbEllipse
 10
-31.85245564779093
 20
16.95788411536681
 30
0.0
 11
19.53452809651665
 21
0.0000000000000663
 31
0.0
210
0.0
220
0.0
230
1.0
 40
0.9598148148148148
 41
4.271663339930079
 42
5.153112800913373
  0
ELLIPSE
  5
277B
330
1F
100
AcDbEntity
  8
AM_11
 48
0.5
100
AcDbEllipse
 10
-31.85245564779139
 20
-16.95787203580883
 30
0.0
 11
-19.53452809651667
 21
0.0000000000002051
 31
0.0
210
0.0
220
0.0
230
1.0
 40
0.9598148148148128
 41
4.271664206181684
 42
5.15311366716499
  0
ELLIPSE
  5
277C
330
1F
100
AcDbEntity
  8
AM_11
 48
0.5
100
AcDbEllipse
 10
-48.51912231445338
 20
-16.95787203580862
 30
0.0
 11
-19.53452809651666
 21
0.0000000000001226
 31
0.0
210
0.0
220
0.0
230
1.0
 40
0.9598148148148137
 41
4.27166420618168
 42
5.153113667164986
  0
ELLIPSE
  5
277D
330
1F
100
AcDbEntity
  8
AM_11
 48
0.5
100
AcDbEllipse
 10
-48.51912231445293
 20
16.95788411536702
 30
0.0
 11
-19.53452809651663
 21
0.0000000000001617
 31
0.0
210
0.0
220
0.0
230
1.0
 40
0.9598148148148153
 41
1.130070686340298
 42
2.011520147323591
  0
ELLIPSE
  5
277E
330
1F
100
AcDbEntity
  8
AM_11
 48
0.5
100
AcDbEllipse
 10
-15.18578898112472
 20
-16.95787203580906
 30
0.0
 11
-19.53452809651663
 21
0.0000000000001573
 31
0.0
210
0.0
220
0.0
230
1.0
 40
0.9598148148148148
 41
4.271664206181681
 42
5.153113667164989
  0
ELLIPSE
  5
277F
330
1F
100
AcDbEntity
  8
AM_11
 48
0.5
100
AcDbEllipse
 10
-15.18578898112426
 20
16.95788411536658
 30
0.0
 11
-19.53452809651665
 21
0.0000000000002398
 31
0.0
210
0.0
220
0.0
230
1.0
 40
0.9598148148148142
 41
1.130070686340306
 42
2.011520147323595
  0
ELLIPSE
  5
2780
330
1F
100
AcDbEntity
  8
AM_0
 48
0.5
100
AcDbEllipse
 10
-6.256098646553932
 20
6.942702190874396
 30
0.0
 11
-5.289063119081036
 21
7.900819151941454
 31
0.0
210
0.0
220
0.0
230
0.9999999999999998
 40
0.6073063968335336
 41
3.091227902464876
 42
3.375190440404561
  0
ELLIPSE
  5
2781
330
1F
100
AcDbEntity
  8
AM_0
 48
0.5
100
AcDbEllipse
 10
-6.036442693078551
 20
6.126023698795573
 30
0.0
 11
8.367849970969787
 21
6.319893552529513
 31
0.0
210
0.0
220
0.0
230
1.0
 40
0.8315296358883188
 41
4.542106192260992
 42
4.602036711458866
  0
ELLIPSE
  5
2782
330
1F
100
AcDbEntity
  8
AM_0
 48
0.5
100
AcDbEllipse
 10
-1.475464632491062
 20
-1.297458128532846
 30
0.0
 11
-0.5099038878537497
 21
0.3084477734470032
 31
0.0
210
0.0
220
0.0
230
0.9999999999999998
 40
0.5067439170361681
 41
4.500244919015075
 42
7.643685260344586
  0
ELLIPSE
  5
2783
330
1F
100
AcDbEntity
  8
AM_0
 48
0.5
100
AcDbEllipse
 10
-1.475464632491062
 20
-1.297458128532846
 30
0.0
 11
-0.1009702055185599
 21
0.5993998290612623
 31
0.0
210
0.0
220
0.0
230
1.0
 40
0.4870796163439304
 41
1.811930426898411
 42
4.947272316610385
  0
ELLIPSE
  5
2784
330
1F
100
AcDbEntity
  8
AM_0
 48
0.5
100
AcDbEllipse
 10
3.908992358985527
 20
-1.773765412616659
 30
0.0
 11
-0.0000000000003328
 21
6.358558399022023
 31
0.0
210
0.0
220
0.0
230
1.0
 40
0.972602739726021
 41
1.575304363691307
 42
1.870327662799679
  0
ELLIPSE
  5
2785
330
1F
100
AcDbEntity
  8
AM_0
 48
0.5
100
AcDbEllipse
 10
3.351196164573214
 20
3.600228506562299
 30
0.0
 11
-0.0000000000005907
 21
7.915476608524377
 31
0.0
210
0.0
220
0.0
230
1.0
 40
0.9726027397260251
 41
1.951257656000273
 42
2.32203402262826
  0
SPLINE
  5
2786
330
1F
100
AcDbEntity
  8
AM_0
 48
0.5
100
AcDbSpline
210
0.0
220
0.0
230
1.0
 70
     8
 71
     3
 72
    25
 73
    21
 74
     0
 42
0.0000000001
 43
0.0000000001
 40
6.846175049578289
 40
6.846175049578289
 40
6.846175049578289
 40
6.846175049578289
 40
7.604337694224321
 40
8.711974558287883
 40
9.814980593243754
 40
10.91239053451967
 40
12.0033633515982
 40
13.08720139956839
 40
14.16337181880432
 40
15.23152222380919
 40
16.29148850140128
 40
17.34331105512262
 40
18.38723020264746
 40
19.42369128463655
 40
20.45333379090873
 40
21.47697865721768
 40
22.49561244472435
 40
23.5103574802404
 40
24.52244778960836
 40
25.53320666051913
 40
25.53320666051913
 40
25.53320666051913
 40
25.53320666051913
 10
-3.796906315298304
 20
0.6606743658381637
 30
0.0
 10
-3.932821759016313
 20
0.7247618743370672
 30
0.0
 10
-4.267588757845894
 20
0.8818366489516824
 30
0.0
 10
-4.801704811147486
 20
1.128500589305267
 30
0.0
 10
-5.399359502562951
 20
1.397556228942747
 30
0.0
 10
-5.997044250420996
 20
1.658015614912784
 30
0.0
 10
-6.594764189947511
 20
1.908277296437331
 30
0.0
 10
-7.192525981217666
 20
2.146797284519896
 30
0.0
 10
-7.790335151650443
 20
2.372104650218947
 30
0.0
 10
-8.388194468787432
 20
2.582814716692544
 30
0.0
 10
-8.986111296721706
 20
2.777616167903922
 30
0.0
 10
-9.584084825802499
 20
2.955314474035289
 30
0.0
 10
-10.1821193511482
 20
3.114800799516915
 30
0.0
 10
-10.78021276226746
 20
3.255088108346207
 30
0.0
 10
-11.37836272270515
 20
3.37531653969092
 30
0.0
 10
-11.97656590403787
 20
3.474689163741654
 30
0.0
 10
-12.57481299846432
 20
3.552751178564899
 30
0.0
 10
-13.17309741269436
 20
3.608442308323635
 30
0.0
 10
-13.77140943476912
 20
3.643487475544509
 30
0.0
 10
-14.17038242962484
 20
3.647830424579081
 30
0.0
 10
-14.36973762512619
 20
3.650000469832769
 30
0.0
  0
SPLINE
  5
2787
330
1F
100
AcDbEntity
  8
AM_0
 48
0.5
100
AcDbSpline
210
0.0
220
0.0
230
1.0
 70
     8
 71
     3
 72
    10
 73
     6
 74
     0
 42
0.0000000001
 43
0.0000000001
 40
0.0
 40
0.0
 40
0.0
 40
0.0
 40
2.69986029516136
 40
4.147722969032201
 40
6.285750005020438
 40
6.285750005020438
 40
6.285750005020438
 40
6.285750005020438
 10
-3.796810658777211
 20
0.6606310138592276
 30
0.0
 10
-3.370981688899094
 20
0.3215207912224421
 30
0.0
 10
-2.716792061973536
 20
-0.1994451498616196
 30
0.0
 10
-1.169721473168839
 20
0.0527635887704945
 30
0.0
 10
-1.461079864363215
 20
0.9022359926669119
 30
0.0
 10
-1.653590873613996
 20
1.420015585887633
 30
0.0
  0
ELLIPSE
  5
2788
330
1F
100
AcDbEntity
  8
AM_11
 48
0.5
100
AcDbEllipse
 10
1.480877685542467
 20
17.19672755361097
 30
0.0
 11
19.53452809651637
 21
0.000000000004265
 31
0.0
210
0.0
220
0.0
230
1.0
 40
0.9733333333333442
 41
4.271663339929863
 42
4.433393390970557
  0
SPLINE
  5
2789
330
1F
100
AcDbEntity
  8
AM_0
100
AcDbSpline
210
0.0
220
0.0
230
1.0
 70
     8
 71
     3
 72
    17
 73
    13
 74
     0
 42
0.0000000001
 43
0.0000000001
 40
1.580019955310467
 40
1.580019955310467
 40
1.580019955310467
 40
1.580019955310467
 40
2.030549285115227
 40
3.082371838836284
 40
4.126290986361125
 40
5.162752068350215
 40
6.192395305374981
 40
7.216039564037012
 40
8.234688489606833
 40
9.249433870634691
 40
10.26152376260694
 40
11.27226744710342
 40
11.27226744710342
 40
11.27226744710342
 40
11.27226744710352
 10
-10.06629444425116
 20
-2.693806710452384
 30
0.0
 10
-10.15571431541304
 20
-2.721550689648989
 30
0.0
 10
-10.45440672678997
 20
-2.812485287203986
 30
0.0
 10
-10.96434874562856
 20
-2.955119457165359
 30
0.0
 10
-11.59598737397017
 20
-3.114850805805134
 30
0.0
 10
-12.22779989183477
 20
-3.255073722116899
 30
0.0
 10
-12.85964135912838
 20
-3.375317306032137
 30
0.0
 10
-13.49155166441745
 20
-3.474706899914537
 30
0.0
 10
-14.12350562657624
 20
-3.552675331176564
 30
0.0
 10
-14.75549893924745
 20
-3.608717338295082
 30
0.0
 10
-15.38751603175252
 20
-3.642472172362006
 30
0.0
 10
-15.80896302409952
 20
-3.649999251282941
 30
0.0
 10
-16.01954627644884
 20
-3.649999230397445
 30
0.0
  0
SPLINE
  5
278A
330
1F
100
AcDbEntity
  8
AM_0
100
AcDbSpline
210
0.0
220
0.0
230
1.0
 70
     8
 71
     3
 72
    22
 73
    18
 74
     0
 42
0.0000000001
 43
0.0000000001
 40
17.17441611292
 40
17.17441611292
 40
17.17441611292
 40
17.17441611292
 40
17.38177636558528
 40
18.41823744757437
 40
19.46215659509824
 40
20.51397914882054
 40
21.57394542641293
 40
22.64209583141747
 40
23.71826625065247
 40
24.80210429862395
 40
25.8930771157021
 40
26.99048705697709
 40
28.09349309193389
 40
29.20112995599786
 40
30.31233024745139
 40
31.42594771747373
 40
32.5407895042663
 40
32.54078950426994
 40
32.54078950426994
 40
32.54078950426994
 10
-18.43181555987029
 20
-3.277725647816458
 30
0.0
 10
-18.47413632538442
 20
-3.269276255814916
 30
0.0
 10
-18.72782620192537
 20
-3.217810085592222
 30
0.0
 10
-19.19257176038077
 20
-3.114613715824526
 30
0.0
 10
-19.82429832361458
 20
-2.955127639014511
 30
0.0
 10
-20.45596051523767
 20
-2.777429265494204
 30
0.0
 10
-21.08756279474969
 20
-2.582627832571978
 30
0.0
 10
-21.71910432784797
 20
-2.371917761049183
 30
0.0
 10
-22.35059288807645
 20
-2.146610397068894
 30
0.0
 10
-22.98203139940464
 20
-1.908090407197325
 30
0.0
 10
-23.61342570414034
 20
-1.657828731142634
 30
0.0
 10
-24.2447828229879
 20
-1.397369324927689
 30
0.0
 10
-24.87610823574618
 20
-1.128313761317793
 30
0.0
 10
-25.50740829772615
 20
-0.8523173156052006
 30
0.0
 10
-26.13868860485338
 20
-0.5710770535210339
 30
0.0
 10
-26.76995850899666
 20
-0.2863283794949622
 30
0.0
 10
-27.19072250461057
 20
-0.0953534839506337
 30
0.0
 10
-27.40122008931644
 20
0.0001864182035222
 30
0.0
  0
SPLINE
  5
278B
330
1F
100
AcDbEntity
  8
AM_0
100
AcDbSpline
210
0.0
220
0.0
230
1.0
 70
     8
 71
     3
 72
    11
 73
     7
 74
     0
 42
0.0000000001
 43
0.0000000001
 40
11.27226913003534
 40
11.27226913003534
 40
11.27226913003534
 40
11.2722691300354
 40
12.28301561507924
 40
13.29510212255852
 40
14.30984805882082
 40
15.18258238371378
 40
15.18258238371378
 40
15.18258238371378
 40
15.18258238371378
 10
-16.01954627644887
 20
-3.649999230397445
 30
0.0
 10
-16.22932878760031
 20
-3.632135069714367
 30
0.0
 10
-16.64849812019562
 20
-3.588886714180656
 30
0.0
 10
-17.27508760679947
 20
-3.501644083613784
 30
0.0
 10
-17.86973207807963
 20
-3.397442327183028
 30
0.0
 10
-18.25431321717344
 20
-3.317339335771495
 30
0.0
 10
-18.43153915700578
 20
-3.277770670538548
 30
0.0
  0
SPLINE
  5
278C
330
1F
100
AcDbEntity
  8
AM_0
100
AcDbSpline
210
0.0
220
0.0
230
1.0
 70
     8
 71
     3
 72
    55
 73
    51
 74
     0
 42
0.0000000001
 43
0.0000000001
 40
0.0
 40
0.0
 40
0.0
 40
0.0
 40
1.010743684496582
 40
2.022833576467832
 40
3.037578957496688
 40
4.056212745003489
 40
5.079857003664532
 40
6.109500240690281
 40
7.145961322679372
 40
8.189895241603872
 40
9.241717795325891
 40
10.30168407291828
 40
11.36983447792315
 40
12.44600489715814
 40
13.52984294512926
 40
14.62081576220742
 40
15.7182257034828
 40
16.82123173843959
 40
17.92886860250316
 40
19.0400688939571
 40
20.15368796660465
 40
21.26852814259644
 40
22.38336992938901
 40
23.49698739941135
 40
24.6081876908653
 40
25.71582455492886
 40
26.81883757994213
 40
27.91624752121713
 40
29.00722033829659
 40
30.09105838626677
 40
31.16722880550176
 40
32.23537921050758
 40
33.29534548809967
 40
34.347168041821
 40
35.39108718934584
 40
36.42754827133493
 40
37.45720575381954
 40
38.48085062012849
 40
39.49948440763516
 40
40.51422944315121
 40
41.52631975251916
 40
42.53706336719636
 40
43.54780698187354
 40
44.55989729124051
 40
45.57464232675757
 40
46.59327611426424
 40
47.6169209805722
 40
48.64656348684535
 40
49.68302456883444
 40
50.58557219878025
 40
50.58557219878025
 40
50.58557219878025
 40
50.58557219878025
 10
-4.113971477865153
 20
-3.649999230397694
 30
0.0
 10
-4.324554732992682
 20
-3.647827568824346
 30
0.0
 10
-4.746001718660497
 20
-3.643481353245989
 30
0.0
 10
-5.378018824570999
 20
-3.608445976445068
 30
0.0
 10
-6.010008952054241
 20
-3.552748879593107
 30
0.0
 10
-6.641959965553285
 20
-3.474687280034993
 30
0.0
 10
-7.273865559191818
 20
-3.375319062109038
 30
0.0
 10
-7.905713266885319
 20
-3.255086100444958
 30
0.0
 10
-8.537505202136353
 20
-3.114798327127173
 30
0.0
 10
-9.169235762227277
 20
-2.955314797356941
 30
0.0
 10
-9.800900643921655
 20
-2.777614730332142
 30
0.0
 10
-10.43250299571971
 20
-2.582813531004402
 30
0.0
 10
-11.0640445091785
 20
-2.3721033960683
 30
0.0
 10
-11.69553307490336
 20
-2.146796049637834
 30
0.0
 10
-12.32697158408419
 20
-1.90827605363035
 30
0.0
 10
-12.95836589188477
 20
-1.658014384451307
 30
0.0
 10
-13.58972300055339
 20
-1.397554956744271
 30
0.0
 10
-14.22104845121716
 20
-1.128499472757233
 30
0.0
 10
-14.85234837096149
 20
-0.852502728381877
 30
0.0
 10
-15.48362951496378
 20
-0.5712634507897837
 30
0.0
 10
-16.11489742016061
 20
-0.2865105834803737
 30
0.0
 10
-16.74616100103261
 20
0.0000000248699821
 30
0.0
 10
-17.37742174805932
 20
0.2865157905898438
 30
0.0
 10
-18.00869176912858
 20
0.5712642235439219
 30
0.0
 10
-18.63997213380582
 20
0.852504352431297
 30
0.0
 10
-19.27127317915092
 20
1.12850214823123
 30
0.0
 10
-19.9026012488555
 20
1.397555336051524
 30
0.0
 10
-20.53395935397246
 20
1.658016084650255
 30
0.0
 10
-21.16535375292537
 20
1.908277550892887
 30
0.0
 10
-21.79679223913015
 20
2.146797597060231
 30
0.0
 10
-22.42828080647202
 20
2.372104943820275
 30
0.0
 10
-23.05982233601667
 20
2.582815028372408
 30
0.0
 10
-23.69142462262647
 20
2.777616426610091
 30
0.0
 10
-24.32308678965723
 20
2.955314924545576
 30
0.0
 10
-24.9548134432243
 20
3.114800543152147
 30
0.0
 10
-25.58660514411331
 20
3.255091137480567
 30
0.0
 10
-26.21845736341121
 20
3.375310366871414
 30
0.0
 10
-26.85036504468725
 20
3.474709341361426
 30
0.0
 10
-27.48231624552485
 20
3.552678408968879
 30
0.0
 10
-28.11430681213404
 20
3.608713734000505
 30
0.0
 10
-28.74632338216935
 20
3.642479159512113
 30
0.0
 10
-29.37835384038551
 20
3.653759070909655
 30
0.0
 10
-30.01038429767171
 20
3.642479159494451
 30
0.0
 10
-30.64240087050227
 20
3.608713734071498
 30
0.0
 10
-31.27439142682015
 20
3.552678408701554
 30
0.0
 10
-31.90634266624237
 20
3.474709342366281
 30
0.0
 10
-32.53824712179384
 20
3.375310847679322
 30
0.0
 10
-33.17009685183449
 20
3.255092366657338
 30
0.0
 10
-33.77316235518091
 20
3.12116884794963
 30
0.0
 10
-34.16443812165724
 20
3.023229312649455
 30
0.0
 10
-34.34596727210119
 20
2.975498599319426
 30
0.0
  0
SPLINE
  5
278D
330
1F
100
AcDbEntity
  8
AM_0
100
AcDbSpline
210
0.0
220
0.0
230
1.0
 70
     8
 71
     3
 72
    46
 73
    42
 74
     0
 42
0.0000000001
 43
0.0000000001
 40
0.0
 40
0.0
 40
0.0
 40
0.0
 40
1.348332046947657
 40
2.024828967632895
 40
2.703918159304097
 40
3.386347665078124
 40
4.072776489761952
 40
4.763750544421347
 40
5.459696642770596
 40
6.160921452191754
 40
6.867565637253344
 40
7.579665907256596
 40
8.297112853413899
 40
9.019671552060676
 40
9.746986763446127
 40
10.47859339096366
 40
11.21393074760089
 40
11.95235532364328
 40
12.69315551794651
 40
13.43556823304427
 40
14.1787950170388
 40
14.92202180103393
 40
15.66443451613169
 40
16.40523471043432
 40
17.14365928647669
 40
17.87899664311455
 40
18.61060327063121
 40
19.3379184820169
 40
20.06048192311554
 40
20.77792886927283
 40
21.49002913927608
 40
22.19667332433747
 40
22.89788836015233
 40
23.59383445850158
 40
24.28480851316097
 40
24.97123685067576
 40
25.65366676154838
 40
26.33276604526152
 40
27.00926273560555
 40
27.68398960851751
 40
28.357818684969
 40
28.357818684969
 40
28.357818684969
 40
28.357818684969
 10
-2.344753033040773
 20
-3.649999230397733
 30
0.0
 10
-2.766220609936665
 20
-3.641684248249386
 30
0.0
 10
-3.399150577409264
 20
-3.629197400697676
 30
0.0
 10
-4.240785156117577
 20
-3.552318174277785
 30
0.0
 10
-4.872742959274581
 20
-3.474803463265751
 30
0.0
 10
-5.50464674508345
 20
-3.375287741431163
 30
0.0
 10
-6.136494848893237
 20
-3.255094305372736
 30
0.0
 10
-6.768284024776316
 20
-3.114797782110102
 30
0.0
 10
-7.400013214580756
 20
-2.955312114432611
 30
0.0
 10
-8.031679606888516
 20
-2.777616567948747
 30
0.0
 10
-8.663284464249228
 20
-2.582813276335038
 30
0.0
 10
-9.294826087837877
 20
-2.372103465088706
 30
0.0
 10
-9.926314623708513
 20
-2.146796030922176
 30
0.0
 10
-10.55775314102168
 20
-1.908276058774128
 30
0.0
 10
-11.18914744644344
 20
-1.658014382765911
 30
0.0
 10
-11.82050455642568
 20
-1.397554958307688
 30
0.0
 10
-12.45183000421411
 20
-1.128499468170864
 30
0.0
 10
-13.08312993419817
 20
-0.8525027452506915
 30
0.0
 10
-13.71441103995682
 20
-0.5712633876538429
 30
0.0
 10
-14.34567908828418
 20
-0.2865108197356095
 30
0.0
 10
-14.97694183006086
 20
0.0000007695445613
 30
0.0
 10
-15.60820457169886
 20
0.2865123591729017
 30
0.0
 10
-16.2394726204422
 20
0.571264926047137
 30
0.0
 10
-16.87075372468039
 20
0.8525042874593344
 30
0.0
 10
-17.50205366030234
 20
1.12850099622976
 30
0.0
 10
-18.13337908718605
 20
1.397556538832427
 30
0.0
 10
-18.76473627458553
 20
1.658015768991157
 30
0.0
 10
-19.39613166626644
 20
1.908278707773217
 30
0.0
 10
-20.02757263704504
 20
2.146796512846409
 30
0.0
 10
-20.65906229939446
 20
2.372105102312302
 30
0.0
 10
-21.29060390827901
 20
2.582814976256015
 30
0.0
 10
-21.92220617107873
 20
2.777616477793951
 30
0.0
 10
-22.55386835472322
 20
2.955314773077394
 30
0.0
 10
-23.18559496585148
 20
3.114801092271291
 30
0.0
 10
-23.81738377608816
 20
3.255088436598828
 30
0.0
 10
-24.4492323431303
 20
3.375316733490066
 30
0.0
 10
-25.08114016179788
 20
3.474690345597816
 30
0.0
 10
-25.71309470863654
 20
3.552750745735037
 30
0.0
 10
-26.34508835419549
 20
3.608442730875152
 30
0.0
 10
-26.97710494065365
 20
3.643487562007293
 30
0.0
 10
-27.39855210281905
 20
3.647830664206055
 30
0.0
 10
-27.60913539540625
 20
3.6500007696028
 30
0.0
  0
SPLINE
  5
278E
330
1F
100
AcDbEntity
  8
AM_0
 48
0.5
100
AcDbSpline
210
0.0
220
0.0
230
1.0
 70
     8
 71
     3
 72
    16
 73
    12
 74
     0
 42
0.0000000001
 43
0.0000000001
 40
0.0
 40
0.0
 40
0.0
 40
0.0
 40
1.010743614677189
 40
2.022833924044153
 40
3.037578959561199
 40
4.056212747067873
 40
5.079857613375832
 40
6.109500119648989
 40
7.14596120163808
 40
8.18989512056258
 40
8.545190612624931
 40
8.545190612624931
 40
8.545190612624931
 40
8.545190612624931
 10
-4.113971477864994
 20
3.650000769602304
 30
0.0
 10
-4.324543064256056
 20
3.649978836207492
 30
0.0
 10
-4.746007377002223
 20
3.642489355594471
 30
0.0
 10
-5.378017040498185
 20
3.608710980592797
 30
0.0
 10
-6.010009477237341
 20
3.552679196458595
 30
0.0
 10
-6.641960126843158
 20
3.474708956595586
 30
0.0
 10
-7.273865054254428
 20
3.375311603509056
 30
0.0
 10
-7.905713479462175
 20
3.255089708075334
 30
0.0
 10
-8.537505636593502
 20
3.114800520124199
 30
0.0
 10
-9.028753321398435
 20
2.990777915569946
 30
0.0
 10
-9.309540454009621
 20
2.914500942981829
 30
0.0
 10
-9.380746502673595
 20
2.894817116587004
 30
0.0
  0
SPLINE
  5
278F
330
1F
100
AcDbEntity
  8
AM_0
100
AcDbSpline
210
0.0
220
0.0
230
1.0
 70
     8
 71
     3
 72
    55
 73
    51
 74
     0
 42
0.0000000001
 43
0.0000000001
 40
0.0
 40
0.0
 40
0.0
 40
0.0
 40
1.010743684496582
 40
2.022833576467832
 40
3.037578957496688
 40
4.056212745003489
 40
5.079857003664532
 40
6.109500240690281
 40
7.145961322679372
 40
8.189895241603872
 40
9.241717795325891
 40
10.30168407291828
 40
11.36983447792315
 40
12.44600489715814
 40
13.52984294512926
 40
14.62081576220742
 40
15.7182257034828
 40
16.82123173843959
 40
17.92886860250316
 40
19.0400688939571
 40
20.15368796660465
 40
21.26852814259644
 40
22.38336992938901
 40
23.49698739941135
 40
24.6081876908653
 40
25.71582455492886
 40
26.81883757994213
 40
27.91624752121713
 40
29.00722033829659
 40
30.09105838626677
 40
31.16722880550176
 40
32.23537921050758
 40
33.29534548809967
 40
34.347168041821
 40
35.39108718934584
 40
36.42754827133493
 40
37.45720575381954
 40
38.48085062012849
 40
39.49948440763516
 40
40.51422944315121
 40
41.52631975251916
 40
42.53706336719636
 40
43.54780698187354
 40
44.55989729124051
 40
45.57464232675757
 40
46.59327611426424
 40
47.6169209805722
 40
48.64656348684535
 40
49.68302456883444
 40
50.58557219878025
 40
50.58557219878025
 40
50.58557219878025
 40
50.58557219878025
 10
-26.61365581253422
 20
-3.649999230397296
 30
0.0
 10
-26.82423906766175
 20
-3.647827568823948
 30
0.0
 10
-27.24568605332957
 20
-3.64348135324559
 30
0.0
 10
-27.87770315924007
 20
-3.608445976444668
 30
0.0
 10
-28.50969328672331
 20
-3.552748879592709
 30
0.0
 10
-29.14164430022236
 20
-3.474687280034594
 30
0.0
 10
-29.77354989386089
 20
-3.37531906210864
 30
0.0
 10
-30.40539760155438
 20
-3.255086100444559
 30
0.0
 10
-31.0371895368054
 20
-3.114798327126775
 30
0.0
 10
-31.66892009689633
 20
-2.955314797356543
 30
0.0
 10
-32.30058497859072
 20
-2.777614730331742
 30
0.0
 10
-32.93218733038878
 20
-2.582813531004002
 30
0.0
 10
-33.56372884384757
 20
-2.372103396067901
 30
0.0
 10
-34.19521740957244
 20
-2.146796049637436
 30
0.0
 10
-34.82665591875328
 20
-1.908276053629952
 30
0.0
 10
-35.45805022655386
 20
-1.658014384450909
 30
0.0
 10
-36.08940733522249
 20
-1.397554956743873
 30
0.0
 10
-36.7207327858862
 20
-1.128499472756834
 30
0.0
 10
-37.35203270563054
 20
-0.8525027283814786
 30
0.0
 10
-37.98331384963285
 20
-0.5712634507893853
 30
0.0
 10
-38.61458175482968
 20
-0.2865105834799753
 30
0.0
 10
-39.24584533570168
 20
0.0000000248703806
 30
0.0
 10
-39.87710608272839
 20
0.2865157905902423
 30
0.0
 10
-40.50837610379764
 20
0.5712642235443204
 30
0.0
 10
-41.13965646847492
 20
0.8525043524316956
 30
0.0
 10
-41.77095751382003
 20
1.128502148231629
 30
0.0
 10
-42.40228558352455
 20
1.397555336051921
 30
0.0
 10
-43.0336436886415
 20
1.658016084650653
 30
0.0
 10
-43.66503808759442
 20
1.908277550893286
 30
0.0
 10
-44.29647657379923
 20
2.14679759706063
 30
0.0
 10
-44.92796514114109
 20
2.372104943820674
 30
0.0
 10
-45.55950667068574
 20
2.582815028372806
 30
0.0
 10
-46.19110895729554
 20
2.777616426610489
 30
0.0
 10
-46.8227711243263
 20
2.955314924545976
 30
0.0
 10
-47.45449777789338
 20
3.114800543152548
 30
0.0
 10
-48.08628947878239
 20
3.255091137480966
 30
0.0
 10
-48.7181416980803
 20
3.375310366871813
 30
0.0
 10
-49.35004937935635
 20
3.474709341361824
 30
0.0
 10
-49.98200058019396
 20
3.552678408969277
 30
0.0
 10
-50.61399114680314
 20
3.608713734000904
 30
0.0
 10
-51.24600771683844
 20
3.64247915951251
 30
0.0
 10
-51.87803817505459
 20
3.653759070910052
 30
0.0
 10
-52.51006863234081
 20
3.642479159494849
 30
0.0
 10
-53.14208520517137
 20
3.608713734071897
 30
0.0
 10
-53.77407576148925
 20
3.552678408701953
 30
0.0
 10
-54.40602700091147
 20
3.474709342366681
 30
0.0
 10
-55.03793145646291
 20
3.37531084767972
 30
0.0
 10
-55.66978118650355
 20
3.255092366657736
 30
0.0
 10
-56.27284668984998
 20
3.121168847950028
 30
0.0
 10
-56.66412245632631
 20
3.023229312649854
 30
0.0
 10
-56.84565160677026
 20
2.975498599319824
 30
0.0
  0
SPLINE
  5
2790
330
1F
100
AcDbEntity
  8
AM_0
100
AcDbSpline
210
0.0
220
0.0
230
1.0
 70
     8
 71
     3
 72
    46
 73
    42
 74
     0
 42
0.0000000001
 43
0.0000000001
 40
0.0
 40
0.0
 40
0.0
 40
0.0
 40
1.348332046947654
 40
2.024828967632893
 40
2.703918159304094
 40
3.386347665078122
 40
4.072776489761951
 40
4.763750544421345
 40
5.459696642770595
 40
6.160921452191748
 40
6.867565637253344
 40
7.579665907256597
 40
8.297112853413899
 40
9.019671552060666
 40
9.746986763446125
 40
10.47859339096365
 40
11.21393074760088
 40
11.95235532364327
 40
12.69315551794651
 40
13.43556823304427
 40
14.1787950170388
 40
14.92202180103393
 40
15.66443451613169
 40
16.40523471043432
 40
17.14365928647669
 40
17.87899664311455
 40
18.61060327063121
 40
19.33791848201689
 40
20.06048192311554
 40
20.77792886927282
 40
21.49002913927608
 40
22.19667332433747
 40
22.89788836015233
 40
23.59383445850157
 40
24.28480851316097
 40
24.97123685067575
 40
25.65366676154837
 40
26.33276604526151
 40
27.00926273560554
 40
27.68398960851752
 40
28.35781868496899
 40
28.35781868496899
 40
28.35781868496899
 40
28.35781868496899
 10
-24.84443736770984
 20
-3.649999230397336
 30
0.0
 10
-25.26590494460574
 20
-3.641684248248988
 30
0.0
 10
-25.89883491207833
 20
-3.629197400697277
 30
0.0
 10
-26.74046949078664
 20
-3.552318174277385
 30
0.0
 10
-27.37242729394366
 20
-3.474803463265354
 30
0.0
 10
-28.00433107975251
 20
-3.375287741430763
 30
0.0
 10
-28.6361791835623
 20
-3.255094305372338
 30
0.0
 10
-29.26796835944538
 20
-3.114797782109704
 30
0.0
 10
-29.8996975492498
 20
-2.955312114432213
 30
0.0
 10
-30.53136394155758
 20
-2.777616567948346
 30
0.0
 10
-31.1629687989183
 20
-2.58281327633464
 30
0.0
 10
-31.79451042250694
 20
-2.372103465088307
 30
0.0
 10
-32.4259989583776
 20
-2.146796030921779
 30
0.0
 10
-33.05743747569075
 20
-1.908276058773725
 30
0.0
 10
-33.68883178111253
 20
-1.658014382765518
 30
0.0
 10
-34.32018889109478
 20
-1.397554958307285
 30
0.0
 10
-34.95151433888314
 20
-1.12849946817047
 30
0.0
 10
-35.58281426886721
 20
-0.8525027452502886
 30
0.0
 10
-36.21409537462587
 20
-0.5712633876534465
 30
0.0
 10
-36.84536342295325
 20
-0.286510819735211
 30
0.0
 10
-37.47662616472993
 20
0.0000007695449606
 30
0.0
 10
-38.10788890636794
 20
0.2865123591732995
 30
0.0
 10
-38.73915695511128
 20
0.5712649260475354
 30
0.0
 10
-39.37043805934949
 20
0.8525042874597332
 30
0.0
 10
-40.00173799497144
 20
1.128500996230157
 30
0.0
 10
-40.6330634218551
 20
1.397556538832827
 30
0.0
 10
-41.26442060925458
 20
1.658015768991556
 30
0.0
 10
-41.89581600093549
 20
1.908278707773615
 30
0.0
 10
-42.52725697171412
 20
2.146796512846806
 30
0.0
 10
-43.15874663406352
 20
2.372105102312699
 30
0.0
 10
-43.79028824294809
 20
2.582814976256414
 30
0.0
 10
-44.4218905057478
 20
2.777616477794349
 30
0.0
 10
-45.05355268939229
 20
2.955314773077793
 30
0.0
 10
-45.68527930052056
 20
3.114801092271689
 30
0.0
 10
-46.31706811075724
 20
3.255088436599225
 30
0.0
 10
-46.9489166777994
 20
3.375316733490465
 30
0.0
 10
-47.58082449646697
 20
3.474690345598214
 30
0.0
 10
-48.21277904330564
 20
3.552750745735437
 30
0.0
 10
-48.84477268886459
 20
3.60844273087555
 30
0.0
 10
-49.47678927532275
 20
3.64348756200769
 30
0.0
 10
-49.89823643748814
 20
3.647830664206453
 30
0.0
 10
-50.10881973007535
 20
3.650000769603197
 30
0.0
  0
SPLINE
  5
2791
330
1F
100
AcDbEntity
  8
AM_0
100
AcDbSpline
210
0.0
220
0.0
230
1.0
 70
     8
 71
     3
 72
    22
 73
    18
 74
     0
 42
0.0000000001
 43
0.0000000001
 40
17.17441611292
 40
17.17441611292
 40
17.17441611292
 40
17.17441611292
 40
17.38177636558528
 40
18.41823744757437
 40
19.46215659509824
 40
20.51397914882054
 40
21.57394542641293
 40
22.64209583141747
 40
23.71826625065247
 40
24.80210429862395
 40
25.8930771157021
 40
26.99048705697709
 40
28.09349309193389
 40
29.20112995599786
 40
30.31233024745139
 40
31.42594771747373
 40
32.5407895042663
 40
32.54078950426994
 40
32.54078950426994
 40
32.54078950426994
 10
-40.93149989453936
 20
-3.277725647816058
 30
0.0
 10
-40.97382066005347
 20
-3.269276255814519
 30
0.0
 10
-41.22751053659444
 20
-3.217810085591823
 30
0.0
 10
-41.69225609504984
 20
-3.114613715824127
 30
0.0
 10
-42.32398265828365
 20
-2.955127639014113
 30
0.0
 10
-42.95564484990674
 20
-2.777429265493806
 30
0.0
 10
-43.58724712941876
 20
-2.58262783257158
 30
0.0
 10
-44.21878866251704
 20
-2.371917761048785
 30
0.0
 10
-44.85027722274551
 20
-2.146610397068494
 30
0.0
 10
-45.48171573407373
 20
-1.908090407196926
 30
0.0
 10
-46.11311003880944
 20
-1.657828731142236
 30
0.0
 10
-46.74446715765699
 20
-1.39736932492729
 30
0.0
 10
-47.37579257041522
 20
-1.128313761317394
 30
0.0
 10
-48.00709263239519
 20
-0.852317315604802
 30
0.0
 10
-48.63837293952245
 20
-0.5710770535206354
 30
0.0
 10
-49.26964284366574
 20
-0.2863283794945637
 30
0.0
 10
-49.69040683927964
 20
-0.0953534839502352
 30
0.0
 10
-49.90090442398551
 20
0.0001864182039207
 30
0.0
  0
SPLINE
  5
2792
330
1F
100
AcDbEntity
  8
AM_0
100
AcDbSpline
210
0.0
220
0.0
230
1.0
 70
     8
 71
     3
 72
    17
 73
    13
 74
     0
 42
0.0000000001
 43
0.0000000001
 40
1.580019955310467
 40
1.580019955310467
 40
1.580019955310467
 40
1.580019955310467
 40
2.030549285115227
 40
3.082371838836284
 40
4.126290986361125
 40
5.162752068350215
 40
6.192395305374981
 40
7.216039564037012
 40
8.234688489606833
 40
9.249433870634691
 40
10.26152376260694
 40
11.27226744710342
 40
11.27226744710342
 40
11.27226744710342
 40
11.27226744710352
 10
-32.56597877892023
 20
-2.693806710451986
 30
0.0
 10
-32.6553986500821
 20
-2.72155068964859
 30
0.0
 10
-32.95409106145903
 20
-2.812485287203588
 30
0.0
 10
-33.46403308029763
 20
-2.955119457164959
 30
0.0
 10
-34.09567170863922
 20
-3.114850805804735
 30
0.0
 10
-34.72748422650382
 20
-3.255073722116501
 30
0.0
 10
-35.35932569379744
 20
-3.375317306031739
 30
0.0
 10
-35.9912359990865
 20
-3.474706899914139
 30
0.0
 10
-36.62318996124529
 20
-3.552675331176165
 30
0.0
 10
-37.2551832739165
 20
-3.608717338294683
 30
0.0
 10
-37.88720036642157
 20
-3.642472172361607
 30
0.0
 10
-38.30864735876859
 20
-3.649999251282543
 30
0.0
 10
-38.5192306111179
 20
-3.649999230397047
 30
0.0
  0
SPLINE
  5
2793
330
1F
100
AcDbEntity
  8
AM_0
100
AcDbSpline
210
0.0
220
0.0
230
1.0
 70
     8
 71
     3
 72
    11
 73
     7
 74
     0
 42
0.0000000001
 43
0.0000000001
 40
11.27226913003534
 40
11.27226913003534
 40
11.27226913003534
 40
11.2722691300354
 40
12.28301561507924
 40
13.29510212255852
 40
14.30984805882082
 40
15.18258238371378
 40
15.18258238371378
 40
15.18258238371378
 40
15.18258238371378
 10
-38.51923061111793
 20
-3.649999230397047
 30
0.0
 10
-38.72901312226936
 20
-3.632135069713968
 30
0.0
 10
-39.14818245486467
 20
-3.588886714180258
 30
0.0
 10
-39.77477194146851
 20
-3.501644083613386
 30
0.0
 10
-40.36941641274868
 20
-3.39744232718263
 30
0.0
 10
-40.7539975518425
 20
-3.317339335771097
 30
0.0
 10
-40.93122349167485
 20
-3.277770670538148
 30
0.0
  0
SPLINE
  5
2794
330
1F
100
AcDbEntity
  8
AM_0
100
AcDbSpline
210
0.0
220
0.0
230
1.0
 70
     8
 71
     3
 72
    23
 73
    19
 74
     0
 42
0.0000000001
 43
0.0000000001
 40
16.03460024169435
 40
16.03460024169435
 40
16.03460024169435
 40
16.03460024169435
 40
16.35212704903564
 40
17.38177054169784
 40
18.41822485651776
 40
19.46214173629503
 40
20.51396345435107
 40
21.57393551351153
 40
22.64208202342361
 40
23.7182574881101
 40
24.80209208578934
 40
25.89306333925047
 40
26.99048218457928
 40
28.09348763352352
 40
29.20111863782268
 40
30.31232390128032
 40
31.42594612798585
 40
32.5407912310448
 40
32.5407912310486
 40
32.5407912310486
 40
32.5407912310486
 10
-36.97602021297582
 20
3.650519318343628
 30
0.0
 10
-36.91108822252825
 20
3.638197561107222
 30
0.0
 10
-36.63587791486754
 20
3.584539776377185
 30
0.0
 10
-36.15109199411131
 20
3.479405536409
 30
0.0
 10
-35.52329295763637
 20
3.323072071313159
 30
0.0
 10
-34.89607705043617
 20
3.147535648160987
 30
0.0
 10
-34.26940720982254
 20
2.953812182236782
 30
0.0
 10
-33.64326119417231
 20
2.742981686199961
 30
0.0
 10
-33.0176028137464
 20
2.516249356075866
 30
0.0
 10
-32.39238850007324
 20
2.274934717153243
 30
0.0
 10
-31.76758272623001
 20
2.02040432016277
 30
0.0
 10
-31.14313539927219
 20
1.754139218177624
 30
0.0
 10
-30.5189959147269
 20
1.47768705900994
 30
0.0
 10
-29.89512268796044
 20
1.192637326678759
 30
0.0
 10
-29.27146352025762
 20
0.9006475463416157
 30
0.0
 10
-28.64796064757136
 20
0.6034227240953043
 30
0.0
 10
-28.02456329916712
 20
0.3026851972990988
 30
0.0
 10
-27.60907669643785
 20
0.1010571297402493
 30
0.0
 10
-27.40122008931365
 20
0.0001864182022108
 30
0.0
  0
SPLINE
  5
2795
330
1F
100
AcDbEntity
  8
AM_0
 48
0.5
100
AcDbSpline
210
0.0
220
0.0
230
1.0
 70
     8
 71
     3
 72
    16
 73
    12
 74
     0
 42
0.0000000001
 43
0.0000000001
 40
0.0
 40
0.0
 40
0.0
 40
0.0
 40
1.010743614677189
 40
2.022833924044153
 40
3.037578959561199
 40
4.056212747067873
 40
5.079857613375832
 40
6.109500119648989
 40
7.14596120163808
 40
8.18989512056258
 40
8.547776576703423
 40
8.547776576703423
 40
8.547776576703423
 40
8.547776576703423
 10
-4.113971477864994
 20
3.650000769602304
 30
0.0
 10
-4.32455477131616
 20
3.647830673033891
 30
0.0
 10
-4.746001935210476
 20
3.643487588503593
 30
0.0
 10
-5.378018508675604
 20
3.608442624606932
 30
0.0
 10
-6.01000906238526
 20
3.552751422860897
 30
0.0
 10
-6.641960311660903
 20
3.474689670102794
 30
0.0
 10
-7.273864730146239
 20
3.375316062879792
 30
0.0
 10
-7.905714599753448
 20
3.255091332799328
 30
0.0
 10
-8.537501439995356
 20
3.114789406208655
 30
0.0
 10
-9.029286268159316
 20
2.990677475152317
 30
0.0
 10
-9.310570218406457
 20
2.914196760922056
 30
0.0
 10
-9.382289327129834
 20
2.894354480675364
 30
0.0
  0
ELLIPSE
  5
2796
330
1F
100
AcDbEntity
  8
AM_0
 48
0.5
100
AcDbEllipse
 10
-61.06280793725354
 20
-2.470401947986867
 30
0.0
 11
0.9282616086924731
 21
0.1357863993053781
 31
0.0
210
0.0
220
0.0
230
1.0
 40
0.9764351564803114
 41
1.139179154678892
 42
2.967368509460857
  0
ELLIPSE
  5
2797
330
1F
100
AcDbEntity
  8
AM_0
 48
0.5
100
AcDbEllipse
 10
-60.75007905541791
 20
-2.433332563729927
 30
0.0
 11
1.24999999999999
 21
0.0000000000003315
 31
0.0
210
0.0
220
0.0
230
1.0
 40
0.9733333333333366
 41
3.152839430981357
 42
4.712388666467901
  0
LINE
  5
2798
330
1F
100
AcDbEntity
  8
AM_11
 48
0.5
100
AcDbLine
 10
-60.63464327116165
 20
-3.649999230396577
 30
0.0
 11
-51.87812019002327
 21
-3.649999230396763
 31
0.0
  0
SPLINE
  5
2799
330
1F
100
AcDbEntity
  8
AM_0
 48
0.5
100
AcDbSpline
210
0.0
220
0.0
230
1.0
 70
     8
 71
     3
 72
    22
 73
    18
 74
     0
 42
0.0000000001
 43
0.0000000001
 40
0.0
 40
0.0
 40
0.0
 40
0.0
 40
1.010743684496582
 40
2.022833993863546
 40
3.037578683882831
 40
4.056212471389632
 40
5.079857945358201
 40
6.109499720892564
 40
7.145961650132166
 40
8.189873411961459
 40
9.241710626092514
 40
10.30166235592959
 40
11.36982472628033
 40
12.44598212828784
 40
13.52983440361964
 40
14.62080578343036
 40
14.90544694398022
 40
14.90544694398022
 40
14.90544694398022
 40
14.90544694398022
 10
-51.78821553765668
 20
-3.649999230396765
 30
0.0
 10
-51.99879883302306
 20
-3.647828217611714
 30
0.0
 10
-52.42024598618447
 20
-3.643483299577554
 30
0.0
 10
-53.05226242985973
 20
-3.608438163269152
 30
0.0
 10
-53.68425324122314
 20
-3.552750443221746
 30
0.0
 10
-54.31620459075265
 20
-3.474688771702126
 30
0.0
 10
-54.94810846329059
 20
-3.375311283153759
 30
0.0
 10
-55.57995826662661
 20
-3.255088428096966
 30
0.0
 10
-56.21174474191855
 20
-3.114797312587155
 30
0.0
 10
-56.84347223355061
 20
-2.955308245505269
 30
0.0
 10
-57.47513505188704
 20
-2.77761704992321
 30
0.0
 10
-58.10673649793564
 20
-2.582805174473039
 30
0.0
 10
-58.73828064320507
 20
-2.372112296187321
 30
0.0
 10
-59.36976701333157
 20
-2.146790975308154
 30
0.0
 10
-60.00120743846837
 20
-1.908276610664528
 30
0.0
 10
-60.47577904581112
 20
-1.720182227843244
 30
0.0
 10
-60.74022690624934
 20
-1.612673524753885
 30
0.0
 10
-60.79490593022716
 20
-1.590334173191559
 30
0.0
  0
SPLINE
  5
279A
330
1F
100
AcDbEntity
  8
AM_0
100
AcDbSpline
210
0.0
220
0.0
230
1.0
 70
     8
 71
     3
 72
    13
 73
     9
 74
     0
 42
0.0000000001
 43
0.0000000001
 40
16.03460056234195
 40
16.03460056234195
 40
16.03460056234195
 40
16.03460056234195
 40
16.35212717791071
 40
17.38177067057215
 40
18.41822498539278
 40
19.46214186516937
 40
20.5139635832251
 40
21.34083983469381
 40
21.34083983469381
 40
21.34083983469381
 40
21.34083983469381
 10
-60.6363921781118
 20
-3.650331181810168
 30
0.0
 10
-60.57146016135101
 20
-3.638009787460751
 30
0.0
 10
-60.29624962595942
 20
-3.584353474927329
 30
0.0
 10
-59.81146396946748
 20
-3.479218007492224
 30
0.0
 10
-59.18366485398687
 20
-3.322884975871655
 30
0.0
 10
-58.55644896818299
 20
-3.147348435327063
 30
0.0
 10
-57.97606793905636
 20
-2.967934336020356
 30
0.0
 10
-57.60579506292812
 20
-2.844394960408933
 30
0.0
 10
-57.44335857137167
 20
-2.788554036941572
 30
0.0
  0
SPLINE
  5
279B
330
1F
100
AcDbEntity
  8
AM_0
 48
0.5
100
AcDbSpline
210
0.0
220
0.0
230
1.0
 70
     8
 71
     3
 72
    26
 73
    22
 74
     0
 42
0.0000000001
 43
0.0000000001
 40
0.0
 40
0.0
 40
0.0
 40
0.0
 40
0.6738291229976858
 40
1.34855571764586
 40
2.025052638331105
 40
2.7041418300023
 40
3.386571335776987
 40
4.073000160460178
 40
4.763974215119558
 40
5.459920313469455
 40
6.161135349283505
 40
6.867779534345081
 40
7.579884616450838
 40
8.297322010138517
 40
9.01989019369366
 40
9.747205405079087
 40
10.47881203259601
 40
11.21414938923388
 40
11.95257396527625
 40
12.69337415957888
 40
13.41285713964268
 40
13.41285713964268
 40
13.41285713964268
 40
13.41285713964268
 10
-50.10890651357078
 20
-3.649999230396802
 30
0.0
 10
-50.31948976872362
 20
-3.647827568918087
 30
0.0
 10
-50.74093675444233
 20
-3.64348135352911
 30
0.0
 10
-51.37295385997187
 20
-3.608445975305123
 30
0.0
 10
-52.00494398890877
 20
-3.552748883883189
 30
0.0
 10
-52.63689499694361
 20
-3.474687263913931
 30
0.0
 10
-53.26880061112982
 20
-3.375319122742141
 30
0.0
 10
-53.90064824145632
 20
-3.255085872080041
 30
0.0
 10
-54.53243746758295
 20
-3.114799854419902
 30
0.0
 10
-55.16416398072111
 20
-2.955313096379308
 30
0.0
 10
-55.79582628740819
 20
-2.777615186644633
 30
0.0
 10
-56.42742958624857
 20
-2.582812131786408
 30
0.0
 10
-57.05897126008443
 20
-2.372106777876737
 30
0.0
 10
-57.69045846446079
 20
-2.146791643805869
 30
0.0
 10
-58.32189964279683
 20
-1.908278528242763
 30
0.0
 10
-58.95329615939967
 20
-1.658014313212067
 30
0.0
 10
-59.58465272099847
 20
-1.397553832995285
 30
0.0
 10
-60.21598092171375
 20
-1.128504072521594
 30
0.0
 10
-60.84727032814612
 20
-0.8524853601626125
 30
0.0
 10
-61.47207502082217
 20
-0.5742304254405762
 30
0.0
 10
-61.74264870940075
 20
-0.3872968084507024
 30
0.0
 10
-61.99999999999999
 20
-0.2717240088509194
 30
0.0
  0
LINE
  5
279C
330
1F
100
AcDbEntity
  8
AM_0
 48
0.5
100
AcDbLine
 10
-53.86702228200311
 20
1.849388033854709
 30
0.0
 11
-61.99999999999999
 21
-0.2717240088509194
 31
0.0
  0
SPLINE
  5
279D
330
1F
100
AcDbEntity
  8
AM_0
100
AcDbSpline
210
0.0
220
0.0
230
1.0
 70
     8
 71
     3
 72
    23
 73
    19
 74
     0
 42
0.0000000001
 43
0.0000000001
 40
16.03460024169435
 40
16.03460024169435
 40
16.03460024169435
 40
16.03460024169435
 40
16.35212704903564
 40
17.38177054169784
 40
18.41822485651776
 40
19.46214173629503
 40
20.51396345435107
 40
21.57393551351153
 40
22.64208202342361
 40
23.7182574881101
 40
24.80209208578934
 40
25.89306333925047
 40
26.99048218457928
 40
28.09348763352352
 40
29.20111863782268
 40
30.31232390128032
 40
31.42594612798585
 40
32.5407912310448
 40
32.5407912310486
 40
32.5407912310486
 40
32.5407912310486
 10
-59.47579133114018
 20
3.650519318344023
 30
0.0
 10
-59.41085934069262
 20
3.638197561107618
 30
0.0
 10
-59.13564903303193
 20
3.584539776377582
 30
0.0
 10
-58.65086311227568
 20
3.479405536409396
 30
0.0
 10
-58.02306407580076
 20
3.323072071313555
 30
0.0
 10
-57.39584816860055
 20
3.147535648161383
 30
0.0
 10
-56.76917832798691
 20
2.953812182237177
 30
0.0
 10
-56.14303231233668
 20
2.742981686200358
 30
0.0
 10
-55.51737393191078
 20
2.516249356076263
 30
0.0
 10
-54.89215961823763
 20
2.274934717153639
 30
0.0
 10
-54.26735384439437
 20
2.020404320163167
 30
0.0
 10
-53.64290651743655
 20
1.75413921817802
 30
0.0
 10
-53.01876703289124
 20
1.477687059010336
 30
0.0
 10
-52.39489380612484
 20
1.192637326679155
 30
0.0
 10
-51.77123463842203
 20
0.9006475463420118
 30
0.0
 10
-51.14773176573573
 20
0.6034227240957007
 30
0.0
 10
-50.5243344173315
 20
0.302685197299495
 30
0.0
 10
-50.10884781460223
 20
0.1010571297406455
 30
0.0
 10
-49.90099120747802
 20
0.000186418202607
 30
0.0
  0
LINE
  5
279E
330
1F
100
AcDbEntity
  8
AM_11
 48
0.5
100
AcDbLine
 10
-59.47305978347124
 20
3.650000769603395
 30
0.0
 11
-51.87812019002315
 21
3.650000769603236
 31
0.0
  0
VIEWPORT
  5
110
330
101
100
AcDbEntity
 67
     1
  8
0
100
AcDbViewport
 10
420.5
 20
297.0
 30
0.0
 40
948.9782706766916
 41
628.452
 68
     1
 69
     1
1001
ACAD
1000
MVIEW
1002
{
1070
    16
1010
0.0
1020
0.0
1030
0.0
1010
0.0
1020
0.0
1030
1.0
1040
0.0
1040
628.452
1040
420.5
1040
297.0
1040
50.0
1040
0.0
1040
0.0
1070
     0
1070
   100
1070
     1
1070
     1
1070
     0
1070
     0
1070
     0
1070
     0
1040
0.0
1040
0.0
1040
0.0
1040
10.0
1040
10.0
1040
10.0
1040
10.0
1070
     0
1002
{
1002
}
1002
}
  0
ENDSEC
  0
SECTION
  2
OBJECTS
  0
DICTIONARY
  5
C
330
0
100
AcDbDictionary
  3
ACAD_GROUP
350
D
  3
ACAD_LAYOUT
350
1A
  3
ACAD_MLINESTYLE
350
17
  3
ACAD_PLOTSETTINGS
350
19
  3
ACAD_PLOTSTYLENAME
350
E
  3
ACDBVARIABLEDICTIONARY
350
34
  3
ACMDICTIONARY
350
43
  3
AMG
350
2B
  3
AMGSNAPSETTINGS
350
6E
  3
DWGPROPS
350
27EC
  3
ACDBHEADERROUNDTRIPXREC
350
27F8
  0
DICTIONARY
  5
74
330
1F
100
AcDbDictionary
280
     1
  3
ACAD_INDEX
360
27EE
  3
ACAD_LAYOUTSELFREF
360
281B
  0
DICTIONARY
  5
2820
330
101
100
AcDbDictionary
280
     1
  3
ACAD_LAYOUTSELFREF
360
2821
  0
DICTIONARY
  5
D
102
{ACAD_REACTORS
330
C
102
}
330
C
100
AcDbDictionary
  0
DICTIONARY
  5
1A
102
{ACAD_REACTORS
330
C
102
}
330
C
100
AcDbDictionary
  0
DICTIONARY
  5
17
102
{ACAD_REACTORS
330
C
102
}
330
C
100
AcDbDictionary
  3
STANDARD
350
18
  0
DICTIONARY
  5
19
102
{ACAD_REACTORS
330
C
102
}
330
C
100
AcDbDictionary
  0
ACDBDICTIONARYWDFLT
  5
E
102
{ACAD_REACTORS
330
C
102
}
330
C
100
AcDbDictionary
281
     1
  3
Normal
350
F
100
AcDbDictionaryWithDefault
340
F
  0
DICTIONARY
  5
34
102
{ACAD_REACTORS
330
C
102
}
330
C
100
AcDbDictionary
  3
INDEXCTL
350
35
  3
SORTENTS
350
B5E
  0
DICTIONARY
  5
43
102
{ACAD_REACTORS
330
C
102
}
330
C
100
AcDbDictionary
  3
ACMSTDDICTIONARY
350
260
  0
DICTIONARY
  5
2B
102
{ACAD_REACTORS
330
C
102
}
330
C
100
AcDbDictionary
  3
ACMGSETTINGS
350
2C
  0
DICTIONARY
  5
6E
102
{ACAD_REACTORS
330
C
102
}
330
C
100
AcDbDictionary
  0
XRECORD
  5
27EC
102
{ACAD_REACTORS
330
C
102
}
330
C
100
AcDbXrecord
  1
DWGPROPS COOKIE
  2

  3

  4

  6

  7

  8

  9

300
AmdtFileType=82
301
=
302
=
303
=
304
=
305
=
306
=
307
=
308
=
309
=
 40
0.0382427083333333
 41
2452800.443498622
 42
2452948.689228506
  1

 90
        1
  0
DICTIONARY
  5
27F8
102
{ACAD_REACTORS
330
C
102
}
330
C
100
AcDbDictionary
  3
TSTACKALIGN
350
27F9
  3
TSTACKSIZE
350
27FA
  3
HYPERLINKBASE
350
27FB
  3
STYLESHEET
350
27FC
  3
LAYOUTDICT
350
27FD
  3
PLOTSETDICT
350
27FE
  3
PLOTSTYLNAMDICT
350
27FF
  3
LWETCUNION
350
2800
  3
INSUNITS
350
2801
  3
CEPSNTYPE
350
2802
  3
FINGERPRINTGUID
350
2803
  3
VERSIONGUID
350
2804
  3
PSVPSCALE
350
2805
  3
DIMSTYLEDATA
350
2806
  3
PUCSORTHOREF
350
2807
  3
PUCSORTHOVIEW
350
2808
  3
PUCSBASE
350
2809
  3
PUCSORGTOP
350
280A
  3
PUCSORGBOTTOM
350
280B
  3
PUCSORGLEFT
350
280C
  3
PUCSORGRIGHT
350
280D
  3
PUCSORGFRONT
350
280E
  3
PUCSORGBACK
350
280F
  3
UCSORTHOREF
350
2810
  3
UCSORTHOVIEW
350
2811
  3
UCSBASE
350
2812
  3
UCSORGTOP
350
2813
  3
UCSORGBOTTOM
350
2814
  3
UCSORGLEFT
350
2815
  3
UCSORGRIGHT
350
2816
  3
UCSORGFRONT
350
2817
  3
UCSORGBACK
350
2818
  0
DICTIONARY
  5
27EE
102
{ACAD_REACTORS
330
74
102
}
330
74
100
AcDbDictionary
  3
*A1
350
27EF
  0
XRECORD
  5
281B
102
{ACAD_REACTORS
330
74
102
}
330
74
100
AcDbXrecord
340
1F
  0
XRECORD
  5
2821
102
{ACAD_REACTORS
330
2820
102
}
330
2820
100
AcDbXrecord
340
101
  0
MLINESTYLE
  5
18
102
{ACAD_REACTORS
330
17
102
}
330
17
100
AcDbMlineStyle
  2
STANDARD
 70
     0
  3

 62
   256
 51
90.0
 52
90.0
 71
     2
 49
0.5
 62
   256
  6
BYLAYER
 49
-0.5
 62
   256
  6
BYLAYER
  0
ACDBPLACEHOLDER
  5
F
102
{ACAD_REACTORS
330
E
102
}
330
E
100
AcDbPlaceHolder
280
     0
  0
DICTIONARYVAR
  5
35
102
{ACAD_REACTORS
330
34
102
}
330
34
100
DictionaryVariables
280
     0
  1
1
  0
DICTIONARYVAR
  5
B5E
102
{ACAD_REACTORS
330
34
102
}
330
34
100
DictionaryVariables
280
     0
  1
96
  0
DICTIONARY
  5
260
102
{ACAD_REACTORS
330
43
102
}
330
43
100
AcDbDictionary
  0
DICTIONARY
  5
2C
102
{ACAD_REACTORS
330
2B
102
}
330
2B
100
AcDbDictionary
  3
DWGSETTINGS
350
2D
  0
XRECORD
  5
27F9
102
{ACAD_REACTORS
330
27F8
102
}
330
27F8
100
AcDbXrecord
 90
        1
  0
XRECORD
  5
27FA
102
{ACAD_REACTORS
330
27F8
102
}
330
27F8
100
AcDbXrecord
 90
       70
  0
XRECORD
  5
27FB
102
{ACAD_REACTORS
330
27F8
102
}
330
27F8
100
AcDbXrecord
  1

  0
XRECORD
  5
27FC
102
{ACAD_REACTORS
330
27F8
102
}
330
27F8
100
AcDbXrecord
  1
ASAMI.ctb
  0
XRECORD
  5
27FD
102
{ACAD_REACTORS
330
27F8
102
}
330
27F8
100
AcDbXrecord
340
1A
  0
XRECORD
  5
27FE
102
{ACAD_REACTORS
330
27F8
102
}
330
27F8
100
AcDbXrecord
340
19
  0
XRECORD
  5
27FF
102
{ACAD_REACTORS
330
27F8
102
}
330
27F8
100
AcDbXrecord
340
E
  0
XRECORD
  5
2800
102
{ACAD_REACTORS
330
27F8
102
}
330
27F8
100
AcDbXrecord
 90
    10781
  0
XRECORD
  5
2801
102
{ACAD_REACTORS
330
27F8
102
}
330
27F8
100
AcDbXrecord
 90
        4
  0
XRECORD
  5
2802
102
{ACAD_REACTORS
330
27F8
102
}
330
27F8
100
AcDbXrecord
 90
        0
  0
XRECORD
  5
2803
102
{ACAD_REACTORS
330
27F8
102
}
330
27F8
100
AcDbXrecord
  1
{AFB28963-8C59-40AE-9337-C84526B81ACE}
  0
XRECORD
  5
2804
102
{ACAD_REACTORS
330
27F8
102
}
330
27F8
100
AcDbXrecord
  1
{CDF31B0B-ED1C-40A9-8DDC-A3562883363C}
  0
XRECORD
  5
2805
102
{ACAD_REACTORS
330
27F8
102
}
330
27F8
100
AcDbXrecord
 40
0.0
  0
XRECORD
  5
2806
102
{ACAD_REACTORS
330
27F8
102
}
330
27F8
100
AcDbXrecord
1000
DSTYLE
1002
{
1070
    79
 70
     2
1070
   341
340
59
1070
   342
340
59
1070
   371
 70
    -1
1070
   372
 70
    -1
1002
}
  0
XRECORD
  5
2807
102
{ACAD_REACTORS
330
27F8
102
}
330
27F8
100
AcDbXrecord
340
0
  0
XRECORD
  5
2808
102
{ACAD_REACTORS
330
27F8
102
}
330
27F8
100
AcDbXrecord
 70
     0
  0
XRECORD
  5
2809
102
{ACAD_REACTORS
330
27F8
102
}
330
27F8
100
AcDbXrecord
340
0
  0
XRECORD
  5
280A
102
{ACAD_REACTORS
330
27F8
102
}
330
27F8
100
AcDbXrecord
 10
0.0
 20
0.0
 30
0.0
  0
XRECORD
  5
280B
102
{ACAD_REACTORS
330
27F8
102
}
330
27F8
100
AcDbXrecord
 10
0.0
 20
0.0
 30
0.0
  0
XRECORD
  5
280C
102
{ACAD_REACTORS
330
27F8
102
}
330
27F8
100
AcDbXrecord
 10
0.0
 20
0.0
 30
0.0
  0
XRECORD
  5
280D
102
{ACAD_REACTORS
330
27F8
102
}
330
27F8
100
AcDbXrecord
 10
0.0
 20
0.0
 30
0.0
  0
XRECORD
  5
280E
102
{ACAD_REACTORS
330
27F8
102
}
330
27F8
100
AcDbXrecord
 10
0.0
 20
0.0
 30
0.0
  0
XRECORD
  5
280F
102
{ACAD_REACTORS
330
27F8
102
}
330
27F8
100
AcDbXrecord
 10
0.0
 20
0.0
 30
0.0
  0
XRECORD
  5
2810
102
{ACAD_REACTORS
330
27F8
102
}
330
27F8
100
AcDbXrecord
340
0
  0
XRECORD
  5
2811
102
{ACAD_REACTORS
330
27F8
102
}
330
27F8
100
AcDbXrecord
 70
     0
  0
XRECORD
  5
2812
102
{ACAD_REACTORS
330
27F8
102
}
330
27F8
100
AcDbXrecord
340
0
  0
XRECORD
  5
2813
102
{ACAD_REACTORS
330
27F8
102
}
330
27F8
100
AcDbXrecord
 10
0.0
 20
0.0
 30
0.0
  0
XRECORD
  5
2814
102
{ACAD_REACTORS
330
27F8
102
}
330
27F8
100
AcDbXrecord
 10
0.0
 20
0.0
 30
0.0
  0
XRECORD
  5
2815
102
{ACAD_REACTORS
330
27F8
102
}
330
27F8
100
AcDbXrecord
 10
0.0
 20
0.0
 30
0.0
  0
XRECORD
  5
2816
102
{ACAD_REACTORS
330
27F8
102
}
330
27F8
100
AcDbXrecord
 10
0.0
 20
0.0
 30
0.0
  0
XRECORD
  5
2817
102
{ACAD_REACTORS
330
27F8
102
}
330
27F8
100
AcDbXrecord
 10
0.0
 20
0.0
 30
0.0
  0
XRECORD
  5
2818
102
{ACAD_REACTORS
330
27F8
102
}
330
27F8
100
AcDbXrecord
 10
0.0
 20
0.0
 30
0.0
  0
LAYER_INDEX
  5
27EF
102
{ACAD_REACTORS
330
27EE
102
}
330
27EE
100
AcDbIndex
 40
2453151.677571053
100
AcDbLayerIndex
  8
0
360
27F0
 90
        0
  8
AM_0
360
27F1
 90
       53
  8
AM_7
360
27F2
 90
        1
  8
AM_11
360
27F3
 90
       21
  8
AM_5
360
27F4
 90
        5
  8
Defpoints
360
27F5
 90
        0
  8
AM_6
360
27F6
 90
        1
  0
XRECORD
  5
2D
102
{ACAD_REACTORS
330
2C
102
}
330
2C
100
AcDbXrecord
  1
VERSION
140
15.0
  1
PRODUCT
  2
AutoCAD Mechanical 2000
  0
IDBUFFER
  5
27F0
330
0
100
AcDbIdBuffer
  0
IDBUFFER
  5
27F1
330
0
100
AcDbIdBuffer
330
2799
330
279A
330
279B
330
279C
330
279D
330
C30
330
1CA9
330
1E12
330
1E16
330
1E1D
330
1E21
330
1E22
330
1E25
330
1E26
330
220F
330
252F
330
2533
330
2534
330
2535
330
254F
330
2550
330
276D
330
276E
330
276F
330
2770
330
2771
330
2772
330
2773
330
2774
330
2775
330
2780
330
2781
330
2782
330
2783
330
2784
330
2785
330
2786
330
2787
330
2789
330
278A
330
278B
330
278C
330
278D
330
278E
330
278F
330
2790
330
2791
330
2792
330
2793
330
2794
330
2795
330
2796
330
2797
  0
IDBUFFER
  5
27F2
330
0
100
AcDbIdBuffer
330
C9F
  0
IDBUFFER
  5
27F3
330
0
100
AcDbIdBuffer
330
277E
330
277F
330
2788
330
2798
330
279E
330
1BE8
330
1BE9
330
1F66
330
1F67
330
1F68
330
1F69
330
1F6A
330
1F6B
330
2776
330
2777
330
2778
330
2779
330
277A
330
277B
330
277C
330
277D
  0
IDBUFFER
  5
27F4
330
0
100
AcDbIdBuffer
330
CC6
330
DF5
330
228A
330
258B
330
26D6
  0
IDBUFFER
  5
27F5
330
0
100
AcDbIdBuffer
  0
IDBUFFER
  5
27F6
330
0
100
AcDbIdBuffer
330
19BD
  0
ENDSEC
  0
EOF
