  0
SECTION
  2
HEADER
  9
$ACADVER
  1
AC1014
  9
$ACADMAINTVER
 70
     9
  9
$DWGCODEPAGE
  3
ANSI_932
  9
$INSBASE
 10
0.0
 20
0.0
 30
0.0
  9
$EXTMIN
 10
-107.6500009999999
 20
-27.25000236965383
 30
-0.00000001
  9
$EXTMAX
 10
13.87150483951164
 20
13.50478524788582
 30
0.00000001
  9
$LIMMIN
 10
-138.8290064717842
 20
-45.22474571374511
  9
$LIMMAX
 10
23.05023987897198
 20
30.30997914579825
  9
$ORTHOMODE
 70
     0
  9
$REGENMODE
 70
     1
  9
$FILLMODE
 70
     1
  9
$QTEXTMODE
 70
     0
  9
$MIRRTEXT
 70
     0
  9
$DRAGMODE
 70
     2
  9
$LTSCALE
 40
1.0
  9
$OSMODE
 70
    55
  9
$ATTMODE
 70
     1
  9
$TEXTSIZE
 40
2.5
  9
$TRACEWID
 40
1.0
  9
$TEXTSTYLE
  7
STANDARD
  9
$CLAYER
  8
AM_0
  9
$CELTYPE
  6
BYLAYER
  9
$CECOLOR
 62
   256
  9
$CELTSCALE
 40
1.0
  9
$DELOBJ
 70
     1
  9
$DISPSILH
 70
     0
  9
$DIMSCALE
 40
0.5
  9
$DIMASZ
 40
2.5
  9
$DIMEXO
 40
1.0
  9
$DIMDLI
 40
12.0
  9
$DIMRND
 40
0.0
  9
$DIMDLE
 40
0.0
  9
$DIMEXE
 40
1.0
  9
$DIMTP
 40
0.1
  9
$DIMTM
 40
0.1
  9
$DIMTXT
 40
3.2
  9
$DIMCEN
 40
0.0
  9
$DIMTSZ
 40
0.0
  9
$DIMTOL
 70
     0
  9
$DIMLIM
 70
     0
  9
$DIMTIH
 70
     0
  9
$DIMTOH
 70
     0
  9
$DIMSE1
 70
     0
  9
$DIMSE2
 70
     0
  9
$DIMTAD
 70
     3
  9
$DIMZIN
 70
     8
  9
$DIMBLK
  1
OPEN30
  9
$DIMASO
 70
     1
  9
$DIMSHO
 70
     1
  9
$DIMPOST
  1

  9
$DIMAPOST
  1
"
  9
$DIMALT
 70
     0
  9
$DIMALTD
 70
     2
  9
$DIMALTF
 40
0.0393701
  9
$DIMLFAC
 40
1.0
  9
$DIMTOFL
 70
     1
  9
$DIMTVP
 40
0.0
  9
$DIMTIX
 70
     0
  9
$DIMSOXD
 70
     0
  9
$DIMSAH
 70
     0
  9
$DIMBLK1
  1

  9
$DIMBLK2
  1

  9
$DIMSTYLE
  2
AM_JIS
  9
$DIMCLRD
 70
   256
  9
$DIMCLRE
 70
   256
  9
$DIMCLRT
 70
     2
  9
$DIMTFAC
 40
0.71
  9
$DIMGAP
 40
1.5
  9
$DIMJUST
 70
     0
  9
$DIMSD1
 70
     0
  9
$DIMSD2
 70
     0
  9
$DIMTOLJ
 70
     0
  9
$DIMTZIN
 70
     0
  9
$DIMALTZ
 70
     0
  9
$DIMALTTZ
 70
     0
  9
$DIMFIT
 70
     3
  9
$DIMUPT
 70
     0
  9
$DIMUNIT
 70
     2
  9
$DIMDEC
 70
     3
  9
$DIMTDEC
 70
     3
  9
$DIMALTU
 70
     2
  9
$DIMALTTD
 70
     2
  9
$DIMTXSTY
  7
ASAMI
  9
$DIMAUNIT
 70
     0
  9
$LUNITS
 70
     2
  9
$LUPREC
 70
     2
  9
$SKETCHINC
 40
1.0
  9
$FILLETRAD
 40
2.5
  9
$AUNITS
 70
     0
  9
$AUPREC
 70
     0
  9
$MENU
  1
.
  9
$ELEVATION
 40
0.0
  9
$PELEVATION
 40
0.0
  9
$THICKNESS
 40
0.0
  9
$LIMCHECK
 70
     0
  9
$BLIPMODE
 70
     0
  9
$CHAMFERA
 40
0.5
  9
$CHAMFERB
 40
0.5
  9
$CHAMFERC
 40
20.0
  9
$CHAMFERD
 40
0.0
  9
$SKPOLY
 70
     0
  9
$TDCREATE
 40
2452800.443498622
  9
$TDUPDATE
 40
2453151.569781342
  9
$TDINDWG
 40
0.0409183218
  9
$TDUSRTIMER
 40
0.0409183218
  9
$USRTIMER
 70
     1
  9
$ANGBASE
 50
0.0
  9
$ANGDIR
 70
     0
  9
$PDMODE
 70
     3
  9
$PDSIZE
 40
0.0
  9
$PLINEWID
 40
0.0
  9
$COORDS
 70
     1
  9
$SPLFRAME
 70
     0
  9
$SPLINETYPE
 70
     6
  9
$SPLINESEGS
 70
     8
  9
$ATTDIA
 70
     1
  9
$ATTREQ
 70
     1
  9
$HANDLING
 70
 12289
  9
$HANDSEED
  5
2AA7
  9
$SURFTAB1
 70
     6
  9
$SURFTAB2
 70
     6
  9
$SURFTYPE
 70
     6
  9
$SURFU
 70
     6
  9
$SURFV
 70
     6
  9
$UCSNAME
  2

  9
$UCSORG
 10
0.0
 20
0.0
 30
0.0
  9
$UCSXDIR
 10
1.0
 20
0.0000000000000027
 30
0.0
  9
$UCSYDIR
 10
-0.0000000000000027
 20
1.0
 30
0.0
  9
$PUCSNAME
  2

  9
$PUCSORG
 10
0.0
 20
0.0
 30
0.0
  9
$PUCSXDIR
 10
1.0
 20
0.0
 30
0.0
  9
$PUCSYDIR
 10
0.0
 20
1.0
 30
0.0
  9
$USERI1
 70
     0
  9
$USERI2
 70
     0
  9
$USERI3
 70
     0
  9
$USERI4
 70
     0
  9
$USERI5
 70
     0
  9
$USERR1
 40
0.0
  9
$USERR2
 40
0.0
  9
$USERR3
 40
0.0
  9
$USERR4
 40
0.0
  9
$USERR5
 40
0.0
  9
$WORLDVIEW
 70
     1
  9
$SHADEDGE
 70
     3
  9
$SHADEDIF
 70
    70
  9
$TILEMODE
 70
     1
  9
$MAXACTVP
 70
    64
  9
$PINSBASE
 10
0.0
 20
0.0
 30
0.0
  9
$PLIMCHECK
 70
     0
  9
$PEXTMIN
 10
1.000000000000000E+20
 20
1.000000000000000E+20
 30
1.000000000000000E+20
  9
$PEXTMAX
 10
-1.000000000000000E+20
 20
-1.000000000000000E+20
 30
-1.000000000000000E+20
  9
$PLIMMIN
 10
0.0
 20
0.0
  9
$PLIMMAX
 10
841.0
 20
594.0
  9
$UNITMODE
 70
     0
  9
$VISRETAIN
 70
     1
  9
$PLINEGEN
 70
     0
  9
$PSLTSCALE
 70
     0
  9
$TREEDEPTH
 70
  3020
  9
$PICKSTYLE
 70
     0
  9
$CMLSTYLE
  2
STANDARD
  9
$CMLJUST
 70
     0
  9
$CMLSCALE
 40
20.0
  9
$PROXYGRAPHICS
 70
     1
  9
$MEASUREMENT
 70
     1
  0
ENDSEC
  0
SECTION
  2
CLASSES
  0
CLASS
  1
ACDBDICTIONARYWDFLT
  2
AcDbDictionaryWithDefault
  3
AutoCAD 2000
 90
        0
280
     0
281
     0
  0
CLASS
  1
ACDBPLACEHOLDER
  2
AcDbPlaceHolder
  3
AutoCAD 2000
 90
        0
280
     0
281
     0
  0
CLASS
  1
LAYOUT
  2
AcDbLayout
  3
AutoCAD 2000
 90
        0
280
     0
281
     0
  0
CLASS
  1
AMGSETTINGSOBJ
  2
AmgSettingsObj
  3
"AcadM|Product Description: AutoCAD Mechanical 2000|Company: Autodesk"
 90
        0
280
     0
281
     0
  0
CLASS
  1
ACME_DOCUMENT
  2
AcMeDbDoc
  3
AcMeServices
 90
        0
280
     0
281
     0
  0
CLASS
  1
ACMESCOPE
  2
AcMeScope
  3
AcMeServices
 90
        0
280
     0
281
     0
  0
CLASS
  1
ACMECOMMANDHISTORY
  2
AcMeCommandHistory
  3
AcMeServices
 90
        0
280
     0
281
     0
  0
CLASS
  1
DICTIONARYVAR
  2
AcDbDictionaryVar
  3
AutoCAD 2000
 90
        0
280
     0
281
     0
  0
CLASS
  1
ACIMSYSVARMAN
  2
AcImSysVarManager
  3
AcMeServices
 90
        0
280
     0
281
     0
  0
CLASS
  1
ACIMREALSYSVAR
  2
AcImRealSysVar
  3
AcMeServices
 90
        0
280
     0
281
     0
  0
CLASS
  1
ACIMINTSYSVAR
  2
AcImIntSysVar
  3
AcMeServices
 90
        0
280
     0
281
     0
  0
CLASS
  1
ACMEDRAWINGMAN
  2
AcMeDrawingMan
  3
AcMeServices
 90
        0
280
     0
281
     0
  0
CLASS
  1
ACMEVIEW
  2
AcMeView
  3
AcMeServices
 90
        0
280
     0
281
     0
  0
CLASS
  1
ACDBENTITYCACHE
  2
AcMeEntityCache
  3
AcMeServices
 90
        0
280
     0
281
     0
  0
CLASS
  1
GSMANAGER
  2
AcMeGSManager
  3
AcMeServices
 90
        0
280
     0
281
     0
  0
CLASS
  1
AmdtInternalReactor
  2
AmdtInternalReactor
  3
AcMeServices
 90
        0
280
     0
281
     0
  0
CLASS
  1
ACMESTATEMGR
  2
AcMeStateMgr
  3
AcMeServices
 90
        0
280
     0
281
     0
  0
CLASS
  1
ACME_DATABASE
  2
AcMeDbDatabase
  3
AcMeServices
 90
        0
280
     0
281
     0
  0
CLASS
  1
ACRFINSADJUSTERMGR
  2
AcRfInsAdjusterMgr
  3
AcMeServices
 90
        0
280
     0
281
     0
  0
CLASS
  1
ACMDATADICTIONARY
  2
AcmDataDictionary
  3
"AcmSymBB|Product Description: AutoCAD Mechanical 2000|Company: Autodesk"
 90
        0
280
     0
281
     0
  0
CLASS
  1
ACMDATAENTRYBLOCK
  2
AcmDataEntryBlock
  3
"AcmSymBB|Product Description: AutoCAD Mechanical 2000|Company: Autodesk"
 90
        0
280
     0
281
     0
  0
CLASS
  1
AMGOBJPROPCFG
  2
AmgObjPropCfg
  3
"AmgLay|Product Description: AutoCAD Mechanical 2000|Company: Autodesk"
 90
        1
280
     0
281
     0
  0
CLASS
  1
ACAMGFILTERDAT
  2
AcAmgFilterDat
  3
"AcadM|Product Description: AutoCAD Mechanical 2000|Company: Autodesk"
 90
        0
280
     0
281
     0
  0
CLASS
  1
LAYER_INDEX
  2
AcDbLayerIndex
  3
AutoCAD 2000
 90
        0
280
     0
281
     0
  0
CLASS
  1
IDBUFFER
  2
AcDbIdBuffer
  3
AutoCAD 2000
 90
        0
280
     0
281
     0
  0
CLASS
  1
ACIMSTRSYSVAR
  2
AcImStrSysVar
  3
AcMeServices
 90
        0
280
     0
281
     0
  0
CLASS
  1
ACMSTANDARDJIS
  2
AcmStandardJIS
  3
"AcmSymBB|Product Description: AutoCAD Mechanical 2000|Company: Autodesk"
 90
        0
280
     0
281
     0
  0
CLASS
  1
ACMSURFSTANDARDJIS
  2
AcmSurfTextStdJIS
  3
"AcmSymBB|Product Description: AutoCAD Mechanical 2000|Company: Autodesk"
 90
        0
280
     0
281
     0
  0
CLASS
  1
ACMFCFSTANDARDJIS
  2
AcmFCFStdJIS
  3
"AcmSymBB|Product Description: AutoCAD Mechanical 2000|Company: Autodesk"
 90
        0
280
     0
281
     0
  0
CLASS
  1
ACMWELDSTANDARDJIS
  2
AcmWeldingStdJIS
  3
"AcmSymBB|Product Description: AutoCAD Mechanical 2000|Company: Autodesk"
 90
        0
280
     0
281
     0
  0
CLASS
  1
ACMIDSTANDARDJIS
  2
AcmIdStdJIS
  3
"AcmSymBB|Product Description: AutoCAD Mechanical 2000|Company: Autodesk"
 90
        0
280
     0
281
     0
  0
CLASS
  1
ACMDATUMSTANDARDJIS
  2
AcmDatumStdJIS
  3
"AcmSymBB|Product Description: AutoCAD Mechanical 2000|Company: Autodesk"
 90
        0
280
     0
281
     0
  0
CLASS
  1
ACMBOMSTANDARDJIS
  2
AcmBOMStdJIS
  3
"AcmSymBB|Product Description: AutoCAD Mechanical 2000|Company: Autodesk"
 90
        0
280
     0
281
     0
  0
CLASS
  1
ACMSTANDARDANSI
  2
AcmStandardANSI
  3
"AcmSymBB|Product Description: AutoCAD Mechanical 2000|Company: Autodesk"
 90
        0
280
     0
281
     0
  0
CLASS
  1
ACMSURFSTANDARDANSI
  2
AcmSurfTextStdANSI
  3
"AcmSymBB|Product Description: AutoCAD Mechanical 2000|Company: Autodesk"
 90
        0
280
     0
281
     0
  0
CLASS
  1
ACMFCFSTANDARDANSI
  2
AcmFCFStdANSI
  3
"AcmSymBB|Product Description: AutoCAD Mechanical 2000|Company: Autodesk"
 90
        0
280
     0
281
     0
  0
CLASS
  1
ACMWELDSTANDARDANSI
  2
AcmWeldingStdANSI
  3
"AcmSymBB|Product Description: AutoCAD Mechanical 2000|Company: Autodesk"
 90
        0
280
     0
281
     0
  0
CLASS
  1
ACMIDSTANDARDANSI
  2
AcmIdStdANSI
  3
"AcmSymBB|Product Description: AutoCAD Mechanical 2000|Company: Autodesk"
 90
        0
280
     0
281
     0
  0
CLASS
  1
ACMDATUMSTANDARDANSI
  2
AcmDatumStdANSI
  3
"AcmSymBB|Product Description: AutoCAD Mechanical 2000|Company: Autodesk"
 90
        0
280
     0
281
     0
  0
CLASS
  1
ACMBOMSTANDARDANSI
  2
AcmBOMStdANSI
  3
"AcmSymBB|Product Description: AutoCAD Mechanical 2000|Company: Autodesk"
 90
        0
280
     0
281
     0
  0
CLASS
  1
ACMSTANDARDBSI
  2
AcmStandardBSI
  3
"AcmSymBB|Product Description: AutoCAD Mechanical 2000|Company: Autodesk"
 90
        0
280
     0
281
     0
  0
CLASS
  1
ACMSURFSTANDARDBSI
  2
AcmSurfTextStdBSI
  3
"AcmSymBB|Product Description: AutoCAD Mechanical 2000|Company: Autodesk"
 90
        0
280
     0
281
     0
  0
CLASS
  1
ACMFCFSTANDARDBSI
  2
AcmFCFStdBSI
  3
"AcmSymBB|Product Description: AutoCAD Mechanical 2000|Company: Autodesk"
 90
        0
280
     0
281
     0
  0
CLASS
  1
ACMWELDSTANDARDBSI
  2
AcmWeldingStdBSI
  3
"AcmSymBB|Product Description: AutoCAD Mechanical 2000|Company: Autodesk"
 90
        0
280
     0
281
     0
  0
CLASS
  1
ACMIDSTANDARDBSI
  2
AcmIdStdBSI
  3
"AcmSymBB|Product Description: AutoCAD Mechanical 2000|Company: Autodesk"
 90
        0
280
     0
281
     0
  0
CLASS
  1
ACMDATUMSTANDARDBSI
  2
AcmDatumStdBSI
  3
"AcmSymBB|Product Description: AutoCAD Mechanical 2000|Company: Autodesk"
 90
        0
280
     0
281
     0
  0
CLASS
  1
ACMBOMSTANDARDBSI
  2
AcmBOMStdBSI
  3
"AcmSymBB|Product Description: AutoCAD Mechanical 2000|Company: Autodesk"
 90
        0
280
     0
281
     0
  0
CLASS
  1
LONG_TRANSACTION
  2
AcDbLongTransaction
  3
AutoCAD 2000
 90
        0
280
     0
281
     0
  0
CLASS
  1
LWPOLYLINE
  2
AcDbPolyline
  3
AutoCAD 2000
 90
        0
280
     0
281
     1
  0
CLASS
  1
HATCH
  2
AcDbHatch
  3
AutoCAD 2000
 90
        0
280
     0
281
     1
  0
CLASS
  1
XRECORD
  2
AcDbXrecord
  3
AutoCAD 2000
 90
        0
280
     0
281
     0
  0
ENDSEC
  0
SECTION
  2
TABLES
  0
TABLE
  2
VPORT
  5
8
330
0
100
AcDbSymbolTable
 70
     3
  0
VPORT
  5
2A71
330
8
100
AcDbSymbolTableRecord
100
AcDbViewportTableRecord
  2
*ACTIVE
 70
     0
 10
0.0
 20
0.0
 11
1.0
 21
1.0
 12
-44.63925399881754
 22
-6.872454627410192
 13
0.0
 23
0.0
 14
2.5
 24
2.5
 15
10.0
 25
10.0
 16
0.0
 26
0.0
 36
1.0
 17
0.0
 27
0.0
 37
0.0
 40
80.88923474412503
 41
1.56570841889117
 42
50.0
 43
0.0
 44
0.0
 50
0.0
 51
0.0
 71
     0
 72
   100
 73
     1
 74
     1
 75
     0
 76
     0
 77
     0
 78
     0
  0
ENDTAB
  0
TABLE
  2
LTYPE
  5
5
330
0
100
AcDbSymbolTable
 70
    10
  0
LTYPE
  5
14
330
5
100
AcDbSymbolTableRecord
100
AcDbLinetypeTableRecord
  2
BYBLOCK
 70
     0
  3

 72
    65
 73
     0
 40
0.0
  0
LTYPE
  5
15
330
5
100
AcDbSymbolTableRecord
100
AcDbLinetypeTableRecord
  2
BYLAYER
 70
     0
  3

 72
    65
 73
     0
 40
0.0
  0
LTYPE
  5
16
330
5
100
AcDbSymbolTableRecord
100
AcDbLinetypeTableRecord
  2
CONTINUOUS
 70
     0
  3
Solid line
 72
    65
 73
     0
 40
0.0
  0
LTYPE
  5
4B
330
5
100
AcDbSymbolTableRecord
100
AcDbLinetypeTableRecord
  2
AM_ISO02W050
 70
     0
  3
__ __ __ __ __ __ __ __ __ __ __ __ __ __ __
 72
    65
 73
     2
 40
7.5
 49
6.0
 74
     0
 49
-1.5
 74
     0
  0
LTYPE
  5
4C
330
5
100
AcDbSymbolTableRecord
100
AcDbLinetypeTableRecord
  2
AM_ISO08W050
 70
     0
  3
____ . ____ . ____ . ____ . ____ . ____ . ____
 72
    65
 73
     4
 40
18.0
 49
12.0
 74
     0
 49
-1.5
 74
     0
 49
3.0
 74
     0
 49
-1.5
 74
     0
  0
LTYPE
  5
4D
330
5
100
AcDbSymbolTableRecord
100
AcDbLinetypeTableRecord
  2
AM_ISO09W050
 70
     0
  3
_____ . . _____ . . _____ . . ____ .. ____
 72
    65
 73
     6
 40
22.5
 49
12.0
 74
     0
 49
-1.5
 74
     0
 49
3.0
 74
     0
 49
-1.5
 74
     0
 49
3.0
 74
     0
 49
-1.5
 74
     0
  0
LTYPE
  5
4E
330
5
100
AcDbSymbolTableRecord
100
AcDbLinetypeTableRecord
  2
AMCONSTR
 70
     0
  3
_______________________
 72
    65
 73
     2
 40
9999.0
 49
9999.0
 74
     0
 49
0.0
 74
     0
  0
LTYPE
  5
4F
330
5
100
AcDbSymbolTableRecord
100
AcDbLinetypeTableRecord
  2
AM_ISO02W050X2
 70
     0
  3
 _ _ _ _ _ _ _ _ _ _ _ _
 72
    65
 73
     2
 40
3.75
 49
3.0
 74
     0
 49
-0.75
 74
     0
  0
LTYPE
  5
50
330
5
100
AcDbSymbolTableRecord
100
AcDbLinetypeTableRecord
  2
AM_ISO08W050X2
 70
     0
  3
__ . __ . __ . __ . __ . __
 72
    65
 73
     4
 40
9.0
 49
6.0
 74
     0
 49
-0.75
 74
     0
 49
1.5
 74
     0
 49
-0.75
 74
     0
  0
LTYPE
  5
53
330
5
100
AcDbSymbolTableRecord
100
AcDbLinetypeTableRecord
  2
AMZIGZAG
 70
     0
  3
/\/-/\/-/\/-/\/-/\/-/\/
 72
    65
 73
     2
 40
11.00009999999999
 49
0.0001
 74
     4
 75
   135
340
52
 46
0.04
 50
0.0
 44
0.0
 45
0.0
 49
-11.0
 74
     0
  0
LTYPE
  5
166
330
5
100
AcDbSymbolTableRecord
100
AcDbLinetypeTableRecord
  2
ACJISTGL
 70
     0
  3
_ _ _ _ _
 72
    65
 73
     2
 40
3.0
 49
2.0
 74
     0
 49
-1.0
 74
     0
  0
LTYPE
  5
26A
330
5
100
AcDbSymbolTableRecord
100
AcDbLinetypeTableRecord
  2
ACJISTGB
 70
     0
  3
__ . . __ . .
 72
    65
 73
     6
 40
9.0
 49
4.0
 74
     0
 49
-1.0
 74
     0
 49
1.0
 74
     0
 49
-1.0
 74
     0
 49
1.0
 74
     0
 49
-1.0
 74
     0
  0
ENDTAB
  0
TABLE
  2
LAYER
  5
2
330
0
100
AcDbSymbolTable
 70
     7
  0
LAYER
  5
10
330
2
100
AcDbSymbolTableRecord
100
AcDbLayerTableRecord
  2
0
 70
     0
 62
     7
  6
CONTINUOUS
  0
LAYER
  5
3F9
330
2
100
AcDbSymbolTableRecord
100
AcDbLayerTableRecord
  2
AM_0
 70
     0
 62
     7
  6
CONTINUOUS
  0
LAYER
  5
C7C
330
2
100
AcDbSymbolTableRecord
100
AcDbLayerTableRecord
  2
AM_7
 70
     0
 62
     4
  6
AM_ISO08W050
  0
LAYER
  5
C97
330
2
100
AcDbSymbolTableRecord
100
AcDbLayerTableRecord
  2
AM_11
 70
     0
 62
     3
  6
AM_ISO09W050
  0
LAYER
  5
CC5
330
2
100
AcDbSymbolTableRecord
100
AcDbLayerTableRecord
  2
AM_5
 70
     0
 62
     3
  6
CONTINUOUS
  0
LAYER
  5
CC7
330
2
100
AcDbSymbolTableRecord
100
AcDbLayerTableRecord
  2
DEFPOINTS
 70
     0
 62
     7
  6
CONTINUOUS
  0
LAYER
  5
19BC
330
2
100
AcDbSymbolTableRecord
100
AcDbLayerTableRecord
  2
AM_6
 70
     0
 62
     2
  6
CONTINUOUS
  0
ENDTAB
  0
TABLE
  2
STYLE
  5
3
330
0
100
AcDbSymbolTable
 70
     5
  0
STYLE
  5
11
330
3
100
AcDbSymbolTableRecord
100
AcDbTextStyleTableRecord
  2
STANDARD
 70
     0
 40
0.0
 41
1.0
 50
0.0
 71
     0
 42
2.5
  3
simplex.shx
  4
EXTFONT.SHX
  0
STYLE
  5
52
330
3
100
AcDbSymbolTableRecord
100
AcDbTextStyleTableRecord
  2

 70
     1
 40
0.0
 41
1.0
 50
0.0
 71
     0
 42
2.5
  3
ltypeshp.shx
  4

  0
STYLE
  5
6B
330
3
100
AcDbSymbolTableRecord
100
AcDbTextStyleTableRecord
  2
ASAMI
 70
     0
 40
0.0
 41
1.0
 50
0.0
 71
     0
 42
2.5
  3
simplex.shx
  4
EXTFONT.SHX
  0
STYLE
  5
262
330
3
100
AcDbSymbolTableRecord
100
AcDbTextStyleTableRecord
  2
ACJISTS
 70
     0
 40
1.0
 41
1.0
 50
0.0
 71
     0
 42
2.5
  3
simplex.shx
  4
bigfont.shx
  0
STYLE
  5
269
330
3
100
AcDbSymbolTableRecord
100
AcDbTextStyleTableRecord
  2
ACJISGDT
 70
     0
 40
0.0
 41
1.0
 50
0.0
 71
     0
 42
2.5
  3
amgdtans.shx
  4

  0
ENDTAB
  0
TABLE
  2
VIEW
  5
6
330
0
100
AcDbSymbolTable
 70
     0
  0
ENDTAB
  0
TABLE
  2
UCS
  5
7
330
0
100
AcDbSymbolTable
 70
     0
  0
ENDTAB
  0
TABLE
  2
APPID
  5
9
330
0
100
AcDbSymbolTable
 70
    16
  0
APPID
  5
12
330
9
100
AcDbSymbolTableRecord
100
AcDbRegAppTableRecord
  2
ACAD
 70
     0
  0
APPID
  5
30
330
9
100
AcDbSymbolTableRecord
100
AcDbRegAppTableRecord
  2
MCAD_NO_VIS
 70
     0
  0
APPID
  5
31
330
9
100
AcDbSymbolTableRecord
100
AcDbRegAppTableRecord
  2
ACAD_TEMP_GRAPHIC
 70
     0
  0
APPID
  5
2C2
330
9
100
AcDbSymbolTableRecord
100
AcDbRegAppTableRecord
  2
GENIUS_GENDTOL_13
 70
     0
  0
APPID
  5
339
330
9
100
AcDbSymbolTableRecord
100
AcDbRegAppTableRecord
  2
GENIUS_GENODEF_13
 70
     0
  0
APPID
  5
33A
330
9
100
AcDbSymbolTableRecord
100
AcDbRegAppTableRecord
  2
GENIUS_GENOBJ-N-RSBK_13
 70
     0
  0
APPID
  5
33B
330
9
100
AcDbSymbolTableRecord
100
AcDbRegAppTableRecord
  2
GENIUS_GENOBJ-N-LIB_13
 70
     0
  0
APPID
  5
33C
330
9
100
AcDbSymbolTableRecord
100
AcDbRegAppTableRecord
  2
GENIUS_GENSCALE_13
 70
     0
  0
APPID
  5
378
330
9
100
AcDbSymbolTableRecord
100
AcDbRegAppTableRecord
  2
GENIUS_GENDIMSH_14
 70
     0
  0
APPID
  5
C82
330
9
100
AcDbSymbolTableRecord
100
AcDbRegAppTableRecord
  2
GENIUS_GENOBJ-N-CRS_13
 70
     0
  0
APPID
  5
C83
330
9
100
AcDbSymbolTableRecord
100
AcDbRegAppTableRecord
  2
GENIUS_GENOENT_13
 70
     0
  0
APPID
  5
C84
330
9
100
AcDbSymbolTableRecord
100
AcDbRegAppTableRecord
  2
GENIUS_GENOREF_13
 70
     0
  0
APPID
  5
C85
330
9
100
AcDbSymbolTableRecord
100
AcDbRegAppTableRecord
  2
GENIUS_GENOLIS_13
 70
     0
  0
APPID
  5
CA0
330
9
100
AcDbSymbolTableRecord
100
AcDbRegAppTableRecord
  2
GENIUS_GENOBJ-N-CEN_13
 70
     0
  0
APPID
  5
1E1E
330
9
100
AcDbSymbolTableRecord
100
AcDbRegAppTableRecord
  2
GENIUS_GENFIL_13
 70
     0
  0
APPID
  5
1E1F
330
9
100
AcDbSymbolTableRecord
100
AcDbRegAppTableRecord
  2
GENIUS_GENOBJ-N-CHA_13
 70
     0
  0
ENDTAB
  0
TABLE
  2
DIMSTYLE
  5
A
330
0
100
AcDbSymbolTable
 70
     9
  0
DIMSTYLE
105
58
330
A
100
AcDbSymbolTableRecord
100
AcDbDimStyleTableRecord
  2
AM_JIS
 70
     0
  3

  4
"
  5
OPEN30
  6

  7

 40
0.5
 41
2.5
 42
1.0
 43
12.0
 44
1.0
 45
0.0
 46
0.0
 47
0.1
 48
0.1
140
3.2
141
0.0
142
0.0
143
0.0393701
144
1.0
145
0.0
146
0.71
147
1.5
 71
     0
 72
     0
 73
     0
 74
     0
 75
     0
 76
     0
 77
     3
 78
     8
170
     0
171
     2
172
     1
173
     0
174
     0
175
     0
176
   256
177
   256
178
     2
270
     2
271
     3
272
     3
273
     2
274
     2
340
6B
275
     0
280
     0
281
     0
282
     0
283
     0
284
     0
285
     0
286
     0
287
     3
288
     0
  0
DIMSTYLE
105
5F
330
A
100
AcDbSymbolTableRecord
100
AcDbDimStyleTableRecord
  2
AM_JIS$3
 70
     0
  3

  4
"
  5
OPEN30
  6

  7

 40
0.5
 41
2.5
 42
1.0
 43
10.0
 44
1.0
 45
0.0
 46
0.0
 47
0.1
 48
0.1
140
3.2
141
0.0
142
0.0
143
0.0393701
144
1.0
145
0.0
146
0.71
147
1.5
 71
     0
 72
     0
 73
     0
 74
     1
 75
     0
 76
     0
 77
     3
 78
     8
170
     0
171
     2
172
     0
173
     0
174
     0
175
     0
176
   256
177
   256
178
     2
270
     2
271
     2
272
     3
273
     2
274
     2
340
6B
275
     0
280
     0
281
     0
282
     0
283
     0
284
     0
285
     0
286
     0
287
     0
288
     1
  0
DIMSTYLE
105
60
330
A
100
AcDbSymbolTableRecord
100
AcDbDimStyleTableRecord
  2
AM_JIS$4
 70
     0
  3

  4
"
  5
OPEN30
  6

  7

 40
0.5
 41
2.5
 42
1.0
 43
10.0
 44
1.0
 45
0.0
 46
0.0
 47
0.1
 48
0.1
140
3.2
141
0.0
142
0.0
143
0.0393701
144
1.0
145
0.0
146
0.71
147
1.5
 71
     0
 72
     0
 73
     0
 74
     1
 75
     0
 76
     0
 77
     3
 78
     8
170
     0
171
     2
172
     0
173
     0
174
     0
175
     0
176
   256
177
   256
178
     2
270
     2
271
     2
272
     3
273
     2
274
     2
340
6B
275
     0
280
     0
281
     0
282
     0
283
     0
284
     0
285
     0
286
     0
287
     0
288
     1
  0
DIMSTYLE
105
61
330
A
100
AcDbSymbolTableRecord
100
AcDbDimStyleTableRecord
  2
AM_JIS$6
 70
     0
  3

  4
"
  5
OPEN30
  6

  7

 40
0.5
 41
2.5
 42
1.0
 43
10.0
 44
1.0
 45
0.0
 46
0.0
 47
0.1
 48
0.1
140
3.2
141
0.0
142
0.0
143
0.0393701
144
1.0
145
0.0
146
0.71
147
1.5
 71
     0
 72
     0
 73
     0
 74
     0
 75
     0
 76
     0
 77
     0
 78
     8
170
     0
171
     2
172
     1
173
     0
174
     0
175
     0
176
   256
177
   256
178
     2
270
     2
271
     2
272
     2
273
     2
274
     2
340
6B
275
     0
280
     0
281
     0
282
     0
283
     0
284
     0
285
     0
286
     0
287
     3
288
     0
  0
DIMSTYLE
105
62
330
A
100
AcDbSymbolTableRecord
100
AcDbDimStyleTableRecord
  2
AM_JIS$7
 70
     0
  3

  4
"
  5
OPEN30
  6

  7

 40
0.5
 41
2.5
 42
1.0
 43
10.0
 44
1.0
 45
0.0
 46
0.0
 47
0.1
 48
0.1
140
3.2
141
0.0
142
0.0
143
0.0393701
144
1.0
145
0.0
146
0.71
147
1.5
 71
     0
 72
     0
 73
     0
 74
     0
 75
     0
 76
     0
 77
     3
 78
     8
170
     0
171
     2
172
     1
173
     0
174
     0
175
     0
176
   256
177
   256
178
     2
270
     2
271
     2
272
     3
273
     2
274
     2
340
6B
275
     0
280
     0
281
     0
282
     0
283
     0
284
     0
285
     0
286
     0
287
     3
288
     0
  0
DIMSTYLE
105
63
330
A
100
AcDbSymbolTableRecord
100
AcDbDimStyleTableRecord
  2
AM_JIS$SF
 70
     0
  3

  4
"
  5
OPEN30
  6

  7

 40
0.5
 41
2.5
 42
1.0
 43
10.0
 44
1.0
 45
0.0
 46
0.0
 47
0.1
 48
0.1
140
3.2
141
0.0
142
0.0
143
0.0393701
144
1.0
145
0.0
146
0.71
147
1.5
 71
     0
 72
     0
 73
     0
 74
     0
 75
     1
 76
     1
 77
     3
 78
     8
170
     0
171
     2
172
     1
173
     0
174
     0
175
     0
176
   256
177
   256
178
     2
270
     2
271
     2
272
     2
273
     2
274
     2
340
6B
275
     0
280
     0
281
     0
282
     0
283
     0
284
     0
285
     0
286
     0
287
     3
288
     0
  0
DIMSTYLE
105
68
330
A
100
AcDbSymbolTableRecord
100
AcDbDimStyleTableRecord
  2
AM_JIS$SH
 70
     0
  3

  4
"
  5

  6
GENAXEH
  7
OPEN30
 40
0.5
 41
2.5
 42
1.0
 43
10.0
 44
1.0
 45
0.0
 46
0.0
 47
0.1
 48
0.1
140
3.2
141
0.0
142
0.0
143
0.0393701
144
2.0
145
0.0
146
0.71
147
1.5
 71
     0
 72
     0
 73
     0
 74
     0
 75
     1
 76
     1
 77
     3
 78
     8
170
     0
171
     2
172
     1
173
     1
174
     0
175
     0
176
   256
177
   256
178
     2
270
     2
271
     2
272
     2
273
     2
274
     2
340
6B
275
     0
280
     0
281
     0
282
     0
283
     0
284
     0
285
     0
286
     0
287
     3
288
     0
  0
DIMSTYLE
105
B34
102
{ACAD_REACTORS
330
26BF
102
}
330
A
100
AcDbSymbolTableRecord
100
AcDbDimStyleTableRecord
  2
AM_JIS$2
 70
     0
  3

  4
"
  5
OPEN30
  6

  7

 40
0.5
 41
2.5
 42
1.0
 43
12.0
 44
1.0
 45
0.0
 46
0.0
 47
0.1
 48
0.1
140
3.2
141
0.0
142
0.0
143
0.0393701
144
1.0
145
0.0
146
0.71
147
1.5
 71
     0
 72
     0
 73
     0
 74
     0
 75
     0
 76
     0
 77
     3
 78
     8
170
     0
171
     2
172
     1
173
     0
174
     0
175
     0
176
   256
177
   256
178
     2
270
     2
271
     3
272
     3
273
     2
274
     2
340
6B
275
     0
280
     0
281
     0
282
     0
283
     0
284
     0
285
     0
286
     0
287
     3
288
     0
  0
DIMSTYLE
105
BA5
102
{ACAD_REACTORS
330
CC6
330
DF5
330
228A
330
294C
102
}
330
A
100
AcDbSymbolTableRecord
100
AcDbDimStyleTableRecord
  2
AM_JIS$0
 70
     0
  3

  4
"
  5
OPEN30
  6

  7

 40
0.5
 41
2.5
 42
0.0
 43
10.0
 44
1.0
 45
0.0
 46
0.0
 47
0.1
 48
0.1000000001
140
3.799999999999999
141
0.0
142
0.0
143
0.0393701
144
1.0
145
0.0
146
0.71
147
1.5
 71
     0
 72
     0
 73
     0
 74
     0
 75
     0
 76
     0
 77
     3
 78
     1
170
     0
171
     2
172
     1
173
     0
174
     0
175
     0
176
     3
177
     3
178
     2
270
     2
271
     2
272
     2
273
     2
274
     2
340
11
275
     1
280
     0
281
     0
282
     0
283
     0
284
     8
285
     0
286
     0
287
     0
288
     0
  0
ENDTAB
  0
TABLE
  2
BLOCK_RECORD
  5
1
330
0
100
AcDbSymbolTable
 70
    10
  0
BLOCK_RECORD
  5
1F
102
{ACAD_XDICTIONARY
360
74
102
}
330
1
100
AcDbSymbolTableRecord
100
AcDbBlockTableRecord
  2
*MODEL_SPACE
  0
BLOCK_RECORD
  5
101
102
{ACAD_XDICTIONARY
360
2A9A
102
}
330
1
100
AcDbSymbolTableRecord
100
AcDbBlockTableRecord
  2
*PAPER_SPACE
  0
BLOCK_RECORD
  5
59
330
1
100
AcDbSymbolTableRecord
100
AcDbBlockTableRecord
  2
_OPEN30
  0
BLOCK_RECORD
  5
64
330
1
100
AcDbSymbolTableRecord
100
AcDbBlockTableRecord
  2
GENAXEH
  0
BLOCK_RECORD
  5
CC8
330
1
100
AcDbSymbolTableRecord
100
AcDbBlockTableRecord
  2
*D5
  0
BLOCK_RECORD
  5
DF6
330
1
100
AcDbSymbolTableRecord
100
AcDbBlockTableRecord
  2
*D6
  0
BLOCK_RECORD
  5
228B
330
1
100
AcDbSymbolTableRecord
100
AcDbBlockTableRecord
  2
*D7
  0
BLOCK_RECORD
  5
26C0
330
1
100
AcDbSymbolTableRecord
100
AcDbBlockTableRecord
  2
*D8
  0
BLOCK_RECORD
  5
294D
330
1
100
AcDbSymbolTableRecord
100
AcDbBlockTableRecord
  2
*D9
  0
ENDTAB
  0
ENDSEC
  0
SECTION
  2
BLOCKS
  0
BLOCK
  5
20
330
1F
100
AcDbEntity
  8
0
100
AcDbBlockBegin
  2
*MODEL_SPACE
 70
     0
 10
0.0
 20
0.0
 30
0.0
  3
*MODEL_SPACE
  1

  0
ENDBLK
  5
21
330
1F
100
AcDbEntity
  8
0
100
AcDbBlockEnd
  0
BLOCK
  5
103
330
101
100
AcDbEntity
 67
     1
  8
0
100
AcDbBlockBegin
  2
*PAPER_SPACE
 70
     0
 10
0.0
 20
0.0
 30
0.0
  3
*PAPER_SPACE
  1

  0
ENDBLK
  5
104
330
101
100
AcDbEntity
 67
     1
  8
0
100
AcDbBlockEnd
  0
BLOCK
  5
5D
330
59
100
AcDbEntity
  8
0
100
AcDbBlockBegin
  2
_OPEN30
 70
     0
 10
0.0
 20
0.0
 30
0.0
  3
_OPEN30
  1

  0
LINE
  5
5A
330
59
100
AcDbEntity
  8
0
 62
     0
100
AcDbLine
 10
-1.0
 20
0.26794919
 30
0.0
 11
0.0
 21
0.0
 31
0.0
  0
LINE
  5
5B
330
59
100
AcDbEntity
  8
0
 62
     0
100
AcDbLine
 10
0.0
 20
0.0
 30
0.0
 11
-1.0
 21
-0.26794919
 31
0.0
  0
LINE
  5
5C
330
59
100
AcDbEntity
  8
0
 62
     0
100
AcDbLine
 10
0.0
 20
0.0
 30
0.0
 11
-1.0
 21
0.0
 31
0.0
  0
ENDBLK
  5
5E
330
59
100
AcDbEntity
  8
0
100
AcDbBlockEnd
  0
BLOCK
  5
66
330
64
100
AcDbEntity
  8
0
100
AcDbBlockBegin
  2
GENAXEH
 70
     0
 10
0.0
 20
0.0
 30
0.0
  3
GENAXEH
  1

  0
LINE
  5
65
330
64
100
AcDbEntity
  8
0
100
AcDbLine
 10
-1.0
 20
0.0
 30
0.0
 11
1.0
 21
0.0
 31
0.0
  0
ENDBLK
  5
67
330
64
100
AcDbEntity
  8
0
100
AcDbBlockEnd
  0
BLOCK
  5
CD2
330
CC8
100
AcDbEntity
  8
0
100
AcDbBlockBegin
  2
*D5
 70
     1
 10
0.0
 20
0.0
 30
0.0
  3
*D5
  1

  0
LINE
  5
2A1F
330
CC8
100
AcDbEntity
  8
AM_5
 62
     3
100
AcDbLine
 10
-95.99999999999999
 20
-3.499999999999991
 30
0.0
 11
-95.99999999999999
 21
-16.5000023696538
 31
0.0
  0
LINE
  5
2A20
330
CC8
100
AcDbEntity
  8
AM_5
 62
     3
100
AcDbLine
 10
-2.000000000000006
 20
-3.649995308281933
 30
0.0
 11
-2.000000000000007
 21
-16.5000023696538
 31
0.0
  0
LINE
  5
2A21
330
CC8
100
AcDbEntity
  8
AM_5
 62
     3
100
AcDbLine
 10
-94.74999999999999
 20
-16.0000023696538
 30
0.0
 11
-3.250000000000007
 21
-16.0000023696538
 31
0.0
  0
INSERT
  5
2A22
330
CC8
100
AcDbEntity
  8
AM_5
 62
     3
100
AcDbBlockReference
  2
_OPEN30
 10
-95.99999999999999
 20
-16.0000023696538
 30
0.0
 41
1.25
 42
1.25
 43
1.25
 50
180.0
  0
INSERT
  5
2A23
330
CC8
100
AcDbEntity
  8
AM_5
 62
     3
100
AcDbBlockReference
  2
_OPEN30
 10
-2.000000000000007
 20
-16.0000023696538
 30
0.0
 41
1.25
 42
1.25
 43
1.25
  0
MTEXT
  5
2A24
330
CC8
100
AcDbEntity
  8
AM_5
 62
     2
100
AcDbMText
 10
-49.0
 20
-14.3000023696538
 30
0.0
 40
1.9
 41
0.0
 71
     5
 72
     1
  1
94
1001
ACAD
1000
MTEXTBEGIN
1070
    73
1070
     1
1070
    44
1040
1.0
1070
    74
1070
     0
1000
MTEXTEND
  0
POINT
  5
2A25
330
CC8
100
AcDbEntity
  8
DEFPOINTS
 62
     0
100
AcDbPoint
 10
-95.99999999999999
 20
-3.499999999999991
 30
0.0
  0
POINT
  5
2A26
330
CC8
100
AcDbEntity
  8
DEFPOINTS
 62
     0
100
AcDbPoint
 10
-2.000000000000006
 20
-3.649995308281933
 30
0.0
  0
POINT
  5
2A27
330
CC8
100
AcDbEntity
  8
DEFPOINTS
 62
     0
100
AcDbPoint
 10
-2.000000000000007
 20
-16.0000023696538
 30
0.0
  0
ENDBLK
  5
CD3
330
CC8
100
AcDbEntity
  8
0
100
AcDbBlockEnd
  0
BLOCK
  5
E00
330
DF6
100
AcDbEntity
  8
0
100
AcDbBlockBegin
  2
*D6
 70
     1
 10
0.0
 20
0.0
 30
0.0
  3
*D6
  1

  0
LINE
  5
2A3C
330
DF6
100
AcDbEntity
  8
AM_5
 62
     3
100
AcDbLine
 10
-41.99999999999998
 20
-4.000001369653871
 30
0.0
 11
-41.99999999999998
 21
-11.50000236965372
 31
0.0
  0
LINE
  5
2A3D
330
DF6
100
AcDbEntity
  8
AM_5
 62
     3
100
AcDbLine
 10
-2.000000000000006
 20
-3.649995308281933
 30
0.0
 11
-2.000000000000006
 21
-11.50000236965372
 31
0.0
  0
LINE
  5
2A3E
330
DF6
100
AcDbEntity
  8
AM_5
 62
     3
100
AcDbLine
 10
-40.74999999999998
 20
-11.00000236965372
 30
0.0
 11
-3.250000000000006
 21
-11.00000236965372
 31
0.0
  0
INSERT
  5
2A3F
330
DF6
100
AcDbEntity
  8
AM_5
 62
     3
100
AcDbBlockReference
  2
_OPEN30
 10
-41.99999999999998
 20
-11.00000236965372
 30
0.0
 41
1.25
 42
1.25
 43
1.25
 50
180.0
  0
INSERT
  5
2A40
330
DF6
100
AcDbEntity
  8
AM_5
 62
     3
100
AcDbBlockReference
  2
_OPEN30
 10
-2.000000000000006
 20
-11.00000236965372
 30
0.0
 41
1.25
 42
1.25
 43
1.25
  0
MTEXT
  5
2A41
330
DF6
100
AcDbEntity
  8
AM_5
 62
     2
100
AcDbMText
 10
-21.99999999999999
 20
-9.300002369653723
 30
0.0
 40
1.9
 41
0.0
 71
     5
 72
     1
  1
40
1001
ACAD
1000
MTEXTBEGIN
1070
    73
1070
     1
1070
    44
1040
1.0
1070
    74
1070
     0
1000
MTEXTEND
  0
POINT
  5
2A42
330
DF6
100
AcDbEntity
  8
DEFPOINTS
 62
     0
100
AcDbPoint
 10
-41.99999999999998
 20
-4.000001369653871
 30
0.0
  0
POINT
  5
2A43
330
DF6
100
AcDbEntity
  8
DEFPOINTS
 62
     0
100
AcDbPoint
 10
-2.000000000000006
 20
-3.649995308281933
 30
0.0
  0
POINT
  5
2A44
330
DF6
100
AcDbEntity
  8
DEFPOINTS
 62
     0
100
AcDbPoint
 10
-2.000000000000006
 20
-11.00000236965372
 30
0.0
  0
ENDBLK
  5
E01
330
DF6
100
AcDbEntity
  8
0
100
AcDbBlockEnd
  0
BLOCK
  5
2297
330
228B
100
AcDbEntity
  8
0
100
AcDbBlockBegin
  2
*D7
 70
     1
 10
0.0
 20
0.0
 30
0.0
  3
*D7
  1

  0
LINE
  5
2A28
330
228B
100
AcDbEntity
  8
AM_5
 62
     3
100
AcDbLine
 10
-95.49999999999998
 20
-4.000000000000288
 30
0.0
 11
-105.5000009999999
 21
-4.000000000000317
 31
0.0
  0
LINE
  5
2A29
330
228B
100
AcDbEntity
  8
AM_5
 62
     3
100
AcDbLine
 10
-95.5
 20
4.000000000000006
 30
0.0
 11
-105.5000009999999
 21
3.999999999999977
 31
0.0
  0
LINE
  5
2A2A
330
228B
100
AcDbEntity
  8
AM_5
 62
     3
100
AcDbLine
 10
-105.0000009999999
 20
-2.750000000000315
 30
0.0
 11
-105.0000009999999
 21
2.749999999999979
 31
0.0
  0
INSERT
  5
2A2B
330
228B
100
AcDbEntity
  8
AM_5
 62
     3
100
AcDbBlockReference
  2
_OPEN30
 10
-105.0000009999999
 20
-4.000000000000315
 30
0.0
 41
1.25
 42
1.25
 43
1.25
 50
270.0000000000001
  0
INSERT
  5
2A2C
330
228B
100
AcDbEntity
  8
AM_5
 62
     3
100
AcDbBlockReference
  2
_OPEN30
 10
-105.0000009999999
 20
3.999999999999979
 30
0.0
 41
1.25
 42
1.25
 43
1.25
 50
90.00000000000015
  0
MTEXT
  5
2A2D
330
228B
100
AcDbEntity
  8
AM_5
 62
     2
100
AcDbMText
 10
-106.7000009999999
 20
-0.0000000000003035
 30
0.0
 40
1.9
 41
0.0
 71
     5
 72
     1
  1
%%c8
 11
-0.0000000000000028
 21
1.0
 31
0.0
1001
ACAD
1000
MTEXTBEGIN
1070
    73
1070
     1
1070
    44
1040
1.0
1070
    74
1070
     0
1000
MTEXTEND
  0
POINT
  5
2A2E
330
228B
100
AcDbEntity
  8
DEFPOINTS
 62
     0
100
AcDbPoint
 10
-95.5
 20
-3.999999999999992
 30
0.0
  0
POINT
  5
2A2F
330
228B
100
AcDbEntity
  8
DEFPOINTS
 62
     0
100
AcDbPoint
 10
-95.49999999999998
 20
4.000000000000302
 30
0.0
  0
POINT
  5
2A30
330
228B
100
AcDbEntity
  8
DEFPOINTS
 62
     0
100
AcDbPoint
 10
-105.0000009999999
 20
4.000000000000305
 30
0.0
  0
ENDBLK
  5
2298
330
228B
100
AcDbEntity
  8
0
100
AcDbBlockEnd
  0
BLOCK
  5
26CE
330
26C0
100
AcDbEntity
  8
0
100
AcDbBlockBegin
  2
*D8
 70
     1
 10
0.0
 20
0.0
 30
0.0
  3
*D8
  1

  0
LINE
  5
2A9C
330
26C0
100
AcDbEntity
  8
AM_5
100
AcDbLine
 10
0.1710101364597434
 20
-0.4698462868088087
 30
0.0
 11
4.915346007476475
 21
-13.50479636940692
 31
0.0
  0
LINE
  5
2A9D
330
26C0
100
AcDbEntity
  8
AM_5
100
AcDbLine
 10
0.1710111995358698
 20
0.4698458998792038
 30
0.0
 11
4.915376563483865
 21
13.50478524788582
 31
0.0
  0
ARC
  5
2A9E
330
26C0
100
AcDbEntity
  8
AM_5
100
AcDbCircle
 10
0.0000000000000018
 20
-0.0000000000000051
 30
0.0
 40
13.8715048395205
100
AcDbArc
 50
295.1648389466326
 51
64.83503141564945
  0
INSERT
  5
2A9F
330
26C0
100
AcDbEntity
  8
AM_5
100
AcDbBlockReference
  2
_OPEN30
 10
4.744335871016735
 20
-13.03495008259812
 30
0.0
 41
1.25
 42
1.25
 43
1.25
 50
202.5824234241714
  0
INSERT
  5
2AA0
330
26C0
100
AcDbEntity
  8
AM_5
100
AcDbBlockReference
  2
_OPEN30
 10
4.744365363947998
 20
13.03493934800661
 30
0.0
 41
1.25
 42
1.25
 43
1.25
 50
157.4174469381106
  0
MTEXT
  5
2AA1
330
26C0
100
AcDbEntity
  8
AM_5
 62
     2
100
AcDbMText
 10
12.32150483951261
 20
-0.0000139393493107
 30
0.0
 40
1.6
 41
0.0
 71
     5
 72
     1
  1
140°
  7
ASAMI
 11
0.0000011313025075
 21
0.9999999999993601
 31
0.0
  0
POINT
  5
2AA2
330
26C0
100
AcDbEntity
  8
DEFPOINTS
 62
     0
100
AcDbPoint
 10
12.73703527913145
 20
-5.494231412217856
 30
0.0
  0
POINT
  5
2AA3
330
26C0
100
AcDbEntity
  8
DEFPOINTS
 62
     0
100
AcDbPoint
 10
0.0000000000000018
 20
-0.0000000000000051
 30
0.0
  0
POINT
  5
2AA4
330
26C0
100
AcDbEntity
  8
DEFPOINTS
 62
     0
100
AcDbPoint
 10
0.0000000000000018
 20
-0.0000000000000051
 30
0.0
  0
POINT
  5
2AA5
330
26C0
100
AcDbEntity
  8
DEFPOINTS
 62
     0
100
AcDbPoint
 10
-0.4497187230507491
 20
1.235591506492574
 30
0.0
  0
POINT
  5
2AA6
330
26C0
100
AcDbEntity
  8
DEFPOINTS
 62
     0
100
AcDbPoint
 10
-0.4497245551032961
 20
-1.235598831326638
 30
0.0
  0
ENDBLK
  5
26CF
330
26C0
100
AcDbEntity
  8
0
100
AcDbBlockEnd
  0
BLOCK
  5
2957
330
294D
100
AcDbEntity
  8
0
100
AcDbBlockBegin
  2
*D9
 70
     1
 10
0.0
 20
0.0
 30
0.0
  3
*D9
  1

  0
LINE
  5
2A45
330
294D
100
AcDbEntity
  8
AM_5
 62
     3
100
AcDbLine
 10
-1.999999999999989
 20
3.650000769602244
 30
0.0
 11
9.055921024858065
 21
3.650000769602275
 31
0.0
  0
LINE
  5
2A46
330
294D
100
AcDbEntity
  8
AM_5
 62
     3
100
AcDbLine
 10
-1.999999999999941
 20
-3.650000769602281
 30
0.0
 11
9.055921024858086
 21
-3.65000076960225
 31
0.0
  0
LINE
  5
2A47
330
294D
100
AcDbEntity
  8
AM_5
 62
     3
100
AcDbLine
 10
8.555921024858069
 20
2.400000769602274
 30
0.0
 11
8.555921024858083
 21
-2.400000769602251
 31
0.0
  0
INSERT
  5
2A48
330
294D
100
AcDbEntity
  8
AM_5
 62
     3
100
AcDbBlockReference
  2
_OPEN30
 10
8.555921024858065
 20
3.650000769602274
 30
0.0
 41
1.25
 42
1.25
 43
1.25
 50
90.00000000000017
  0
INSERT
  5
2A49
330
294D
100
AcDbEntity
  8
AM_5
 62
     3
100
AcDbBlockReference
  2
_OPEN30
 10
8.555921024858086
 20
-3.650000769602251
 30
0.0
 41
1.25
 42
1.25
 43
1.25
 50
270.0000000000001
  0
MTEXT
  5
2A4A
330
294D
100
AcDbEntity
  8
AM_5
 62
     2
100
AcDbMText
 10
6.855921024858075
 20
0.0000000000000063
 30
0.0
 40
1.9
 41
0.0
 71
     5
 72
     1
  1
%%c7.3
 11
-0.0000000000000028
 21
1.0
 31
0.0
1001
ACAD
1000
MTEXTBEGIN
1070
    73
1070
     1
1070
    44
1040
1.0
1070
    74
1070
     0
1000
MTEXTEND
  0
POINT
  5
2A4B
330
294D
100
AcDbEntity
  8
DEFPOINTS
 62
     0
100
AcDbPoint
 10
-1.999999999999977
 20
3.65000076960225
 30
0.0
  0
POINT
  5
2A4C
330
294D
100
AcDbEntity
  8
DEFPOINTS
 62
     0
100
AcDbPoint
 10
-1.999999999999953
 20
-3.650000769602275
 30
0.0
  0
POINT
  5
2A4D
330
294D
100
AcDbEntity
  8
DEFPOINTS
 62
     0
100
AcDbPoint
 10
8.555921024858076
 20
-3.650000769602277
 30
0.0
  0
ENDBLK
  5
2958
330
294D
100
AcDbEntity
  8
0
100
AcDbBlockEnd
  0
ENDSEC
  0
SECTION
  2
ENTITIES
  0
LINE
  5
C1D
330
1F
100
AcDbEntity
  8
AM_0
 48
0.5
100
AcDbLine
 10
0.0000000000000018
 20
-0.0000000000000051
 30
0.0
 11
-0.4497187230507491
 21
1.235591506492574
 31
0.0
  0
LINE
  5
C20
330
1F
100
AcDbEntity
  8
AM_0
 48
0.5
100
AcDbLine
 10
0.0000000000000018
 20
-0.0000000000000051
 30
0.0
 11
-0.4497245551032961
 21
-1.235598831326638
 31
0.0
  0
LINE
  5
C30
330
1F
100
AcDbEntity
  8
AM_0
 48
0.5
100
AcDbLine
 10
-95.99999999999999
 20
-3.499999999999991
 30
0.0
 11
-96.0
 21
3.500000000000007
 31
0.0
  0
LINE
  5
C9F
330
1F
100
AcDbEntity
  8
AM_7
100
AcDbLine
 10
-97.99999999999997
 20
0.000000000000006
 30
0.0
 11
1.555920024858062
 21
-0.0000000000000013
 31
0.0
1001
GENIUS_GENODEF_13
1002
{
1000
HIER
1070
     0
1002
}
1002
{
1000
MANEDIT
1070
     0
1002
}
1002
{
1000
NOSEL
1070
     0
1002
}
1002
{
1000
BEHIND
1070
     0
1002
}
1002
{
1000
REACTOR
1002
}
1001
GENIUS_GENOBJ-N-CEN_13
1002
{
1000
OWNER
1000
GEN
1002
}
  0
DIMENSION
  5
CC6
330
1F
100
AcDbEntity
  8
AM_5
100
AcDbDimension
  2
*D5
 10
-2.000000000000007
 20
-16.0000023696538
 30
0.0
 11
-49.0
 21
-14.3000023696538
 31
0.0
 70
    32
  1
<>
  3
AM_JIS$0
100
AcDbAlignedDimension
 13
-95.99999999999999
 23
-3.499999999999991
 33
0.0
 14
-2.000000000000006
 24
-3.649995308281933
 34
0.0
 50
0.0000000000001132
100
AcDbRotatedDimension
1001
GENIUS_GENDTOL_13
1000

1000
h7
1000

1040
0.0
1001
ACAD
1000
DSTYLE
1002
{
1070
   271
1070
     0
1002
}
  0
DIMENSION
  5
DF5
330
1F
100
AcDbEntity
  8
AM_5
100
AcDbDimension
  2
*D6
 10
-2.000000000000006
 20
-11.00000236965372
 30
0.0
 11
-21.99999999999999
 21
-9.300002369653723
 31
0.0
 70
    32
  1
<>
  3
AM_JIS$0
100
AcDbAlignedDimension
 13
-41.99999999999998
 23
-4.000001369653871
 33
0.0
 14
-2.000000000000006
 24
-3.649995308281933
 34
0.0
 50
0.0000000000001527
100
AcDbRotatedDimension
1001
GENIUS_GENDTOL_13
1000

1000
h7
1000

1040
0.0
1001
ACAD
1000
DSTYLE
1002
{
1070
   271
1070
     0
1002
}
  0
TEXT
  5
19BD
330
1F
100
AcDbEntity
  8
AM_6
100
AcDbText
 10
-60.24999999999995
 20
-27.25000236965383
 30
0.0
 40
2.5
  1
MDW073MHK
 50
0.0000000000001527
 72
     4
 11
-48.99999999999995
 21
-26.0000023696538
 31
0.0
100
AcDbText
  0
ARC
  5
1BE8
330
1F
100
AcDbEntity
  8
AM_11
 48
0.5
100
AcDbCircle
 10
-65.18578898111988
 20
17.66787048062784
 30
0.0
 40
19.53452809651666
100
AcDbArc
 50
244.7482808787518
 51
295.2516148471758
  0
ARC
  5
1BE9
330
1F
100
AcDbEntity
  8
AM_11
 48
0.5
100
AcDbCircle
 10
-65.18578898111991
 20
-17.66785848258815
 30
0.0
 40
19.53452809651666
100
AcDbArc
 50
64.74833051131179
 51
115.2516644797366
  0
LINE
  5
1CA9
330
1F
100
AcDbEntity
  8
AM_0
 48
0.5
100
AcDbLine
 10
-41.99999999999998
 20
-4.000001369653871
 30
0.0
 11
-41.99999999999998
 21
4.000029622605987
 31
0.0
  0
LINE
  5
1E12
330
1F
100
AcDbEntity
  8
AM_0
 48
0.5
100
AcDbLine
 10
-95.5
 20
4.000000000000007
 30
0.0
 11
-41.99999999999998
 21
3.999999999999892
 31
0.0
1001
GENIUS_GENODEF_13
1002
{
1000
HIER
1070
     0
1002
}
1002
{
1000
MANEDIT
1070
     0
1002
}
1002
{
1000
NOSEL
1070
     0
1002
}
1002
{
1000
BEHIND
1070
     0
1002
}
1002
{
1000
REACTOR
1002
}
1001
GENIUS_GENOBJ-N-CEN_13
1002
{
1000
OWNER
1000
GEN
1002
}
  0
LINE
  5
1E16
330
1F
100
AcDbEntity
  8
AM_0
 48
0.5
100
AcDbLine
 10
-95.49999999999998
 20
-3.999999999999992
 30
0.0
 11
-41.99999999999998
 21
-4.000000000000107
 31
0.0
1001
GENIUS_GENODEF_13
1002
{
1000
HIER
1070
     0
1002
}
1002
{
1000
MANEDIT
1070
     0
1002
}
1002
{
1000
NOSEL
1070
     0
1002
}
1002
{
1000
BEHIND
1070
     0
1002
}
1002
{
1000
REACTOR
1002
}
1001
GENIUS_GENOBJ-N-CEN_13
1002
{
1000
OWNER
1000
GEN
1002
}
  0
LINE
  5
1E22
330
1F
100
AcDbEntity
  8
AM_0
100
AcDbLine
 10
-95.5
 20
-3.999999999999696
 30
0.0
 11
-95.49999999999998
 21
4.000000000000302
 31
0.0
  0
LINE
  5
1E25
330
1F
100
AcDbEntity
  8
AM_0
100
AcDbLine
 10
-41.99999999999998
 20
-4.000001369653871
 30
0.0
 11
-41.39378355034325
 21
-3.650002139257383
 31
0.0
  0
LINE
  5
1E26
330
1F
100
AcDbEntity
  8
AM_0
100
AcDbLine
 10
-41.99999999999998
 20
3.99999999999996
 30
0.0
 11
-41.393783550343
 21
3.650000769603341
 31
0.0
  0
ARC
  5
1F66
330
1F
100
AcDbEntity
  8
AM_11
 48
0.5
100
AcDbCircle
 10
-81.85241919041599
 20
17.66787048062778
 30
0.0
 40
19.53452809651666
100
AcDbArc
 50
244.7482808787518
 51
295.2516148471758
  0
ARC
  5
1F67
330
1F
100
AcDbEntity
  8
AM_11
 48
0.5
100
AcDbCircle
 10
-81.85241919041601
 20
-17.66785848258821
 30
0.0
 40
19.53452809651666
100
AcDbArc
 50
64.74833051131179
 51
115.2516644797366
  0
LINE
  5
2203
330
1F
100
AcDbEntity
  8
AM_0
 48
0.5
100
AcDbLine
 10
-1.53240432354867
 20
3.149258293794719
 30
0.0
 11
-1.999999999999977
 21
3.65000076960225
 31
0.0
  0
LINE
  5
220F
330
1F
100
AcDbEntity
  8
AM_0
100
AcDbLine
 10
-41.39378355034325
 20
-3.650002139257381
 30
0.0
 11
-41.39378355034301
 21
3.65000313337218
 31
0.0
  0
ELLIPSE
  5
222E
330
1F
100
AcDbEntity
  8
AM_11
 48
0.5
100
AcDbEllipse
 10
-15.18578898112438
 20
16.72558433296425
 30
0.0
 11
-19.53452809651665
 21
0.000000000000166
 31
0.0
210
0.0
220
0.0
230
1.0
 40
0.9466666666666663
 41
1.130070686340305
 42
2.011520147323594
  0
ELLIPSE
  5
222F
330
1F
100
AcDbEntity
  8
AM_11
 48
0.5
100
AcDbEllipse
 10
-15.18578898112475
 20
-16.72557241888021
 30
0.0
 11
-19.53452809651663
 21
0.0000000000000489
 31
0.0
210
0.0
220
0.0
230
1.0
 40
0.9466666666666668
 41
4.271664206181679
 42
5.153113667164986
  0
ELLIPSE
  5
2230
330
1F
100
AcDbEntity
  8
AM_11
 48
0.5
100
AcDbEllipse
 10
-48.51912231445306
 20
16.7255843329646
 30
0.0
 11
-19.53452809651663
 21
0.000000000000114
 31
0.0
210
0.0
220
0.0
230
1.0
 40
0.946666666666667
 41
1.130070686340299
 42
2.011520147323592
  0
ELLIPSE
  5
2231
330
1F
100
AcDbEntity
  8
AM_11
 48
0.5
100
AcDbEllipse
 10
-48.51912231445343
 20
-16.72557241887987
 30
0.0
 11
-19.53452809651663
 21
0.0000000000000055
 31
0.0
210
0.0
220
0.0
230
1.0
 40
0.946666666666667
 41
4.271664206181676
 42
5.153113667164983
  0
ELLIPSE
  5
2232
330
1F
100
AcDbEntity
  8
AM_11
 48
0.5
100
AcDbEllipse
 10
-31.85245564779143
 20
-16.72557241888004
 30
0.0
 11
-19.53452809651665
 21
0.0000000000000576
 31
0.0
210
0.0
220
0.0
230
1.0
 40
0.9466666666666657
 41
4.271664206181679
 42
5.153113667164985
  0
ELLIPSE
  5
2233
330
1F
100
AcDbEntity
  8
AM_11
 48
0.5
100
AcDbEllipse
 10
-31.85245564779106
 20
16.72558433296443
 30
0.0
 11
19.53452809651663
 21
0.0000000000000446
 31
0.0
210
0.0
220
0.0
230
1.0
 40
0.9466666666666672
 41
4.271663339930084
 42
5.153112800913377
  0
ELLIPSE
  5
2234
330
1F
100
AcDbEntity
  8
AM_11
 48
0.5
100
AcDbEllipse
 10
1.480877685542295
 20
16.72558433296409
 30
0.0
 11
-19.53452809651675
 21
0.0000000000005521
 31
0.0
210
0.0
220
0.0
230
1.0
 40
0.946666666666662
 41
1.130070686340324
 42
1.291800737381015
  0
ELLIPSE
  5
2235
330
1F
100
AcDbEntity
  8
AM_0
 48
0.5
100
AcDbEllipse
 10
5.42529405604588
 20
5.329039651754256
 30
0.0
 11
7.270283370024307
 21
0.8228207667782656
 31
0.0
210
0.0
220
0.0
230
1.0
 40
0.9148199423618684
 41
3.349788544839671
 42
3.675583716501283
  0
DIMENSION
  5
228A
330
1F
100
AcDbEntity
  8
AM_5
100
AcDbDimension
  2
*D7
 10
-105.0000009999999
 20
4.000000000000305
 30
0.0
 11
-105.0000009999999
 21
0.0000000000000067
 31
0.0
 70
   160
  1
%%c<>
 51
359.9999999999998
  3
AM_JIS$0
100
AcDbAlignedDimension
 13
-95.5
 23
-3.999999999999992
 33
0.0
 14
-95.49999999999998
 24
4.000000000000302
 34
0.0
 50
270.0000000000002
100
AcDbRotatedDimension
1001
ACAD
1000
DSTYLE
1002
{
1070
   271
1070
     0
1002
}
1001
GENIUS_GENDTOL_13
1000

1000
h7
1000

1040
0.0
  0
ARC
  5
24F5
330
1F
100
AcDbEntity
  8
AM_11
 48
0.5
100
AcDbCircle
 10
-98.51902396212658
 20
-17.66785848258827
 30
0.0
 40
19.53452809651666
100
AcDbArc
 50
64.74833051131179
 51
82.59094121931479
  0
ARC
  5
24F6
330
1F
100
AcDbEntity
  8
AM_11
 48
0.5
100
AcDbCircle
 10
-98.51902396212656
 20
17.66787048062773
 30
0.0
 40
19.53452809651666
100
AcDbArc
 50
277.409058780685
 51
295.2516148471758
  0
LINE
  5
24F9
330
1F
100
AcDbEntity
  8
AM_0
 48
0.5
100
AcDbLine
 10
-95.5
 20
4.000000000000007
 30
0.0
 11
-96.0
 21
3.500000000000007
 31
0.0
1001
GENIUS_GENFIL_13
1070
     0
1040
0.5
1040
0.5
1040
20.0
1040
0.0
1002
{
1002
}
1001
GENIUS_GENODEF_13
1002
{
1000
HIER
1070
     0
1002
}
1002
{
1000
MANEDIT
1070
     0
1002
}
1002
{
1000
NOSEL
1070
     0
1002
}
1002
{
1000
BEHIND
1070
     0
1002
}
1002
{
1000
REACTOR
1002
}
1001
GENIUS_GENOBJ-N-CHA_13
1002
{
1000
OWNER
1000
GEN
1002
}
  0
LINE
  5
24FC
330
1F
100
AcDbEntity
  8
AM_0
 48
0.5
100
AcDbLine
 10
-95.99999999999999
 20
-3.499999999999991
 30
0.0
 11
-95.49999999999998
 21
-3.999999999999992
 31
0.0
1001
GENIUS_GENFIL_13
1070
     0
1040
0.5
1040
0.5
1040
20.0
1040
0.0
1002
{
1002
}
1001
GENIUS_GENODEF_13
1002
{
1000
HIER
1070
     0
1002
}
1002
{
1000
MANEDIT
1070
     0
1002
}
1002
{
1000
NOSEL
1070
     0
1002
}
1002
{
1000
BEHIND
1070
     0
1002
}
1002
{
1000
REACTOR
1002
}
1001
GENIUS_GENOBJ-N-CHA_13
1002
{
1000
OWNER
1000
GEN
1002
}
  0
ELLIPSE
  5
2541
330
1F
100
AcDbEntity
  8
AM_0
 48
0.5
100
AcDbEllipse
 10
5.425294056045909
 20
-5.329039651754245
 30
0.0
 11
7.270283370024311
 21
-0.8228207667782269
 31
0.0
210
0.0
220
0.0
230
-1.0
 40
0.9148199423618684
 41
3.349788544839671
 42
3.675583716501283
  0
LINE
  5
2542
330
1F
100
AcDbEntity
  8
AM_0
 48
0.5
100
AcDbLine
 10
-1.532404323548653
 20
-3.149258293794745
 30
0.0
 11
-2.000000000000006
 21
-3.649995308281933
 31
0.0
  0
DIMENSION
  5
26BF
330
1F
100
AcDbEntity
  8
AM_5
100
AcDbDimension
  2
*D8
 10
-0.4497245551032961
 20
-1.235598831326638
 30
0.0
 11
12.32150483951261
 21
-0.0000139393493472
 31
0.0
 70
    34
  1
<>
 51
359.9999999999998
  3
AM_JIS$2
100
AcDb2LineAngularDimension
 13
0.0000000000000018
 23
-0.0000000000000051
 33
0.0
 14
-0.4497187230507491
 24
1.235591506492574
 34
0.0
 15
0.0000000000000018
 25
-0.0000000000000051
 35
0.0
 16
12.73703527913145
 26
-5.494231412217856
 36
0.0
1001
GENIUS_GENDTOL_13
1000

1000
h7
1000

1040
0.0
1001
ACAD
1000
DSTYLE
1002
{
1070
   271
1070
     0
1002
}
  0
LINE
  5
28FD
330
1F
100
AcDbEntity
  8
AM_0
100
AcDbLine
 10
-38.26434618904918
 20
-3.649999230396685
 30
0.0
 11
-41.39377851204865
 21
-3.649999230396644
 31
0.0
  0
LINE
  5
28FE
330
1F
100
AcDbEntity
  8
AM_0
100
AcDbLine
 10
-36.85625710476971
 20
3.650000769603282
 30
0.0
 11
-41.39378355034301
 21
3.650000769603344
 31
0.0
  0
LINE
  5
28FF
330
1F
100
AcDbEntity
  8
AM_0
 48
0.5
100
AcDbLine
 10
-4.035022337317882
 20
3.649983941924779
 30
0.0
 11
-1.999999999999977
 21
3.65000076960225
 31
0.0
  0
LINE
  5
2900
330
1F
100
AcDbEntity
  8
AM_0
 48
0.5
100
AcDbLine
 10
-0.0000000000000013
 20
-0.0000000000000059
 30
0.0
 11
-2.124211688966211
 21
1.401489900257921
 31
0.0
  0
LINE
  5
2901
330
1F
100
AcDbEntity
  8
AM_0
 48
0.5
100
AcDbLine
 10
-4.352431852174746
 20
-3.650013737478268
 30
0.0
 11
-2.000000000000015
 21
-3.650000769602275
 31
0.0
  0
LINE
  5
2902
330
1F
100
AcDbEntity
  8
AM_0
100
AcDbLine
 10
-29.512933576603
 20
3.649986262521738
 30
0.0
 11
-16.00521590039139
 21
3.649986262521945
 31
0.0
  0
LINE
  5
2903
330
1F
100
AcDbEntity
  8
AM_0
 48
0.5
100
AcDbLine
 10
-29.63541014704686
 20
-3.650013737478254
 30
0.0
 11
-16.20906104147078
 21
-3.650013737478268
 31
0.0
  0
LINE
  5
2904
330
1F
100
AcDbEntity
  8
AM_0
 48
0.5
100
AcDbLine
 10
-31.12833474378189
 20
1.69009679744156
 30
0.0
 11
-39.50934715555733
 21
-0.2953967251776509
 31
0.0
  0
LINE
  5
2905
330
1F
100
AcDbEntity
  8
AM_11
 48
0.5
100
AcDbLine
 10
-37.07667161194906
 20
3.649986262521746
 30
0.0
 11
-29.512933576603
 21
3.649986262521738
 31
0.0
  0
LINE
  5
2906
330
1F
100
AcDbEntity
  8
AM_11
 48
0.5
100
AcDbLine
 10
-38.26496227010291
 20
-3.650013737478235
 30
0.0
 11
-29.63541014704686
 21
-3.650013737478254
 31
0.0
  0
LINE
  5
2907
330
1F
100
AcDbEntity
  8
AM_11
 48
0.5
100
AcDbLine
 10
-16.20906104147078
 20
-3.650013737478268
 30
0.0
 11
-4.352431852174746
 21
-3.650013737478279
 31
0.0
  0
LINE
  5
2908
330
1F
100
AcDbEntity
  8
AM_11
 48
0.5
100
AcDbLine
 10
-16.00498947749541
 20
3.649983941925203
 30
0.0
 11
-4.035022337317882
 21
3.649983941924779
 31
0.0
  0
SPLINE
  5
2909
330
1F
100
AcDbEntity
  8
AM_0
 48
0.5
100
AcDbSpline
210
0.0
220
0.0
230
1.0
 70
     8
 71
     3
 72
    26
 73
    22
 74
     0
 42
0.0000000001
 43
0.0000000001
 40
0.0
 40
0.0
 40
0.0
 40
0.0
 40
0.2526859211241313
 40
0.5057083941171959
 40
0.7593947393741639
 40
1.01405318625086
 40
1.26996425091637
 40
1.527375060172565
 40
1.786490330669834
 40
2.047470117551047
 40
2.310425755981314
 40
2.575417325379407
 40
2.842456731169063
 40
3.111495753801943
 40
3.382458822635121
 40
3.655202026904655
 40
3.929554512223505
 40
4.205306020962704
 40
4.482215236978595
 40
4.76001530984208
 40
5.029821427366006
 40
5.029821427366006
 40
5.029821427366006
 40
5.029821427366006
 10
-27.57728853941068
 20
-3.65020384772639
 30
0.0
 10
-27.78700605511765
 20
-3.648032186247678
 30
0.0
 10
-28.20672040886797
 20
-3.643685970858692
 30
0.0
 10
-28.83613919698449
 20
-3.608650592634699
 30
0.0
 10
-29.4655311194133
 20
-3.552953501212749
 30
0.0
 10
-30.09488408177191
 20
-3.474891881243485
 30
0.0
 10
-30.72419183690283
 20
-3.375523740071676
 30
0.0
 10
-31.35344184655447
 20
-3.25529048940957
 30
0.0
 10
-31.98263369211463
 20
-3.115004471749419
 30
0.0
 10
-32.61176308250891
 20
-2.955517713708817
 30
0.0
 10
-33.24082853041444
 20
-2.777819803974121
 30
0.0
 10
-33.8698352130634
 20
-2.583016749115921
 30
0.0
 10
-34.49878052405757
 20
-2.372311395206225
 30
0.0
 10
-35.12767158952431
 20
-2.146996261135356
 30
0.0
 10
-35.75651681817074
 20
-1.908483145572239
 30
0.0
 10
-36.38531756869503
 20
-1.658218930541531
 30
0.0
 10
-37.01407852847638
 20
-1.397758450324738
 30
0.0
 10
-37.64281124397004
 20
-1.128708689851043
 30
0.0
 10
-38.27150532466998
 20
-0.8526899774920561
 30
0.0
 10
-38.89374135124747
 20
-0.5744350427700156
 30
0.0
 10
-39.30599612980928
 20
-0.3875014257801236
 30
0.0
 10
-39.50934715555737
 20
-0.2953967251776473
 30
0.0
  0
ELLIPSE
  5
290A
330
1F
100
AcDbEntity
  8
AM_0
 48
0.5
100
AcDbEllipse
 10
-38.26456482403918
 20
-2.433537181059355
 30
0.0
 11
1.244851733576335
 21
0.0043119421832664
 31
0.0
210
0.0
220
0.0
230
1.0
 40
0.9771998519696529
 41
3.149296562639444
 42
4.709003835119773
  0
ELLIPSE
  5
290B
330
1F
100
AcDbEntity
  8
AM_0
 48
0.5
100
AcDbEllipse
 10
-38.57600803038896
 20
-2.470606565316307
 30
0.0
 11
-0.9336457964454945
 21
0.0000000000008239
 31
0.0
210
0.0
220
0.0
230
1.0
 40
0.9773513718735753
 41
4.317028824483944
 42
6.257553905070233
  0
SPLINE
  5
290C
330
1F
100
AcDbEntity
  8
AM_0
 48
0.5
100
AcDbSpline
210
0.0
220
0.0
230
1.0
 70
     8
 71
     3
 72
    10
 73
     6
 74
     0
 42
0.0000000001
 43
0.0000000001
 40
0.0
 40
0.0
 40
0.0
 40
0.0
 40
2.69986029516136
 40
4.147722969032201
 40
6.285750005020438
 40
6.285750005020438
 40
6.285750005020438
 40
6.285750005020438
 10
-4.851062498461629
 20
0.6606313136289294
 30
0.0
 10
-3.957057130436677
 20
0.3215210909921403
 30
0.0
 10
-3.26601174988151
 20
-0.1994448500919237
 30
0.0
 10
-1.631782254665277
 20
0.0527638885401773
 30
0.0
 10
-1.939555203110041
 20
0.9022362924366007
 30
0.0
 10
-2.142911903022826
 20
1.420015885657317
 30
0.0
  0
SPLINE
  5
290D
330
1F
100
AcDbEntity
  8
AM_0
100
AcDbSpline
210
0.0
220
0.0
230
1.0
 70
     8
 71
     3
 72
    55
 73
    51
 74
     0
 42
0.0000000001
 43
0.0000000001
 40
0.0
 40
0.0
 40
0.0
 40
0.0
 40
1.010743684496582
 40
2.022833576467832
 40
3.037578957496688
 40
4.056212745003489
 40
5.079857003664532
 40
6.109500240690281
 40
7.145961322679372
 40
8.189895241603872
 40
9.241717795325891
 40
10.30168407291828
 40
11.36983447792315
 40
12.44600489715814
 40
13.52984294512926
 40
14.62081576220742
 40
15.7182257034828
 40
16.82123173843959
 40
17.92886860250316
 40
19.0400688939571
 40
20.15368796660465
 40
21.26852814259644
 40
22.38336992938901
 40
23.49698739941135
 40
24.6081876908653
 40
25.71582455492886
 40
26.81883757994213
 40
27.91624752121713
 40
29.00722033829659
 40
30.09105838626677
 40
31.16722880550176
 40
32.23537921050758
 40
33.29534548809967
 40
34.347168041821
 40
35.39108718934584
 40
36.42754827133493
 40
37.45720575381954
 40
38.48085062012849
 40
39.49948440763516
 40
40.51422944315121
 40
41.52631975251916
 40
42.53706336719636
 40
43.54780698187354
 40
44.55989729124051
 40
45.57464232675757
 40
46.59327611426424
 40
47.6169209805722
 40
48.64656348684535
 40
49.68302456883444
 40
50.58557219878025
 40
50.58557219878025
 40
50.58557219878025
 40
50.58557219878025
 10
-4.352431852174746
 20
-3.650013737478268
 30
0.0
 10
-4.562149367856465
 20
-3.647844396501894
 30
0.0
 10
-4.981863721556079
 20
-3.643498180923534
 30
0.0
 10
-5.611282510052051
 20
-3.608462804122602
 30
0.0
 10
-6.240674431033167
 20
-3.552765707270626
 30
0.0
 10
-6.87002739883351
 20
-3.474704107712517
 30
0.0
 10
-7.499335133501272
 20
-3.375335889786552
 30
0.0
 10
-8.128585220201816
 20
-3.255102928122453
 30
0.0
 10
-8.757779763748809
 20
-3.11481515480467
 30
0.0
 10
-9.386913184458153
 20
-2.95533162503443
 30
0.0
 10
-10.01598119678476
 20
-2.77763155800961
 30
0.0
 10
-10.64498693628486
 20
-2.582830358681862
 30
0.0
 10
-11.27393208756124
 20
-2.372120223745761
 30
0.0
 10
-11.90282450877982
 20
-2.146812877315292
 30
0.0
 10
-12.53166707924433
 20
-1.908292881307801
 30
0.0
 10
-13.16046563004713
 20
-1.658031212128741
 30
0.0
 10
-13.7892271346492
 20
-1.397571784421707
 30
0.0
 10
-14.41795711139721
 20
-1.128516300434662
 30
0.0
 10
-15.04666166218728
 20
-0.8525195560592937
 30
0.0
 10
-15.67534751442515
 20
-0.5712802784671846
 30
0.0
 10
-16.30402018228435
 20
-0.2865274111577734
 30
0.0
 10
-16.93268854359662
 20
-0.0000168028074095
 30
0.0
 10
-17.56135408271399
 20
0.2864989629124454
 30
0.0
 10
-18.1900288577469
 20
0.57124739586656
 30
0.0
 10
-18.8187139338637
 20
0.8524875247539355
 30
0.0
 10
-19.447419605627
 20
1.128485320553877
 30
0.0
 10
-20.07615219064856
 20
1.397538508374178
 30
0.0
 10
-20.70491468760244
 20
1.657999256972923
 30
0.0
 10
-21.3337133291828
 20
1.908260723215551
 30
0.0
 10
-21.96255587676573
 20
2.146780769382901
 30
0.0
 10
-22.59144829959465
 20
2.372088116142961
 30
0.0
 10
-23.22039346689079
 20
2.582798200695105
 30
0.0
 10
-23.84939914147063
 20
2.777599598932807
 30
0.0
 10
-24.47846445029399
 20
2.955298096868288
 30
0.0
 10
-25.10759398053986
 20
3.114783715474869
 30
0.0
 10
-25.73678829068831
 20
3.255074309803297
 30
0.0
 10
-26.36604287044534
 20
3.375293539194152
 30
0.0
 10
-26.995352684168
 20
3.474692513684168
 30
0.0
 10
-27.62470583853677
 20
3.552661581291629
 30
0.0
 10
-28.25409819683846
 20
3.608696906323265
 30
0.0
 10
-28.88351645166232
 20
3.642462331834891
 30
0.0
 10
-29.51294853757061
 20
3.65374224323243
 30
0.0
 10
-30.14238062255279
 20
3.642462331817239
 30
0.0
 10
-30.77179888016039
 20
3.608696906394304
 30
0.0
 10
-31.40119122821311
 20
3.552661581024354
 30
0.0
 10
-32.03054442100787
 20
3.474692514689094
 30
0.0
 10
-32.65985102226736
 20
3.375294020002153
 30
0.0
 10
-33.28910312300092
 20
3.255075538980181
 30
0.0
 10
-33.88968933332694
 20
3.121152020272464
 30
0.0
 10
-34.27935650625665
 20
3.023212484972307
 30
0.0
 10
-34.4601393630506
 20
2.975481771642268
 30
0.0
  0
SPLINE
  5
290E
330
1F
100
AcDbEntity
  8
AM_0
 48
0.5
100
AcDbSpline
210
0.0
220
0.0
230
1.0
 70
     8
 71
     3
 72
    25
 73
    21
 74
     0
 42
0.0000000001
 43
0.0000000001
 40
6.846175049578289
 40
6.846175049578289
 40
6.846175049578289
 40
6.846175049578289
 40
7.604337694224321
 40
8.711974558287883
 40
9.814980593243754
 40
10.91239053451967
 40
12.0033633515982
 40
13.08720139956839
 40
14.16337181880432
 40
15.23152222380919
 40
16.29148850140128
 40
17.34331105512262
 40
18.38723020264746
 40
19.42369128463655
 40
20.45333379090873
 40
21.47697865721768
 40
22.49561244472435
 40
23.5103574802404
 40
24.52244778960836
 40
25.53320666051913
 40
25.53320666051913
 40
25.53320666051913
 40
25.53320666051913
 10
-4.775901600737549
 20
0.6606601585273945
 30
0.0
 10
-4.920256238673347
 20
0.7247476670262943
 30
0.0
 10
-5.275809423704766
 20
0.8818224416409096
 30
0.0
 10
-5.843089545675409
 20
1.128486381994501
 30
0.0
 10
-6.477853515316008
 20
1.397542021631974
 30
0.0
 10
-7.11264940764892
 20
1.658001407602009
 30
0.0
 10
-7.747482676753888
 20
1.908263089126543
 30
0.0
 10
-8.382360396240169
 20
2.146783077209108
 30
0.0
 10
-9.017288436732499
 20
2.372090442908169
 30
0.0
 10
-9.652269737613289
 20
2.582800509381756
 30
0.0
 10
-10.28731212022323
 20
2.777601960593134
 30
0.0
 10
-10.92241472463909
 20
2.955300266724493
 30
0.0
 10
-11.55758211266966
 20
3.114786592206109
 30
0.0
 10
-12.19281204278
 20
3.255073901035414
 30
0.0
 10
-12.82810203344092
 20
3.375302332380116
 30
0.0
 10
-13.46344854956229
 20
3.474674956430856
 30
0.0
 10
-14.09884170540737
 20
3.552736971254101
 30
0.0
 10
-14.73427449829875
 20
3.608428101012825
 30
0.0
 10
-15.36973661324742
 20
3.643473268233701
 30
0.0
 10
-15.79348244111707
 20
3.647816217268267
 30
0.0
 10
-16.00521590039137
 20
3.649986262521949
 30
0.0
  0
SPLINE
  5
290F
330
1F
100
AcDbEntity
  8
AM_0
100
AcDbSpline
210
0.0
220
0.0
230
1.0
 70
     8
 71
     3
 72
    11
 73
     7
 74
     0
 42
0.0000000001
 43
0.0000000001
 40
11.27226913003534
 40
11.27226913003534
 40
11.27226913003534
 40
11.2722691300354
 40
12.28301561507924
 40
13.29510212255852
 40
14.30984805882082
 40
15.18258238371378
 40
15.18258238371378
 40
15.18258238371378
 40
15.18258238371378
 10
-16.20906104147078
 20
-3.650013737478268
 30
0.0
 10
-16.41798110515537
 20
-3.632151897391754
 30
0.0
 10
-16.83542716955694
 20
-3.588903541858043
 30
0.0
 10
-17.45944065250587
 20
-3.501660911291164
 30
0.0
 10
-18.05164045089546
 20
-3.397459154860412
 30
0.0
 10
-18.43464051906309
 20
-3.317356163448859
 30
0.0
 10
-18.61113785639171
 20
-3.277787498215902
 30
0.0
  0
SPLINE
  5
2910
330
1F
100
AcDbEntity
  8
AM_0
100
AcDbSpline
210
0.0
220
0.0
230
1.0
 70
     8
 71
     3
 72
    22
 73
    18
 74
     0
 42
0.0000000001
 43
0.0000000001
 40
17.17441611292
 40
17.17441611292
 40
17.17441611292
 40
17.17441611292
 40
17.38177636558528
 40
18.41823744757437
 40
19.46215659509824
 40
20.51397914882054
 40
21.57394542641293
 40
22.64209583141747
 40
23.71826625065247
 40
24.80210429862395
 40
25.8930771157021
 40
26.99048705697709
 40
28.09349309193389
 40
29.20112995599786
 40
30.31233024745139
 40
31.42594771747373
 40
32.5407895042663
 40
32.54078950426994
 40
32.54078950426994
 40
32.54078950426994
 10
-18.61141312292246
 20
-3.277742475493817
 30
0.0
 10
-18.65355990140205
 20
-3.269293083492271
 30
0.0
 10
-18.90620682069083
 20
-3.217826913269581
 30
0.0
 10
-19.36904174023067
 20
-3.114630543501873
 30
0.0
 10
-19.99817118051463
 20
-2.955144466691857
 30
0.0
 10
-20.62723651382924
 20
-2.777446093171546
 30
0.0
 10
-21.25624218134049
 20
-2.582644660249302
 30
0.0
 10
-21.88518735217563
 20
-2.371934588726506
 30
0.0
 10
-22.51407976792037
 20
-2.1466272247462
 30
0.0
 10
-23.14292234052342
 20
-1.90810723487463
 30
0.0
 10
-23.77172088827396
 20
-1.65784555881993
 30
0.0
 10
-24.40048240301312
 20
-1.397386152604971
 30
0.0
 10
-25.02921234201144
 20
-1.128330588995064
 30
0.0
 10
-25.6579170344524
 20
-0.852334143282475
 30
0.0
 10
-26.28660205325578
 20
-0.571093881198292
 30
0.0
 10
-26.91527671184347
 20
-0.286345207172215
 30
0.0
 10
-27.33431088336401
 20
-0.0953703116278849
 30
0.0
 10
-27.54394308082809
 20
0.000169590526274
 30
0.0
  0
SPLINE
  5
2911
330
1F
100
AcDbEntity
  8
AM_0
100
AcDbSpline
210
0.0
220
0.0
230
1.0
 70
     8
 71
     3
 72
    17
 73
    13
 74
     0
 42
0.0000000001
 43
0.0000000001
 40
1.580019955310467
 40
1.580019955310467
 40
1.580019955310467
 40
1.580019955310467
 40
2.030549285115227
 40
3.082371838836284
 40
4.126290986361125
 40
5.162752068350215
 40
6.192395305374981
 40
7.216039564037012
 40
8.234688489606833
 40
9.249433870634691
 40
10.26152376260694
 40
11.27226744710342
 40
11.27226744710342
 40
11.27226744710342
 40
11.27226744710352
 10
-10.28028392327047
 20
-2.693823538129862
 30
0.0
 10
-10.36933617588804
 20
-2.721567517326455
 30
0.0
 10
-10.66680061782109
 20
-2.812502114881457
 30
0.0
 10
-11.17464618829533
 20
-2.955136284842819
 30
0.0
 10
-11.80368805520063
 20
-3.114867633482582
 30
0.0
 10
-12.43290309674292
 20
-3.255090549794337
 30
0.0
 10
-13.06214696869884
 20
-3.375334133709571
 30
0.0
 10
-13.69145939564678
 20
-3.474723727591962
 30
0.0
 10
-14.32081529998453
 20
-3.552692158853979
 30
0.0
 10
-14.95021039305882
 20
-3.608734165972498
 30
0.0
 10
-15.57962916820446
 20
-3.642489000039416
 30
0.0
 10
-15.99934352855579
 20
-3.650016078960337
 30
0.0
 10
-16.20906104147072
 20
-3.650013737478268
 30
0.0
  0
SPLINE
  5
2912
330
1F
100
AcDbEntity
  8
AM_0
100
AcDbSpline
210
0.0
220
0.0
230
1.0
 70
     8
 71
     3
 72
    23
 73
    19
 74
     0
 42
0.0000000001
 43
0.0000000001
 40
16.03460024169435
 40
16.03460024169435
 40
16.03460024169435
 40
16.03460024169435
 40
16.35212704903564
 40
17.38177054169784
 40
18.41822485651776
 40
19.46214173629503
 40
20.51396345435107
 40
21.57393551351153
 40
22.64208202342361
 40
23.7182574881101
 40
24.80209208578934
 40
25.89306333925047
 40
26.99048218457928
 40
28.09348763352352
 40
29.20111863782268
 40
30.31232390128032
 40
31.42594612798585
 40
32.5407912310448
 40
32.5407912310486
 40
32.5407912310486
 40
32.5407912310486
 10
-37.07667161201533
 20
3.64998626252175
 30
0.0
 10
-37.01471471530709
 20
3.638180733430107
 30
0.0
 10
-36.74063583862881
 20
3.584522948700067
 30
0.0
 10
-36.25784294573282
 20
3.479388708731875
 30
0.0
 10
-35.63262488555426
 20
3.32305524363603
 30
0.0
 10
-35.00798755731833
 20
3.14751882048383
 30
0.0
 10
-34.38389405070709
 20
2.953795354559639
 30
0.0
 10
-33.76032221553593
 20
2.742964858522805
 30
0.0
 10
-33.13723601084735
 20
2.516232528398698
 30
0.0
 10
-32.5145920472863
 20
2.274917889476057
 30
0.0
 10
-31.89235494398644
 20
2.020387492485587
 30
0.0
 10
-31.27047481394295
 20
1.754122390500431
 30
0.0
 10
-30.64890126072548
 20
1.477670231332745
 30
0.0
 10
-30.0275928706611
 20
1.192620499001546
 30
0.0
 10
-29.40649765963136
 20
0.9006307186643901
 30
0.0
 10
-28.78555810106573
 20
0.6034058964180823
 30
0.0
 10
-28.16472363295601
 20
0.3026683696218648
 30
0.0
 10
-27.75094515816389
 20
0.1010403020629982
 30
0.0
 10
-27.54394308082529
 20
0.0001695905249736
 30
0.0
  0
SPLINE
  5
2913
330
1F
100
AcDbEntity
  8
AM_0
100
AcDbSpline
210
0.0
220
0.0
230
1.0
 70
     8
 71
     3
 72
    46
 73
    42
 74
     0
 42
0.0000000001
 43
0.0000000001
 40
0.0
 40
0.0
 40
0.0
 40
0.0
 40
0.5056245176053715
 40
0.759310862862336
 40
1.013969309739036
 40
1.269880374404297
 40
1.527291183660732
 40
1.786406454158005
 40
2.047386241038974
 40
2.310345544571907
 40
2.575337113970003
 40
2.842374715221223
 40
3.111417320030211
 40
3.382376832022752
 40
3.655120036292296
 40
3.929472521611371
 40
4.205224030350333
 40
4.482133246366229
 40
4.759933319229942
 40
5.038338087391601
 40
5.317048131389549
 40
5.595758175387723
 40
5.874162943549383
 40
6.151963016412869
 40
6.428872232428759
 40
6.704623741167955
 40
6.978976226486705
 40
7.251719430756336
 40
7.522680721168327
 40
7.791723325977311
 40
8.058760927228529
 40
8.32375249662655
 40
8.586708135057122
 40
8.84768792193809
 40
9.106803192435362
 40
9.364213819003406
 40
9.620125035580644
 40
9.87478726697307
 40
10.12847352585208
 40
10.38149610319407
 40
10.63418200686337
 40
10.63418200686337
 40
10.63418200686337
 40
10.63418200686337
 10
-2.590486930570389
 20
-3.650016058075312
 30
0.0
 10
-3.010221790844411
 20
-3.641701075926961
 30
0.0
 10
-3.640549687991281
 20
-3.629214228375247
 30
0.0
 10
-4.478724180315725
 20
-3.55233500195533
 30
0.0
 10
-5.108083909860756
 20
-3.47482029094329
 30
0.0
 10
-5.737389844131087
 20
-3.375304569108697
 30
0.0
 10
-6.366640325319434
 20
-3.25511113305027
 30
0.0
 10
-6.995832120842618
 20
-3.114814609787624
 30
0.0
 10
-7.624964176898969
 20
-2.955328942110118
 30
0.0
 10
-8.254033693628576
 20
-2.777633395626248
 30
0.0
 10
-8.883041928390568
 20
-2.582830104012529
 30
0.0
 10
-9.511987189344083
 20
-2.372120292766197
 30
0.0
 10
-10.14087958083119
 20
-2.146812858599661
 30
0.0
 10
-10.76972215939459
 20
-1.908292886451596
 30
0.0
 10
-11.39852070782833
 20
-1.658031210443383
 30
0.0
 10
-12.02728221373863
 20
-1.39757178598514
 30
0.0
 10
-12.65601218762314
 20
-1.128516295848316
 30
0.0
 10
-13.28471674861084
 20
-0.8525195729281218
 30
0.0
 10
-13.9134025627623
 20
-0.571280215331274
 30
0.0
 10
-14.54207537316356
 20
-0.28652764741303
 30
0.0
 10
-15.17074289883018
 20
-0.0000160581328442
 30
0.0
 10
-15.79941042435869
 20
0.2864955314954818
 30
0.0
 10
-16.42808323517422
 20
0.5712480983697511
 30
0.0
 10
-17.05676904781148
 20
0.8524874597819527
 30
0.0
 10
-17.68547361441388
 20
1.12848416855237
 30
0.0
 10
-18.31420356747965
 20
1.397539711155059
 30
0.0
 10
-18.94296515048889
 20
1.657998941313783
 30
0.0
 10
-19.57176478071601
 20
1.908261880095859
 30
0.0
 10
-20.20060980265831
 20
2.146779685169063
 30
0.0
 10
-20.82950331599301
 20
2.372088274634958
 30
0.0
 10
-21.4584485623029
 20
2.582798148578686
 30
0.0
 10
-22.08745421317053
 20
2.777599650116628
 30
0.0
 10
-22.71651953853932
 20
2.955297945400077
 30
0.0
 10
-23.34564902652082
 20
3.114784264593991
 30
0.0
 10
-23.97484045790087
 20
3.255071608921535
 30
0.0
 10
-24.60409140041713
 20
3.375299905812782
 30
0.0
 10
-25.23340135096649
 20
3.474673517920537
 30
0.0
 10
-25.86275783758038
 20
3.552733918057775
 30
0.0
 10
-26.49215326217384
 20
3.608425903197899
 30
0.0
 10
-27.12157153335304
 20
3.643470734330034
 30
0.0
 10
-27.54128606282462
 20
3.647813836528816
 30
0.0
 10
-27.751003615812
 20
3.649983941925563
 30
0.0
  0
SPLINE
  5
2914
330
1F
100
AcDbEntity
  8
AM_0
 48
0.5
100
AcDbSpline
210
0.0
220
0.0
230
1.0
 70
     8
 71
     3
 72
    17
 73
    13
 74
     0
 42
0.0000000001
 43
0.0000000001
 40
0.0
 40
0.0
 40
0.0
 40
0.0
 40
1.010743614677189
 40
2.022833924044153
 40
3.037578959561199
 40
4.056212747067873
 40
5.079857613375832
 40
6.109500119648989
 40
7.14596120163808
 40
8.18989512056258
 40
9.241717674284874
 40
9.693948937866434
 40
9.693948937866434
 40
9.693948937866434
 40
9.693948937866434
 10
-4.034795923166115
 20
3.649986262521827
 30
0.0
 10
-4.246526184446534
 20
3.647816165953422
 30
0.0
 10
-4.670268812196475
 20
3.643473081423109
 30
0.0
 10
-5.305727741726229
 20
3.608428117526438
 30
0.0
 10
-5.941160509780725
 20
3.552736915780405
 30
0.0
 10
-6.576553759324729
 20
3.474675163022291
 30
0.0
 10
-7.211899923008802
 20
3.375301555799281
 30
0.0
 10
-7.847191240707549
 20
3.255076825718809
 30
0.0
 10
-8.482419185743818
 20
3.11477489912813
 30
0.0
 10
-9.117608407511713
 20
2.955340324730416
 30
0.0
 10
-9.630349710693145
 20
2.811713873574439
 30
0.0
 10
-9.931461466497491
 20
2.721926687214543
 30
0.0
 10
-10.02183906074454
 20
2.694443430531581
 30
0.0
  0
SPLINE
  5
2915
330
1F
100
AcDbEntity
  8
AM_0
 48
0.5
100
AcDbSpline
210
0.0
220
0.0
230
1.0
 70
     8
 71
     3
 72
    22
 73
    18
 74
     0
 42
0.0000000001
 43
0.0000000001
 40
0.0
 40
0.0
 40
0.0
 40
0.0
 40
1.010743684496582
 40
2.022833993863546
 40
3.037578683882831
 40
4.056212471389632
 40
5.079857945358201
 40
6.109499720892564
 40
7.145961650132166
 40
8.189873411961459
 40
9.241710626092514
 40
10.30166235592959
 40
11.36982472628033
 40
12.44598212828784
 40
13.52983440361964
 40
14.62080578343036
 40
14.90544694398022
 40
14.90544694398022
 40
14.90544694398022
 40
14.90544694398022
 10
-29.31688845014531
 20
-3.650013737478255
 30
0.0
 10
-29.54895101677023
 20
-3.648032834941274
 30
0.0
 10
-29.96866553727483
 20
-3.643687916907093
 30
0.0
 10
-30.59808366625812
 20
-3.608642780598685
 30
0.0
 10
-31.22747626830784
 20
-3.552955060551269
 30
0.0
 10
-31.8568295707572
 20
-3.474893389031654
 30
0.0
 10
-32.48613559140004
 20
-3.375515900483273
 30
0.0
 10
-33.11538776512763
 20
-3.255293045426478
 30
0.0
 10
-33.74457687116219
 20
-3.115001929916656
 30
0.0
 10
-34.37370723602759
 20
-2.955512862834751
 30
0.0
 10
-35.00277319347904
 20
-2.777821667252688
 30
0.0
 10
-35.63177803095335
 20
-2.583009791802507
 30
0.0
 10
-36.26072580322059
 20
-2.372316913516788
 30
0.0
 10
-36.8896160378672
 20
-2.146995592637613
 30
0.0
 10
-37.51846051641091
 20
-1.90848122799398
 30
0.0
 10
-37.99108108847271
 20
-1.720386845172688
 30
0.0
 10
-38.25444176396835
 20
-1.612878142083318
 30
0.0
 10
-38.21642314075921
 20
-1.62849871918922
 30
0.0
  0
SPLINE
  5
2916
330
1F
100
AcDbEntity
  8
AM_0
100
AcDbSpline
210
0.0
220
0.0
230
1.0
 70
     8
 71
     3
 72
    13
 73
     9
 74
     0
 42
0.0000000001
 43
0.0000000001
 40
16.03460056234195
 40
16.03460056234195
 40
16.03460056234195
 40
16.03460056234195
 40
16.35212717791071
 40
17.38177067057215
 40
18.41822498539278
 40
19.46214186516937
 40
20.5139635832251
 40
21.34083983469381
 40
21.34083983469381
 40
21.34083983469381
 40
21.34083983469381
 10
-38.26456521482166
 20
-3.650013737478243
 30
0.0
 10
-38.08636884455067
 20
-3.638214404790189
 30
0.0
 10
-37.81228974107776
 20
-3.584558092256778
 30
0.0
 10
-37.32949711135959
 20
-3.479422624821678
 30
0.0
 10
-36.7042789725002
 20
-3.323089593201106
 30
0.0
 10
-36.07964166557261
 20
-3.147553052656531
 30
0.0
 10
-35.50164667017975
 20
-2.968138953349832
 30
0.0
 10
-35.13289604155586
 20
-2.844599577738413
 30
0.0
 10
-34.97112735085607
 20
-2.788758654271056
 30
0.0
  0
ELLIPSE
  5
2917
330
1F
100
AcDbEntity
  8
AM_0
 48
0.5
100
AcDbEllipse
 10
-7.797187151882844
 20
9.927192219792884
 30
0.0
 11
12.83837363190947
 21
0.0043616230726329
 31
0.0
210
0.0
220
0.0
230
0.9999999999999998
 40
0.9733252090556611
 41
-1.025605070384822
 42
-0.9184259439663113
  0
ELLIPSE
  5
2918
330
1F
100
AcDbEntity
  8
AM_0
 48
0.5
100
AcDbEllipse
 10
1.696122473890663
 20
-1.909826709007667
 30
0.0
 11
-0.000000000000162
 21
4.179712929160327
 31
0.0
210
0.0
220
0.0
230
1.0
 40
0.9726027397260232
 41
1.485102427261179
 42
2.000210031613648
  0
ELLIPSE
  5
2919
330
1F
100
AcDbEntity
  8
AM_0
 48
0.5
100
AcDbEllipse
 10
-1.398529907197499
 20
-0.9512417726648459
 30
0.0
 11
-0.110505673130074
 21
0.598738188439175
 31
0.0
210
0.0
220
0.0
230
1.0
 40
0.5128221394277733
 41
1.799429147243248
 42
4.934771036955223
  0
ELLIPSE
  5
291A
330
1F
100
AcDbEntity
  8
AM_0
 48
0.5
100
AcDbEllipse
 10
-1.398529907197499
 20
-0.9512417726648459
 30
0.0
 11
-0.5435876334211896
 21
0.3001135772503822
 31
0.0
210
0.0
220
0.0
230
0.9999999999999998
 40
0.4930675259114765
 41
4.468583653602743
 42
7.612023994932254
  0
ELLIPSE
  5
291B
330
1F
100
AcDbEntity
  8
AM_0
 48
0.5
100
AcDbEllipse
 10
2.112631897002004
 20
4.382050330149025
 30
0.0
 11
-11.03324524443894
 21
9.512336869521453
 31
0.0
210
0.0
220
0.0
230
0.9999999999999998
 40
0.5090257304568368
 41
1.381044014249461
 42
1.604562023148911
  0
ELLIPSE
  5
291C
330
1F
100
AcDbEntity
  8
AM_0
 48
0.5
100
AcDbEllipse
 10
-6.772684951752967
 20
6.126023998565294
 30
0.0
 11
9.04164731502542
 21
0.0000000000111008
 31
0.0
210
0.0
220
0.0
230
1.0
 40
0.9733333333333138
 41
-1.060213001567734
 42
-0.9717182238882465
  0
DIMENSION
  5
294C
330
1F
100
AcDbEntity
  8
AM_5
100
AcDbDimension
  2
*D9
 10
8.555921024858076
 20
-3.650000769602277
 30
0.0
 11
6.855921024858075
 21
-0.0000000000000136
 31
0.0
 70
    32
  1
%%c<>
 51
359.9999999999998
  3
AM_JIS$0
100
AcDbAlignedDimension
 13
-1.999999999999977
 23
3.65000076960225
 33
0.0
 14
-1.999999999999953
 24
-3.650000769602275
 34
0.0
 50
90.00000000000017
100
AcDbRotatedDimension
1001
ACAD
1000
DSTYLE
1002
{
1070
   271
1070
     1
1002
}
1001
GENIUS_GENDTOL_13
1000

1000
h7
1000

1040
0.0
  0
VIEWPORT
  5
110
330
101
100
AcDbEntity
 67
     1
  8
0
100
AcDbViewport
 10
420.5
 20
297.0
 30
0.0
 40
948.9782706766916
 41
628.452
 68
     1
 69
     1
1001
ACAD
1000
MVIEW
1002
{
1070
    16
1010
0.0
1020
0.0
1030
0.0
1010
0.0
1020
0.0
1030
1.0
1040
0.0
1040
628.452
1040
420.5
1040
297.0
1040
50.0
1040
0.0
1040
0.0
1070
     0
1070
   100
1070
     1
1070
     1
1070
     0
1070
     0
1070
     0
1070
     0
1040
0.0
1040
0.0
1040
0.0
1040
10.0
1040
10.0
1040
10.0
1040
10.0
1070
     0
1002
{
1002
}
1002
}
  0
ENDSEC
  0
SECTION
  2
OBJECTS
  0
DICTIONARY
  5
C
330
0
100
AcDbDictionary
  3
ACAD_GROUP
350
D
  3
ACAD_LAYOUT
350
1A
  3
ACAD_MLINESTYLE
350
17
  3
ACAD_PLOTSETTINGS
350
19
  3
ACAD_PLOTSTYLENAME
350
E
  3
ACDBVARIABLEDICTIONARY
350
34
  3
ACMDICTIONARY
350
43
  3
AMG
350
2B
  3
AMGSNAPSETTINGS
350
6E
  3
DWGPROPS
350
2A66
  3
ACDBHEADERROUNDTRIPXREC
350
2A72
  0
DICTIONARY
  5
74
330
1F
100
AcDbDictionary
280
     1
  3
ACAD_INDEX
360
2A68
  3
ACAD_LAYOUTSELFREF
360
2A95
  0
DICTIONARY
  5
2A9A
330
101
100
AcDbDictionary
280
     1
  3
ACAD_LAYOUTSELFREF
360
2A9B
  0
DICTIONARY
  5
D
102
{ACAD_REACTORS
330
C
102
}
330
C
100
AcDbDictionary
  0
DICTIONARY
  5
1A
102
{ACAD_REACTORS
330
C
102
}
330
C
100
AcDbDictionary
  0
DICTIONARY
  5
17
102
{ACAD_REACTORS
330
C
102
}
330
C
100
AcDbDictionary
  3
STANDARD
350
18
  0
DICTIONARY
  5
19
102
{ACAD_REACTORS
330
C
102
}
330
C
100
AcDbDictionary
  0
ACDBDICTIONARYWDFLT
  5
E
102
{ACAD_REACTORS
330
C
102
}
330
C
100
AcDbDictionary
281
     1
  3
Normal
350
F
100
AcDbDictionaryWithDefault
340
F
  0
DICTIONARY
  5
34
102
{ACAD_REACTORS
330
C
102
}
330
C
100
AcDbDictionary
  3
INDEXCTL
350
35
  3
SORTENTS
350
B5E
  0
DICTIONARY
  5
43
102
{ACAD_REACTORS
330
C
102
}
330
C
100
AcDbDictionary
  3
ACMSTDDICTIONARY
350
260
  0
DICTIONARY
  5
2B
102
{ACAD_REACTORS
330
C
102
}
330
C
100
AcDbDictionary
  3
ACMGSETTINGS
350
2C
  0
DICTIONARY
  5
6E
102
{ACAD_REACTORS
330
C
102
}
330
C
100
AcDbDictionary
  0
XRECORD
  5
2A66
102
{ACAD_REACTORS
330
C
102
}
330
C
100
AcDbXrecord
  1
DWGPROPS COOKIE
  2

  3

  4

  6

  7

  8

  9

300
AmdtFileType=82
301
=
302
=
303
=
304
=
305
=
306
=
307
=
308
=
309
=
 40
0.0408378472222222
 41
2452800.443498622
 42
2452946.610997535
  1

 90
        1
  0
DICTIONARY
  5
2A72
102
{ACAD_REACTORS
330
C
102
}
330
C
100
AcDbDictionary
  3
TSTACKALIGN
350
2A73
  3
TSTACKSIZE
350
2A74
  3
HYPERLINKBASE
350
2A75
  3
STYLESHEET
350
2A76
  3
LAYOUTDICT
350
2A77
  3
PLOTSETDICT
350
2A78
  3
PLOTSTYLNAMDICT
350
2A79
  3
LWETCUNION
350
2A7A
  3
INSUNITS
350
2A7B
  3
CEPSNTYPE
350
2A7C
  3
FINGERPRINTGUID
350
2A7D
  3
VERSIONGUID
350
2A7E
  3
PSVPSCALE
350
2A7F
  3
DIMSTYLEDATA
350
2A80
  3
PUCSORTHOREF
350
2A81
  3
PUCSORTHOVIEW
350
2A82
  3
PUCSBASE
350
2A83
  3
PUCSORGTOP
350
2A84
  3
PUCSORGBOTTOM
350
2A85
  3
PUCSORGLEFT
350
2A86
  3
PUCSORGRIGHT
350
2A87
  3
PUCSORGFRONT
350
2A88
  3
PUCSORGBACK
350
2A89
  3
UCSORTHOREF
350
2A8A
  3
UCSORTHOVIEW
350
2A8B
  3
UCSBASE
350
2A8C
  3
UCSORGTOP
350
2A8D
  3
UCSORGBOTTOM
350
2A8E
  3
UCSORGLEFT
350
2A8F
  3
UCSORGRIGHT
350
2A90
  3
UCSORGFRONT
350
2A91
  3
UCSORGBACK
350
2A92
  0
DICTIONARY
  5
2A68
102
{ACAD_REACTORS
330
74
102
}
330
74
100
AcDbDictionary
  3
*A1
350
2A69
  0
XRECORD
  5
2A95
102
{ACAD_REACTORS
330
74
102
}
330
74
100
AcDbXrecord
340
1F
  0
XRECORD
  5
2A9B
102
{ACAD_REACTORS
330
2A9A
102
}
330
2A9A
100
AcDbXrecord
340
101
  0
MLINESTYLE
  5
18
102
{ACAD_REACTORS
330
17
102
}
330
17
100
AcDbMlineStyle
  2
STANDARD
 70
     0
  3

 62
   256
 51
90.0
 52
90.0
 71
     2
 49
0.5
 62
   256
  6
BYLAYER
 49
-0.5
 62
   256
  6
BYLAYER
  0
ACDBPLACEHOLDER
  5
F
102
{ACAD_REACTORS
330
E
102
}
330
E
100
AcDbPlaceHolder
280
     0
  0
DICTIONARYVAR
  5
35
102
{ACAD_REACTORS
330
34
102
}
330
34
100
DictionaryVariables
280
     0
  1
1
  0
DICTIONARYVAR
  5
B5E
102
{ACAD_REACTORS
330
34
102
}
330
34
100
DictionaryVariables
280
     0
  1
96
  0
DICTIONARY
  5
260
102
{ACAD_REACTORS
330
43
102
}
330
43
100
AcDbDictionary
  0
DICTIONARY
  5
2C
102
{ACAD_REACTORS
330
2B
102
}
330
2B
100
AcDbDictionary
  3
DWGSETTINGS
350
2D
  0
XRECORD
  5
2A73
102
{ACAD_REACTORS
330
2A72
102
}
330
2A72
100
AcDbXrecord
 90
        1
  0
XRECORD
  5
2A74
102
{ACAD_REACTORS
330
2A72
102
}
330
2A72
100
AcDbXrecord
 90
       70
  0
XRECORD
  5
2A75
102
{ACAD_REACTORS
330
2A72
102
}
330
2A72
100
AcDbXrecord
  1

  0
XRECORD
  5
2A76
102
{ACAD_REACTORS
330
2A72
102
}
330
2A72
100
AcDbXrecord
  1
ASAMI.ctb
  0
XRECORD
  5
2A77
102
{ACAD_REACTORS
330
2A72
102
}
330
2A72
100
AcDbXrecord
340
1A
  0
XRECORD
  5
2A78
102
{ACAD_REACTORS
330
2A72
102
}
330
2A72
100
AcDbXrecord
340
19
  0
XRECORD
  5
2A79
102
{ACAD_REACTORS
330
2A72
102
}
330
2A72
100
AcDbXrecord
340
E
  0
XRECORD
  5
2A7A
102
{ACAD_REACTORS
330
2A72
102
}
330
2A72
100
AcDbXrecord
 90
    10781
  0
XRECORD
  5
2A7B
102
{ACAD_REACTORS
330
2A72
102
}
330
2A72
100
AcDbXrecord
 90
        4
  0
XRECORD
  5
2A7C
102
{ACAD_REACTORS
330
2A72
102
}
330
2A72
100
AcDbXrecord
 90
        0
  0
XRECORD
  5
2A7D
102
{ACAD_REACTORS
330
2A72
102
}
330
2A72
100
AcDbXrecord
  1
{AFB28963-8C59-40AE-9337-C84526B81ACE}
  0
XRECORD
  5
2A7E
102
{ACAD_REACTORS
330
2A72
102
}
330
2A72
100
AcDbXrecord
  1
{E2641B37-B27B-43A3-8AB2-31A0B0ACF7C5}
  0
XRECORD
  5
2A7F
102
{ACAD_REACTORS
330
2A72
102
}
330
2A72
100
AcDbXrecord
 40
0.0
  0
XRECORD
  5
2A80
102
{ACAD_REACTORS
330
2A72
102
}
330
2A72
100
AcDbXrecord
1000
DSTYLE
1002
{
1070
    79
 70
     2
1070
   341
340
59
1070
   342
340
59
1070
   371
 70
    -1
1070
   372
 70
    -1
1002
}
  0
XRECORD
  5
2A81
102
{ACAD_REACTORS
330
2A72
102
}
330
2A72
100
AcDbXrecord
340
0
  0
XRECORD
  5
2A82
102
{ACAD_REACTORS
330
2A72
102
}
330
2A72
100
AcDbXrecord
 70
     0
  0
XRECORD
  5
2A83
102
{ACAD_REACTORS
330
2A72
102
}
330
2A72
100
AcDbXrecord
340
0
  0
XRECORD
  5
2A84
102
{ACAD_REACTORS
330
2A72
102
}
330
2A72
100
AcDbXrecord
 10
0.0
 20
0.0
 30
0.0
  0
XRECORD
  5
2A85
102
{ACAD_REACTORS
330
2A72
102
}
330
2A72
100
AcDbXrecord
 10
0.0
 20
0.0
 30
0.0
  0
XRECORD
  5
2A86
102
{ACAD_REACTORS
330
2A72
102
}
330
2A72
100
AcDbXrecord
 10
0.0
 20
0.0
 30
0.0
  0
XRECORD
  5
2A87
102
{ACAD_REACTORS
330
2A72
102
}
330
2A72
100
AcDbXrecord
 10
0.0
 20
0.0
 30
0.0
  0
XRECORD
  5
2A88
102
{ACAD_REACTORS
330
2A72
102
}
330
2A72
100
AcDbXrecord
 10
0.0
 20
0.0
 30
0.0
  0
XRECORD
  5
2A89
102
{ACAD_REACTORS
330
2A72
102
}
330
2A72
100
AcDbXrecord
 10
0.0
 20
0.0
 30
0.0
  0
XRECORD
  5
2A8A
102
{ACAD_REACTORS
330
2A72
102
}
330
2A72
100
AcDbXrecord
340
0
  0
XRECORD
  5
2A8B
102
{ACAD_REACTORS
330
2A72
102
}
330
2A72
100
AcDbXrecord
 70
     0
  0
XRECORD
  5
2A8C
102
{ACAD_REACTORS
330
2A72
102
}
330
2A72
100
AcDbXrecord
340
0
  0
XRECORD
  5
2A8D
102
{ACAD_REACTORS
330
2A72
102
}
330
2A72
100
AcDbXrecord
 10
0.0
 20
0.0
 30
0.0
  0
XRECORD
  5
2A8E
102
{ACAD_REACTORS
330
2A72
102
}
330
2A72
100
AcDbXrecord
 10
0.0
 20
0.0
 30
0.0
  0
XRECORD
  5
2A8F
102
{ACAD_REACTORS
330
2A72
102
}
330
2A72
100
AcDbXrecord
 10
0.0
 20
0.0
 30
0.0
  0
XRECORD
  5
2A90
102
{ACAD_REACTORS
330
2A72
102
}
330
2A72
100
AcDbXrecord
 10
0.0
 20
0.0
 30
0.0
  0
XRECORD
  5
2A91
102
{ACAD_REACTORS
330
2A72
102
}
330
2A72
100
AcDbXrecord
 10
0.0
 20
0.0
 30
0.0
  0
XRECORD
  5
2A92
102
{ACAD_REACTORS
330
2A72
102
}
330
2A72
100
AcDbXrecord
 10
0.0
 20
0.0
 30
0.0
  0
LAYER_INDEX
  5
2A69
102
{ACAD_REACTORS
330
2A68
102
}
330
2A68
100
AcDbIndex
 40
2453151.569781342
100
AcDbLayerIndex
  8
0
360
2A6A
 90
        0
  8
AM_0
360
2A6B
 90
       44
  8
AM_7
360
2A6C
 90
        1
  8
AM_11
360
2A6D
 90
       17
  8
AM_5
360
2A6E
 90
        5
  8
Defpoints
360
2A6F
 90
        0
  8
AM_6
360
2A70
 90
        1
  0
XRECORD
  5
2D
102
{ACAD_REACTORS
330
2C
102
}
330
2C
100
AcDbXrecord
  1
VERSION
140
15.0
  1
PRODUCT
  2
AutoCAD Mechanical 2000
  0
IDBUFFER
  5
2A6A
330
0
100
AcDbIdBuffer
  0
IDBUFFER
  5
2A6B
330
0
100
AcDbIdBuffer
330
28FD
330
28FE
330
28FF
330
2900
330
2901
330
2902
330
2903
330
2904
330
2909
330
290A
330
290B
330
290C
330
290D
330
290E
330
290F
330
2910
330
2911
330
2912
330
2913
330
2914
330
2915
330
2916
330
2917
330
2918
330
2919
330
291A
330
291B
330
291C
330
C1D
330
C20
330
C30
330
1CA9
330
1E12
330
1E16
330
1E22
330
1E25
330
1E26
330
2203
330
220F
330
2235
330
24F9
330
24FC
330
2541
330
2542
  0
IDBUFFER
  5
2A6C
330
0
100
AcDbIdBuffer
330
C9F
  0
IDBUFFER
  5
2A6D
330
0
100
AcDbIdBuffer
330
2908
330
1BE8
330
1BE9
330
1F66
330
1F67
330
222E
330
222F
330
2230
330
2231
330
2232
330
2233
330
2234
330
24F5
330
24F6
330
2905
330
2906
330
2907
  0
IDBUFFER
  5
2A6E
330
0
100
AcDbIdBuffer
330
CC6
330
DF5
330
228A
330
26BF
330
294C
  0
IDBUFFER
  5
2A6F
330
0
100
AcDbIdBuffer
  0
IDBUFFER
  5
2A70
330
0
100
AcDbIdBuffer
330
19BD
  0
ENDSEC
  0
EOF
