  0
SECTION
  2
HEADER
  9
$ACADVER
  1
AC1014
  9
$ACADMAINTVER
 70
     9
  9
$DWGCODEPAGE
  3
ANSI_932
  9
$INSBASE
 10
0.0
 20
0.0
 30
0.0
  9
$EXTMIN
 10
-107.6500009999999
 20
-27.25000236965382
 30
-0.00000001
  9
$EXTMAX
 10
13.87150483951163
 20
13.50478524788583
 30
0.00000001
  9
$LIMMIN
 10
-138.8290064717842
 20
-45.22474571374511
  9
$LIMMAX
 10
23.05023987897198
 20
30.30997914579825
  9
$ORTHOMODE
 70
     0
  9
$REGENMODE
 70
     1
  9
$FILLMODE
 70
     1
  9
$QTEXTMODE
 70
     0
  9
$MIRRTEXT
 70
     0
  9
$DRAGMODE
 70
     2
  9
$LTSCALE
 40
1.0
  9
$OSMODE
 70
    55
  9
$ATTMODE
 70
     1
  9
$TEXTSIZE
 40
2.5
  9
$TRACEWID
 40
1.0
  9
$TEXTSTYLE
  7
STANDARD
  9
$CLAYER
  8
AM_0
  9
$CELTYPE
  6
BYLAYER
  9
$CECOLOR
 62
   256
  9
$CELTSCALE
 40
1.0
  9
$DELOBJ
 70
     1
  9
$DISPSILH
 70
     0
  9
$DIMSCALE
 40
0.5
  9
$DIMASZ
 40
2.5
  9
$DIMEXO
 40
1.0
  9
$DIMDLI
 40
12.0
  9
$DIMRND
 40
0.0
  9
$DIMDLE
 40
0.0
  9
$DIMEXE
 40
1.0
  9
$DIMTP
 40
0.1
  9
$DIMTM
 40
0.1
  9
$DIMTXT
 40
3.2
  9
$DIMCEN
 40
0.0
  9
$DIMTSZ
 40
0.0
  9
$DIMTOL
 70
     0
  9
$DIMLIM
 70
     0
  9
$DIMTIH
 70
     0
  9
$DIMTOH
 70
     0
  9
$DIMSE1
 70
     0
  9
$DIMSE2
 70
     0
  9
$DIMTAD
 70
     3
  9
$DIMZIN
 70
     8
  9
$DIMBLK
  1
OPEN30
  9
$DIMASO
 70
     1
  9
$DIMSHO
 70
     1
  9
$DIMPOST
  1

  9
$DIMAPOST
  1
"
  9
$DIMALT
 70
     0
  9
$DIMALTD
 70
     2
  9
$DIMALTF
 40
0.0393701
  9
$DIMLFAC
 40
1.0
  9
$DIMTOFL
 70
     1
  9
$DIMTVP
 40
0.0
  9
$DIMTIX
 70
     0
  9
$DIMSOXD
 70
     0
  9
$DIMSAH
 70
     0
  9
$DIMBLK1
  1

  9
$DIMBLK2
  1

  9
$DIMSTYLE
  2
AM_JIS
  9
$DIMCLRD
 70
   256
  9
$DIMCLRE
 70
   256
  9
$DIMCLRT
 70
     2
  9
$DIMTFAC
 40
0.71
  9
$DIMGAP
 40
1.5
  9
$DIMJUST
 70
     0
  9
$DIMSD1
 70
     0
  9
$DIMSD2
 70
     0
  9
$DIMTOLJ
 70
     0
  9
$DIMTZIN
 70
     0
  9
$DIMALTZ
 70
     0
  9
$DIMALTTZ
 70
     0
  9
$DIMFIT
 70
     3
  9
$DIMUPT
 70
     0
  9
$DIMUNIT
 70
     2
  9
$DIMDEC
 70
     3
  9
$DIMTDEC
 70
     3
  9
$DIMALTU
 70
     2
  9
$DIMALTTD
 70
     2
  9
$DIMTXSTY
  7
ASAMI
  9
$DIMAUNIT
 70
     0
  9
$LUNITS
 70
     2
  9
$LUPREC
 70
     2
  9
$SKETCHINC
 40
1.0
  9
$FILLETRAD
 40
2.5
  9
$AUNITS
 70
     0
  9
$AUPREC
 70
     0
  9
$MENU
  1
.
  9
$ELEVATION
 40
0.0
  9
$PELEVATION
 40
0.0
  9
$THICKNESS
 40
0.0
  9
$LIMCHECK
 70
     0
  9
$BLIPMODE
 70
     0
  9
$CHAMFERA
 40
0.5
  9
$CHAMFERB
 40
0.5
  9
$CHAMFERC
 40
20.0
  9
$CHAMFERD
 40
0.0
  9
$SKPOLY
 70
     0
  9
$TDCREATE
 40
2452800.443498622
  9
$TDUPDATE
 40
2453151.570339606
  9
$TDINDWG
 40
0.0459018519
  9
$TDUSRTIMER
 40
0.0459018519
  9
$USRTIMER
 70
     1
  9
$ANGBASE
 50
0.0
  9
$ANGDIR
 70
     0
  9
$PDMODE
 70
     3
  9
$PDSIZE
 40
0.0
  9
$PLINEWID
 40
0.0
  9
$COORDS
 70
     1
  9
$SPLFRAME
 70
     0
  9
$SPLINETYPE
 70
     6
  9
$SPLINESEGS
 70
     8
  9
$ATTDIA
 70
     1
  9
$ATTREQ
 70
     1
  9
$HANDLING
 70
 12289
  9
$HANDSEED
  5
2D69
  9
$SURFTAB1
 70
     6
  9
$SURFTAB2
 70
     6
  9
$SURFTYPE
 70
     6
  9
$SURFU
 70
     6
  9
$SURFV
 70
     6
  9
$UCSNAME
  2

  9
$UCSORG
 10
0.0
 20
0.0
 30
0.0
  9
$UCSXDIR
 10
1.0
 20
0.0000000000000027
 30
0.0
  9
$UCSYDIR
 10
-0.0000000000000027
 20
1.0
 30
0.0
  9
$PUCSNAME
  2

  9
$PUCSORG
 10
0.0
 20
0.0
 30
0.0
  9
$PUCSXDIR
 10
1.0
 20
0.0
 30
0.0
  9
$PUCSYDIR
 10
0.0
 20
1.0
 30
0.0
  9
$USERI1
 70
     0
  9
$USERI2
 70
     0
  9
$USERI3
 70
     0
  9
$USERI4
 70
     0
  9
$USERI5
 70
     0
  9
$USERR1
 40
0.0
  9
$USERR2
 40
0.0
  9
$USERR3
 40
0.0
  9
$USERR4
 40
0.0
  9
$USERR5
 40
0.0
  9
$WORLDVIEW
 70
     1
  9
$SHADEDGE
 70
     3
  9
$SHADEDIF
 70
    70
  9
$TILEMODE
 70
     1
  9
$MAXACTVP
 70
    64
  9
$PINSBASE
 10
0.0
 20
0.0
 30
0.0
  9
$PLIMCHECK
 70
     0
  9
$PEXTMIN
 10
1.000000000000000E+20
 20
1.000000000000000E+20
 30
1.000000000000000E+20
  9
$PEXTMAX
 10
-1.000000000000000E+20
 20
-1.000000000000000E+20
 30
-1.000000000000000E+20
  9
$PLIMMIN
 10
0.0
 20
0.0
  9
$PLIMMAX
 10
841.0
 20
594.0
  9
$UNITMODE
 70
     0
  9
$VISRETAIN
 70
     1
  9
$PLINEGEN
 70
     0
  9
$PSLTSCALE
 70
     0
  9
$TREEDEPTH
 70
  3020
  9
$PICKSTYLE
 70
     0
  9
$CMLSTYLE
  2
STANDARD
  9
$CMLJUST
 70
     0
  9
$CMLSCALE
 40
20.0
  9
$PROXYGRAPHICS
 70
     1
  9
$MEASUREMENT
 70
     1
  0
ENDSEC
  0
SECTION
  2
CLASSES
  0
CLASS
  1
ACDBDICTIONARYWDFLT
  2
AcDbDictionaryWithDefault
  3
AutoCAD 2000
 90
        0
280
     0
281
     0
  0
CLASS
  1
ACDBPLACEHOLDER
  2
AcDbPlaceHolder
  3
AutoCAD 2000
 90
        0
280
     0
281
     0
  0
CLASS
  1
LAYOUT
  2
AcDbLayout
  3
AutoCAD 2000
 90
        0
280
     0
281
     0
  0
CLASS
  1
AMGSETTINGSOBJ
  2
AmgSettingsObj
  3
"AcadM|Product Description: AutoCAD Mechanical 2000|Company: Autodesk"
 90
        0
280
     0
281
     0
  0
CLASS
  1
ACME_DOCUMENT
  2
AcMeDbDoc
  3
AcMeServices
 90
        0
280
     0
281
     0
  0
CLASS
  1
ACMESCOPE
  2
AcMeScope
  3
AcMeServices
 90
        0
280
     0
281
     0
  0
CLASS
  1
ACMECOMMANDHISTORY
  2
AcMeCommandHistory
  3
AcMeServices
 90
        0
280
     0
281
     0
  0
CLASS
  1
DICTIONARYVAR
  2
AcDbDictionaryVar
  3
AutoCAD 2000
 90
        0
280
     0
281
     0
  0
CLASS
  1
ACIMSYSVARMAN
  2
AcImSysVarManager
  3
AcMeServices
 90
        0
280
     0
281
     0
  0
CLASS
  1
ACIMREALSYSVAR
  2
AcImRealSysVar
  3
AcMeServices
 90
        0
280
     0
281
     0
  0
CLASS
  1
ACIMINTSYSVAR
  2
AcImIntSysVar
  3
AcMeServices
 90
        0
280
     0
281
     0
  0
CLASS
  1
ACMEDRAWINGMAN
  2
AcMeDrawingMan
  3
AcMeServices
 90
        0
280
     0
281
     0
  0
CLASS
  1
ACMEVIEW
  2
AcMeView
  3
AcMeServices
 90
        0
280
     0
281
     0
  0
CLASS
  1
ACDBENTITYCACHE
  2
AcMeEntityCache
  3
AcMeServices
 90
        0
280
     0
281
     0
  0
CLASS
  1
GSMANAGER
  2
AcMeGSManager
  3
AcMeServices
 90
        0
280
     0
281
     0
  0
CLASS
  1
AmdtInternalReactor
  2
AmdtInternalReactor
  3
AcMeServices
 90
        0
280
     0
281
     0
  0
CLASS
  1
ACMESTATEMGR
  2
AcMeStateMgr
  3
AcMeServices
 90
        0
280
     0
281
     0
  0
CLASS
  1
ACME_DATABASE
  2
AcMeDbDatabase
  3
AcMeServices
 90
        0
280
     0
281
     0
  0
CLASS
  1
ACRFINSADJUSTERMGR
  2
AcRfInsAdjusterMgr
  3
AcMeServices
 90
        0
280
     0
281
     0
  0
CLASS
  1
ACMDATADICTIONARY
  2
AcmDataDictionary
  3
"AcmSymBB|Product Description: AutoCAD Mechanical 2000|Company: Autodesk"
 90
        0
280
     0
281
     0
  0
CLASS
  1
ACMDATAENTRYBLOCK
  2
AcmDataEntryBlock
  3
"AcmSymBB|Product Description: AutoCAD Mechanical 2000|Company: Autodesk"
 90
        0
280
     0
281
     0
  0
CLASS
  1
AMGOBJPROPCFG
  2
AmgObjPropCfg
  3
"AmgLay|Product Description: AutoCAD Mechanical 2000|Company: Autodesk"
 90
        1
280
     0
281
     0
  0
CLASS
  1
ACAMGFILTERDAT
  2
AcAmgFilterDat
  3
"AcadM|Product Description: AutoCAD Mechanical 2000|Company: Autodesk"
 90
        0
280
     0
281
     0
  0
CLASS
  1
LAYER_INDEX
  2
AcDbLayerIndex
  3
AutoCAD 2000
 90
        0
280
     0
281
     0
  0
CLASS
  1
IDBUFFER
  2
AcDbIdBuffer
  3
AutoCAD 2000
 90
        0
280
     0
281
     0
  0
CLASS
  1
ACIMSTRSYSVAR
  2
AcImStrSysVar
  3
AcMeServices
 90
        0
280
     0
281
     0
  0
CLASS
  1
ACMSTANDARDJIS
  2
AcmStandardJIS
  3
"AcmSymBB|Product Description: AutoCAD Mechanical 2000|Company: Autodesk"
 90
        0
280
     0
281
     0
  0
CLASS
  1
ACMSURFSTANDARDJIS
  2
AcmSurfTextStdJIS
  3
"AcmSymBB|Product Description: AutoCAD Mechanical 2000|Company: Autodesk"
 90
        0
280
     0
281
     0
  0
CLASS
  1
ACMFCFSTANDARDJIS
  2
AcmFCFStdJIS
  3
"AcmSymBB|Product Description: AutoCAD Mechanical 2000|Company: Autodesk"
 90
        0
280
     0
281
     0
  0
CLASS
  1
ACMWELDSTANDARDJIS
  2
AcmWeldingStdJIS
  3
"AcmSymBB|Product Description: AutoCAD Mechanical 2000|Company: Autodesk"
 90
        0
280
     0
281
     0
  0
CLASS
  1
ACMIDSTANDARDJIS
  2
AcmIdStdJIS
  3
"AcmSymBB|Product Description: AutoCAD Mechanical 2000|Company: Autodesk"
 90
        0
280
     0
281
     0
  0
CLASS
  1
ACMDATUMSTANDARDJIS
  2
AcmDatumStdJIS
  3
"AcmSymBB|Product Description: AutoCAD Mechanical 2000|Company: Autodesk"
 90
        0
280
     0
281
     0
  0
CLASS
  1
ACMBOMSTANDARDJIS
  2
AcmBOMStdJIS
  3
"AcmSymBB|Product Description: AutoCAD Mechanical 2000|Company: Autodesk"
 90
        0
280
     0
281
     0
  0
CLASS
  1
ACMSTANDARDANSI
  2
AcmStandardANSI
  3
"AcmSymBB|Product Description: AutoCAD Mechanical 2000|Company: Autodesk"
 90
        0
280
     0
281
     0
  0
CLASS
  1
ACMSURFSTANDARDANSI
  2
AcmSurfTextStdANSI
  3
"AcmSymBB|Product Description: AutoCAD Mechanical 2000|Company: Autodesk"
 90
        0
280
     0
281
     0
  0
CLASS
  1
ACMFCFSTANDARDANSI
  2
AcmFCFStdANSI
  3
"AcmSymBB|Product Description: AutoCAD Mechanical 2000|Company: Autodesk"
 90
        0
280
     0
281
     0
  0
CLASS
  1
ACMWELDSTANDARDANSI
  2
AcmWeldingStdANSI
  3
"AcmSymBB|Product Description: AutoCAD Mechanical 2000|Company: Autodesk"
 90
        0
280
     0
281
     0
  0
CLASS
  1
ACMIDSTANDARDANSI
  2
AcmIdStdANSI
  3
"AcmSymBB|Product Description: AutoCAD Mechanical 2000|Company: Autodesk"
 90
        0
280
     0
281
     0
  0
CLASS
  1
ACMDATUMSTANDARDANSI
  2
AcmDatumStdANSI
  3
"AcmSymBB|Product Description: AutoCAD Mechanical 2000|Company: Autodesk"
 90
        0
280
     0
281
     0
  0
CLASS
  1
ACMBOMSTANDARDANSI
  2
AcmBOMStdANSI
  3
"AcmSymBB|Product Description: AutoCAD Mechanical 2000|Company: Autodesk"
 90
        0
280
     0
281
     0
  0
CLASS
  1
ACMSTANDARDBSI
  2
AcmStandardBSI
  3
"AcmSymBB|Product Description: AutoCAD Mechanical 2000|Company: Autodesk"
 90
        0
280
     0
281
     0
  0
CLASS
  1
ACMSURFSTANDARDBSI
  2
AcmSurfTextStdBSI
  3
"AcmSymBB|Product Description: AutoCAD Mechanical 2000|Company: Autodesk"
 90
        0
280
     0
281
     0
  0
CLASS
  1
ACMFCFSTANDARDBSI
  2
AcmFCFStdBSI
  3
"AcmSymBB|Product Description: AutoCAD Mechanical 2000|Company: Autodesk"
 90
        0
280
     0
281
     0
  0
CLASS
  1
ACMWELDSTANDARDBSI
  2
AcmWeldingStdBSI
  3
"AcmSymBB|Product Description: AutoCAD Mechanical 2000|Company: Autodesk"
 90
        0
280
     0
281
     0
  0
CLASS
  1
ACMIDSTANDARDBSI
  2
AcmIdStdBSI
  3
"AcmSymBB|Product Description: AutoCAD Mechanical 2000|Company: Autodesk"
 90
        0
280
     0
281
     0
  0
CLASS
  1
ACMDATUMSTANDARDBSI
  2
AcmDatumStdBSI
  3
"AcmSymBB|Product Description: AutoCAD Mechanical 2000|Company: Autodesk"
 90
        0
280
     0
281
     0
  0
CLASS
  1
ACMBOMSTANDARDBSI
  2
AcmBOMStdBSI
  3
"AcmSymBB|Product Description: AutoCAD Mechanical 2000|Company: Autodesk"
 90
        0
280
     0
281
     0
  0
CLASS
  1
LONG_TRANSACTION
  2
AcDbLongTransaction
  3
AutoCAD 2000
 90
        0
280
     0
281
     0
  0
CLASS
  1
LWPOLYLINE
  2
AcDbPolyline
  3
AutoCAD 2000
 90
        0
280
     0
281
     1
  0
CLASS
  1
HATCH
  2
AcDbHatch
  3
AutoCAD 2000
 90
        0
280
     0
281
     1
  0
CLASS
  1
XRECORD
  2
AcDbXrecord
  3
AutoCAD 2000
 90
        0
280
     0
281
     0
  0
ENDSEC
  0
SECTION
  2
TABLES
  0
TABLE
  2
VPORT
  5
8
330
0
100
AcDbSymbolTable
 70
     3
  0
VPORT
  5
2D33
330
8
100
AcDbSymbolTableRecord
100
AcDbViewportTableRecord
  2
*ACTIVE
 70
     0
 10
0.0
 20
0.0
 11
1.0
 21
1.0
 12
-44.63925399881754
 22
-6.871975639275291
 13
0.0
 23
0.0
 14
2.5
 24
2.5
 15
10.0
 25
10.0
 16
0.0
 26
0.0
 36
1.0
 17
0.0
 27
0.0
 37
0.0
 40
80.88923474412503
 41
1.56570841889117
 42
50.0
 43
0.0
 44
0.0
 50
0.0
 51
0.0
 71
     0
 72
   100
 73
     1
 74
     1
 75
     0
 76
     0
 77
     0
 78
     0
  0
ENDTAB
  0
TABLE
  2
LTYPE
  5
5
330
0
100
AcDbSymbolTable
 70
    10
  0
LTYPE
  5
14
330
5
100
AcDbSymbolTableRecord
100
AcDbLinetypeTableRecord
  2
BYBLOCK
 70
     0
  3

 72
    65
 73
     0
 40
0.0
  0
LTYPE
  5
15
330
5
100
AcDbSymbolTableRecord
100
AcDbLinetypeTableRecord
  2
BYLAYER
 70
     0
  3

 72
    65
 73
     0
 40
0.0
  0
LTYPE
  5
16
330
5
100
AcDbSymbolTableRecord
100
AcDbLinetypeTableRecord
  2
CONTINUOUS
 70
     0
  3
Solid line
 72
    65
 73
     0
 40
0.0
  0
LTYPE
  5
4B
330
5
100
AcDbSymbolTableRecord
100
AcDbLinetypeTableRecord
  2
AM_ISO02W050
 70
     0
  3
__ __ __ __ __ __ __ __ __ __ __ __ __ __ __
 72
    65
 73
     2
 40
7.5
 49
6.0
 74
     0
 49
-1.5
 74
     0
  0
LTYPE
  5
4C
330
5
100
AcDbSymbolTableRecord
100
AcDbLinetypeTableRecord
  2
AM_ISO08W050
 70
     0
  3
____ . ____ . ____ . ____ . ____ . ____ . ____
 72
    65
 73
     4
 40
18.0
 49
12.0
 74
     0
 49
-1.5
 74
     0
 49
3.0
 74
     0
 49
-1.5
 74
     0
  0
LTYPE
  5
4D
330
5
100
AcDbSymbolTableRecord
100
AcDbLinetypeTableRecord
  2
AM_ISO09W050
 70
     0
  3
_____ . . _____ . . _____ . . ____ .. ____
 72
    65
 73
     6
 40
22.5
 49
12.0
 74
     0
 49
-1.5
 74
     0
 49
3.0
 74
     0
 49
-1.5
 74
     0
 49
3.0
 74
     0
 49
-1.5
 74
     0
  0
LTYPE
  5
4E
330
5
100
AcDbSymbolTableRecord
100
AcDbLinetypeTableRecord
  2
AMCONSTR
 70
     0
  3
_______________________
 72
    65
 73
     2
 40
9999.0
 49
9999.0
 74
     0
 49
0.0
 74
     0
  0
LTYPE
  5
4F
330
5
100
AcDbSymbolTableRecord
100
AcDbLinetypeTableRecord
  2
AM_ISO02W050X2
 70
     0
  3
 _ _ _ _ _ _ _ _ _ _ _ _
 72
    65
 73
     2
 40
3.75
 49
3.0
 74
     0
 49
-0.75
 74
     0
  0
LTYPE
  5
50
330
5
100
AcDbSymbolTableRecord
100
AcDbLinetypeTableRecord
  2
AM_ISO08W050X2
 70
     0
  3
__ . __ . __ . __ . __ . __
 72
    65
 73
     4
 40
9.0
 49
6.0
 74
     0
 49
-0.75
 74
     0
 49
1.5
 74
     0
 49
-0.75
 74
     0
  0
LTYPE
  5
53
330
5
100
AcDbSymbolTableRecord
100
AcDbLinetypeTableRecord
  2
AMZIGZAG
 70
     0
  3
/\/-/\/-/\/-/\/-/\/-/\/
 72
    65
 73
     2
 40
11.00009999999999
 49
0.0001
 74
     4
 75
   135
340
52
 46
0.04
 50
0.0
 44
0.0
 45
0.0
 49
-11.0
 74
     0
  0
LTYPE
  5
166
330
5
100
AcDbSymbolTableRecord
100
AcDbLinetypeTableRecord
  2
ACJISTGL
 70
     0
  3
_ _ _ _ _
 72
    65
 73
     2
 40
3.0
 49
2.0
 74
     0
 49
-1.0
 74
     0
  0
LTYPE
  5
26A
330
5
100
AcDbSymbolTableRecord
100
AcDbLinetypeTableRecord
  2
ACJISTGB
 70
     0
  3
__ . . __ . .
 72
    65
 73
     6
 40
9.0
 49
4.0
 74
     0
 49
-1.0
 74
     0
 49
1.0
 74
     0
 49
-1.0
 74
     0
 49
1.0
 74
     0
 49
-1.0
 74
     0
  0
ENDTAB
  0
TABLE
  2
LAYER
  5
2
330
0
100
AcDbSymbolTable
 70
     7
  0
LAYER
  5
10
330
2
100
AcDbSymbolTableRecord
100
AcDbLayerTableRecord
  2
0
 70
     0
 62
     7
  6
CONTINUOUS
  0
LAYER
  5
3F9
330
2
100
AcDbSymbolTableRecord
100
AcDbLayerTableRecord
  2
AM_0
 70
     0
 62
     7
  6
CONTINUOUS
  0
LAYER
  5
C7C
330
2
100
AcDbSymbolTableRecord
100
AcDbLayerTableRecord
  2
AM_7
 70
     0
 62
     4
  6
AM_ISO08W050
  0
LAYER
  5
C97
330
2
100
AcDbSymbolTableRecord
100
AcDbLayerTableRecord
  2
AM_11
 70
     0
 62
     3
  6
AM_ISO09W050
  0
LAYER
  5
CC5
330
2
100
AcDbSymbolTableRecord
100
AcDbLayerTableRecord
  2
AM_5
 70
     0
 62
     3
  6
CONTINUOUS
  0
LAYER
  5
CC7
330
2
100
AcDbSymbolTableRecord
100
AcDbLayerTableRecord
  2
DEFPOINTS
 70
     0
 62
     7
  6
CONTINUOUS
  0
LAYER
  5
19BC
330
2
100
AcDbSymbolTableRecord
100
AcDbLayerTableRecord
  2
AM_6
 70
     0
 62
     2
  6
CONTINUOUS
  0
ENDTAB
  0
TABLE
  2
STYLE
  5
3
330
0
100
AcDbSymbolTable
 70
     5
  0
STYLE
  5
11
330
3
100
AcDbSymbolTableRecord
100
AcDbTextStyleTableRecord
  2
STANDARD
 70
     0
 40
0.0
 41
1.0
 50
0.0
 71
     0
 42
2.5
  3
simplex.shx
  4
EXTFONT.SHX
  0
STYLE
  5
52
330
3
100
AcDbSymbolTableRecord
100
AcDbTextStyleTableRecord
  2

 70
     1
 40
0.0
 41
1.0
 50
0.0
 71
     0
 42
2.5
  3
ltypeshp.shx
  4

  0
STYLE
  5
6B
330
3
100
AcDbSymbolTableRecord
100
AcDbTextStyleTableRecord
  2
ASAMI
 70
     0
 40
0.0
 41
1.0
 50
0.0
 71
     0
 42
2.5
  3
simplex.shx
  4
EXTFONT.SHX
  0
STYLE
  5
262
330
3
100
AcDbSymbolTableRecord
100
AcDbTextStyleTableRecord
  2
ACJISTS
 70
     0
 40
1.0
 41
1.0
 50
0.0
 71
     0
 42
2.5
  3
simplex.shx
  4
bigfont.shx
  0
STYLE
  5
269
330
3
100
AcDbSymbolTableRecord
100
AcDbTextStyleTableRecord
  2
ACJISGDT
 70
     0
 40
0.0
 41
1.0
 50
0.0
 71
     0
 42
2.5
  3
amgdtans.shx
  4

  0
ENDTAB
  0
TABLE
  2
VIEW
  5
6
330
0
100
AcDbSymbolTable
 70
     0
  0
ENDTAB
  0
TABLE
  2
UCS
  5
7
330
0
100
AcDbSymbolTable
 70
     0
  0
ENDTAB
  0
TABLE
  2
APPID
  5
9
330
0
100
AcDbSymbolTable
 70
    16
  0
APPID
  5
12
330
9
100
AcDbSymbolTableRecord
100
AcDbRegAppTableRecord
  2
ACAD
 70
     0
  0
APPID
  5
30
330
9
100
AcDbSymbolTableRecord
100
AcDbRegAppTableRecord
  2
MCAD_NO_VIS
 70
     0
  0
APPID
  5
31
330
9
100
AcDbSymbolTableRecord
100
AcDbRegAppTableRecord
  2
ACAD_TEMP_GRAPHIC
 70
     0
  0
APPID
  5
2C2
330
9
100
AcDbSymbolTableRecord
100
AcDbRegAppTableRecord
  2
GENIUS_GENDTOL_13
 70
     0
  0
APPID
  5
339
330
9
100
AcDbSymbolTableRecord
100
AcDbRegAppTableRecord
  2
GENIUS_GENODEF_13
 70
     0
  0
APPID
  5
33A
330
9
100
AcDbSymbolTableRecord
100
AcDbRegAppTableRecord
  2
GENIUS_GENOBJ-N-RSBK_13
 70
     0
  0
APPID
  5
33B
330
9
100
AcDbSymbolTableRecord
100
AcDbRegAppTableRecord
  2
GENIUS_GENOBJ-N-LIB_13
 70
     0
  0
APPID
  5
33C
330
9
100
AcDbSymbolTableRecord
100
AcDbRegAppTableRecord
  2
GENIUS_GENSCALE_13
 70
     0
  0
APPID
  5
378
330
9
100
AcDbSymbolTableRecord
100
AcDbRegAppTableRecord
  2
GENIUS_GENDIMSH_14
 70
     0
  0
APPID
  5
C82
330
9
100
AcDbSymbolTableRecord
100
AcDbRegAppTableRecord
  2
GENIUS_GENOBJ-N-CRS_13
 70
     0
  0
APPID
  5
C83
330
9
100
AcDbSymbolTableRecord
100
AcDbRegAppTableRecord
  2
GENIUS_GENOENT_13
 70
     0
  0
APPID
  5
C84
330
9
100
AcDbSymbolTableRecord
100
AcDbRegAppTableRecord
  2
GENIUS_GENOREF_13
 70
     0
  0
APPID
  5
C85
330
9
100
AcDbSymbolTableRecord
100
AcDbRegAppTableRecord
  2
GENIUS_GENOLIS_13
 70
     0
  0
APPID
  5
CA0
330
9
100
AcDbSymbolTableRecord
100
AcDbRegAppTableRecord
  2
GENIUS_GENOBJ-N-CEN_13
 70
     0
  0
APPID
  5
1E1E
330
9
100
AcDbSymbolTableRecord
100
AcDbRegAppTableRecord
  2
GENIUS_GENFIL_13
 70
     0
  0
APPID
  5
1E1F
330
9
100
AcDbSymbolTableRecord
100
AcDbRegAppTableRecord
  2
GENIUS_GENOBJ-N-CHA_13
 70
     0
  0
ENDTAB
  0
TABLE
  2
DIMSTYLE
  5
A
330
0
100
AcDbSymbolTable
 70
     9
  0
DIMSTYLE
105
58
330
A
100
AcDbSymbolTableRecord
100
AcDbDimStyleTableRecord
  2
AM_JIS
 70
     0
  3

  4
"
  5
OPEN30
  6

  7

 40
0.5
 41
2.5
 42
1.0
 43
12.0
 44
1.0
 45
0.0
 46
0.0
 47
0.1
 48
0.1
140
3.2
141
0.0
142
0.0
143
0.0393701
144
1.0
145
0.0
146
0.71
147
1.5
 71
     0
 72
     0
 73
     0
 74
     0
 75
     0
 76
     0
 77
     3
 78
     8
170
     0
171
     2
172
     1
173
     0
174
     0
175
     0
176
   256
177
   256
178
     2
270
     2
271
     3
272
     3
273
     2
274
     2
340
6B
275
     0
280
     0
281
     0
282
     0
283
     0
284
     0
285
     0
286
     0
287
     3
288
     0
  0
DIMSTYLE
105
5F
330
A
100
AcDbSymbolTableRecord
100
AcDbDimStyleTableRecord
  2
AM_JIS$3
 70
     0
  3

  4
"
  5
OPEN30
  6

  7

 40
0.5
 41
2.5
 42
1.0
 43
10.0
 44
1.0
 45
0.0
 46
0.0
 47
0.1
 48
0.1
140
3.2
141
0.0
142
0.0
143
0.0393701
144
1.0
145
0.0
146
0.71
147
1.5
 71
     0
 72
     0
 73
     0
 74
     1
 75
     0
 76
     0
 77
     3
 78
     8
170
     0
171
     2
172
     0
173
     0
174
     0
175
     0
176
   256
177
   256
178
     2
270
     2
271
     2
272
     3
273
     2
274
     2
340
6B
275
     0
280
     0
281
     0
282
     0
283
     0
284
     0
285
     0
286
     0
287
     0
288
     1
  0
DIMSTYLE
105
60
330
A
100
AcDbSymbolTableRecord
100
AcDbDimStyleTableRecord
  2
AM_JIS$4
 70
     0
  3

  4
"
  5
OPEN30
  6

  7

 40
0.5
 41
2.5
 42
1.0
 43
10.0
 44
1.0
 45
0.0
 46
0.0
 47
0.1
 48
0.1
140
3.2
141
0.0
142
0.0
143
0.0393701
144
1.0
145
0.0
146
0.71
147
1.5
 71
     0
 72
     0
 73
     0
 74
     1
 75
     0
 76
     0
 77
     3
 78
     8
170
     0
171
     2
172
     0
173
     0
174
     0
175
     0
176
   256
177
   256
178
     2
270
     2
271
     2
272
     3
273
     2
274
     2
340
6B
275
     0
280
     0
281
     0
282
     0
283
     0
284
     0
285
     0
286
     0
287
     0
288
     1
  0
DIMSTYLE
105
61
330
A
100
AcDbSymbolTableRecord
100
AcDbDimStyleTableRecord
  2
AM_JIS$6
 70
     0
  3

  4
"
  5
OPEN30
  6

  7

 40
0.5
 41
2.5
 42
1.0
 43
10.0
 44
1.0
 45
0.0
 46
0.0
 47
0.1
 48
0.1
140
3.2
141
0.0
142
0.0
143
0.0393701
144
1.0
145
0.0
146
0.71
147
1.5
 71
     0
 72
     0
 73
     0
 74
     0
 75
     0
 76
     0
 77
     0
 78
     8
170
     0
171
     2
172
     1
173
     0
174
     0
175
     0
176
   256
177
   256
178
     2
270
     2
271
     2
272
     2
273
     2
274
     2
340
6B
275
     0
280
     0
281
     0
282
     0
283
     0
284
     0
285
     0
286
     0
287
     3
288
     0
  0
DIMSTYLE
105
62
330
A
100
AcDbSymbolTableRecord
100
AcDbDimStyleTableRecord
  2
AM_JIS$7
 70
     0
  3

  4
"
  5
OPEN30
  6

  7

 40
0.5
 41
2.5
 42
1.0
 43
10.0
 44
1.0
 45
0.0
 46
0.0
 47
0.1
 48
0.1
140
3.2
141
0.0
142
0.0
143
0.0393701
144
1.0
145
0.0
146
0.71
147
1.5
 71
     0
 72
     0
 73
     0
 74
     0
 75
     0
 76
     0
 77
     3
 78
     8
170
     0
171
     2
172
     1
173
     0
174
     0
175
     0
176
   256
177
   256
178
     2
270
     2
271
     2
272
     3
273
     2
274
     2
340
6B
275
     0
280
     0
281
     0
282
     0
283
     0
284
     0
285
     0
286
     0
287
     3
288
     0
  0
DIMSTYLE
105
63
330
A
100
AcDbSymbolTableRecord
100
AcDbDimStyleTableRecord
  2
AM_JIS$SF
 70
     0
  3

  4
"
  5
OPEN30
  6

  7

 40
0.5
 41
2.5
 42
1.0
 43
10.0
 44
1.0
 45
0.0
 46
0.0
 47
0.1
 48
0.1
140
3.2
141
0.0
142
0.0
143
0.0393701
144
1.0
145
0.0
146
0.71
147
1.5
 71
     0
 72
     0
 73
     0
 74
     0
 75
     1
 76
     1
 77
     3
 78
     8
170
     0
171
     2
172
     1
173
     0
174
     0
175
     0
176
   256
177
   256
178
     2
270
     2
271
     2
272
     2
273
     2
274
     2
340
6B
275
     0
280
     0
281
     0
282
     0
283
     0
284
     0
285
     0
286
     0
287
     3
288
     0
  0
DIMSTYLE
105
68
330
A
100
AcDbSymbolTableRecord
100
AcDbDimStyleTableRecord
  2
AM_JIS$SH
 70
     0
  3

  4
"
  5

  6
GENAXEH
  7
OPEN30
 40
0.5
 41
2.5
 42
1.0
 43
10.0
 44
1.0
 45
0.0
 46
0.0
 47
0.1
 48
0.1
140
3.2
141
0.0
142
0.0
143
0.0393701
144
2.0
145
0.0
146
0.71
147
1.5
 71
     0
 72
     0
 73
     0
 74
     0
 75
     1
 76
     1
 77
     3
 78
     8
170
     0
171
     2
172
     1
173
     1
174
     0
175
     0
176
   256
177
   256
178
     2
270
     2
271
     2
272
     2
273
     2
274
     2
340
6B
275
     0
280
     0
281
     0
282
     0
283
     0
284
     0
285
     0
286
     0
287
     3
288
     0
  0
DIMSTYLE
105
B34
102
{ACAD_REACTORS
330
26BF
102
}
330
A
100
AcDbSymbolTableRecord
100
AcDbDimStyleTableRecord
  2
AM_JIS$2
 70
     0
  3

  4
"
  5
OPEN30
  6

  7

 40
0.5
 41
2.5
 42
1.0
 43
12.0
 44
1.0
 45
0.0
 46
0.0
 47
0.1
 48
0.1
140
3.2
141
0.0
142
0.0
143
0.0393701
144
1.0
145
0.0
146
0.71
147
1.5
 71
     0
 72
     0
 73
     0
 74
     0
 75
     0
 76
     0
 77
     3
 78
     8
170
     0
171
     2
172
     1
173
     0
174
     0
175
     0
176
   256
177
   256
178
     2
270
     2
271
     3
272
     3
273
     2
274
     2
340
6B
275
     0
280
     0
281
     0
282
     0
283
     0
284
     0
285
     0
286
     0
287
     3
288
     0
  0
DIMSTYLE
105
BA5
102
{ACAD_REACTORS
330
CC6
330
DF5
330
228A
330
294C
102
}
330
A
100
AcDbSymbolTableRecord
100
AcDbDimStyleTableRecord
  2
AM_JIS$0
 70
     0
  3

  4
"
  5
OPEN30
  6

  7

 40
0.5
 41
2.5
 42
0.0
 43
10.0
 44
1.0
 45
0.0
 46
0.0
 47
0.1
 48
0.1000000001
140
3.799999999999999
141
0.0
142
0.0
143
0.0393701
144
1.0
145
0.0
146
0.71
147
1.5
 71
     0
 72
     0
 73
     0
 74
     0
 75
     0
 76
     0
 77
     3
 78
     1
170
     0
171
     2
172
     1
173
     0
174
     0
175
     0
176
     3
177
     3
178
     2
270
     2
271
     2
272
     2
273
     2
274
     2
340
11
275
     1
280
     0
281
     0
282
     0
283
     0
284
     8
285
     0
286
     0
287
     0
288
     0
  0
ENDTAB
  0
TABLE
  2
BLOCK_RECORD
  5
1
330
0
100
AcDbSymbolTable
 70
    10
  0
BLOCK_RECORD
  5
1F
102
{ACAD_XDICTIONARY
360
74
102
}
330
1
100
AcDbSymbolTableRecord
100
AcDbBlockTableRecord
  2
*MODEL_SPACE
  0
BLOCK_RECORD
  5
101
102
{ACAD_XDICTIONARY
360
2D5C
102
}
330
1
100
AcDbSymbolTableRecord
100
AcDbBlockTableRecord
  2
*PAPER_SPACE
  0
BLOCK_RECORD
  5
59
330
1
100
AcDbSymbolTableRecord
100
AcDbBlockTableRecord
  2
_OPEN30
  0
BLOCK_RECORD
  5
64
330
1
100
AcDbSymbolTableRecord
100
AcDbBlockTableRecord
  2
GENAXEH
  0
BLOCK_RECORD
  5
CC8
330
1
100
AcDbSymbolTableRecord
100
AcDbBlockTableRecord
  2
*D5
  0
BLOCK_RECORD
  5
DF6
330
1
100
AcDbSymbolTableRecord
100
AcDbBlockTableRecord
  2
*D6
  0
BLOCK_RECORD
  5
228B
330
1
100
AcDbSymbolTableRecord
100
AcDbBlockTableRecord
  2
*D7
  0
BLOCK_RECORD
  5
26C0
330
1
100
AcDbSymbolTableRecord
100
AcDbBlockTableRecord
  2
*D8
  0
BLOCK_RECORD
  5
294D
330
1
100
AcDbSymbolTableRecord
100
AcDbBlockTableRecord
  2
*D9
  0
ENDTAB
  0
ENDSEC
  0
SECTION
  2
BLOCKS
  0
BLOCK
  5
20
330
1F
100
AcDbEntity
  8
0
100
AcDbBlockBegin
  2
*MODEL_SPACE
 70
     0
 10
0.0
 20
0.0
 30
0.0
  3
*MODEL_SPACE
  1

  0
ENDBLK
  5
21
330
1F
100
AcDbEntity
  8
0
100
AcDbBlockEnd
  0
BLOCK
  5
103
330
101
100
AcDbEntity
 67
     1
  8
0
100
AcDbBlockBegin
  2
*PAPER_SPACE
 70
     0
 10
0.0
 20
0.0
 30
0.0
  3
*PAPER_SPACE
  1

  0
ENDBLK
  5
104
330
101
100
AcDbEntity
 67
     1
  8
0
100
AcDbBlockEnd
  0
BLOCK
  5
5D
330
59
100
AcDbEntity
  8
0
100
AcDbBlockBegin
  2
_OPEN30
 70
     0
 10
0.0
 20
0.0
 30
0.0
  3
_OPEN30
  1

  0
LINE
  5
5A
330
59
100
AcDbEntity
  8
0
 62
     0
100
AcDbLine
 10
-1.0
 20
0.26794919
 30
0.0
 11
0.0
 21
0.0
 31
0.0
  0
LINE
  5
5B
330
59
100
AcDbEntity
  8
0
 62
     0
100
AcDbLine
 10
0.0
 20
0.0
 30
0.0
 11
-1.0
 21
-0.26794919
 31
0.0
  0
LINE
  5
5C
330
59
100
AcDbEntity
  8
0
 62
     0
100
AcDbLine
 10
0.0
 20
0.0
 30
0.0
 11
-1.0
 21
0.0
 31
0.0
  0
ENDBLK
  5
5E
330
59
100
AcDbEntity
  8
0
100
AcDbBlockEnd
  0
BLOCK
  5
66
330
64
100
AcDbEntity
  8
0
100
AcDbBlockBegin
  2
GENAXEH
 70
     0
 10
0.0
 20
0.0
 30
0.0
  3
GENAXEH
  1

  0
LINE
  5
65
330
64
100
AcDbEntity
  8
0
100
AcDbLine
 10
-1.0
 20
0.0
 30
0.0
 11
1.0
 21
0.0
 31
0.0
  0
ENDBLK
  5
67
330
64
100
AcDbEntity
  8
0
100
AcDbBlockEnd
  0
BLOCK
  5
CD2
330
CC8
100
AcDbEntity
  8
0
100
AcDbBlockBegin
  2
*D5
 70
     1
 10
0.0
 20
0.0
 30
0.0
  3
*D5
  1

  0
LINE
  5
2CE1
330
CC8
100
AcDbEntity
  8
AM_5
 62
     3
100
AcDbLine
 10
-95.99999999999999
 20
-3.499999999999982
 30
0.0
 11
-95.99999999999999
 21
-16.50000236965379
 31
0.0
  0
LINE
  5
2CE2
330
CC8
100
AcDbEntity
  8
AM_5
 62
     3
100
AcDbLine
 10
-2.000000000000027
 20
-3.900000822314722
 30
0.0
 11
-2.000000000000028
 21
-16.50000236965379
 31
0.0
  0
LINE
  5
2CE3
330
CC8
100
AcDbEntity
  8
AM_5
 62
     3
100
AcDbLine
 10
-94.74999999999999
 20
-16.00000236965379
 30
0.0
 11
-3.250000000000028
 21
-16.00000236965379
 31
0.0
  0
INSERT
  5
2CE4
330
CC8
100
AcDbEntity
  8
AM_5
 62
     3
100
AcDbBlockReference
  2
_OPEN30
 10
-95.99999999999999
 20
-16.00000236965379
 30
0.0
 41
1.25
 42
1.25
 43
1.25
 50
180.0
  0
INSERT
  5
2CE5
330
CC8
100
AcDbEntity
  8
AM_5
 62
     3
100
AcDbBlockReference
  2
_OPEN30
 10
-2.000000000000028
 20
-16.00000236965379
 30
0.0
 41
1.25
 42
1.25
 43
1.25
  0
MTEXT
  5
2CE6
330
CC8
100
AcDbEntity
  8
AM_5
 62
     2
100
AcDbMText
 10
-49.00000000000001
 20
-14.30000236965379
 30
0.0
 40
1.9
 41
0.0
 71
     5
 72
     1
  1
94
1001
ACAD
1000
MTEXTBEGIN
1070
    73
1070
     1
1070
    44
1040
1.0
1070
    74
1070
     0
1000
MTEXTEND
  0
POINT
  5
2CE7
330
CC8
100
AcDbEntity
  8
DEFPOINTS
 62
     0
100
AcDbPoint
 10
-95.99999999999999
 20
-3.499999999999982
 30
0.0
  0
POINT
  5
2CE8
330
CC8
100
AcDbEntity
  8
DEFPOINTS
 62
     0
100
AcDbPoint
 10
-2.000000000000027
 20
-3.900000822314722
 30
0.0
  0
POINT
  5
2CE9
330
CC8
100
AcDbEntity
  8
DEFPOINTS
 62
     0
100
AcDbPoint
 10
-2.000000000000028
 20
-16.00000236965379
 30
0.0
  0
ENDBLK
  5
CD3
330
CC8
100
AcDbEntity
  8
0
100
AcDbBlockEnd
  0
BLOCK
  5
E00
330
DF6
100
AcDbEntity
  8
0
100
AcDbBlockBegin
  2
*D6
 70
     1
 10
0.0
 20
0.0
 30
0.0
  3
*D6
  1

  0
LINE
  5
2D07
330
DF6
100
AcDbEntity
  8
AM_5
 62
     3
100
AcDbLine
 10
-41.99999999999998
 20
-4.000001369653862
 30
0.0
 11
-41.99999999999998
 21
-11.50000236965371
 31
0.0
  0
LINE
  5
2D08
330
DF6
100
AcDbEntity
  8
AM_5
 62
     3
100
AcDbLine
 10
-2.000000000000027
 20
-3.900000822314722
 30
0.0
 11
-2.000000000000028
 21
-11.50000236965371
 31
0.0
  0
LINE
  5
2D09
330
DF6
100
AcDbEntity
  8
AM_5
 62
     3
100
AcDbLine
 10
-40.74999999999998
 20
-11.00000236965371
 30
0.0
 11
-3.250000000000028
 21
-11.00000236965371
 31
0.0
  0
INSERT
  5
2D0A
330
DF6
100
AcDbEntity
  8
AM_5
 62
     3
100
AcDbBlockReference
  2
_OPEN30
 10
-41.99999999999998
 20
-11.00000236965371
 30
0.0
 41
1.25
 42
1.25
 43
1.25
 50
180.0
  0
INSERT
  5
2D0B
330
DF6
100
AcDbEntity
  8
AM_5
 62
     3
100
AcDbBlockReference
  2
_OPEN30
 10
-2.000000000000028
 20
-11.00000236965371
 30
0.0
 41
1.25
 42
1.25
 43
1.25
  0
MTEXT
  5
2D0C
330
DF6
100
AcDbEntity
  8
AM_5
 62
     2
100
AcDbMText
 10
-22.0
 20
-9.300002369653714
 30
0.0
 40
1.9
 41
0.0
 71
     5
 72
     1
  1
40
1001
ACAD
1000
MTEXTBEGIN
1070
    73
1070
     1
1070
    44
1040
1.0
1070
    74
1070
     0
1000
MTEXTEND
  0
POINT
  5
2D0D
330
DF6
100
AcDbEntity
  8
DEFPOINTS
 62
     0
100
AcDbPoint
 10
-41.99999999999998
 20
-4.000001369653862
 30
0.0
  0
POINT
  5
2D0E
330
DF6
100
AcDbEntity
  8
DEFPOINTS
 62
     0
100
AcDbPoint
 10
-2.000000000000027
 20
-3.900000822314722
 30
0.0
  0
POINT
  5
2D0F
330
DF6
100
AcDbEntity
  8
DEFPOINTS
 62
     0
100
AcDbPoint
 10
-2.000000000000028
 20
-11.00000236965371
 30
0.0
  0
ENDBLK
  5
E01
330
DF6
100
AcDbEntity
  8
0
100
AcDbBlockEnd
  0
BLOCK
  5
2297
330
228B
100
AcDbEntity
  8
0
100
AcDbBlockBegin
  2
*D7
 70
     1
 10
0.0
 20
0.0
 30
0.0
  3
*D7
  1

  0
LINE
  5
2CEA
330
228B
100
AcDbEntity
  8
AM_5
 62
     3
100
AcDbLine
 10
-95.49999999999998
 20
-4.000000000000279
 30
0.0
 11
-105.5000009999999
 21
-4.000000000000308
 31
0.0
  0
LINE
  5
2CEB
330
228B
100
AcDbEntity
  8
AM_5
 62
     3
100
AcDbLine
 10
-95.5
 20
4.000000000000015
 30
0.0
 11
-105.5000009999999
 21
3.999999999999987
 31
0.0
  0
LINE
  5
2CEC
330
228B
100
AcDbEntity
  8
AM_5
 62
     3
100
AcDbLine
 10
-105.0000009999999
 20
-2.750000000000306
 30
0.0
 11
-105.0000009999999
 21
2.749999999999988
 31
0.0
  0
INSERT
  5
2CED
330
228B
100
AcDbEntity
  8
AM_5
 62
     3
100
AcDbBlockReference
  2
_OPEN30
 10
-105.0000009999999
 20
-4.000000000000306
 30
0.0
 41
1.25
 42
1.25
 43
1.25
 50
270.0000000000001
  0
INSERT
  5
2CEE
330
228B
100
AcDbEntity
  8
AM_5
 62
     3
100
AcDbBlockReference
  2
_OPEN30
 10
-105.0000009999999
 20
3.999999999999988
 30
0.0
 41
1.25
 42
1.25
 43
1.25
 50
90.00000000000015
  0
MTEXT
  5
2CEF
330
228B
100
AcDbEntity
  8
AM_5
 62
     2
100
AcDbMText
 10
-106.7000009999999
 20
-0.0000000000002944
 30
0.0
 40
1.9
 41
0.0
 71
     5
 72
     1
  1
%%c8
 11
-0.0000000000000028
 21
1.0
 31
0.0
1001
ACAD
1000
MTEXTBEGIN
1070
    73
1070
     1
1070
    44
1040
1.0
1070
    74
1070
     0
1000
MTEXTEND
  0
POINT
  5
2CF0
330
228B
100
AcDbEntity
  8
DEFPOINTS
 62
     0
100
AcDbPoint
 10
-95.5
 20
-3.999999999999983
 30
0.0
  0
POINT
  5
2CF1
330
228B
100
AcDbEntity
  8
DEFPOINTS
 62
     0
100
AcDbPoint
 10
-95.49999999999998
 20
4.000000000000312
 30
0.0
  0
POINT
  5
2CF2
330
228B
100
AcDbEntity
  8
DEFPOINTS
 62
     0
100
AcDbPoint
 10
-105.0000009999999
 20
4.000000000000315
 30
0.0
  0
ENDBLK
  5
2298
330
228B
100
AcDbEntity
  8
0
100
AcDbBlockEnd
  0
BLOCK
  5
26CE
330
26C0
100
AcDbEntity
  8
0
100
AcDbBlockBegin
  2
*D8
 70
     1
 10
0.0
 20
0.0
 30
0.0
  3
*D8
  1

  0
LINE
  5
2D5E
330
26C0
100
AcDbEntity
  8
AM_5
100
AcDbLine
 10
0.1710101364597401
 20
-0.4698462868087997
 30
0.0
 11
4.915346007476472
 21
-13.50479636940691
 31
0.0
  0
LINE
  5
2D5F
330
26C0
100
AcDbEntity
  8
AM_5
100
AcDbLine
 10
0.1710111995358665
 20
0.4698458998792129
 30
0.0
 11
4.915376563483862
 21
13.50478524788583
 31
0.0
  0
ARC
  5
2D60
330
26C0
100
AcDbEntity
  8
AM_5
100
AcDbCircle
 10
-0.0000000000000014
 20
0.000000000000004
 30
0.0
 40
13.8715048395205
100
AcDbArc
 50
295.1648389466326
 51
64.83503141564945
  0
INSERT
  5
2D61
330
26C0
100
AcDbEntity
  8
AM_5
100
AcDbBlockReference
  2
_OPEN30
 10
4.744335871016732
 20
-13.03495008259811
 30
0.0
 41
1.25
 42
1.25
 43
1.25
 50
202.5824234241714
  0
INSERT
  5
2D62
330
26C0
100
AcDbEntity
  8
AM_5
100
AcDbBlockReference
  2
_OPEN30
 10
4.744365363947994
 20
13.03493934800662
 30
0.0
 41
1.25
 42
1.25
 43
1.25
 50
157.4174469381106
  0
MTEXT
  5
2D63
330
26C0
100
AcDbEntity
  8
AM_5
 62
     2
100
AcDbMText
 10
12.32150483951261
 20
-0.0000139393493017
 30
0.0
 40
1.6
 41
0.0
 71
     5
 72
     1
  1
140°
  7
ASAMI
 11
0.0000011313025075
 21
0.9999999999993601
 31
0.0
  0
POINT
  5
2D64
330
26C0
100
AcDbEntity
  8
DEFPOINTS
 62
     0
100
AcDbPoint
 10
12.73703527913145
 20
-5.494231412217847
 30
0.0
  0
POINT
  5
2D65
330
26C0
100
AcDbEntity
  8
DEFPOINTS
 62
     0
100
AcDbPoint
 10
-0.0000000000000014
 20
0.000000000000004
 30
0.0
  0
POINT
  5
2D66
330
26C0
100
AcDbEntity
  8
DEFPOINTS
 62
     0
100
AcDbPoint
 10
-0.0000000000000014
 20
0.000000000000004
 30
0.0
  0
POINT
  5
2D67
330
26C0
100
AcDbEntity
  8
DEFPOINTS
 62
     0
100
AcDbPoint
 10
-0.4497187230507524
 20
1.235591506492583
 30
0.0
  0
POINT
  5
2D68
330
26C0
100
AcDbEntity
  8
DEFPOINTS
 62
     0
100
AcDbPoint
 10
-0.4497245551032994
 20
-1.235598831326629
 30
0.0
  0
ENDBLK
  5
26CF
330
26C0
100
AcDbEntity
  8
0
100
AcDbBlockEnd
  0
BLOCK
  5
2957
330
294D
100
AcDbEntity
  8
0
100
AcDbBlockBegin
  2
*D9
 70
     1
 10
0.0
 20
0.0
 30
0.0
  3
*D9
  1

  0
LINE
  5
2CF3
330
294D
100
AcDbEntity
  8
AM_5
 62
     3
100
AcDbLine
 10
-1.999999999999943
 20
3.900000822314764
 30
0.0
 11
9.055921024858061
 21
3.900000822314795
 31
0.0
  0
LINE
  5
2CF4
330
294D
100
AcDbEntity
  8
AM_5
 62
     3
100
AcDbLine
 10
-2.000000000000015
 20
-3.900000822314729
 30
0.0
 11
9.055921024858083
 21
-3.900000822314698
 31
0.0
  0
LINE
  5
2CF5
330
294D
100
AcDbEntity
  8
AM_5
 62
     3
100
AcDbLine
 10
8.555921024858065
 20
2.650000822314794
 30
0.0
 11
8.555921024858079
 21
-2.650000822314698
 31
0.0
  0
INSERT
  5
2CF6
330
294D
100
AcDbEntity
  8
AM_5
 62
     3
100
AcDbBlockReference
  2
_OPEN30
 10
8.555921024858061
 20
3.900000822314794
 30
0.0
 41
1.25
 42
1.25
 43
1.25
 50
90.00000000000017
  0
INSERT
  5
2CF7
330
294D
100
AcDbEntity
  8
AM_5
 62
     3
100
AcDbBlockReference
  2
_OPEN30
 10
8.555921024858083
 20
-3.900000822314698
 30
0.0
 41
1.25
 42
1.25
 43
1.25
 50
270.0000000000001
  0
MTEXT
  5
2CF8
330
294D
100
AcDbEntity
  8
AM_5
 62
     2
100
AcDbMText
 10
6.855921024858072
 20
0.0000000000000425
 30
0.0
 40
1.9
 41
0.0
 71
     5
 72
     1
  1
%%c7.8
 11
-0.0000000000000028
 21
1.0
 31
0.0
1001
ACAD
1000
MTEXTBEGIN
1070
    73
1070
     1
1070
    44
1040
1.0
1070
    74
1070
     0
1000
MTEXTEND
  0
POINT
  5
2CF9
330
294D
100
AcDbEntity
  8
DEFPOINTS
 62
     0
100
AcDbPoint
 10
-1.999999999999931
 20
3.90000082231477
 30
0.0
  0
POINT
  5
2CFA
330
294D
100
AcDbEntity
  8
DEFPOINTS
 62
     0
100
AcDbPoint
 10
-2.000000000000027
 20
-3.900000822314722
 30
0.0
  0
POINT
  5
2CFB
330
294D
100
AcDbEntity
  8
DEFPOINTS
 62
     0
100
AcDbPoint
 10
8.555921024858072
 20
-3.900000822314725
 30
0.0
  0
ENDBLK
  5
2958
330
294D
100
AcDbEntity
  8
0
100
AcDbBlockEnd
  0
ENDSEC
  0
SECTION
  2
ENTITIES
  0
LINE
  5
C1D
330
1F
100
AcDbEntity
  8
AM_0
 48
0.5
100
AcDbLine
 10
-0.0000000000000014
 20
0.000000000000004
 30
0.0
 11
-0.4497187230507524
 21
1.235591506492583
 31
0.0
  0
LINE
  5
C20
330
1F
100
AcDbEntity
  8
AM_0
 48
0.5
100
AcDbLine
 10
-0.0000000000000014
 20
0.000000000000004
 30
0.0
 11
-0.4497245551032993
 21
-1.235598831326629
 31
0.0
  0
LINE
  5
C30
330
1F
100
AcDbEntity
  8
AM_0
 48
0.5
100
AcDbLine
 10
-95.99999999999999
 20
-3.499999999999982
 30
0.0
 11
-96.0
 21
3.500000000000016
 31
0.0
  0
LINE
  5
C9F
330
1F
100
AcDbEntity
  8
AM_7
100
AcDbLine
 10
-97.99999999999997
 20
0.0000000000000151
 30
0.0
 11
1.555920024858059
 21
0.0000000000000078
 31
0.0
1001
GENIUS_GENODEF_13
1002
{
1000
HIER
1070
     0
1002
}
1002
{
1000
MANEDIT
1070
     0
1002
}
1002
{
1000
NOSEL
1070
     0
1002
}
1002
{
1000
BEHIND
1070
     0
1002
}
1002
{
1000
REACTOR
1002
}
1001
GENIUS_GENOBJ-N-CEN_13
1002
{
1000
OWNER
1000
GEN
1002
}
  0
DIMENSION
  5
CC6
330
1F
100
AcDbEntity
  8
AM_5
100
AcDbDimension
  2
*D5
 10
-2.000000000000028
 20
-16.00000236965379
 30
0.0
 11
-49.00000000000001
 21
-14.30000236965379
 31
0.0
 70
    32
  1
<>
  3
AM_JIS$0
100
AcDbAlignedDimension
 13
-95.99999999999999
 23
-3.499999999999982
 33
0.0
 14
-2.000000000000027
 24
-3.900000822314722
 34
0.0
 50
0.0000000000001132
100
AcDbRotatedDimension
1001
GENIUS_GENDTOL_13
1000

1000
h7
1000

1040
0.0
1001
ACAD
1000
DSTYLE
1002
{
1070
   271
1070
     0
1002
}
  0
DIMENSION
  5
DF5
330
1F
100
AcDbEntity
  8
AM_5
100
AcDbDimension
  2
*D6
 10
-2.000000000000028
 20
-11.00000236965371
 30
0.0
 11
-22.0
 21
-9.300002369653714
 31
0.0
 70
    32
  1
<>
  3
AM_JIS$0
100
AcDbAlignedDimension
 13
-41.99999999999998
 23
-4.000001369653862
 33
0.0
 14
-2.000000000000027
 24
-3.900000822314722
 34
0.0
 50
0.0000000000001527
100
AcDbRotatedDimension
1001
GENIUS_GENDTOL_13
1000

1000
h7
1000

1040
0.0
1001
ACAD
1000
DSTYLE
1002
{
1070
   271
1070
     0
1002
}
  0
TEXT
  5
19BD
330
1F
100
AcDbEntity
  8
AM_6
100
AcDbText
 10
-60.24999999999995
 20
-27.25000236965382
 30
0.0
 40
2.5
  1
MDW078MHK
 50
0.0000000000001527
 72
     4
 11
-48.99999999999995
 21
-26.00000236965379
 31
0.0
100
AcDbText
  0
ARC
  5
1BE8
330
1F
100
AcDbEntity
  8
AM_11
 48
0.5
100
AcDbCircle
 10
-65.18578898111988
 20
17.66787048062785
 30
0.0
 40
19.53452809651666
100
AcDbArc
 50
244.7482808787518
 51
295.2516148471758
  0
ARC
  5
1BE9
330
1F
100
AcDbEntity
  8
AM_11
 48
0.5
100
AcDbCircle
 10
-65.18578898111991
 20
-17.66785848258814
 30
0.0
 40
19.53452809651666
100
AcDbArc
 50
64.74833051131179
 51
115.2516644797366
  0
LINE
  5
1CA9
330
1F
100
AcDbEntity
  8
AM_0
 48
0.5
100
AcDbLine
 10
-41.99999999999998
 20
-4.000001369653862
 30
0.0
 11
-41.99999999999998
 21
4.000029622605996
 31
0.0
  0
LINE
  5
1E12
330
1F
100
AcDbEntity
  8
AM_0
 48
0.5
100
AcDbLine
 10
-95.5
 20
4.000000000000015
 30
0.0
 11
-41.99999999999998
 21
3.999999999999901
 31
0.0
1001
GENIUS_GENODEF_13
1002
{
1000
HIER
1070
     0
1002
}
1002
{
1000
MANEDIT
1070
     0
1002
}
1002
{
1000
NOSEL
1070
     0
1002
}
1002
{
1000
BEHIND
1070
     0
1002
}
1002
{
1000
REACTOR
1002
}
1001
GENIUS_GENOBJ-N-CEN_13
1002
{
1000
OWNER
1000
GEN
1002
}
  0
LINE
  5
1E16
330
1F
100
AcDbEntity
  8
AM_0
 48
0.5
100
AcDbLine
 10
-95.49999999999998
 20
-3.999999999999983
 30
0.0
 11
-41.99999999999998
 21
-4.000000000000098
 31
0.0
1001
GENIUS_GENODEF_13
1002
{
1000
HIER
1070
     0
1002
}
1002
{
1000
MANEDIT
1070
     0
1002
}
1002
{
1000
NOSEL
1070
     0
1002
}
1002
{
1000
BEHIND
1070
     0
1002
}
1002
{
1000
REACTOR
1002
}
1001
GENIUS_GENOBJ-N-CEN_13
1002
{
1000
OWNER
1000
GEN
1002
}
  0
LINE
  5
1E22
330
1F
100
AcDbEntity
  8
AM_0
100
AcDbLine
 10
-95.5
 20
-3.999999999999687
 30
0.0
 11
-95.49999999999998
 21
4.000000000000312
 31
0.0
  0
LINE
  5
1E25
330
1F
100
AcDbEntity
  8
AM_0
100
AcDbLine
 10
-41.99999999999998
 20
-4.000001369653862
 30
0.0
 11
-41.82679112263893
 21
-3.899999177683424
 31
0.0
  0
LINE
  5
1E26
330
1F
100
AcDbEntity
  8
AM_0
100
AcDbLine
 10
-41.99999999999998
 20
3.999999999999969
 30
0.0
 11
-41.82679774303635
 21
3.900001630317772
 31
0.0
  0
ARC
  5
1F66
330
1F
100
AcDbEntity
  8
AM_11
 48
0.5
100
AcDbCircle
 10
-81.85241919041599
 20
17.66787048062779
 30
0.0
 40
19.53452809651666
100
AcDbArc
 50
244.7482808787518
 51
295.2516148471758
  0
ARC
  5
1F67
330
1F
100
AcDbEntity
  8
AM_11
 48
0.5
100
AcDbCircle
 10
-81.85241919041601
 20
-17.6678584825882
 30
0.0
 40
19.53452809651666
100
AcDbArc
 50
64.74833051131179
 51
115.2516644797366
  0
LINE
  5
220F
330
1F
100
AcDbEntity
  8
AM_0
100
AcDbLine
 10
-41.82679774303659
 20
-3.900002999971803
 30
0.0
 11
-41.82679774303657
 21
-3.182059939650394
 31
0.0
  0
ELLIPSE
  5
222E
330
1F
100
AcDbEntity
  8
AM_11
 48
0.5
100
AcDbEllipse
 10
-15.18578898112439
 20
16.72558433296426
 30
0.0
 11
-19.53452809651665
 21
0.000000000000166
 31
0.0
210
0.0
220
0.0
230
1.0
 40
0.9466666666666663
 41
1.130070686340305
 42
2.011520147323594
  0
ELLIPSE
  5
222F
330
1F
100
AcDbEntity
  8
AM_11
 48
0.5
100
AcDbEllipse
 10
-15.18578898112476
 20
-16.7255724188802
 30
0.0
 11
-19.53452809651663
 21
0.0000000000000489
 31
0.0
210
0.0
220
0.0
230
1.0
 40
0.9466666666666668
 41
4.271664206181679
 42
5.153113667164986
  0
ELLIPSE
  5
2230
330
1F
100
AcDbEntity
  8
AM_11
 48
0.5
100
AcDbEllipse
 10
-48.51912231445306
 20
16.72558433296461
 30
0.0
 11
-19.53452809651663
 21
0.000000000000114
 31
0.0
210
0.0
220
0.0
230
1.0
 40
0.946666666666667
 41
1.130070686340299
 42
2.011520147323592
  0
ELLIPSE
  5
2231
330
1F
100
AcDbEntity
  8
AM_11
 48
0.5
100
AcDbEllipse
 10
-48.51912231445343
 20
-16.72557241887986
 30
0.0
 11
-19.53452809651663
 21
0.0000000000000055
 31
0.0
210
0.0
220
0.0
230
1.0
 40
0.946666666666667
 41
4.271664206181676
 42
5.153113667164983
  0
ELLIPSE
  5
2232
330
1F
100
AcDbEntity
  8
AM_11
 48
0.5
100
AcDbEllipse
 10
-31.85245564779143
 20
-16.72557241888003
 30
0.0
 11
-19.53452809651665
 21
0.0000000000000576
 31
0.0
210
0.0
220
0.0
230
1.0
 40
0.9466666666666657
 41
4.271664206181679
 42
5.153113667164985
  0
ELLIPSE
  5
2233
330
1F
100
AcDbEntity
  8
AM_11
 48
0.5
100
AcDbEllipse
 10
-31.85245564779106
 20
16.72558433296444
 30
0.0
 11
19.53452809651663
 21
0.0000000000000446
 31
0.0
210
0.0
220
0.0
230
1.0
 40
0.9466666666666672
 41
4.271663339930084
 42
5.153112800913377
  0
ELLIPSE
  5
2234
330
1F
100
AcDbEntity
  8
AM_11
 48
0.5
100
AcDbEllipse
 10
1.480877685542292
 20
16.7255843329641
 30
0.0
 11
-19.53452809651675
 21
0.0000000000005521
 31
0.0
210
0.0
220
0.0
230
1.0
 40
0.946666666666662
 41
1.130070686340324
 42
1.291800737381015
  0
DIMENSION
  5
228A
330
1F
100
AcDbEntity
  8
AM_5
100
AcDbDimension
  2
*D7
 10
-105.0000009999999
 20
4.000000000000315
 30
0.0
 11
-105.0000009999999
 21
0.0000000000000158
 31
0.0
 70
   160
  1
%%c<>
 51
359.9999999999998
  3
AM_JIS$0
100
AcDbAlignedDimension
 13
-95.5
 23
-3.999999999999983
 33
0.0
 14
-95.49999999999998
 24
4.000000000000312
 34
0.0
 50
270.0000000000002
100
AcDbRotatedDimension
1001
ACAD
1000
DSTYLE
1002
{
1070
   271
1070
     0
1002
}
1001
GENIUS_GENDTOL_13
1000

1000
h7
1000

1040
0.0
  0
ARC
  5
24F5
330
1F
100
AcDbEntity
  8
AM_11
 48
0.5
100
AcDbCircle
 10
-98.51902396212658
 20
-17.66785848258825
 30
0.0
 40
19.53452809651666
100
AcDbArc
 50
64.74833051131179
 51
82.59094121931479
  0
ARC
  5
24F6
330
1F
100
AcDbEntity
  8
AM_11
 48
0.5
100
AcDbCircle
 10
-98.51902396212656
 20
17.66787048062774
 30
0.0
 40
19.53452809651666
100
AcDbArc
 50
277.409058780685
 51
295.2516148471758
  0
LINE
  5
24F9
330
1F
100
AcDbEntity
  8
AM_0
 48
0.5
100
AcDbLine
 10
-95.5
 20
4.000000000000015
 30
0.0
 11
-96.0
 21
3.500000000000016
 31
0.0
1001
GENIUS_GENFIL_13
1070
     0
1040
0.5
1040
0.5
1040
20.0
1040
0.0
1002
{
1002
}
1001
GENIUS_GENODEF_13
1002
{
1000
HIER
1070
     0
1002
}
1002
{
1000
MANEDIT
1070
     0
1002
}
1002
{
1000
NOSEL
1070
     0
1002
}
1002
{
1000
BEHIND
1070
     0
1002
}
1002
{
1000
REACTOR
1002
}
1001
GENIUS_GENOBJ-N-CHA_13
1002
{
1000
OWNER
1000
GEN
1002
}
  0
LINE
  5
24FC
330
1F
100
AcDbEntity
  8
AM_0
 48
0.5
100
AcDbLine
 10
-95.99999999999999
 20
-3.499999999999982
 30
0.0
 11
-95.49999999999998
 21
-3.999999999999983
 31
0.0
1001
GENIUS_GENFIL_13
1070
     0
1040
0.5
1040
0.5
1040
20.0
1040
0.0
1002
{
1002
}
1001
GENIUS_GENODEF_13
1002
{
1000
HIER
1070
     0
1002
}
1002
{
1000
MANEDIT
1070
     0
1002
}
1002
{
1000
NOSEL
1070
     0
1002
}
1002
{
1000
BEHIND
1070
     0
1002
}
1002
{
1000
REACTOR
1002
}
1001
GENIUS_GENOBJ-N-CHA_13
1002
{
1000
OWNER
1000
GEN
1002
}
  0
ELLIPSE
  5
2541
330
1F
100
AcDbEntity
  8
AM_0
 48
0.5
100
AcDbEllipse
 10
5.425294056045905
 20
-5.329039651754237
 30
0.0
 11
7.270283370024311
 21
-0.8228207667782269
 31
0.0
210
0.0
220
0.0
230
-1.0
 40
0.9148199423618684
 41
3.349788544839671
 42
3.675583716501283
  0
LINE
  5
2542
330
1F
100
AcDbEntity
  8
AM_0
 48
0.5
100
AcDbLine
 10
-1.532404323548657
 20
-3.149258293794736
 30
0.0
 11
-2.000000000000027
 21
-3.900000822314722
 31
0.0
  0
DIMENSION
  5
26BF
330
1F
100
AcDbEntity
  8
AM_5
100
AcDbDimension
  2
*D8
 10
-0.4497245551032993
 20
-1.235598831326629
 30
0.0
 11
12.32150483951261
 21
-0.0000139393493381
 31
0.0
 70
    34
  1
<>
 51
359.9999999999998
  3
AM_JIS$2
100
AcDb2LineAngularDimension
 13
-0.0000000000000014
 23
0.000000000000004
 33
0.0
 14
-0.4497187230507524
 24
1.235591506492583
 34
0.0
 15
-0.0000000000000014
 25
0.000000000000004
 35
0.0
 16
12.73703527913145
 26
-5.494231412217847
 36
0.0
1001
GENIUS_GENDTOL_13
1000

1000
h7
1000

1040
0.0
1001
ACAD
1000
DSTYLE
1002
{
1070
   271
1070
     0
1002
}
  0
DIMENSION
  5
294C
330
1F
100
AcDbEntity
  8
AM_5
100
AcDbDimension
  2
*D9
 10
8.555921024858072
 20
-3.900000822314725
 30
0.0
 11
6.855921024858072
 21
0.0000000000000226
 31
0.0
 70
    32
  1
%%c<>
 51
359.9999999999998
  3
AM_JIS$0
100
AcDbAlignedDimension
 13
-1.999999999999931
 23
3.90000082231477
 33
0.0
 14
-2.000000000000027
 24
-3.900000822314722
 34
0.0
 50
90.00000000000017
100
AcDbRotatedDimension
1001
ACAD
1000
DSTYLE
1002
{
1070
   271
1070
     1
1002
}
1001
GENIUS_GENDTOL_13
1000

1000
h7
1000

1040
0.0
  0
ELLIPSE
  5
2A76
330
1F
100
AcDbEntity
  8
AM_0
 48
0.5
100
AcDbEllipse
 10
5.425294056045906
 20
5.329039651754252
 30
0.0
 11
7.270283370024311
 21
0.8228207667782259
 31
0.0
210
0.0
220
0.0
230
1.0
 40
0.9148199423618684
 41
3.349788544839671
 42
3.675583716501283
  0
LINE
  5
2A77
330
1F
100
AcDbEntity
  8
AM_0
 48
0.5
100
AcDbLine
 10
-1.532404323548656
 20
3.149258293794752
 30
0.0
 11
-1.999999999999931
 21
3.90000082231477
 31
0.0
  0
LINE
  5
2B9A
330
1F
100
AcDbEntity
  8
AM_0
100
AcDbLine
 10
-41.82679774303654
 20
-2.039153084858233
 30
0.0
 11
-41.82679774303649
 21
-0.347821190113726
 31
0.0
  0
LINE
  5
2B9B
330
1F
100
AcDbEntity
  8
AM_0
100
AcDbLine
 10
-41.82679774303649
 20
-0.2265305131177021
 30
0.0
 11
-41.82679774303635
 21
3.900001630317772
 31
0.0
  0
LINE
  5
2C8C
330
1F
100
AcDbEntity
  8
AM_0
100
AcDbLine
 10
-39.02807538106873
 20
3.89998532159922
 30
0.0
 11
-41.82679774303635
 21
3.900001630317772
 31
0.0
  0
LINE
  5
2C8D
330
1F
100
AcDbEntity
  8
AM_0
100
AcDbLine
 10
-40.66302006870959
 20
-3.899999177683472
 30
0.0
 11
-41.82679112263892
 21
-3.899999177683424
 31
0.0
  0
LINE
  5
2C8E
330
1F
100
AcDbEntity
  8
AM_0
 48
0.5
100
AcDbLine
 10
-32.98042140399333
 20
1.900789126838179
 30
0.0
 11
-41.99999999999995
 21
-0.2681810770098196
 31
0.0
  0
LINE
  5
2C8F
330
1F
100
AcDbEntity
  8
AM_11
 48
0.5
100
AcDbLine
 10
-40.66302006870958
 20
-3.899999177683472
 30
0.0
 11
-31.19516857583887
 21
-3.900014678400911
 31
0.0
  0
SPLINE
  5
2C90
330
1F
100
AcDbEntity
  8
AM_0
100
AcDbSpline
210
0.0
220
0.0
230
1.0
 70
     8
 71
     3
 72
    13
 73
     9
 74
     0
 42
0.0000000001
 43
0.0000000001
 40
16.03460056234195
 40
16.03460056234195
 40
16.03460056234195
 40
16.03460056234195
 40
16.35212717791071
 40
17.38177067057215
 40
18.41822498539278
 40
19.46214186516937
 40
20.5139635832251
 40
21.34083983469381
 40
21.34083983469381
 40
21.34083983469381
 40
21.34083983469381
 10
-40.66302006871021
 20
-3.899999177683476
 30
0.0
 10
-40.3955471086913
 20
-3.861588334891222
 30
0.0
 10
-40.06120664147319
 20
-3.782627469231381
 30
0.0
 10
-39.70542100610764
 20
-3.670290942382925
 30
0.0
 10
-39.04729664941355
 20
-3.503250168870543
 30
0.0
 10
-38.38978369475292
 20
-3.315690577603747
 30
0.0
 10
-37.78136791012886
 20
-3.123987841358245
 30
0.0
 10
-37.39320935368265
 20
-2.991986864677556
 30
0.0
 10
-37.2229265213671
 20
-2.932321220424767
 30
0.0
  0
ELLIPSE
  5
2C91
330
1F
100
AcDbEntity
  8
AM_0
 48
0.5
100
AcDbEllipse
 10
-40.68970280892826
 20
-2.552769509321798
 30
0.0
 11
-0.6094949360723805
 21
1.214859088665505
 31
0.0
210
0.0
220
0.0
230
1.0
 40
0.9561073450338749
 41
1.134388302116591
 42
2.678698740478802
  0
ELLIPSE
  5
2C92
330
1F
100
AcDbEntity
  8
AM_0
 48
0.5
100
AcDbEllipse
 10
-41.01753776298067
 20
-2.592377892500453
 30
0.0
 11
-0.9827850488899905
 21
0.0000000000034135
 31
0.0
210
0.0
220
0.0
230
1.0
 40
0.9920785843264695
 41
4.31702882448652
 42
6.257553905072816
  0
SPLINE
  5
2C93
330
1F
100
AcDbEntity
  8
AM_0
 48
0.5
100
AcDbSpline
210
0.0
220
0.0
230
1.0
 70
     8
 71
     3
 72
    22
 73
    18
 74
     0
 42
0.0000000001
 43
0.0000000001
 40
0.0
 40
0.0
 40
0.0
 40
0.0
 40
1.010743684496582
 40
2.022833993863546
 40
3.037578683882831
 40
4.056212471389632
 40
5.079857945358201
 40
6.109499720892564
 40
7.145961650132166
 40
8.189873411961459
 40
9.241710626092514
 40
10.30166235592959
 40
11.36982472628033
 40
12.44598212828784
 40
13.52983440361964
 40
14.62080578343036
 40
14.90544694398022
 40
14.90544694398022
 40
14.90544694398022
 40
14.90544694398022
 10
-31.27109609956631
 20
-3.852566377824336
 30
0.0
 10
-31.51537248548728
 20
-3.850449797031392
 30
0.0
 10
-31.95717724391318
 20
-3.845807281871577
 30
0.0
 10
-32.61972264284295
 20
-3.808361793761211
 30
0.0
 10
-33.28224117131634
 20
-3.748859846313277
 30
0.0
 10
-33.94471833178936
 20
-3.665451484963542
 30
0.0
 10
-34.60714572193968
 20
-3.559267319117315
 30
0.0
 10
-35.26951643112663
 20
-3.430810021933332
 30
0.0
 10
-35.93182075326827
 20
-3.280909925909126
 30
0.0
 10
-36.59406324260028
 20
-3.11049695012297
 30
0.0
 10
-37.25623793465443
 20
-2.92063512470651
 30
0.0
 10
-37.91834828989053
 20
-2.712479970115895
 30
0.0
 10
-38.58039857648764
 20
-2.487356072769499
 30
0.0
 10
-39.24238829716827
 20
-2.246601784706808
 30
0.0
 10
-39.90432985353008
 20
-1.991750819745108
 30
0.0
 10
-40.4018251925425
 20
-1.790773260018241
 30
0.0
 10
-40.67904695622213
 20
-1.675900947128224
 30
0.0
 10
-40.63902735284409
 20
-1.692591426775627
 30
0.0
  0
SPLINE
  5
2C94
330
1F
100
AcDbEntity
  8
AM_0
 48
0.5
100
AcDbSpline
210
0.0
220
0.0
230
1.0
 70
     8
 71
     3
 72
    26
 73
    22
 74
     0
 42
0.0000000001
 43
0.0000000001
 40
0.0
 40
0.0
 40
0.0
 40
0.0
 40
0.2526859211241313
 40
0.5057083941171959
 40
0.7593947393741639
 40
1.01405318625086
 40
1.26996425091637
 40
1.527375060172565
 40
1.786490330669834
 40
2.047470117551047
 40
2.310425755981314
 40
2.575417325379407
 40
2.842456731169063
 40
3.111495753801943
 40
3.382458822635121
 40
3.655202026904655
 40
3.929554512223505
 40
4.205306020962704
 40
4.482215236978595
 40
4.76001530984208
 40
5.029821427366006
 40
5.029821427366006
 40
5.029821427366006
 40
5.029821427366006
 10
-29.43993829879302
 20
-3.852769509322371
 30
0.0
 10
-29.66069357848457
 20
-3.850449103906758
 30
0.0
 10
-30.10249816137964
 20
-3.845805202532218
 30
0.0
 10
-30.76504425413387
 20
-3.808370140868216
 30
0.0
 10
-31.42756206721684
 20
-3.748858180170779
 30
0.0
 10
-32.09003886969958
 20
-3.665449873902238
 30
0.0
 10
-32.75246808562686
 20
-3.559275695663856
 30
0.0
 10
-33.4148365168391
 20
-3.430807290846803
 30
0.0
 10
-34.0771437226919
 20
-3.280912641840054
 30
0.0
 10
-34.73938518626482
 20
-3.110502133248716
 30
0.0
 10
-35.40155934195484
 20
-2.920633133806153
 30
0.0
 10
-36.06367163948006
 20
-2.712487403957654
 30
0.0
 10
-36.72571933526342
 20
-2.48735017649249
 30
0.0
 10
-37.38770993049155
 20
-2.246602498992098
 30
0.0
 10
-38.04965227643517
 20
-1.991752868664374
 30
0.0
 10
-38.71154780330283
 20
-1.724347269042511
 30
0.0
 10
-39.37340144517793
 20
-1.446047029906749
 30
0.0
 10
-40.03522535622386
 20
-1.158569203647175
 30
0.0
 10
-40.69700859906591
 20
-0.8636451000307117
 30
0.0
 10
-41.3519938902001
 20
-0.5663316081359181
 30
0.0
 10
-41.7859462886862
 20
-0.3665943187494511
 30
0.0
 10
-41.99999999999998
 20
-0.2681810770098157
 30
0.0
  0
LINE
  5
2C95
330
1F
100
AcDbEntity
  8
AM_0
 48
0.5
100
AcDbLine
 10
-4.247153603332693
 20
3.899985321598744
 30
0.0
 11
-1.999999999999931
 21
3.90000082231477
 31
0.0
  0
LINE
  5
2C96
330
1F
100
AcDbEntity
  8
AM_0
 48
0.5
100
AcDbLine
 10
-0.0000000000000046
 20
0.0000000000000033
 30
0.0
 11
-2.124211688966195
 21
1.497482359179735
 31
0.0
  0
LINE
  5
2C97
330
1F
100
AcDbEntity
  8
AM_0
 48
0.5
100
AcDbLine
 10
-4.581507212815586
 20
-3.900014678401366
 30
0.0
 11
-2.000000000000068
 21
-3.900000822314722
 31
0.0
  0
LINE
  5
2C98
330
1F
100
AcDbEntity
  8
AM_0
100
AcDbLine
 10
-31.06624587010836
 20
3.899985321599077
 30
0.0
 11
-16.84759568462245
 21
3.89998532159907
 31
0.0
  0
LINE
  5
2C99
330
1F
100
AcDbEntity
  8
AM_0
 48
0.5
100
AcDbLine
 10
-31.19516857583887
 20
-3.900014678400911
 30
0.0
 11
-17.06216951733772
 21
-3.900014678401153
 31
0.0
  0
LINE
  5
2C9A
330
1F
100
AcDbEntity
  8
AM_11
 48
0.5
100
AcDbLine
 10
-39.02807538099895
 20
3.899985321599215
 30
0.0
 11
-31.06624587010836
 21
3.899985321599077
 31
0.0
  0
LINE
  5
2C9B
330
1F
100
AcDbEntity
  8
AM_11
 48
0.5
100
AcDbLine
 10
-16.84735734473194
 20
3.899982842057345
 30
0.0
 11
-4.247391934018763
 21
3.899982842056692
 31
0.0
  0
LINE
  5
2C9C
330
1F
100
AcDbEntity
  8
AM_11
 48
0.5
100
AcDbLine
 10
-17.06216951733772
 20
-3.900014678401153
 30
0.0
 11
-4.581507212815586
 21
-3.900014678401366
 31
0.0
  0
ELLIPSE
  5
2C9D
330
1F
100
AcDbEntity
  8
AM_0
 48
0.5
100
AcDbEllipse
 10
-187.8764063655744
 20
-207.764821251286
 30
0.0
 11
0.0000000157798153
 21
280.5952620576247
 31
0.0
210
0.0
220
0.0
230
1.0
 40
0.9743589743586184
 41
-0.7458183699346489
 42
-0.7333161847933582
  0
SPLINE
  5
2C9E
330
1F
100
AcDbEntity
  8
AM_0
 48
0.5
100
AcDbSpline
210
0.0
220
0.0
230
1.0
 70
     8
 71
     3
 72
    10
 73
     6
 74
     0
 42
0.0000000001
 43
0.0000000001
 40
0.0
 40
0.0
 40
0.0
 40
0.0
 40
2.69986029516136
 40
4.147722969032201
 40
6.285750005020438
 40
6.285750005020438
 40
6.285750005020438
 40
6.285750005020438
 10
-4.879300766607131
 20
0.7059108543170318
 30
0.0
 10
-3.957057130436676
 20
0.343543083525913
 30
0.0
 10
-3.266011749881516
 20
-0.2131054562625486
 30
0.0
 10
-1.63178225466528
 20
0.0563778535087148
 30
0.0
 10
-1.939555203110033
 20
0.9640332987679114
 30
0.0
 10
-2.142911903022809
 20
1.51727724768868
 30
0.0
  0
SPLINE
  5
2C9F
330
1F
100
AcDbEntity
  8
AM_0
 48
0.5
100
AcDbSpline
210
0.0
220
0.0
230
1.0
 70
     8
 71
     3
 72
    25
 73
    21
 74
     0
 42
0.0000000001
 43
0.0000000001
 40
6.846175049578289
 40
6.846175049578289
 40
6.846175049578289
 40
6.846175049578289
 40
7.604337694224321
 40
8.711974558287883
 40
9.814980593243754
 40
10.91239053451967
 40
12.0033633515982
 40
13.08720139956839
 40
14.16337181880432
 40
15.23152222380919
 40
16.29148850140128
 40
17.34331105512262
 40
18.38723020264746
 40
19.42369128463655
 40
20.45333379090873
 40
21.47697865721768
 40
22.49561244472435
 40
23.5103574802404
 40
24.52244778960836
 40
25.53320666051913
 40
25.53320666051913
 40
25.53320666051913
 40
25.53320666051913
 10
-4.879300766607131
 20
0.7059108543170318
 30
0.0
 10
-5.031253017065866
 20
0.774387918192571
 30
0.0
 10
-5.405519527625249
 20
0.942221239013673
 30
0.0
 10
-6.150620574395151
 20
1.205779969802452
 30
0.0
 10
-6.81879317401683
 20
1.493264077908255
 30
0.0
 10
-7.486999376472522
 20
1.771563147848852
 30
0.0
 10
-8.155244922898798
 20
2.03896604043672
 30
0.0
 10
-8.823537259200143
 20
2.293823014004405
 30
0.0
 10
-9.491882564981535
 20
2.534562391052726
 30
0.0
 10
-10.16028393432973
 20
2.759704653860131
 30
0.0
 10
-10.82874960023493
 20
2.967848670222984
 30
0.0
 10
-11.49727865751478
 20
3.157718093212667
 30
0.0
 10
-12.16587590807327
 20
3.328128139617692
 30
0.0
 10
-12.83453899239994
 20
3.478024168229835
 30
0.0
 10
-13.50326529835881
 20
3.606487423639255
 30
0.0
 10
-14.17205110480235
 20
3.71266639180307
 30
0.0
 10
-14.84088600569191
 20
3.796075119970384
 30
0.0
 10
-15.5097626297881
 20
3.855580710671497
 30
0.0
 10
-16.17867011920775
 20
3.893026231811622
 30
0.0
 10
-16.62471835907053
 20
3.897666643108837
 30
0.0
 10
-16.84759568462243
 20
3.899985321599075
 30
0.0
  0
SPLINE
  5
2CA0
330
1F
100
AcDbEntity
  8
AM_0
 48
0.5
100
AcDbSpline
210
0.0
220
0.0
230
1.0
 70
     8
 71
     3
 72
    17
 73
    13
 74
     0
 42
0.0000000001
 43
0.0000000001
 40
0.0
 40
0.0
 40
0.0
 40
0.0
 40
1.010743614677189
 40
2.022833924044153
 40
3.037578959561199
 40
4.056212747067873
 40
5.079857613375832
 40
6.109500119648989
 40
7.14596120163808
 40
8.18989512056258
 40
9.241717674284874
 40
9.693948937866434
 40
9.693948937866434
 40
9.693948937866434
 40
9.693948937866434
 10
-4.247153603332693
 20
3.899985321598744
 30
0.0
 10
-4.470027562575238
 20
3.897666588279081
 30
0.0
 10
-4.916072433890968
 20
3.893026032205603
 30
0.0
 10
-5.584976570238078
 20
3.85558072831602
 30
0.0
 10
-6.253853168190177
 20
3.796075060696982
 30
0.0
 10
-6.922688167710183
 20
3.712666612544488
 30
0.0
 10
-7.591473603167104
 20
3.606486593867857
 30
0.0
 10
-8.260201306007893
 20
3.478027293233938
 30
0.0
 10
-8.928862300782913
 20
3.328115645643908
 30
0.0
 10
-9.597482534222807
 20
3.157760894917595
 30
0.0
 10
-10.13721022178221
 20
3.004297015600258
 30
0.0
 10
-10.45416996473415
 20
2.908360021955443
 30
0.0
 10
-10.5493042744679
 20
2.878994350431183
 30
0.0
  0
SPLINE
  5
2CA1
330
1F
100
AcDbEntity
  8
AM_0
100
AcDbSpline
210
0.0
220
0.0
230
1.0
 70
     8
 71
     3
 72
    46
 73
    42
 74
     0
 42
0.0000000001
 43
0.0000000001
 40
0.0
 40
0.0
 40
0.0
 40
0.0
 40
0.5056245176053715
 40
0.759310862862336
 40
1.013969309739036
 40
1.269880374404297
 40
1.527291183660732
 40
1.786406454158005
 40
2.047386241038974
 40
2.310345544571907
 40
2.575337113970003
 40
2.842374715221223
 40
3.111417320030211
 40
3.382376832022752
 40
3.655120036292296
 40
3.929472521611371
 40
4.205224030350333
 40
4.482133246366229
 40
4.759933319229942
 40
5.038338087391601
 40
5.317048131389549
 40
5.595758175387723
 40
5.874162943549383
 40
6.151963016412869
 40
6.428872232428759
 40
6.704623741167955
 40
6.978976226486705
 40
7.251719430756336
 40
7.522680721168327
 40
7.791723325977311
 40
8.058760927228529
 40
8.32375249662655
 40
8.586708135057122
 40
8.84768792193809
 40
9.106803192435362
 40
9.364213819003406
 40
9.620125035580644
 40
9.87478726697307
 40
10.12847352585208
 40
10.38149610319407
 40
10.63418200686337
 40
10.63418200686337
 40
10.63418200686337
 40
10.63418200686337
 10
-2.726828347968894
 20
-3.900017157943429
 30
0.0
 10
-3.168654516678391
 20
-3.891132656469844
 30
0.0
 10
-3.832157566306675
 20
-3.877790545387179
 30
0.0
 10
-4.714446505595563
 20
-3.795645618527528
 30
0.0
 10
-5.376930431432436
 20
-3.71282168073383
 30
0.0
 10
-6.039357730664361
 20
-3.606489813568089
 30
0.0
 10
-6.701726658231041
 20
-3.478063950382361
 30
0.0
 10
-7.364033811413338
 20
-3.328158076211306
 30
0.0
 10
-8.026278080946335
 20
-3.157748732665467
 30
0.0
 10
-8.688456519609076
 20
-2.967882258340226
 30
0.0
 10
-9.350570450937485
 20
-2.759736275520077
 30
0.0
 10
-10.01261809404644
 20
-2.534594285421246
 30
0.0
 10
-10.67461008508549
 20
-2.293854835215896
 30
0.0
 10
-11.33654964146802
 20
-2.038997878674117
 30
0.0
 10
-11.99844285034564
 20
-1.771594991980399
 30
0.0
 10
-12.66029706709332
 20
-1.493295880915416
 30
0.0
 10
-13.32211809223491
 20
-1.205811932550032
 30
0.0
 10
-13.98391236695879
 20
-0.9109113244983074
 30
0.0
 10
-14.64568690817086
 20
-0.6104089972030346
 30
0.0
 10
-15.3074477612248
 20
-0.3061528287424346
 30
0.0
 10
-15.96920305140018
 20
-0.0000171580046911
 30
0.0
 10
-16.6309583414302
 20
0.3061185131050376
 30
0.0
 10
-17.29271919492023
 20
0.610374680450158
 30
0.0
 10
-17.95449373453838
 20
0.9108770118221103
 30
0.0
 10
-18.61628801517248
 20
1.205777604754896
 30
0.0
 10
-19.27810901839961
 20
1.493261609179696
 30
0.0
 10
-19.93996331630408
 20
1.771560512636974
 30
0.0
 10
-20.60185766391156
 20
2.038964748595915
 30
0.0
 10
-21.26379979227186
 20
2.29381938963305
 30
0.0
 10
-21.92579296420312
 20
2.53456007426785
 30
0.0
 10
-22.58784059189775
 20
2.75970213135842
 30
0.0
 10
-23.24995180333736
 20
2.967846201494863
 30
0.0
 10
-23.91212583004135
 20
3.157715612893628
 30
0.0
 10
-24.57436739633767
 20
3.328125652580284
 30
0.0
 10
-25.23667416621139
 20
3.478021719122055
 30
0.0
 10
-25.89904357938638
 20
3.606484830868879
 30
0.0
 10
-26.56147510628044
 20
3.712664854764847
 30
0.0
 10
-27.22395561850559
 20
3.796071857651221
 30
0.0
 10
-27.88647711807766
 20
3.855578362321501
 30
0.0
 10
-28.54902266668735
 20
3.893023524353107
 30
0.0
 10
-28.99082743455216
 20
3.897664099305238
 30
0.0
 10
-29.21158275348625
 20
3.89998284205793
 30
0.0
  0
SPLINE
  5
2CA2
330
1F
100
AcDbEntity
  8
AM_0
100
AcDbSpline
210
0.0
220
0.0
230
1.0
 70
     8
 71
     3
 72
    23
 73
    19
 74
     0
 42
0.0000000001
 43
0.0000000001
 40
16.03460024169435
 40
16.03460024169435
 40
16.03460024169435
 40
16.03460024169435
 40
16.35212704903564
 40
17.38177054169784
 40
18.41822485651776
 40
19.46214173629503
 40
20.51396345435107
 40
21.57393551351153
 40
22.64208202342361
 40
23.7182574881101
 40
24.80209208578934
 40
25.89306333925047
 40
26.99048218457928
 40
28.09348763352352
 40
29.20111863782268
 40
30.31232390128032
 40
31.42594612798585
 40
32.5407912310448
 40
32.5407912310486
 40
32.5407912310486
 40
32.5407912310486
 10
-39.02807538106873
 20
3.89998532159922
 30
0.0
 10
-38.96285759506005
 20
3.887371194624584
 30
0.0
 10
-38.67435351434608
 20
3.830038219159606
 30
0.0
 10
-38.1661504691924
 20
3.717703003851119
 30
0.0
 10
-37.50802619532024
 20
3.550661767173356
 30
0.0
 10
-36.85051321822978
 20
3.363102301339487
 30
0.0
 10
-36.19357268495479
 20
3.156110104872534
 30
0.0
 10
-35.53718127951147
 20
2.93083916390166
 30
0.0
 10
-34.88130106404979
 20
2.688577222125206
 30
0.0
 10
-34.22588636556447
 20
2.430734183276346
 30
0.0
 10
-33.57089994103832
 20
2.158770197450904
 30
0.0
 10
-32.91628927783465
 20
1.874267759713328
 30
0.0
 10
-32.26200132707944
 20
1.578880521150583
 30
0.0
 10
-31.60799249543272
 20
1.274306834550114
 30
0.0
 10
-30.95420806276983
 20
0.9623177541898543
 30
0.0
 10
-30.30058747480603
 20
0.6447350674061179
 30
0.0
 10
-29.64707750837475
 20
0.3233990798704229
 30
0.0
 10
-29.21152121911989
 20
0.1079608706979281
 30
0.0
 10
-28.99362429560557
 20
0.0001812063148299
 30
0.0
  0
SPLINE
  5
2CA3
330
1F
100
AcDbEntity
  8
AM_0
100
AcDbSpline
210
0.0
220
0.0
230
1.0
 70
     8
 71
     3
 72
    55
 73
    51
 74
     0
 42
0.0000000001
 43
0.0000000001
 40
0.0
 40
0.0
 40
0.0
 40
0.0
 40
1.010743684496582
 40
2.022833576467832
 40
3.037578957496688
 40
4.056212745003489
 40
5.079857003664532
 40
6.109500240690281
 40
7.145961322679372
 40
8.189895241603872
 40
9.241717795325891
 40
10.30168407291828
 40
11.36983447792315
 40
12.44600489715814
 40
13.52984294512926
 40
14.62081576220742
 40
15.7182257034828
 40
16.82123173843959
 40
17.92886860250316
 40
19.0400688939571
 40
20.15368796660465
 40
21.26852814259644
 40
22.38336992938901
 40
23.49698739941135
 40
24.6081876908653
 40
25.71582455492886
 40
26.81883757994213
 40
27.91624752121713
 40
29.00722033829659
 40
30.09105838626677
 40
31.16722880550176
 40
32.23537921050758
 40
33.29534548809967
 40
34.347168041821
 40
35.39108718934584
 40
36.42754827133493
 40
37.45720575381954
 40
38.48085062012849
 40
39.49948440763516
 40
40.51422944315121
 40
41.52631975251916
 40
42.53706336719636
 40
43.54780698187354
 40
44.55989729124051
 40
45.57464232675757
 40
46.59327611426424
 40
47.6169209805722
 40
48.64656348684535
 40
49.68302456883444
 40
50.58557219878025
 40
50.58557219878025
 40
50.58557219878025
 40
50.58557219878025
 10
-4.581507212815586
 20
-3.900014678401354
 30
0.0
 10
-4.802262492480553
 20
-3.897696752426594
 30
0.0
 10
-5.244067075322253
 20
-3.89305285084971
 30
0.0
 10
-5.906613168475907
 20
-3.855617790706237
 30
0.0
 10
-6.569130980034975
 20
-3.796105824206854
 30
0.0
 10
-7.231607788245861
 20
-3.712697539747494
 30
0.0
 10
-7.894036982632978
 20
-3.606523279497824
 30
0.0
 10
-8.556405494949336
 20
-3.478055183473159
 30
0.0
 10
-9.218715540788277
 20
-3.328158658558255
 30
0.0
 10
-9.88096124679811
 20
-3.157751599351688
 30
0.0
 10
-10.54313810187874
 20
-2.967880294859405
 30
0.0
 10
-11.20524940661568
 20
-2.759736547632484
 30
0.0
 10
-11.86729693427504
 20
-2.534594211673352
 30
0.0
 10
-12.52928895661037
 20
-2.293854855213387
 30
0.0
 10
-13.19122850446775
 20
-2.038997873177977
 30
0.0
 10
-13.85312171583912
 20
-1.771594993781163
 30
0.0
 10
-14.5149759312097
 20
-1.493295879244869
 30
0.0
 10
-15.17679695936551
 20
-1.205811937450481
 30
0.0
 10
-15.83859122335505
 20
-0.9109113064740505
 30
0.0
 10
-16.50036580465807
 20
-0.6104090646632928
 30
0.0
 10
-17.16212650766774
 20
-0.3061525763052815
 30
0.0
 10
-17.82388267747013
 20
-0.0000179536843339
 30
0.0
 10
-18.48563587654104
 20
0.3061221795505902
 30
0.0
 10
-19.14739879762831
 20
0.6103739298303396
 30
0.0
 10
-19.80917256196176
 20
0.9108770812442585
 30
0.0
 10
-20.47096800592313
 20
1.205778835660645
 30
0.0
 10
-21.13279177963004
 20
1.493260324016594
 30
0.0
 10
-21.79464703958149
 20
1.771560849916633
 30
0.0
 10
-22.45654034650818
 20
2.038963512477261
 30
0.0
 10
-23.11847987027968
 20
2.293820548108138
 30
0.0
 10
-23.78047189431011
 20
2.534559904920268
 30
0.0
 10
-24.44251943883237
 20
2.759702187044488
 30
0.0
 10
-25.1046306752322
 20
2.967846146805329
 30
0.0
 10
-25.76680468451995
 20
3.157715774736403
 30
0.0
 10
-26.42904629530507
 20
3.328125065850294
 30
0.0
 10
-27.09135609546132
 20
3.478024604995749
 30
0.0
 10
-27.75372933731082
 20
3.60647802818051
 30
0.0
 10
-28.41616072017678
 20
3.712685151608207
 30
0.0
 10
-29.07863772477548
 20
3.795994566312081
 30
0.0
 10
-29.741155996672
 20
3.855867927304799
 30
0.0
 10
-30.40370152806553
 20
3.891946053193944
 30
0.0
 10
-31.06626161849531
 20
3.903998561262556
 30
0.0
 10
-31.72882170795024
 20
3.891946053175105
 30
0.0
 10
-32.39136724227403
 20
3.855867927380745
 30
0.0
 10
-33.05388550338216
 20
3.795994566026563
 30
0.0
 10
-33.71636254842929
 20
3.71268515268205
 30
0.0
 10
-34.37879054975506
 20
3.606478541920671
 30
0.0
 10
-35.04116118210617
 20
3.478025918362958
 30
0.0
 10
-35.67335719297568
 20
3.334929555908147
 30
0.0
 10
-36.08353316448064
 20
3.230281833258671
 30
0.0
 10
-36.27383090847426
 20
3.179281892988221
 30
0.0
  0
SPLINE
  5
2CA4
330
1F
100
AcDbEntity
  8
AM_0
100
AcDbSpline
210
0.0
220
0.0
230
1.0
 70
     8
 71
     3
 72
    17
 73
    13
 74
     0
 42
0.0000000001
 43
0.0000000001
 40
1.580019955310467
 40
1.580019955310467
 40
1.580019955310467
 40
1.580019955310467
 40
2.030549285115227
 40
3.082371838836284
 40
4.126290986361125
 40
5.162752068350215
 40
6.192395305374981
 40
7.216039564037012
 40
8.234688489606833
 40
9.249433870634691
 40
10.26152376260694
 40
11.27226744710342
 40
11.27226744710342
 40
11.27226744710342
 40
11.27226744710352
 10
-10.82135149817949
 20
-2.878331999645423
 30
0.0
 10
-10.91509071146114
 20
-2.907976251389725
 30
0.0
 10
-11.22821117665383
 20
-3.005139246037531
 30
0.0
 10
-11.76278546136355
 20
-3.157542879694869
 30
0.0
 10
-12.42493479494809
 20
-3.328214731666111
 30
0.0
 10
-13.08726641762418
 20
-3.478041957314276
 30
0.0
 10
-13.7496283881041
 20
-3.606521403141501
 30
0.0
 10
-14.41206252173351
 20
-3.712718503454186
 30
0.0
 10
-15.07454242103641
 20
-3.796027238227288
 30
0.0
 10
-15.73706357164093
 20
-3.855907738984051
 30
0.0
 10
-16.3996096507416
 20
-3.891974547987048
 30
0.0
 10
-16.84141424058511
 20
-3.900017180258711
 30
0.0
 10
-17.06216951733767
 20
-3.900014678401153
 30
0.0
  0
SPLINE
  5
2CA5
330
1F
100
AcDbEntity
  8
AM_0
100
AcDbSpline
210
0.0
220
0.0
230
1.0
 70
     8
 71
     3
 72
    22
 73
    18
 74
     0
 42
0.0000000001
 43
0.0000000001
 40
17.17441611292
 40
17.17441611292
 40
17.17441611292
 40
17.17441611292
 40
17.38177636558528
 40
18.41823744757437
 40
19.46215659509824
 40
20.51397914882054
 40
21.57394542641293
 40
22.64209583141747
 40
23.71826625065247
 40
24.80210429862395
 40
25.8930771157021
 40
26.99048705697709
 40
28.09349309193389
 40
29.20112995599786
 40
30.31233024745139
 40
31.42594771747373
 40
32.5407895042663
 40
32.54078950426994
 40
32.54078950426994
 40
32.54078950426994
 10
-19.5909611820237
 20
-3.50224538477389
 30
0.0
 10
-19.63532621200221
 20
-3.493217267292787
 30
0.0
 10
-19.90127033756935
 20
-3.438226016917853
 30
0.0
 10
-20.38846498971654
 20
-3.327961402645498
 30
0.0
 10
-21.05070650580492
 20
-3.157551621944377
 30
0.0
 10
-21.71288054087293
 20
-2.967682126950061
 30
0.0
 10
-22.37499176983213
 20
-2.759538130129021
 30
0.0
 10
-23.03703931807966
 20
-2.534395861926571
 30
0.0
 10
-23.69903133465307
 20
-2.293656486714729
 30
0.0
 10
-24.36097088476152
 20
-2.038799511235505
 30
0.0
 10
-25.02286409291998
 20
-1.771396624492117
 30
0.0
 10
-25.6847183189612
 20
-1.493097532919959
 30
0.0
 10
-26.34653930738049
 20
-1.205613506049089
 30
0.0
 10
-27.00833372047624
 20
-0.9107131941917907
 30
0.0
 10
-27.67010742447977
 20
-0.6102099004579957
 30
0.0
 10
-28.33187022299313
 20
-0.3059578925945056
 30
0.0
 10
-28.7729588245937
 20
-0.1019025247526115
 30
0.0
 10
-28.99362429560852
 20
0.0001812063162194
 30
0.0
  0
SPLINE
  5
2CA6
330
1F
100
AcDbEntity
  8
AM_0
100
AcDbSpline
210
0.0
220
0.0
230
1.0
 70
     8
 71
     3
 72
    11
 73
     7
 74
     0
 42
0.0000000001
 43
0.0000000001
 40
11.27226913003534
 40
11.27226913003534
 40
11.27226913003534
 40
11.2722691300354
 40
12.28301561507924
 40
13.29510212255852
 40
14.30984805882082
 40
15.18258238371378
 40
15.18258238371378
 40
15.18258238371378
 40
15.18258238371378
 10
-17.06216951733772
 20
-3.900014678401153
 30
0.0
 10
-17.28208537384782
 20
-3.88092942461008
 30
0.0
 10
-17.72150228374422
 20
-3.834718852943916
 30
0.0
 10
-18.37835858158519
 20
-3.741500699735459
 30
0.0
 10
-19.00172679041634
 20
-3.630161836699851
 30
0.0
 10
-19.40488475690858
 20
-3.544572339027226
 30
0.0
 10
-19.59067142778081
 20
-3.502293491244064
 30
0.0
  0
ELLIPSE
  5
2CA7
330
1F
100
AcDbEntity
  8
AM_0
 48
0.5
100
AcDbEllipse
 10
-6.772684951752887
 20
6.545614683398636
 30
0.0
 11
0.000000000013591
 21
9.403313207626476
 31
0.0
210
0.0
220
0.0
230
1.0
 40
0.9615384615384815
 41
3.652175978819625
 42
3.740670756499111
  0
ELLIPSE
  5
2CA8
330
1F
100
AcDbEntity
  8
AM_0
 48
0.5
100
AcDbEllipse
 10
-1.398529907197515
 20
-1.016395318737751
 30
0.0
 11
-0.5374667541854317
 21
0.3314910120676035
 31
0.0
210
0.0
220
0.0
230
1.0
 40
0.509397884182604
 41
4.507216240165329
 42
7.650656581494839
  0
ELLIPSE
  5
2CA9
330
1F
100
AcDbEntity
  8
AM_0
 48
0.5
100
AcDbEllipse
 10
-1.398529907197515
 20
-1.016395318737751
 30
0.0
 11
-0.1059329548583907
 21
0.6405764444860049
 31
0.0
210
0.0
220
0.0
230
0.9999999999999998
 40
0.4818373534811517
 41
1.814282599439205
 42
4.949624489151181
  0
ELLIPSE
  5
2CAA
330
1F
100
AcDbEntity
  8
AM_0
 48
0.5
100
AcDbEllipse
 10
1.696122473890633
 20
-2.04063675756985
 30
0.0
 11
0.000000000000032
 21
4.465994636637032
 31
0.0
210
0.0
220
0.0
230
1.0
 40
0.9102564102564125
 41
1.48510242726121
 42
2.00021003161368
  0
ELLIPSE
  5
2CAB
330
1F
100
AcDbEntity
  8
AM_0
 48
0.5
100
AcDbEllipse
 10
-7.797187151882711
 20
10.60713689238155
 30
0.0
 11
0.0031271959491664
 21
13.3517976054059
 31
0.0
210
0.0
220
0.0
230
1.0
 40
0.9615464772878853
 41
3.687358162904123
 42
3.794537289322653
  0
VIEWPORT
  5
110
330
101
100
AcDbEntity
 67
     1
  8
0
100
AcDbViewport
 10
420.5
 20
297.0
 30
0.0
 40
948.9782706766916
 41
628.452
 68
     1
 69
     1
1001
ACAD
1000
MVIEW
1002
{
1070
    16
1010
0.0
1020
0.0
1030
0.0
1010
0.0
1020
0.0
1030
1.0
1040
0.0
1040
628.452
1040
420.5
1040
297.0
1040
50.0
1040
0.0
1040
0.0
1070
     0
1070
   100
1070
     1
1070
     1
1070
     0
1070
     0
1070
     0
1070
     0
1040
0.0
1040
0.0
1040
0.0
1040
10.0
1040
10.0
1040
10.0
1040
10.0
1070
     0
1002
{
1002
}
1002
}
  0
ENDSEC
  0
SECTION
  2
OBJECTS
  0
DICTIONARY
  5
C
330
0
100
AcDbDictionary
  3
ACAD_GROUP
350
D
  3
ACAD_LAYOUT
350
1A
  3
ACAD_MLINESTYLE
350
17
  3
ACAD_PLOTSETTINGS
350
19
  3
ACAD_PLOTSTYLENAME
350
E
  3
ACDBVARIABLEDICTIONARY
350
34
  3
ACMDICTIONARY
350
43
  3
AMG
350
2B
  3
AMGSNAPSETTINGS
350
6E
  3
DWGPROPS
350
2D28
  3
ACDBHEADERROUNDTRIPXREC
350
2D34
  0
DICTIONARY
  5
74
330
1F
100
AcDbDictionary
280
     1
  3
ACAD_INDEX
360
2D2A
  3
ACAD_LAYOUTSELFREF
360
2D57
  0
DICTIONARY
  5
2D5C
330
101
100
AcDbDictionary
280
     1
  3
ACAD_LAYOUTSELFREF
360
2D5D
  0
DICTIONARY
  5
D
102
{ACAD_REACTORS
330
C
102
}
330
C
100
AcDbDictionary
  0
DICTIONARY
  5
1A
102
{ACAD_REACTORS
330
C
102
}
330
C
100
AcDbDictionary
  0
DICTIONARY
  5
17
102
{ACAD_REACTORS
330
C
102
}
330
C
100
AcDbDictionary
  3
STANDARD
350
18
  0
DICTIONARY
  5
19
102
{ACAD_REACTORS
330
C
102
}
330
C
100
AcDbDictionary
  0
ACDBDICTIONARYWDFLT
  5
E
102
{ACAD_REACTORS
330
C
102
}
330
C
100
AcDbDictionary
281
     1
  3
Normal
350
F
100
AcDbDictionaryWithDefault
340
F
  0
DICTIONARY
  5
34
102
{ACAD_REACTORS
330
C
102
}
330
C
100
AcDbDictionary
  3
INDEXCTL
350
35
  3
SORTENTS
350
B5E
  0
DICTIONARY
  5
43
102
{ACAD_REACTORS
330
C
102
}
330
C
100
AcDbDictionary
  3
ACMSTDDICTIONARY
350
260
  0
DICTIONARY
  5
2B
102
{ACAD_REACTORS
330
C
102
}
330
C
100
AcDbDictionary
  3
ACMGSETTINGS
350
2C
  0
DICTIONARY
  5
6E
102
{ACAD_REACTORS
330
C
102
}
330
C
100
AcDbDictionary
  0
XRECORD
  5
2D28
102
{ACAD_REACTORS
330
C
102
}
330
C
100
AcDbXrecord
  1
DWGPROPS COOKIE
  2

  3

  4

  6

  7

  8

  9

300
AmdtFileType=82
301
=
302
=
303
=
304
=
305
=
306
=
307
=
308
=
309
=
 40
0.0458206597222222
 41
2452800.443498622
 42
2452946.612518622
  1

 90
        1
  0
DICTIONARY
  5
2D34
102
{ACAD_REACTORS
330
C
102
}
330
C
100
AcDbDictionary
  3
TSTACKALIGN
350
2D35
  3
TSTACKSIZE
350
2D36
  3
HYPERLINKBASE
350
2D37
  3
STYLESHEET
350
2D38
  3
LAYOUTDICT
350
2D39
  3
PLOTSETDICT
350
2D3A
  3
PLOTSTYLNAMDICT
350
2D3B
  3
LWETCUNION
350
2D3C
  3
INSUNITS
350
2D3D
  3
CEPSNTYPE
350
2D3E
  3
FINGERPRINTGUID
350
2D3F
  3
VERSIONGUID
350
2D40
  3
PSVPSCALE
350
2D41
  3
DIMSTYLEDATA
350
2D42
  3
PUCSORTHOREF
350
2D43
  3
PUCSORTHOVIEW
350
2D44
  3
PUCSBASE
350
2D45
  3
PUCSORGTOP
350
2D46
  3
PUCSORGBOTTOM
350
2D47
  3
PUCSORGLEFT
350
2D48
  3
PUCSORGRIGHT
350
2D49
  3
PUCSORGFRONT
350
2D4A
  3
PUCSORGBACK
350
2D4B
  3
UCSORTHOREF
350
2D4C
  3
UCSORTHOVIEW
350
2D4D
  3
UCSBASE
350
2D4E
  3
UCSORGTOP
350
2D4F
  3
UCSORGBOTTOM
350
2D50
  3
UCSORGLEFT
350
2D51
  3
UCSORGRIGHT
350
2D52
  3
UCSORGFRONT
350
2D53
  3
UCSORGBACK
350
2D54
  0
DICTIONARY
  5
2D2A
102
{ACAD_REACTORS
330
74
102
}
330
74
100
AcDbDictionary
  3
*A1
350
2D2B
  0
XRECORD
  5
2D57
102
{ACAD_REACTORS
330
74
102
}
330
74
100
AcDbXrecord
340
1F
  0
XRECORD
  5
2D5D
102
{ACAD_REACTORS
330
2D5C
102
}
330
2D5C
100
AcDbXrecord
340
101
  0
MLINESTYLE
  5
18
102
{ACAD_REACTORS
330
17
102
}
330
17
100
AcDbMlineStyle
  2
STANDARD
 70
     0
  3

 62
   256
 51
90.0
 52
90.0
 71
     2
 49
0.5
 62
   256
  6
BYLAYER
 49
-0.5
 62
   256
  6
BYLAYER
  0
ACDBPLACEHOLDER
  5
F
102
{ACAD_REACTORS
330
E
102
}
330
E
100
AcDbPlaceHolder
280
     0
  0
DICTIONARYVAR
  5
35
102
{ACAD_REACTORS
330
34
102
}
330
34
100
DictionaryVariables
280
     0
  1
1
  0
DICTIONARYVAR
  5
B5E
102
{ACAD_REACTORS
330
34
102
}
330
34
100
DictionaryVariables
280
     0
  1
96
  0
DICTIONARY
  5
260
102
{ACAD_REACTORS
330
43
102
}
330
43
100
AcDbDictionary
  0
DICTIONARY
  5
2C
102
{ACAD_REACTORS
330
2B
102
}
330
2B
100
AcDbDictionary
  3
DWGSETTINGS
350
2D
  0
XRECORD
  5
2D35
102
{ACAD_REACTORS
330
2D34
102
}
330
2D34
100
AcDbXrecord
 90
        1
  0
XRECORD
  5
2D36
102
{ACAD_REACTORS
330
2D34
102
}
330
2D34
100
AcDbXrecord
 90
       70
  0
XRECORD
  5
2D37
102
{ACAD_REACTORS
330
2D34
102
}
330
2D34
100
AcDbXrecord
  1

  0
XRECORD
  5
2D38
102
{ACAD_REACTORS
330
2D34
102
}
330
2D34
100
AcDbXrecord
  1
ASAMI.ctb
  0
XRECORD
  5
2D39
102
{ACAD_REACTORS
330
2D34
102
}
330
2D34
100
AcDbXrecord
340
1A
  0
XRECORD
  5
2D3A
102
{ACAD_REACTORS
330
2D34
102
}
330
2D34
100
AcDbXrecord
340
19
  0
XRECORD
  5
2D3B
102
{ACAD_REACTORS
330
2D34
102
}
330
2D34
100
AcDbXrecord
340
E
  0
XRECORD
  5
2D3C
102
{ACAD_REACTORS
330
2D34
102
}
330
2D34
100
AcDbXrecord
 90
    10781
  0
XRECORD
  5
2D3D
102
{ACAD_REACTORS
330
2D34
102
}
330
2D34
100
AcDbXrecord
 90
        4
  0
XRECORD
  5
2D3E
102
{ACAD_REACTORS
330
2D34
102
}
330
2D34
100
AcDbXrecord
 90
        0
  0
XRECORD
  5
2D3F
102
{ACAD_REACTORS
330
2D34
102
}
330
2D34
100
AcDbXrecord
  1
{AFB28963-8C59-40AE-9337-C84526B81ACE}
  0
XRECORD
  5
2D40
102
{ACAD_REACTORS
330
2D34
102
}
330
2D34
100
AcDbXrecord
  1
{1006EBBA-C3D4-4872-B3B3-98744DB367A8}
  0
XRECORD
  5
2D41
102
{ACAD_REACTORS
330
2D34
102
}
330
2D34
100
AcDbXrecord
 40
0.0
  0
XRECORD
  5
2D42
102
{ACAD_REACTORS
330
2D34
102
}
330
2D34
100
AcDbXrecord
1000
DSTYLE
1002
{
1070
    79
 70
     2
1070
   341
340
59
1070
   342
340
59
1070
   371
 70
    -1
1070
   372
 70
    -1
1002
}
  0
XRECORD
  5
2D43
102
{ACAD_REACTORS
330
2D34
102
}
330
2D34
100
AcDbXrecord
340
0
  0
XRECORD
  5
2D44
102
{ACAD_REACTORS
330
2D34
102
}
330
2D34
100
AcDbXrecord
 70
     0
  0
XRECORD
  5
2D45
102
{ACAD_REACTORS
330
2D34
102
}
330
2D34
100
AcDbXrecord
340
0
  0
XRECORD
  5
2D46
102
{ACAD_REACTORS
330
2D34
102
}
330
2D34
100
AcDbXrecord
 10
0.0
 20
0.0
 30
0.0
  0
XRECORD
  5
2D47
102
{ACAD_REACTORS
330
2D34
102
}
330
2D34
100
AcDbXrecord
 10
0.0
 20
0.0
 30
0.0
  0
XRECORD
  5
2D48
102
{ACAD_REACTORS
330
2D34
102
}
330
2D34
100
AcDbXrecord
 10
0.0
 20
0.0
 30
0.0
  0
XRECORD
  5
2D49
102
{ACAD_REACTORS
330
2D34
102
}
330
2D34
100
AcDbXrecord
 10
0.0
 20
0.0
 30
0.0
  0
XRECORD
  5
2D4A
102
{ACAD_REACTORS
330
2D34
102
}
330
2D34
100
AcDbXrecord
 10
0.0
 20
0.0
 30
0.0
  0
XRECORD
  5
2D4B
102
{ACAD_REACTORS
330
2D34
102
}
330
2D34
100
AcDbXrecord
 10
0.0
 20
0.0
 30
0.0
  0
XRECORD
  5
2D4C
102
{ACAD_REACTORS
330
2D34
102
}
330
2D34
100
AcDbXrecord
340
0
  0
XRECORD
  5
2D4D
102
{ACAD_REACTORS
330
2D34
102
}
330
2D34
100
AcDbXrecord
 70
     0
  0
XRECORD
  5
2D4E
102
{ACAD_REACTORS
330
2D34
102
}
330
2D34
100
AcDbXrecord
340
0
  0
XRECORD
  5
2D4F
102
{ACAD_REACTORS
330
2D34
102
}
330
2D34
100
AcDbXrecord
 10
0.0
 20
0.0
 30
0.0
  0
XRECORD
  5
2D50
102
{ACAD_REACTORS
330
2D34
102
}
330
2D34
100
AcDbXrecord
 10
0.0
 20
0.0
 30
0.0
  0
XRECORD
  5
2D51
102
{ACAD_REACTORS
330
2D34
102
}
330
2D34
100
AcDbXrecord
 10
0.0
 20
0.0
 30
0.0
  0
XRECORD
  5
2D52
102
{ACAD_REACTORS
330
2D34
102
}
330
2D34
100
AcDbXrecord
 10
0.0
 20
0.0
 30
0.0
  0
XRECORD
  5
2D53
102
{ACAD_REACTORS
330
2D34
102
}
330
2D34
100
AcDbXrecord
 10
0.0
 20
0.0
 30
0.0
  0
XRECORD
  5
2D54
102
{ACAD_REACTORS
330
2D34
102
}
330
2D34
100
AcDbXrecord
 10
0.0
 20
0.0
 30
0.0
  0
LAYER_INDEX
  5
2D2B
102
{ACAD_REACTORS
330
2D2A
102
}
330
2D2A
100
AcDbIndex
 40
2453151.570339606
100
AcDbLayerIndex
  8
0
360
2D2C
 90
        0
  8
AM_0
360
2D2D
 90
       46
  8
AM_7
360
2D2E
 90
        1
  8
AM_11
360
2D2F
 90
       17
  8
AM_5
360
2D30
 90
        5
  8
Defpoints
360
2D31
 90
        0
  8
AM_6
360
2D32
 90
        1
  0
XRECORD
  5
2D
102
{ACAD_REACTORS
330
2C
102
}
330
2C
100
AcDbXrecord
  1
VERSION
140
15.0
  1
PRODUCT
  2
AutoCAD Mechanical 2000
  0
IDBUFFER
  5
2D2C
330
0
100
AcDbIdBuffer
  0
IDBUFFER
  5
2D2D
330
0
100
AcDbIdBuffer
330
2B9A
330
2B9B
330
2C8C
330
2C8D
330
2C8E
330
2C90
330
2C91
330
2C92
330
2C93
330
2C94
330
2C95
330
2C96
330
2C97
330
2C98
330
2C99
330
2C9D
330
2C9E
330
2C9F
330
2CA0
330
2CA1
330
2CA2
330
2CA3
330
2CA4
330
2CA5
330
2CA6
330
2CA7
330
2CA8
330
2CA9
330
2CAA
330
2CAB
330
C1D
330
C20
330
C30
330
1CA9
330
1E12
330
1E16
330
1E22
330
1E25
330
1E26
330
220F
330
24F9
330
24FC
330
2541
330
2542
330
2A76
330
2A77
  0
IDBUFFER
  5
2D2E
330
0
100
AcDbIdBuffer
330
C9F
  0
IDBUFFER
  5
2D2F
330
0
100
AcDbIdBuffer
330
2C9C
330
1BE8
330
1BE9
330
1F66
330
1F67
330
222E
330
222F
330
2230
330
2231
330
2232
330
2233
330
2234
330
24F5
330
24F6
330
2C8F
330
2C9A
330
2C9B
  0
IDBUFFER
  5
2D30
330
0
100
AcDbIdBuffer
330
CC6
330
DF5
330
228A
330
26BF
330
294C
  0
IDBUFFER
  5
2D31
330
0
100
AcDbIdBuffer
  0
IDBUFFER
  5
2D32
330
0
100
AcDbIdBuffer
330
19BD
  0
ENDSEC
  0
EOF
