  0
SECTION
  2
HEADER
  9
$ACADVER
  1
AC1014
  9
$ACADMAINTVER
 70
     9
  9
$DWGCODEPAGE
  3
ANSI_932
  9
$INSBASE
 10
0.0
 20
0.0
 30
0.0
  9
$EXTMIN
 10
-135.8558818604644
 20
-33.59291215210461
 30
-0.00000001
  9
$EXTMAX
 10
21.64603086849161
 20
20.87187522406139
 30
0.00000001
  9
$LIMMIN
 10
-152.6594002400486
 20
-56.66855013975075
  9
$LIMMAX
 10
38.38266505565792
 20
42.62910224214635
  9
$ORTHOMODE
 70
     0
  9
$REGENMODE
 70
     1
  9
$FILLMODE
 70
     1
  9
$QTEXTMODE
 70
     0
  9
$MIRRTEXT
 70
     0
  9
$DRAGMODE
 70
     2
  9
$LTSCALE
 40
1.0
  9
$OSMODE
 70
    55
  9
$ATTMODE
 70
     1
  9
$TEXTSIZE
 40
2.5
  9
$TRACEWID
 40
1.0
  9
$TEXTSTYLE
  7
STANDARD
  9
$CLAYER
  8
AM_0
  9
$CELTYPE
  6
BYLAYER
  9
$CECOLOR
 62
   256
  9
$CELTSCALE
 40
1.0
  9
$DELOBJ
 70
     1
  9
$DISPSILH
 70
     0
  9
$DIMSCALE
 40
1.0
  9
$DIMASZ
 40
2.5
  9
$DIMEXO
 40
1.0
  9
$DIMDLI
 40
12.0
  9
$DIMRND
 40
0.0
  9
$DIMDLE
 40
0.0
  9
$DIMEXE
 40
1.0
  9
$DIMTP
 40
0.1
  9
$DIMTM
 40
0.1
  9
$DIMTXT
 40
3.2
  9
$DIMCEN
 40
0.0
  9
$DIMTSZ
 40
0.0
  9
$DIMTOL
 70
     0
  9
$DIMLIM
 70
     0
  9
$DIMTIH
 70
     0
  9
$DIMTOH
 70
     0
  9
$DIMSE1
 70
     0
  9
$DIMSE2
 70
     0
  9
$DIMTAD
 70
     3
  9
$DIMZIN
 70
     8
  9
$DIMBLK
  1
OPEN30
  9
$DIMASO
 70
     1
  9
$DIMSHO
 70
     1
  9
$DIMPOST
  1

  9
$DIMAPOST
  1
"
  9
$DIMALT
 70
     0
  9
$DIMALTD
 70
     2
  9
$DIMALTF
 40
0.0393701
  9
$DIMLFAC
 40
1.0
  9
$DIMTOFL
 70
     1
  9
$DIMTVP
 40
0.0
  9
$DIMTIX
 70
     0
  9
$DIMSOXD
 70
     0
  9
$DIMSAH
 70
     0
  9
$DIMBLK1
  1

  9
$DIMBLK2
  1

  9
$DIMSTYLE
  2
AM_JIS
  9
$DIMCLRD
 70
   256
  9
$DIMCLRE
 70
   256
  9
$DIMCLRT
 70
     2
  9
$DIMTFAC
 40
0.71
  9
$DIMGAP
 40
1.5
  9
$DIMJUST
 70
     0
  9
$DIMSD1
 70
     0
  9
$DIMSD2
 70
     0
  9
$DIMTOLJ
 70
     0
  9
$DIMTZIN
 70
     0
  9
$DIMALTZ
 70
     0
  9
$DIMALTTZ
 70
     0
  9
$DIMFIT
 70
     3
  9
$DIMUPT
 70
     0
  9
$DIMUNIT
 70
     2
  9
$DIMDEC
 70
     3
  9
$DIMTDEC
 70
     3
  9
$DIMALTU
 70
     2
  9
$DIMALTTD
 70
     2
  9
$DIMTXSTY
  7
ASAMI
  9
$DIMAUNIT
 70
     0
  9
$LUNITS
 70
     2
  9
$LUPREC
 70
     2
  9
$SKETCHINC
 40
1.0
  9
$FILLETRAD
 40
2.5
  9
$AUNITS
 70
     0
  9
$AUPREC
 70
     0
  9
$MENU
  1
.
  9
$ELEVATION
 40
0.0
  9
$PELEVATION
 40
0.0
  9
$THICKNESS
 40
0.0
  9
$LIMCHECK
 70
     0
  9
$BLIPMODE
 70
     0
  9
$CHAMFERA
 40
0.25
  9
$CHAMFERB
 40
0.25
  9
$CHAMFERC
 40
20.0
  9
$CHAMFERD
 40
0.0
  9
$SKPOLY
 70
     0
  9
$TDCREATE
 40
2452800.443498622
  9
$TDUPDATE
 40
2453151.585112292
  9
$TDINDWG
 40
0.0495011574
  9
$TDUSRTIMER
 40
0.0495011574
  9
$USRTIMER
 70
     1
  9
$ANGBASE
 50
0.0
  9
$ANGDIR
 70
     0
  9
$PDMODE
 70
     3
  9
$PDSIZE
 40
0.0
  9
$PLINEWID
 40
0.0
  9
$COORDS
 70
     1
  9
$SPLFRAME
 70
     0
  9
$SPLINETYPE
 70
     6
  9
$SPLINESEGS
 70
     8
  9
$ATTDIA
 70
     1
  9
$ATTREQ
 70
     1
  9
$HANDLING
 70
 12289
  9
$HANDSEED
  5
2489
  9
$SURFTAB1
 70
     6
  9
$SURFTAB2
 70
     6
  9
$SURFTYPE
 70
     6
  9
$SURFU
 70
     6
  9
$SURFV
 70
     6
  9
$UCSNAME
  2

  9
$UCSORG
 10
0.0
 20
0.0
 30
0.0
  9
$UCSXDIR
 10
1.0
 20
0.0000000000000027
 30
0.0
  9
$UCSYDIR
 10
-0.0000000000000027
 20
1.0
 30
0.0
  9
$PUCSNAME
  2

  9
$PUCSORG
 10
0.0
 20
0.0
 30
0.0
  9
$PUCSXDIR
 10
1.0
 20
0.0
 30
0.0
  9
$PUCSYDIR
 10
0.0
 20
1.0
 30
0.0
  9
$USERI1
 70
     0
  9
$USERI2
 70
     0
  9
$USERI3
 70
     0
  9
$USERI4
 70
     0
  9
$USERI5
 70
     0
  9
$USERR1
 40
0.0
  9
$USERR2
 40
0.0
  9
$USERR3
 40
0.0
  9
$USERR4
 40
0.0
  9
$USERR5
 40
0.0
  9
$WORLDVIEW
 70
     1
  9
$SHADEDGE
 70
     3
  9
$SHADEDIF
 70
    70
  9
$TILEMODE
 70
     1
  9
$MAXACTVP
 70
    64
  9
$PINSBASE
 10
0.0
 20
0.0
 30
0.0
  9
$PLIMCHECK
 70
     0
  9
$PEXTMIN
 10
1.000000000000000E+20
 20
1.000000000000000E+20
 30
1.000000000000000E+20
  9
$PEXTMAX
 10
-1.000000000000000E+20
 20
-1.000000000000000E+20
 30
-1.000000000000000E+20
  9
$PLIMMIN
 10
0.0
 20
0.0
  9
$PLIMMAX
 10
841.0
 20
594.0
  9
$UNITMODE
 70
     0
  9
$VISRETAIN
 70
     1
  9
$PLINEGEN
 70
     0
  9
$PSLTSCALE
 70
     0
  9
$TREEDEPTH
 70
  3020
  9
$PICKSTYLE
 70
     0
  9
$CMLSTYLE
  2
STANDARD
  9
$CMLJUST
 70
     0
  9
$CMLSCALE
 40
20.0
  9
$PROXYGRAPHICS
 70
     1
  9
$MEASUREMENT
 70
     1
  0
ENDSEC
  0
SECTION
  2
CLASSES
  0
CLASS
  1
ACDBDICTIONARYWDFLT
  2
AcDbDictionaryWithDefault
  3
AutoCAD 2000
 90
        0
280
     0
281
     0
  0
CLASS
  1
ACDBPLACEHOLDER
  2
AcDbPlaceHolder
  3
AutoCAD 2000
 90
        0
280
     0
281
     0
  0
CLASS
  1
LAYOUT
  2
AcDbLayout
  3
AutoCAD 2000
 90
        0
280
     0
281
     0
  0
CLASS
  1
AMGSETTINGSOBJ
  2
AmgSettingsObj
  3
"AcadM|Product Description: AutoCAD Mechanical 2000|Company: Autodesk"
 90
        0
280
     0
281
     0
  0
CLASS
  1
ACME_DOCUMENT
  2
AcMeDbDoc
  3
AcMeServices
 90
        0
280
     0
281
     0
  0
CLASS
  1
ACMESCOPE
  2
AcMeScope
  3
AcMeServices
 90
        0
280
     0
281
     0
  0
CLASS
  1
ACMECOMMANDHISTORY
  2
AcMeCommandHistory
  3
AcMeServices
 90
        0
280
     0
281
     0
  0
CLASS
  1
DICTIONARYVAR
  2
AcDbDictionaryVar
  3
AutoCAD 2000
 90
        0
280
     0
281
     0
  0
CLASS
  1
ACIMSYSVARMAN
  2
AcImSysVarManager
  3
AcMeServices
 90
        0
280
     0
281
     0
  0
CLASS
  1
ACIMREALSYSVAR
  2
AcImRealSysVar
  3
AcMeServices
 90
        0
280
     0
281
     0
  0
CLASS
  1
ACIMINTSYSVAR
  2
AcImIntSysVar
  3
AcMeServices
 90
        0
280
     0
281
     0
  0
CLASS
  1
ACMEDRAWINGMAN
  2
AcMeDrawingMan
  3
AcMeServices
 90
        0
280
     0
281
     0
  0
CLASS
  1
ACMEVIEW
  2
AcMeView
  3
AcMeServices
 90
        0
280
     0
281
     0
  0
CLASS
  1
ACDBENTITYCACHE
  2
AcMeEntityCache
  3
AcMeServices
 90
        0
280
     0
281
     0
  0
CLASS
  1
GSMANAGER
  2
AcMeGSManager
  3
AcMeServices
 90
        0
280
     0
281
     0
  0
CLASS
  1
AmdtInternalReactor
  2
AmdtInternalReactor
  3
AcMeServices
 90
        0
280
     0
281
     0
  0
CLASS
  1
ACMESTATEMGR
  2
AcMeStateMgr
  3
AcMeServices
 90
        0
280
     0
281
     0
  0
CLASS
  1
ACME_DATABASE
  2
AcMeDbDatabase
  3
AcMeServices
 90
        0
280
     0
281
     0
  0
CLASS
  1
ACRFINSADJUSTERMGR
  2
AcRfInsAdjusterMgr
  3
AcMeServices
 90
        0
280
     0
281
     0
  0
CLASS
  1
ACMDATADICTIONARY
  2
AcmDataDictionary
  3
"AcmSymBB|Product Description: AutoCAD Mechanical 2000|Company: Autodesk"
 90
        0
280
     0
281
     0
  0
CLASS
  1
ACMDATAENTRYBLOCK
  2
AcmDataEntryBlock
  3
"AcmSymBB|Product Description: AutoCAD Mechanical 2000|Company: Autodesk"
 90
        0
280
     0
281
     0
  0
CLASS
  1
AMGOBJPROPCFG
  2
AmgObjPropCfg
  3
"AmgLay|Product Description: AutoCAD Mechanical 2000|Company: Autodesk"
 90
        1
280
     0
281
     0
  0
CLASS
  1
ACAMGFILTERDAT
  2
AcAmgFilterDat
  3
"AcadM|Product Description: AutoCAD Mechanical 2000|Company: Autodesk"
 90
        0
280
     0
281
     0
  0
CLASS
  1
LAYER_INDEX
  2
AcDbLayerIndex
  3
AutoCAD 2000
 90
        0
280
     0
281
     0
  0
CLASS
  1
IDBUFFER
  2
AcDbIdBuffer
  3
AutoCAD 2000
 90
        0
280
     0
281
     0
  0
CLASS
  1
ACIMSTRSYSVAR
  2
AcImStrSysVar
  3
AcMeServices
 90
        0
280
     0
281
     0
  0
CLASS
  1
ACMSTANDARDJIS
  2
AcmStandardJIS
  3
"AcmSymBB|Product Description: AutoCAD Mechanical 2000|Company: Autodesk"
 90
        0
280
     0
281
     0
  0
CLASS
  1
ACMSURFSTANDARDJIS
  2
AcmSurfTextStdJIS
  3
"AcmSymBB|Product Description: AutoCAD Mechanical 2000|Company: Autodesk"
 90
        0
280
     0
281
     0
  0
CLASS
  1
ACMFCFSTANDARDJIS
  2
AcmFCFStdJIS
  3
"AcmSymBB|Product Description: AutoCAD Mechanical 2000|Company: Autodesk"
 90
        0
280
     0
281
     0
  0
CLASS
  1
ACMWELDSTANDARDJIS
  2
AcmWeldingStdJIS
  3
"AcmSymBB|Product Description: AutoCAD Mechanical 2000|Company: Autodesk"
 90
        0
280
     0
281
     0
  0
CLASS
  1
ACMIDSTANDARDJIS
  2
AcmIdStdJIS
  3
"AcmSymBB|Product Description: AutoCAD Mechanical 2000|Company: Autodesk"
 90
        0
280
     0
281
     0
  0
CLASS
  1
ACMDATUMSTANDARDJIS
  2
AcmDatumStdJIS
  3
"AcmSymBB|Product Description: AutoCAD Mechanical 2000|Company: Autodesk"
 90
        0
280
     0
281
     0
  0
CLASS
  1
ACMBOMSTANDARDJIS
  2
AcmBOMStdJIS
  3
"AcmSymBB|Product Description: AutoCAD Mechanical 2000|Company: Autodesk"
 90
        0
280
     0
281
     0
  0
CLASS
  1
ACMSTANDARDANSI
  2
AcmStandardANSI
  3
"AcmSymBB|Product Description: AutoCAD Mechanical 2000|Company: Autodesk"
 90
        0
280
     0
281
     0
  0
CLASS
  1
ACMSURFSTANDARDANSI
  2
AcmSurfTextStdANSI
  3
"AcmSymBB|Product Description: AutoCAD Mechanical 2000|Company: Autodesk"
 90
        0
280
     0
281
     0
  0
CLASS
  1
ACMFCFSTANDARDANSI
  2
AcmFCFStdANSI
  3
"AcmSymBB|Product Description: AutoCAD Mechanical 2000|Company: Autodesk"
 90
        0
280
     0
281
     0
  0
CLASS
  1
ACMWELDSTANDARDANSI
  2
AcmWeldingStdANSI
  3
"AcmSymBB|Product Description: AutoCAD Mechanical 2000|Company: Autodesk"
 90
        0
280
     0
281
     0
  0
CLASS
  1
ACMIDSTANDARDANSI
  2
AcmIdStdANSI
  3
"AcmSymBB|Product Description: AutoCAD Mechanical 2000|Company: Autodesk"
 90
        0
280
     0
281
     0
  0
CLASS
  1
ACMDATUMSTANDARDANSI
  2
AcmDatumStdANSI
  3
"AcmSymBB|Product Description: AutoCAD Mechanical 2000|Company: Autodesk"
 90
        0
280
     0
281
     0
  0
CLASS
  1
ACMBOMSTANDARDANSI
  2
AcmBOMStdANSI
  3
"AcmSymBB|Product Description: AutoCAD Mechanical 2000|Company: Autodesk"
 90
        0
280
     0
281
     0
  0
CLASS
  1
ACMSTANDARDBSI
  2
AcmStandardBSI
  3
"AcmSymBB|Product Description: AutoCAD Mechanical 2000|Company: Autodesk"
 90
        0
280
     0
281
     0
  0
CLASS
  1
ACMSURFSTANDARDBSI
  2
AcmSurfTextStdBSI
  3
"AcmSymBB|Product Description: AutoCAD Mechanical 2000|Company: Autodesk"
 90
        0
280
     0
281
     0
  0
CLASS
  1
ACMFCFSTANDARDBSI
  2
AcmFCFStdBSI
  3
"AcmSymBB|Product Description: AutoCAD Mechanical 2000|Company: Autodesk"
 90
        0
280
     0
281
     0
  0
CLASS
  1
ACMWELDSTANDARDBSI
  2
AcmWeldingStdBSI
  3
"AcmSymBB|Product Description: AutoCAD Mechanical 2000|Company: Autodesk"
 90
        0
280
     0
281
     0
  0
CLASS
  1
ACMIDSTANDARDBSI
  2
AcmIdStdBSI
  3
"AcmSymBB|Product Description: AutoCAD Mechanical 2000|Company: Autodesk"
 90
        0
280
     0
281
     0
  0
CLASS
  1
ACMDATUMSTANDARDBSI
  2
AcmDatumStdBSI
  3
"AcmSymBB|Product Description: AutoCAD Mechanical 2000|Company: Autodesk"
 90
        0
280
     0
281
     0
  0
CLASS
  1
ACMBOMSTANDARDBSI
  2
AcmBOMStdBSI
  3
"AcmSymBB|Product Description: AutoCAD Mechanical 2000|Company: Autodesk"
 90
        0
280
     0
281
     0
  0
CLASS
  1
LONG_TRANSACTION
  2
AcDbLongTransaction
  3
AutoCAD 2000
 90
        0
280
     0
281
     0
  0
CLASS
  1
LWPOLYLINE
  2
AcDbPolyline
  3
AutoCAD 2000
 90
        0
280
     0
281
     1
  0
CLASS
  1
HATCH
  2
AcDbHatch
  3
AutoCAD 2000
 90
        0
280
     0
281
     1
  0
CLASS
  1
XRECORD
  2
AcDbXrecord
  3
AutoCAD 2000
 90
        0
280
     0
281
     0
  0
ENDSEC
  0
SECTION
  2
TABLES
  0
TABLE
  2
VPORT
  5
8
330
0
100
AcDbSymbolTable
 70
     3
  0
VPORT
  5
245E
330
8
100
AcDbSymbolTableRecord
100
AcDbViewportTableRecord
  2
*ACTIVE
 70
     0
 10
0.0
 20
0.0
 11
1.0
 21
1.0
 12
-59.51214279451637
 22
-10.2701844018772
 13
0.0
 23
0.0
 14
2.5
 24
2.5
 15
10.0
 25
10.0
 16
0.0
 26
0.0
 36
1.0
 17
0.0
 27
0.0
 37
0.0
 40
150.3698046374686
 41
1.56570841889117
 42
50.0
 43
0.0
 44
0.0
 50
0.0
 51
0.0
 71
     0
 72
   100
 73
     1
 74
     1
 75
     0
 76
     0
 77
     0
 78
     0
  0
ENDTAB
  0
TABLE
  2
LTYPE
  5
5
330
0
100
AcDbSymbolTable
 70
    10
  0
LTYPE
  5
14
330
5
100
AcDbSymbolTableRecord
100
AcDbLinetypeTableRecord
  2
BYBLOCK
 70
     0
  3

 72
    65
 73
     0
 40
0.0
  0
LTYPE
  5
15
330
5
100
AcDbSymbolTableRecord
100
AcDbLinetypeTableRecord
  2
BYLAYER
 70
     0
  3

 72
    65
 73
     0
 40
0.0
  0
LTYPE
  5
16
330
5
100
AcDbSymbolTableRecord
100
AcDbLinetypeTableRecord
  2
CONTINUOUS
 70
     0
  3
Solid line
 72
    65
 73
     0
 40
0.0
  0
LTYPE
  5
4B
330
5
100
AcDbSymbolTableRecord
100
AcDbLinetypeTableRecord
  2
AM_ISO02W050
 70
     0
  3
__ __ __ __ __ __ __ __ __ __ __ __ __ __ __
 72
    65
 73
     2
 40
7.5
 49
6.0
 74
     0
 49
-1.5
 74
     0
  0
LTYPE
  5
4C
330
5
100
AcDbSymbolTableRecord
100
AcDbLinetypeTableRecord
  2
AM_ISO08W050
 70
     0
  3
____ . ____ . ____ . ____ . ____ . ____ . ____
 72
    65
 73
     4
 40
18.0
 49
12.0
 74
     0
 49
-1.5
 74
     0
 49
3.0
 74
     0
 49
-1.5
 74
     0
  0
LTYPE
  5
4D
330
5
100
AcDbSymbolTableRecord
100
AcDbLinetypeTableRecord
  2
AM_ISO09W050
 70
     0
  3
_____ . . _____ . . _____ . . ____ .. ____
 72
    65
 73
     6
 40
22.5
 49
12.0
 74
     0
 49
-1.5
 74
     0
 49
3.0
 74
     0
 49
-1.5
 74
     0
 49
3.0
 74
     0
 49
-1.5
 74
     0
  0
LTYPE
  5
4E
330
5
100
AcDbSymbolTableRecord
100
AcDbLinetypeTableRecord
  2
AMCONSTR
 70
     0
  3
_______________________
 72
    65
 73
     2
 40
9999.0
 49
9999.0
 74
     0
 49
0.0
 74
     0
  0
LTYPE
  5
4F
330
5
100
AcDbSymbolTableRecord
100
AcDbLinetypeTableRecord
  2
AM_ISO02W050X2
 70
     0
  3
 _ _ _ _ _ _ _ _ _ _ _ _
 72
    65
 73
     2
 40
3.75
 49
3.0
 74
     0
 49
-0.75
 74
     0
  0
LTYPE
  5
50
330
5
100
AcDbSymbolTableRecord
100
AcDbLinetypeTableRecord
  2
AM_ISO08W050X2
 70
     0
  3
__ . __ . __ . __ . __ . __
 72
    65
 73
     4
 40
9.0
 49
6.0
 74
     0
 49
-0.75
 74
     0
 49
1.5
 74
     0
 49
-0.75
 74
     0
  0
LTYPE
  5
53
330
5
100
AcDbSymbolTableRecord
100
AcDbLinetypeTableRecord
  2
AMZIGZAG
 70
     0
  3
/\/-/\/-/\/-/\/-/\/-/\/
 72
    65
 73
     2
 40
11.00009999999999
 49
0.0001
 74
     4
 75
   135
340
52
 46
0.04
 50
0.0
 44
0.0
 45
0.0
 49
-11.0
 74
     0
  0
LTYPE
  5
166
330
5
100
AcDbSymbolTableRecord
100
AcDbLinetypeTableRecord
  2
ACJISTGL
 70
     0
  3
_ _ _ _ _
 72
    65
 73
     2
 40
3.0
 49
2.0
 74
     0
 49
-1.0
 74
     0
  0
LTYPE
  5
26A
330
5
100
AcDbSymbolTableRecord
100
AcDbLinetypeTableRecord
  2
ACJISTGB
 70
     0
  3
__ . . __ . .
 72
    65
 73
     6
 40
9.0
 49
4.0
 74
     0
 49
-1.0
 74
     0
 49
1.0
 74
     0
 49
-1.0
 74
     0
 49
1.0
 74
     0
 49
-1.0
 74
     0
  0
ENDTAB
  0
TABLE
  2
LAYER
  5
2
330
0
100
AcDbSymbolTable
 70
     8
  0
LAYER
  5
10
330
2
100
AcDbSymbolTableRecord
100
AcDbLayerTableRecord
  2
0
 70
     0
 62
     7
  6
CONTINUOUS
  0
LAYER
  5
3F9
330
2
100
AcDbSymbolTableRecord
100
AcDbLayerTableRecord
  2
AM_0
 70
     0
 62
     7
  6
CONTINUOUS
  0
LAYER
  5
C7C
330
2
100
AcDbSymbolTableRecord
100
AcDbLayerTableRecord
  2
AM_7
 70
     0
 62
     4
  6
AM_ISO08W050
  0
LAYER
  5
C97
330
2
100
AcDbSymbolTableRecord
100
AcDbLayerTableRecord
  2
AM_11
 70
     0
 62
     3
  6
AM_ISO09W050
  0
LAYER
  5
CC5
330
2
100
AcDbSymbolTableRecord
100
AcDbLayerTableRecord
  2
AM_5
 70
     0
 62
     3
  6
CONTINUOUS
  0
LAYER
  5
CC7
330
2
100
AcDbSymbolTableRecord
100
AcDbLayerTableRecord
  2
DEFPOINTS
 70
     0
 62
     7
  6
CONTINUOUS
  0
LAYER
  5
19BC
330
2
100
AcDbSymbolTableRecord
100
AcDbLayerTableRecord
  2
AM_6
 70
     0
 62
     2
  6
CONTINUOUS
  0
LAYER
  5
1C84
330
2
100
AcDbSymbolTableRecord
100
AcDbLayerTableRecord
  2
AM_CL
 70
     0
 62
     1
  6
AMCONSTR
  0
ENDTAB
  0
TABLE
  2
STYLE
  5
3
330
0
100
AcDbSymbolTable
 70
     5
  0
STYLE
  5
11
330
3
100
AcDbSymbolTableRecord
100
AcDbTextStyleTableRecord
  2
STANDARD
 70
     0
 40
0.0
 41
1.0
 50
0.0
 71
     0
 42
2.5
  3
simplex.shx
  4
EXTFONT.SHX
  0
STYLE
  5
52
330
3
100
AcDbSymbolTableRecord
100
AcDbTextStyleTableRecord
  2

 70
     1
 40
0.0
 41
1.0
 50
0.0
 71
     0
 42
2.5
  3
ltypeshp.shx
  4

  0
STYLE
  5
6B
330
3
100
AcDbSymbolTableRecord
100
AcDbTextStyleTableRecord
  2
ASAMI
 70
     0
 40
0.0
 41
1.0
 50
0.0
 71
     0
 42
2.5
  3
simplex.shx
  4
EXTFONT.SHX
  0
STYLE
  5
262
330
3
100
AcDbSymbolTableRecord
100
AcDbTextStyleTableRecord
  2
ACJISTS
 70
     0
 40
1.0
 41
1.0
 50
0.0
 71
     0
 42
2.5
  3
simplex.shx
  4
bigfont.shx
  0
STYLE
  5
269
330
3
100
AcDbSymbolTableRecord
100
AcDbTextStyleTableRecord
  2
ACJISGDT
 70
     0
 40
0.0
 41
1.0
 50
0.0
 71
     0
 42
2.5
  3
amgdtans.shx
  4

  0
ENDTAB
  0
TABLE
  2
VIEW
  5
6
330
0
100
AcDbSymbolTable
 70
     0
  0
ENDTAB
  0
TABLE
  2
UCS
  5
7
330
0
100
AcDbSymbolTable
 70
     0
  0
ENDTAB
  0
TABLE
  2
APPID
  5
9
330
0
100
AcDbSymbolTable
 70
    16
  0
APPID
  5
12
330
9
100
AcDbSymbolTableRecord
100
AcDbRegAppTableRecord
  2
ACAD
 70
     0
  0
APPID
  5
30
330
9
100
AcDbSymbolTableRecord
100
AcDbRegAppTableRecord
  2
MCAD_NO_VIS
 70
     0
  0
APPID
  5
31
330
9
100
AcDbSymbolTableRecord
100
AcDbRegAppTableRecord
  2
ACAD_TEMP_GRAPHIC
 70
     0
  0
APPID
  5
2C2
330
9
100
AcDbSymbolTableRecord
100
AcDbRegAppTableRecord
  2
GENIUS_GENDTOL_13
 70
     0
  0
APPID
  5
339
330
9
100
AcDbSymbolTableRecord
100
AcDbRegAppTableRecord
  2
GENIUS_GENODEF_13
 70
     0
  0
APPID
  5
33A
330
9
100
AcDbSymbolTableRecord
100
AcDbRegAppTableRecord
  2
GENIUS_GENOBJ-N-RSBK_13
 70
     0
  0
APPID
  5
33B
330
9
100
AcDbSymbolTableRecord
100
AcDbRegAppTableRecord
  2
GENIUS_GENOBJ-N-LIB_13
 70
     0
  0
APPID
  5
33C
330
9
100
AcDbSymbolTableRecord
100
AcDbRegAppTableRecord
  2
GENIUS_GENSCALE_13
 70
     0
  0
APPID
  5
378
330
9
100
AcDbSymbolTableRecord
100
AcDbRegAppTableRecord
  2
GENIUS_GENDIMSH_14
 70
     0
  0
APPID
  5
C82
330
9
100
AcDbSymbolTableRecord
100
AcDbRegAppTableRecord
  2
GENIUS_GENOBJ-N-CRS_13
 70
     0
  0
APPID
  5
C83
330
9
100
AcDbSymbolTableRecord
100
AcDbRegAppTableRecord
  2
GENIUS_GENOENT_13
 70
     0
  0
APPID
  5
C84
330
9
100
AcDbSymbolTableRecord
100
AcDbRegAppTableRecord
  2
GENIUS_GENOREF_13
 70
     0
  0
APPID
  5
C85
330
9
100
AcDbSymbolTableRecord
100
AcDbRegAppTableRecord
  2
GENIUS_GENOLIS_13
 70
     0
  0
APPID
  5
CA0
330
9
100
AcDbSymbolTableRecord
100
AcDbRegAppTableRecord
  2
GENIUS_GENOBJ-N-CEN_13
 70
     0
  0
APPID
  5
1E1E
330
9
100
AcDbSymbolTableRecord
100
AcDbRegAppTableRecord
  2
GENIUS_GENFIL_13
 70
     0
  0
APPID
  5
1E1F
330
9
100
AcDbSymbolTableRecord
100
AcDbRegAppTableRecord
  2
GENIUS_GENOBJ-N-CHA_13
 70
     0
  0
ENDTAB
  0
TABLE
  2
DIMSTYLE
  5
A
330
0
100
AcDbSymbolTable
 70
     9
  0
DIMSTYLE
105
58
330
A
100
AcDbSymbolTableRecord
100
AcDbDimStyleTableRecord
  2
AM_JIS
 70
     0
  3

  4
"
  5
OPEN30
  6

  7

 40
0.5
 41
2.5
 42
1.0
 43
12.0
 44
1.0
 45
0.0
 46
0.0
 47
0.1
 48
0.1
140
3.2
141
0.0
142
0.0
143
0.0393701
144
1.0
145
0.0
146
0.71
147
1.5
 71
     0
 72
     0
 73
     0
 74
     0
 75
     0
 76
     0
 77
     3
 78
     8
170
     0
171
     2
172
     1
173
     0
174
     0
175
     0
176
   256
177
   256
178
     2
270
     2
271
     3
272
     3
273
     2
274
     2
340
6B
275
     0
280
     0
281
     0
282
     0
283
     0
284
     0
285
     0
286
     0
287
     3
288
     0
  0
DIMSTYLE
105
5F
330
A
100
AcDbSymbolTableRecord
100
AcDbDimStyleTableRecord
  2
AM_JIS$3
 70
     0
  3

  4
"
  5
OPEN30
  6

  7

 40
0.5
 41
2.5
 42
1.0
 43
10.0
 44
1.0
 45
0.0
 46
0.0
 47
0.1
 48
0.1
140
3.2
141
0.0
142
0.0
143
0.0393701
144
1.0
145
0.0
146
0.71
147
1.5
 71
     0
 72
     0
 73
     0
 74
     1
 75
     0
 76
     0
 77
     3
 78
     8
170
     0
171
     2
172
     0
173
     0
174
     0
175
     0
176
   256
177
   256
178
     2
270
     2
271
     2
272
     3
273
     2
274
     2
340
6B
275
     0
280
     0
281
     0
282
     0
283
     0
284
     0
285
     0
286
     0
287
     0
288
     1
  0
DIMSTYLE
105
60
330
A
100
AcDbSymbolTableRecord
100
AcDbDimStyleTableRecord
  2
AM_JIS$4
 70
     0
  3

  4
"
  5
OPEN30
  6

  7

 40
0.5
 41
2.5
 42
1.0
 43
10.0
 44
1.0
 45
0.0
 46
0.0
 47
0.1
 48
0.1
140
3.2
141
0.0
142
0.0
143
0.0393701
144
1.0
145
0.0
146
0.71
147
1.5
 71
     0
 72
     0
 73
     0
 74
     1
 75
     0
 76
     0
 77
     3
 78
     8
170
     0
171
     2
172
     0
173
     0
174
     0
175
     0
176
   256
177
   256
178
     2
270
     2
271
     2
272
     3
273
     2
274
     2
340
6B
275
     0
280
     0
281
     0
282
     0
283
     0
284
     0
285
     0
286
     0
287
     0
288
     1
  0
DIMSTYLE
105
61
330
A
100
AcDbSymbolTableRecord
100
AcDbDimStyleTableRecord
  2
AM_JIS$6
 70
     0
  3

  4
"
  5
OPEN30
  6

  7

 40
0.5
 41
2.5
 42
1.0
 43
10.0
 44
1.0
 45
0.0
 46
0.0
 47
0.1
 48
0.1
140
3.2
141
0.0
142
0.0
143
0.0393701
144
1.0
145
0.0
146
0.71
147
1.5
 71
     0
 72
     0
 73
     0
 74
     0
 75
     0
 76
     0
 77
     0
 78
     8
170
     0
171
     2
172
     1
173
     0
174
     0
175
     0
176
   256
177
   256
178
     2
270
     2
271
     2
272
     2
273
     2
274
     2
340
6B
275
     0
280
     0
281
     0
282
     0
283
     0
284
     0
285
     0
286
     0
287
     3
288
     0
  0
DIMSTYLE
105
62
330
A
100
AcDbSymbolTableRecord
100
AcDbDimStyleTableRecord
  2
AM_JIS$7
 70
     0
  3

  4
"
  5
OPEN30
  6

  7

 40
0.5
 41
2.5
 42
1.0
 43
10.0
 44
1.0
 45
0.0
 46
0.0
 47
0.1
 48
0.1
140
3.2
141
0.0
142
0.0
143
0.0393701
144
1.0
145
0.0
146
0.71
147
1.5
 71
     0
 72
     0
 73
     0
 74
     0
 75
     0
 76
     0
 77
     3
 78
     8
170
     0
171
     2
172
     1
173
     0
174
     0
175
     0
176
   256
177
   256
178
     2
270
     2
271
     2
272
     3
273
     2
274
     2
340
6B
275
     0
280
     0
281
     0
282
     0
283
     0
284
     0
285
     0
286
     0
287
     3
288
     0
  0
DIMSTYLE
105
63
330
A
100
AcDbSymbolTableRecord
100
AcDbDimStyleTableRecord
  2
AM_JIS$SF
 70
     0
  3

  4
"
  5
OPEN30
  6

  7

 40
0.5
 41
2.5
 42
1.0
 43
10.0
 44
1.0
 45
0.0
 46
0.0
 47
0.1
 48
0.1
140
3.2
141
0.0
142
0.0
143
0.0393701
144
1.0
145
0.0
146
0.71
147
1.5
 71
     0
 72
     0
 73
     0
 74
     0
 75
     1
 76
     1
 77
     3
 78
     8
170
     0
171
     2
172
     1
173
     0
174
     0
175
     0
176
   256
177
   256
178
     2
270
     2
271
     2
272
     2
273
     2
274
     2
340
6B
275
     0
280
     0
281
     0
282
     0
283
     0
284
     0
285
     0
286
     0
287
     3
288
     0
  0
DIMSTYLE
105
68
330
A
100
AcDbSymbolTableRecord
100
AcDbDimStyleTableRecord
  2
AM_JIS$SH
 70
     0
  3

  4
"
  5

  6
GENAXEH
  7
OPEN30
 40
0.5
 41
2.5
 42
1.0
 43
10.0
 44
1.0
 45
0.0
 46
0.0
 47
0.1
 48
0.1
140
3.2
141
0.0
142
0.0
143
0.0393701
144
2.0
145
0.0
146
0.71
147
1.5
 71
     0
 72
     0
 73
     0
 74
     0
 75
     1
 76
     1
 77
     3
 78
     8
170
     0
171
     2
172
     1
173
     1
174
     0
175
     0
176
   256
177
   256
178
     2
270
     2
271
     2
272
     2
273
     2
274
     2
340
6B
275
     0
280
     0
281
     0
282
     0
283
     0
284
     0
285
     0
286
     0
287
     3
288
     0
  0
DIMSTYLE
105
B34
102
{ACAD_REACTORS
330
11B2
102
}
330
A
100
AcDbSymbolTableRecord
100
AcDbDimStyleTableRecord
  2
AM_JIS$2
 70
     0
  3

  4
"
  5
OPEN30
  6

  7

 40
0.5
 41
2.5
 42
1.0
 43
12.0
 44
1.0
 45
0.0
 46
0.0
 47
0.1
 48
0.1
140
3.2
141
0.0
142
0.0
143
0.0393701
144
1.0
145
0.0
146
0.71
147
1.5
 71
     0
 72
     0
 73
     0
 74
     0
 75
     0
 76
     0
 77
     3
 78
     8
170
     0
171
     2
172
     1
173
     0
174
     0
175
     0
176
   256
177
   256
178
     2
270
     2
271
     3
272
     3
273
     2
274
     2
340
6B
275
     0
280
     0
281
     0
282
     0
283
     0
284
     0
285
     0
286
     0
287
     3
288
     0
  0
DIMSTYLE
105
BA5
102
{ACAD_REACTORS
330
CC6
330
DF5
330
20BF
330
2157
102
}
330
A
100
AcDbSymbolTableRecord
100
AcDbDimStyleTableRecord
  2
AM_JIS$0
 70
     0
  3

  4
"
  5
OPEN30
  6

  7

 40
0.5
 41
2.5
 42
0.8
 43
10.0
 44
1.0
 45
0.0
 46
0.0
 47
0.1
 48
0.1000000001
140
3.799999999999999
141
0.0
142
0.0
143
0.0393701
144
1.0
145
0.0
146
0.71
147
1.5
 71
     0
 72
     0
 73
     0
 74
     0
 75
     0
 76
     0
 77
     3
 78
     9
170
     0
171
     2
172
     1
173
     0
174
     0
175
     0
176
     3
177
     3
178
     2
270
     2
271
     2
272
     2
273
     2
274
     2
340
11
275
     1
280
     0
281
     0
282
     0
283
     0
284
     8
285
     0
286
     0
287
     0
288
     0
  0
ENDTAB
  0
TABLE
  2
BLOCK_RECORD
  5
1
330
0
100
AcDbSymbolTable
 70
    16
  0
BLOCK_RECORD
  5
1F
102
{ACAD_XDICTIONARY
360
74
102
}
330
1
100
AcDbSymbolTableRecord
100
AcDbBlockTableRecord
  2
*MODEL_SPACE
  0
BLOCK_RECORD
  5
101
102
{ACAD_XDICTIONARY
360
2487
102
}
330
1
100
AcDbSymbolTableRecord
100
AcDbBlockTableRecord
  2
*PAPER_SPACE
  0
BLOCK_RECORD
  5
59
330
1
100
AcDbSymbolTableRecord
100
AcDbBlockTableRecord
  2
_OPEN30
  0
BLOCK_RECORD
  5
64
330
1
100
AcDbSymbolTableRecord
100
AcDbBlockTableRecord
  2
GENAXEH
  0
BLOCK_RECORD
  5
CC8
330
1
100
AcDbSymbolTableRecord
100
AcDbBlockTableRecord
  2
*D5
  0
BLOCK_RECORD
  5
DF6
330
1
100
AcDbSymbolTableRecord
100
AcDbBlockTableRecord
  2
*D7
  0
BLOCK_RECORD
  5
11B3
330
1
100
AcDbSymbolTableRecord
100
AcDbBlockTableRecord
  2
*D9
  0
BLOCK_RECORD
  5
20C0
330
1
100
AcDbSymbolTableRecord
100
AcDbBlockTableRecord
  2
*D12
  0
BLOCK_RECORD
  5
2158
330
1
100
AcDbSymbolTableRecord
100
AcDbBlockTableRecord
  2
*D13
  0
ENDTAB
  0
ENDSEC
  0
SECTION
  2
BLOCKS
  0
BLOCK
  5
20
330
1F
100
AcDbEntity
  8
0
100
AcDbBlockBegin
  2
*MODEL_SPACE
 70
     0
 10
0.0
 20
0.0
 30
0.0
  3
*MODEL_SPACE
  1

  0
ENDBLK
  5
21
330
1F
100
AcDbEntity
  8
0
100
AcDbBlockEnd
  0
BLOCK
  5
103
330
101
100
AcDbEntity
 67
     1
  8
0
100
AcDbBlockBegin
  2
*PAPER_SPACE
 70
     0
 10
0.0
 20
0.0
 30
0.0
  3
*PAPER_SPACE
  1

  0
ENDBLK
  5
104
330
101
100
AcDbEntity
 67
     1
  8
0
100
AcDbBlockEnd
  0
BLOCK
  5
5D
330
59
100
AcDbEntity
  8
0
100
AcDbBlockBegin
  2
_OPEN30
 70
     0
 10
0.0
 20
0.0
 30
0.0
  3
_OPEN30
  1

  0
LINE
  5
5A
330
59
100
AcDbEntity
  8
0
 62
     0
100
AcDbLine
 10
-1.0
 20
0.26794919
 30
0.0
 11
0.0
 21
0.0
 31
0.0
  0
LINE
  5
5B
330
59
100
AcDbEntity
  8
0
 62
     0
100
AcDbLine
 10
0.0
 20
0.0
 30
0.0
 11
-1.0
 21
-0.26794919
 31
0.0
  0
LINE
  5
5C
330
59
100
AcDbEntity
  8
0
 62
     0
100
AcDbLine
 10
0.0
 20
0.0
 30
0.0
 11
-1.0
 21
0.0
 31
0.0
  0
ENDBLK
  5
5E
330
59
100
AcDbEntity
  8
0
100
AcDbBlockEnd
  0
BLOCK
  5
66
330
64
100
AcDbEntity
  8
0
100
AcDbBlockBegin
  2
GENAXEH
 70
     0
 10
0.0
 20
0.0
 30
0.0
  3
GENAXEH
  1

  0
LINE
  5
65
330
64
100
AcDbEntity
  8
0
100
AcDbLine
 10
-1.0
 20
0.0
 30
0.0
 11
1.0
 21
0.0
 31
0.0
  0
ENDBLK
  5
67
330
64
100
AcDbEntity
  8
0
100
AcDbBlockEnd
  0
BLOCK
  5
CD2
330
CC8
100
AcDbEntity
  8
0
100
AcDbBlockBegin
  2
*D5
 70
     1
 10
0.0
 20
0.0
 30
0.0
  3
*D5
  1

  0
LINE
  5
23BC
330
CC8
100
AcDbEntity
  8
AM_5
 62
     3
100
AcDbLine
 10
-119.4558818604644
 20
-4.150002543131451
 30
0.0
 11
-119.4558818604644
 21
-22.84291215210458
 31
0.0
  0
LINE
  5
23BD
330
CC8
100
AcDbEntity
  8
AM_5
 62
     3
100
AcDbLine
 10
-1.339411875119457
 20
-4.080001979154005
 30
0.0
 11
-1.339411875119458
 21
-22.84291215210458
 31
0.0
  0
LINE
  5
23BE
330
CC8
100
AcDbEntity
  8
AM_5
 62
     3
100
AcDbLine
 10
-118.2058818604644
 20
-22.34291215210458
 30
0.0
 11
-2.589411875119458
 21
-22.34291215210458
 31
0.0
  0
INSERT
  5
23BF
330
CC8
100
AcDbEntity
  8
AM_5
 62
     3
100
AcDbBlockReference
  2
_OPEN30
 10
-119.4558818604644
 20
-22.34291215210458
 30
0.0
 41
1.25
 42
1.25
 43
1.25
 50
180.0
  0
INSERT
  5
23C0
330
CC8
100
AcDbEntity
  8
AM_5
 62
     3
100
AcDbBlockReference
  2
_OPEN30
 10
-1.339411875119458
 20
-22.34291215210458
 30
0.0
 41
1.25
 42
1.25
 43
1.25
  0
MTEXT
  5
23C1
330
CC8
100
AcDbEntity
  8
AM_5
 62
     2
100
AcDbMText
 10
-60.39764686779196
 20
-20.64291215210458
 30
0.0
 40
1.9
 41
0.0
 71
     5
 72
     1
  1
118
1001
ACAD
1000
MTEXTBEGIN
1070
    73
1070
     1
1070
    44
1040
1.0
1070
    74
1070
     0
1000
MTEXTEND
  0
POINT
  5
23C2
330
CC8
100
AcDbEntity
  8
DEFPOINTS
 62
     0
100
AcDbPoint
 10
-119.4558818604644
 20
-3.750002543131451
 30
0.0
  0
POINT
  5
23C3
330
CC8
100
AcDbEntity
  8
DEFPOINTS
 62
     0
100
AcDbPoint
 10
-1.339411875119457
 20
-3.680001979154004
 30
0.0
  0
POINT
  5
23C4
330
CC8
100
AcDbEntity
  8
DEFPOINTS
 62
     0
100
AcDbPoint
 10
-1.339411875119458
 20
-22.34291215210458
 30
0.0
  0
ENDBLK
  5
CD3
330
CC8
100
AcDbEntity
  8
0
100
AcDbBlockEnd
  0
BLOCK
  5
E00
330
DF6
100
AcDbEntity
  8
0
100
AcDbBlockBegin
  2
*D7
 70
     1
 10
0.0
 20
0.0
 30
0.0
  3
*D7
  1

  0
LINE
  5
2438
330
DF6
100
AcDbEntity
  8
AM_5
 62
     3
100
AcDbLine
 10
-65.45511130081902
 20
-3.066668596778367
 30
0.0
 11
-65.45511130081902
 21
-15.36911557914019
 31
0.0
  0
LINE
  5
2439
330
DF6
100
AcDbEntity
  8
AM_5
 62
     3
100
AcDbLine
 10
-1.339411875119461
 20
-4.080001979154004
 30
0.0
 11
-1.339411875119462
 21
-15.36911557914019
 31
0.0
  0
LINE
  5
243A
330
DF6
100
AcDbEntity
  8
AM_5
 62
     3
100
AcDbLine
 10
-64.20511130081902
 20
-14.86911557914019
 30
0.0
 11
-2.589411875119462
 21
-14.86911557914019
 31
0.0
  0
INSERT
  5
243B
330
DF6
100
AcDbEntity
  8
AM_5
 62
     3
100
AcDbBlockReference
  2
_OPEN30
 10
-65.45511130081902
 20
-14.86911557914019
 30
0.0
 41
1.25
 42
1.25
 43
1.25
 50
180.0
  0
INSERT
  5
243C
330
DF6
100
AcDbEntity
  8
AM_5
 62
     3
100
AcDbBlockReference
  2
_OPEN30
 10
-1.339411875119462
 20
-14.86911557914019
 30
0.0
 41
1.25
 42
1.25
 43
1.25
  0
MTEXT
  5
243D
330
DF6
100
AcDbEntity
  8
AM_5
 62
     2
100
AcDbMText
 10
-34.19766588832237
 20
-13.16911557914019
 30
0.0
 40
1.9
 41
0.0
 71
     5
 72
     1
  1
64
1001
ACAD
1000
MTEXTBEGIN
1070
    73
1070
     1
1070
    44
1040
1.0
1070
    74
1070
     0
1000
MTEXTEND
  0
POINT
  5
243E
330
DF6
100
AcDbEntity
  8
DEFPOINTS
 62
     0
100
AcDbPoint
 10
-65.45511130081902
 20
-2.666668596778367
 30
0.0
  0
POINT
  5
243F
330
DF6
100
AcDbEntity
  8
DEFPOINTS
 62
     0
100
AcDbPoint
 10
-1.339411875119461
 20
-3.680001979154003
 30
0.0
  0
POINT
  5
2440
330
DF6
100
AcDbEntity
  8
DEFPOINTS
 62
     0
100
AcDbPoint
 10
-1.339411875119462
 20
-14.86911557914019
 30
0.0
  0
ENDBLK
  5
E01
330
DF6
100
AcDbEntity
  8
0
100
AcDbBlockEnd
  0
BLOCK
  5
11C1
330
11B3
100
AcDbEntity
  8
0
100
AcDbBlockBegin
  2
*D9
 70
     1
 10
0.0
 20
0.0
 30
0.0
  3
*D9
  1

  0
LINE
  5
2254
330
11B3
100
AcDbEntity
  8
AM_5
100
AcDbLine
 10
0.171004984144743
 20
-0.4698488539809921
 30
0.0
 11
7.596736808354453
 21
-20.87187953345148
 31
0.0
  0
LINE
  5
2255
330
11B3
100
AcDbEntity
  8
AM_5
100
AcDbLine
 10
0.1710042108634018
 20
0.4698466676775667
 30
0.0
 11
7.59675125967133
 21
20.87187522406139
 31
0.0
  0
ARC
  5
2256
330
11B3
100
AcDbEntity
  8
AM_5
100
AcDbCircle
 10
-0.0000061848578578
 20
0.0000004752323599
 30
0.0
 40
21.71139075343587
100
AcDbArc
 50
293.2991721794295
 51
66.70078814999122
  0
INSERT
  5
2257
330
11B3
100
AcDbEntity
  8
AM_5
100
AcDbBlockReference
  2
_OPEN30
 10
7.425726737946386
 20
-20.40203322260182
 30
0.0
 41
1.25
 42
1.25
 43
1.25
 50
201.6495860132079
  0
INSERT
  5
2258
330
11B3
100
AcDbEntity
  8
AM_5
100
AcDbBlockReference
  2
_OPEN30
 10
7.42574086395007
 20
20.40202903161618
 30
0.0
 41
1.25
 42
1.25
 43
1.25
 50
158.3503743162128
  0
MTEXT
  5
2259
330
11B3
100
AcDbEntity
  8
AM_5
 62
     2
100
AcDbMText
 10
20.16138456857671
 20
-0.0000070410581387
 30
0.0
 40
1.6
 41
0.0
 71
     5
 72
     1
  1
140°
  7
ASAMI
 11
0.0000000000000001
 21
1.0
 31
0.0
1001
ACAD
1000
MTEXTBEGIN
1070
    73
1070
     1
1070
    44
1040
1.0
1070
    74
1070
     0
1000
MTEXTEND
  0
POINT
  5
225A
330
11B3
100
AcDbEntity
  8
DEFPOINTS
 62
     0
100
AcDbPoint
 10
19.93574646946187
 20
8.599433860878439
 30
0.0
  0
POINT
  5
225B
330
11B3
100
AcDbEntity
  8
DEFPOINTS
 62
     0
100
AcDbPoint
 10
-0.0000063578286624
 20
0.0
 30
0.0
  0
POINT
  5
225C
330
11B3
100
AcDbEntity
  8
DEFPOINTS
 62
     0
100
AcDbPoint
 10
-0.000005086263324
 20
-0.0000025431313399
 30
0.0
  0
POINT
  5
225D
330
11B3
100
AcDbEntity
  8
DEFPOINTS
 62
     0
100
AcDbPoint
 10
-0.5338236490886553
 20
1.466651916504001
 30
0.0
  0
POINT
  5
225E
330
11B3
100
AcDbEntity
  8
DEFPOINTS
 62
     0
100
AcDbPoint
 10
-0.5338325500486575
 20
-1.466672261556008
 30
0.0
  0
ENDBLK
  5
11C2
330
11B3
100
AcDbEntity
  8
0
100
AcDbBlockEnd
  0
BLOCK
  5
20CC
330
20C0
100
AcDbEntity
  8
0
100
AcDbBlockBegin
  2
*D12
 70
     1
 10
0.0
 20
0.0
 30
0.0
  3
*D12
  1

  0
LINE
  5
2390
330
20C0
100
AcDbEntity
  8
AM_5
 62
     3
100
AcDbLine
 10
-1.682928559896248
 20
-4.00000193011249
 30
0.0
 11
12.44073389897212
 21
-4.000001930112493
 31
0.0
  0
LINE
  5
2391
330
20C0
100
AcDbEntity
  8
AM_5
 62
     3
100
AcDbLine
 10
-1.524269493514954
 20
3.999995526756171
 30
0.0
 11
12.44073389897213
 21
3.999995526756167
 31
0.0
  0
LINE
  5
2392
330
20C0
100
AcDbEntity
  8
AM_5
 62
     3
100
AcDbLine
 10
11.94073389897213
 20
-2.750001930112493
 30
0.0
 11
11.94073389897213
 21
2.749995526756167
 31
0.0
  0
INSERT
  5
2393
330
20C0
100
AcDbEntity
  8
AM_5
 62
     3
100
AcDbBlockReference
  2
_OPEN30
 10
11.94073389897212
 20
-4.000001930112493
 30
0.0
 41
1.25
 42
1.25
 43
1.25
 50
270.0
  0
INSERT
  5
2394
330
20C0
100
AcDbEntity
  8
AM_5
 62
     3
100
AcDbBlockReference
  2
_OPEN30
 10
11.94073389897213
 20
3.999995526756167
 30
0.0
 41
1.25
 42
1.25
 43
1.25
 50
90.0
  0
MTEXT
  5
2395
330
20C0
100
AcDbEntity
  8
AM_5
 62
     2
100
AcDbMText
 10
10.24073389897213
 20
-0.000003201678161
 30
0.0
 40
1.9
 41
0.0
 71
     5
 72
     1
  1
%%c8
 11
0.0000000000000001
 21
1.0
 31
0.0
1001
ACAD
1000
MTEXTBEGIN
1070
    73
1070
     1
1070
    44
1040
1.0
1070
    74
1070
     0
1000
MTEXTEND
  0
POINT
  5
2396
330
20C0
100
AcDbEntity
  8
DEFPOINTS
 62
     0
100
AcDbPoint
 10
-2.082928559896247
 20
-4.000001930112489
 30
0.0
  0
POINT
  5
2397
330
20C0
100
AcDbEntity
  8
DEFPOINTS
 62
     0
100
AcDbPoint
 10
-1.924269493514955
 20
3.999995526756171
 30
0.0
  0
POINT
  5
2398
330
20C0
100
AcDbEntity
  8
DEFPOINTS
 62
     0
100
AcDbPoint
 10
11.94073389897213
 20
3.999995526756167
 30
0.0
  0
ENDBLK
  5
20CD
330
20C0
100
AcDbEntity
  8
0
100
AcDbBlockEnd
  0
BLOCK
  5
2162
330
2158
100
AcDbEntity
  8
0
100
AcDbBlockBegin
  2
*D13
 70
     1
 10
0.0
 20
0.0
 30
0.0
  3
*D13
  1

  0
LINE
  5
23B3
330
2158
100
AcDbEntity
  8
AM_5
 62
     3
100
AcDbLine
 10
-119.6058818604645
 20
3.999997456868204
 30
0.0
 11
-133.7058818604644
 21
3.999997456868164
 31
0.0
  0
LINE
  5
23B4
330
2158
100
AcDbEntity
  8
AM_5
 62
     3
100
AcDbLine
 10
-119.6058818604644
 20
-4.000002543131838
 30
0.0
 11
-133.7058818604644
 21
-4.000002543131878
 31
0.0
  0
LINE
  5
23B5
330
2158
100
AcDbEntity
  8
AM_5
 62
     3
100
AcDbLine
 10
-133.2058818604644
 20
2.749997456868165
 30
0.0
 11
-133.2058818604644
 21
-2.750002543131876
 31
0.0
  0
INSERT
  5
23B6
330
2158
100
AcDbEntity
  8
AM_5
 62
     3
100
AcDbBlockReference
  2
_OPEN30
 10
-133.2058818604644
 20
3.999997456868165
 30
0.0
 41
1.25
 42
1.25
 43
1.25
 50
90.00000000000017
  0
INSERT
  5
23B7
330
2158
100
AcDbEntity
  8
AM_5
 62
     3
100
AcDbBlockReference
  2
_OPEN30
 10
-133.2058818604644
 20
-4.000002543131876
 30
0.0
 41
1.25
 42
1.25
 43
1.25
 50
270.0000000000001
  0
MTEXT
  5
23B8
330
2158
100
AcDbEntity
  8
AM_5
 62
     2
100
AcDbMText
 10
-134.9058818604644
 20
-0.0000025431318548
 30
0.0
 40
1.9
 41
0.0
 71
     5
 72
     1
  1
%%c8
 11
-0.0000000000000028
 21
1.0
 31
0.0
1001
ACAD
1000
MTEXTBEGIN
1070
    73
1070
     1
1070
    44
1040
1.0
1070
    74
1070
     0
1000
MTEXTEND
  0
POINT
  5
23B9
330
2158
100
AcDbEntity
  8
DEFPOINTS
 62
     0
100
AcDbPoint
 10
-119.2058818604644
 20
3.999997456868575
 30
0.0
  0
POINT
  5
23BA
330
2158
100
AcDbEntity
  8
DEFPOINTS
 62
     0
100
AcDbPoint
 10
-119.2058818604644
 20
-4.000002543131466
 30
0.0
  0
POINT
  5
23BB
330
2158
100
AcDbEntity
  8
DEFPOINTS
 62
     0
100
AcDbPoint
 10
-133.2058818604644
 20
-4.000002543131462
 30
0.0
  0
ENDBLK
  5
2163
330
2158
100
AcDbEntity
  8
0
100
AcDbBlockEnd
  0
ENDSEC
  0
SECTION
  2
ENTITIES
  0
LINE
  5
C30
330
1F
100
AcDbEntity
  8
AM_0
 48
0.5
100
AcDbLine
 10
-119.4558818604644
 20
-3.750002543131423
 30
0.0
 11
-119.4558818604644
 21
3.749997456868575
 31
0.0
  0
LINE
  5
C9F
330
1F
100
AcDbEntity
  8
AM_7
100
AcDbLine
 10
-121.5559199015253
 20
-0.0000025431314255
 30
0.0
 11
2.00000012333273
 21
-0.0000025431313209
 31
0.0
1001
GENIUS_GENODEF_13
1002
{
1000
HIER
1070
     0
1002
}
1002
{
1000
MANEDIT
1070
     0
1002
}
1002
{
1000
NOSEL
1070
     0
1002
}
1002
{
1000
BEHIND
1070
     0
1002
}
1002
{
1000
REACTOR
1002
}
1001
GENIUS_GENOBJ-N-CEN_13
1002
{
1000
OWNER
1000
GEN
1002
}
  0
DIMENSION
  5
CC6
330
1F
100
AcDbEntity
  8
AM_5
100
AcDbDimension
  2
*D5
 10
-1.339411875119458
 20
-22.34291215210458
 30
0.0
 11
-60.39764686779196
 21
-20.64291215210458
 31
0.0
 70
    32
  1
<>
  3
AM_JIS$0
100
AcDbAlignedDimension
 13
-119.4558818604644
 23
-3.750002543131451
 33
0.0
 14
-1.339411875119457
 24
-3.680001979154004
 34
0.0
 50
0.0000000000001132
100
AcDbRotatedDimension
1001
GENIUS_GENDTOL_13
1000

1000
h7
1000

1040
0.0
1001
ACAD
1000
DSTYLE
1002
{
1070
   271
1070
     0
1002
}
  0
DIMENSION
  5
DF5
330
1F
100
AcDbEntity
  8
AM_5
100
AcDbDimension
  2
*D7
 10
-1.339411875119462
 20
-14.86911557914019
 30
0.0
 11
-34.19766588832237
 21
-14.86911557914019
 31
0.0
 70
   160
  1
<>
  3
AM_JIS$0
100
AcDbAlignedDimension
 13
-65.45511130081902
 23
-2.666668596778367
 33
0.0
 14
-1.339411875119461
 24
-3.680001979154003
 34
0.0
 50
0.0000000000001527
100
AcDbRotatedDimension
1001
GENIUS_GENDTOL_13
1000

1000
h7
1000

1040
0.0
1001
ACAD
1000
DSTYLE
1002
{
1070
   271
1070
     0
1002
}
  0
DIMENSION
  5
11B2
330
1F
100
AcDbEntity
  8
AM_5
100
AcDbDimension
  2
*D9
 10
-0.5338325500486575
 20
-1.466672261556008
 30
0.0
 11
20.16138456857671
 21
-0.000007041058142
 31
0.0
 70
    34
  1
<>
  3
AM_JIS$2
100
AcDb2LineAngularDimension
 13
-0.000005086263324
 23
-0.0000025431313399
 33
0.0
 14
-0.5338236490886553
 24
1.466651916504001
 34
0.0
 15
-0.0000063578286624
 25
0.0
 35
0.0
 16
19.93574646946187
 26
8.599433860878439
 36
0.0
1001
ACAD
1000
DSTYLE
1002
{
1070
   179
1070
     3
1002
}
1001
GENIUS_GENDTOL_13
1000

1000
h7
1000

1040
0.0
  0
TEXT
  5
19BD
330
1F
100
AcDbEntity
  8
AM_6
100
AcDbText
 10
-73.31560235130985
 20
-33.59291215210461
 30
0.0
 40
2.5
  1
MDW0800LDLH
 50
0.0000000000001527
 72
     4
 11
-60.33941187511937
 21
-32.34291215210458
 31
0.0
100
AcDbText
  0
LINE
  5
1E12
330
1F
100
AcDbEntity
  8
AM_0
 48
0.5
100
AcDbLine
 10
-119.2058818604644
 20
3.999997456868575
 30
0.0
 11
-62.82655960110231
 21
3.999997456868623
 31
0.0
1001
GENIUS_GENODEF_13
1002
{
1000
HIER
1070
     0
1002
}
1002
{
1000
MANEDIT
1070
     0
1002
}
1002
{
1000
NOSEL
1070
     0
1002
}
1002
{
1000
BEHIND
1070
     0
1002
}
1002
{
1000
REACTOR
1002
}
1001
GENIUS_GENOBJ-N-CEN_13
1002
{
1000
OWNER
1000
GEN
1002
}
  0
LINE
  5
1E16
330
1F
100
AcDbEntity
  8
AM_0
 48
0.5
100
AcDbLine
 10
-119.2058818604645
 20
-4.000002543131423
 30
0.0
 11
-64.08361097618537
 21
-4.000002543131377
 31
0.0
1001
GENIUS_GENODEF_13
1002
{
1000
HIER
1070
     0
1002
}
1002
{
1000
MANEDIT
1070
     0
1002
}
1002
{
1000
NOSEL
1070
     0
1002
}
1002
{
1000
BEHIND
1070
     0
1002
}
1002
{
1000
REACTOR
1002
}
1001
GENIUS_GENOBJ-N-CEN_13
1002
{
1000
OWNER
1000
GEN
1002
}
  0
LINE
  5
1E1D
330
1F
100
AcDbEntity
  8
AM_0
 48
0.5
100
AcDbLine
 10
-119.4558818604644
 20
3.749997456868575
 30
0.0
 11
-119.2058818604644
 21
3.999997456868575
 31
0.0
1001
GENIUS_GENFIL_13
1070
     0
1040
0.25
1040
0.25
1040
20.0
1040
0.0
1002
{
1002
}
1001
GENIUS_GENODEF_13
1002
{
1000
HIER
1070
     0
1002
}
1002
{
1000
MANEDIT
1070
     0
1002
}
1002
{
1000
NOSEL
1070
     0
1002
}
1002
{
1000
BEHIND
1070
     0
1002
}
1002
{
1000
REACTOR
1002
}
1001
GENIUS_GENOBJ-N-CHA_13
1002
{
1000
OWNER
1000
GEN
1002
}
  0
LINE
  5
1E21
330
1F
100
AcDbEntity
  8
AM_0
 48
0.5
100
AcDbLine
 10
-119.4558818604644
 20
-3.750002543131423
 30
0.0
 11
-119.2058818604645
 21
-4.000002543131422
 31
0.0
1001
GENIUS_GENFIL_13
1070
     0
1040
0.25
1040
0.25
1040
20.0
1040
0.0
1002
{
1002
}
1001
GENIUS_GENODEF_13
1002
{
1000
HIER
1070
     0
1002
}
1002
{
1000
MANEDIT
1070
     0
1002
}
1002
{
1000
NOSEL
1070
     0
1002
}
1002
{
1000
BEHIND
1070
     0
1002
}
1002
{
1000
REACTOR
1002
}
1001
GENIUS_GENOBJ-N-CHA_13
1002
{
1000
OWNER
1000
GEN
1002
}
  0
LINE
  5
1E22
330
1F
100
AcDbEntity
  8
AM_0
100
AcDbLine
 10
-119.2058818604645
 20
-4.000002543131422
 30
0.0
 11
-119.2058818604644
 21
3.999997456868575
 31
0.0
  0
DIMENSION
  5
20BF
330
1F
100
AcDbEntity
  8
AM_5
100
AcDbDimension
  2
*D12
 10
11.94073389897213
 20
3.999995526756167
 30
0.0
 11
11.94073389897213
 21
-0.0000032016781612
 31
0.0
 70
   160
  1
%%c<>
  3
AM_JIS$0
100
AcDbAlignedDimension
 13
-2.082928559896247
 23
-4.000001930112489
 33
0.0
 14
-1.924269493514955
 24
3.999995526756171
 34
0.0
 50
89.99999999999955
100
AcDbRotatedDimension
1001
GENIUS_GENDTOL_13
1000

1000
h7
1000

1040
0.0
  0
LINE
  5
20CE
330
1F
100
AcDbEntity
  8
AM_0
 48
0.5
100
AcDbLine
 10
0.0000001368455672
 20
0.000000613018837
 30
0.0
 11
-2.327907895715378
 21
1.535876569236193
 31
0.0
  0
ELLIPSE
  5
20CF
330
1F
100
AcDbEntity
  8
AM_0
 48
0.5
100
AcDbEllipse
 10
-8.544867307130964
 20
10.87911198790457
 30
0.0
 11
14.06925091107693
 21
0.0000000000058802
 31
0.0
210
0.0
220
0.0
230
1.0
 40
0.9733333333333433
 41
-1.025265753354619
 42
-0.9180842423216274
  0
LINE
  5
20D0
330
1F
100
AcDbEntity
  8
AM_0
 48
0.5
100
AcDbLine
 10
-4.02179808845302
 20
3.999998069887536
 30
0.0
 11
-1.455880089705438
 21
3.999998069887505
 31
0.0
  0
LINE
  5
20D2
330
1F
100
AcDbEntity
  8
AM_0
 48
0.5
100
AcDbLine
 10
-1.455881860464575
 20
-4.000001930112498
 30
0.0
 11
-1.924261655095843
 21
-4.000001930112492
 31
0.0
  0
ELLIPSE
  5
20E4
330
1F
100
AcDbEntity
  8
AM_0
 48
0.5
100
AcDbEllipse
 10
3.942328289436666
 20
-0.8891468275732364
 30
0.0
 11
6.461149685683039
 21
1.34573528479105
 31
0.0
210
0.0
220
0.0
230
1.0
 40
0.66620960216332
 41
3.019567293288571
 42
3.59976577703743
  0
ELLIPSE
  5
20EF
330
1F
100
AcDbEntity
  8
AM_0
 48
0.5
100
AcDbEllipse
 10
-1.532640189667447
 20
-1.04245951067916
 30
0.0
 11
-0.1211021075397551
 21
0.6561514393854298
 31
0.0
210
0.0
220
0.0
230
1.0
 40
0.5128221394277397
 41
1.799429147243291
 42
4.934771036955265
  0
ELLIPSE
  5
20F0
330
1F
100
AcDbEntity
  8
AM_0
 48
0.5
100
AcDbEllipse
 10
-1.532640189667447
 20
-1.04245951067916
 30
0.0
 11
-0.5957124749819385
 21
0.328891591507416
 31
0.0
210
0.0
220
0.0
230
1.0
 40
0.49306752591161
 41
4.468583653602875
 42
7.612023994932384
  0
SPLINE
  5
20F5
330
1F
100
AcDbEntity
  8
AM_0
100
AcDbSpline
210
0.0
220
0.0
230
1.0
 70
     8
 71
     3
 72
    46
 73
    42
 74
     0
 42
0.0000000001
 43
0.0000000001
 40
0.0
 40
0.0
 40
0.0
 40
0.0
 40
1.348332046947657
 40
2.024828967632895
 40
2.703918159304097
 40
3.386347665078124
 40
4.072776489761952
 40
4.763750544421347
 40
5.459696642770596
 40
6.160921452191754
 40
6.867565637253344
 40
7.579665907256596
 40
8.297112853413899
 40
9.019671552060676
 40
9.746986763446127
 40
10.47859339096366
 40
11.21393074760089
 40
11.95235532364328
 40
12.69315551794651
 40
13.43556823304427
 40
14.1787950170388
 40
14.92202180103393
 40
15.66443451613169
 40
16.40523471043432
 40
17.14365928647669
 40
17.87899664311455
 40
18.61060327063121
 40
19.3379184820169
 40
20.06048192311554
 40
20.77792886927283
 40
21.49002913927608
 40
22.19667332433747
 40
22.89788836015233
 40
23.59383445850158
 40
24.28480851316097
 40
24.97123685067576
 40
25.65366676154838
 40
26.33276604526152
 40
27.00926273560555
 40
27.68398960851751
 40
28.357818684969
 40
28.357818684969
 40
28.357818684969
 40
28.357818684969
 10
-2.082928559878447
 20
-4.000001930112485
 30
0.0
 10
-2.544810835928738
 20
-3.990889620908823
 30
0.0
 10
-3.238432718090491
 20
-3.977205404413804
 30
0.0
 10
-4.160771982428369
 20
-3.892954197378317
 30
0.0
 10
-4.853328479038787
 20
-3.808006568871987
 30
0.0
 10
-5.545825778555355
 20
-3.698948243573815
 30
0.0
 10
-6.238262056703067
 20
-3.567229409537191
 30
0.0
 10
-6.930633756300967
 20
-3.413479795002805
 30
0.0
 10
-7.622939717730488
 20
-3.238700981109671
 30
0.0
 10
-8.315176859985573
 20
-3.04396613564791
 30
0.0
 10
-9.007346566682244
 20
-2.830483076345222
 30
0.0
 10
-9.699446976094463
 20
-2.599568214705414
 30
0.0
 10
-10.39148920718557
 20
-2.352655958084567
 30
0.0
 10
-11.08347662341919
 20
-2.091264207785343
 30
0.0
 10
-11.77541558826495
 20
-1.817004836817442
 30
0.0
 10
-12.46731379098522
 20
-1.531569851109808
 30
0.0
 10
-13.15917729541089
 20
-1.236714519453022
 30
0.0
 10
-13.85101283511946
 20
-0.9342523573487298
 30
0.0
 10
-14.5428277455399
 20
-0.6260448421741086
 30
0.0
 10
-15.2346283464466
 20
-0.3139872334966003
 30
0.0
 10
-15.92642313195529
 20
-0.0000019301758725
 30
0.0
 10
-16.61821791731201
 20
0.3139833735264111
 30
0.0
 10
-17.31001851867457
 20
0.626040981059812
 30
0.0
 10
-18.00183342742877
 20
0.9342485004156376
 30
0.0
 10
-18.69366897331584
 20
1.236710647013356
 30
0.0
 10
-19.38553245483224
 20
1.531566036166957
 30
0.0
 10
-20.07743074239331
 20
1.817000808943641
 30
0.0
 10
-20.76937089766005
 20
2.091261563773287
 30
0.0
 10
-21.46136100262292
 20
2.352650939195956
 30
0.0
 10
-22.15340446821132
 20
2.599564461898297
 30
0.0
 10
-22.84550486150946
 20
2.830479392247564
 30
0.0
 10
-23.53767172485162
 20
3.043960489823376
 30
0.0
 10
-24.22990425487298
 20
3.238698347668239
 30
0.0
 10
-24.922207390356
 20
3.413477875551954
 30
0.0
 10
-25.61457868924552
 20
3.567217430979384
 30
0.0
 10
-26.30701547504513
 20
3.698974468668404
 30
0.0
 10
-26.9995171941329
 20
3.807877057279631
 30
0.0
 10
-27.69207012217527
 20
3.893422701265618
 30
0.0
 10
-28.38466589813028
 20
3.954455013747928
 30
0.0
 10
-29.07728681479675
 20
3.992860308139309
 30
0.0
 10
-29.53914671853965
 20
3.997619872192741
 30
0.0
 10
-29.76992292959412
 20
3.999998069887801
 30
0.0
  0
ELLIPSE
  5
20FD
330
1F
100
AcDbEntity
  8
AM_0
 48
0.5
100
AcDbEllipse
 10
-7.422125170002288
 20
6.713448183819561
 30
0.0
 11
9.908654591808664
 21
0.000000000011283
 31
0.0
210
0.0
220
0.0
230
1.0
 40
0.9733333333333142
 41
-1.060213001567634
 42
-0.9717182238881441
  0
DIMENSION
  5
2157
330
1F
100
AcDbEntity
  8
AM_5
100
AcDbDimension
  2
*D13
 10
-133.2058818604644
 20
-4.000002543131462
 30
0.0
 11
-133.2058818604644
 21
-0.0000025431314625
 31
0.0
 70
   160
  1
%%c<>
 51
359.9999999999998
  3
AM_JIS$0
100
AcDbAlignedDimension
 13
-119.2058818604644
 23
3.999997456868575
 33
0.0
 14
-119.2058818604644
 24
-4.000002543131466
 34
0.0
 50
270.0000000000002
100
AcDbRotatedDimension
1001
ACAD
1000
DSTYLE
1002
{
1070
   271
1070
     0
1002
}
1001
GENIUS_GENDTOL_13
1000

1000
h7
1000

1040
0.0
  0
LINE
  5
229A
330
1F
100
AcDbEntity
  8
AM_0
100
AcDbLine
 10
-1.455880907052093
 20
3.999997772397652
 30
0.0
 11
-0.0000005008322515
 21
-0.0000007691177536
 31
0.0
  0
LINE
  5
229B
330
1F
100
AcDbEntity
  8
AM_0
100
AcDbLine
 10
-1.455881860464578
 20
-4.000001930112497
 30
0.0
 11
-0.0000005008322515
 21
-0.0000007691177516
 31
0.0
  0
LINE
  5
229C
330
1F
100
AcDbEntity
  8
AM_0
100
AcDbLine
 10
-1.455881860464578
 20
-4.000001930112498
 30
0.0
 11
-4.021798088453109
 21
-4.000001930112464
 31
0.0
  0
SPLINE
  5
2418
330
1F
100
AcDbEntity
  8
AM_0
 48
0.5
100
AcDbSpline
210
0.0
220
0.0
230
1.0
 70
     8
 71
     3
 72
    10
 73
     6
 74
     0
 42
0.0000000001
 43
0.0000000001
 40
0.0
 40
0.0
 40
0.0
 40
0.0
 40
2.69986029516136
 40
4.147722969032201
 40
6.285750005020438
 40
6.285750005020438
 40
6.285750005020438
 40
6.285750005020438
 10
-4.741480938940464
 20
0.7239767482728987
 30
0.0
 10
-4.257508289680592
 20
0.3523491070271075
 30
0.0
 10
-3.513994087365727
 20
-0.2185724722430937
 30
0.0
 10
-1.755682876951506
 20
0.0578206659838811
 30
0.0
 10
-2.086824021507261
 20
0.988749327788178
 30
0.0
 10
-2.305620932354954
 20
1.556179018988962
 30
0.0
  0
SPLINE
  5
2419
330
1F
100
AcDbEntity
  8
AM_0
 48
0.5
100
AcDbSpline
210
0.0
220
0.0
230
1.0
 70
     8
 71
     3
 72
    16
 73
    12
 74
     0
 42
0.0000000001
 43
0.0000000001
 40
0.0
 40
0.0
 40
0.0
 40
0.0
 40
1.010743614677189
 40
2.022833924044153
 40
3.037578959561199
 40
4.056212747067873
 40
5.079857613375832
 40
6.109500119648989
 40
7.14596120163808
 40
8.18989512056258
 40
8.545190612624931
 40
8.545190612624931
 40
8.545190612624931
 40
8.545190612624931
 10
-3.948533719008451
 20
3.999998069887547
 30
0.0
 10
-4.175093319131885
 20
3.99997403329049
 30
0.0
 10
-4.628558042452804
 20
3.991766383303616
 30
0.0
 10
-5.308554138269219
 20
3.954748986041501
 30
0.0
 10
-5.988531699357373
 20
3.893344291099904
 30
0.0
 10
-6.66846430055145
 20
3.807897452893861
 30
0.0
 10
-7.348347708013881
 20
3.69896884677163
 30
0.0
 10
-8.028170323244768
 20
3.567218824378505
 30
0.0
 10
-8.707932398147727
 20
3.413477248541638
 30
0.0
 10
-9.23647891735508
 20
3.27756206546848
 30
0.0
 10
-9.53858530110077
 20
3.193970862632185
 30
0.0
 10
-9.615197792786704
 20
3.172399546035116
 30
0.0
  0
ELLIPSE
  5
241A
330
1F
100
AcDbEntity
  8
AM_0
 48
0.5
100
AcDbEllipse
 10
2.273032428079166
 20
4.802244163637445
 30
0.0
 11
-8.131765882717759
 21
0.0000000000006523
 31
0.0
210
0.0
220
0.0
230
1.0
 40
0.9913933994767573
 41
0.530367553234163
 42
0.9384884834290566
  0
SPLINE
  5
241B
330
1F
100
AcDbEntity
  8
AM_0
100
AcDbSpline
210
0.0
220
0.0
230
1.0
 70
     8
 71
     3
 72
    11
 73
     7
 74
     0
 42
0.0000000001
 43
0.0000000001
 40
11.27226913003534
 40
11.27226913003534
 40
11.27226913003534
 40
11.2722691300354
 40
12.28301561507924
 40
13.29510212255852
 40
14.30984805882082
 40
15.18258238371378
 40
15.18258238371378
 40
15.18258238371378
 40
15.18258238371378
 10
-16.75805997958126
 20
-4.000001930112285
 30
0.0
 10
-16.98377059255586
 20
-3.980424767719873
 30
0.0
 10
-17.43476608536861
 20
-3.933029309600742
 30
0.0
 10
-18.10893046794051
 20
-3.837420947335683
 30
0.0
 10
-18.7487243543704
 20
-3.723227241658147
 30
0.0
 10
-19.16250548496556
 20
-3.635443141481128
 30
0.0
 10
-19.35318761235073
 20
-3.592080220677899
 30
0.0
  0
SPLINE
  5
241C
330
1F
100
AcDbEntity
  8
AM_0
100
AcDbSpline
210
0.0
220
0.0
230
1.0
 70
     8
 71
     3
 72
    17
 73
    13
 74
     0
 42
0.0000000001
 43
0.0000000001
 40
1.580019955310467
 40
1.580019955310467
 40
1.580019955310467
 40
1.580019955310467
 40
2.030549285115227
 40
3.082371838836284
 40
4.126290986361125
 40
5.162752068350215
 40
6.192395305374981
 40
7.216039564037012
 40
8.234688489606833
 40
9.249433870634691
 40
10.26152376260694
 40
11.27226744710342
 40
11.27226744710342
 40
11.27226744710342
 40
11.27226744710352
 10
-10.35279715351337
 20
-2.952119716473809
 30
0.0
 10
-10.44900638383136
 20
-2.982524077237212
 30
0.0
 10
-10.77037753575775
 20
-3.082178430722144
 30
0.0
 10
-11.31903778880656
 20
-3.238489849857899
 30
0.0
 10
-11.99863467797955
 20
-3.413537903161769
 30
0.0
 10
-12.67841865953984
 20
-3.567206852544531
 30
0.0
 10
-13.35823378856487
 20
-3.698980643136577
 30
0.0
 10
-14.03812298222983
 20
-3.807900746021405
 30
0.0
 10
-14.71805914748822
 20
-3.893345602198974
 30
0.0
 10
-15.3980376510151
 20
-3.954761500411056
 30
0.0
 10
-16.07804173990104
 20
-3.991753099388511
 30
0.0
 10
-16.53148782774139
 20
-4.000001953000499
 30
0.0
 10
-16.75805997958122
 20
-4.000001930112285
 30
0.0
  0
LINE
  5
241D
330
1F
100
AcDbEntity
  8
AM_0
 48
0.5
100
AcDbLine
 10
-31.13115309877883
 20
3.999998069887904
 30
0.0
 11
-16.75805997958117
 21
3.999998069887715
 31
0.0
  0
LINE
  5
241E
330
1F
100
AcDbEntity
  8
AM_0
 48
0.5
100
AcDbLine
 10
-28.15654569788631
 20
-4.000001930112216
 30
0.0
 11
-16.75805997958129
 21
-4.000001930112285
 31
0.0
  0
SPLINE
  5
241F
330
1F
100
AcDbEntity
  8
AM_0
100
AcDbSpline
210
0.0
220
0.0
230
1.0
 70
     8
 71
     3
 72
    22
 73
    18
 74
     0
 42
0.0000000001
 43
0.0000000001
 40
17.17441611292
 40
17.17441611292
 40
17.17441611292
 40
17.17441611292
 40
17.38177636558528
 40
18.41823744757437
 40
19.46215659509824
 40
20.51397914882054
 40
21.57394542641293
 40
22.64209583141747
 40
23.71826625065247
 40
24.80210429862395
 40
25.8930771157021
 40
26.99048705697709
 40
28.09349309193389
 40
29.20112995599786
 40
30.31233024745139
 40
31.42594771747373
 40
32.5407895042663
 40
32.54078950426994
 40
32.54078950426994
 40
32.54078950426994
 10
-19.35348500158319
 20
-3.592030880708486
 30
0.0
 10
-19.39901904478497
 20
-3.582771273035564
 30
0.0
 10
-19.67197076619025
 20
-3.526369990599736
 30
0.0
 10
-20.17200293903646
 20
-3.413278078525553
 30
0.0
 10
-20.85169443971121
 20
-3.238498816268009
 30
0.0
 10
-21.5313166812488
 20
-3.043760872684116
 30
0.0
 10
-22.21087446174414
 20
-2.8302798503036
 30
0.0
 10
-22.89036688354868
 20
-2.599364703429309
 30
0.0
 10
-23.5698023104262
 20
-2.352452523724887
 30
0.0
 10
-24.24918388835369
 20
-2.091060754002626
 30
0.0
 10
-24.92851790322629
 20
-1.816801382983793
 30
0.0
 10
-25.60781190880756
 20
-1.53136641726879
 30
0.0
 10
-26.2870718009596
 20
-1.236511005093567
 30
0.0
 10
-26.96630441753143
 20
-0.934049146778403
 30
0.0
 10
-27.645515779329
 20
-0.6258406403848013
 30
0.0
 10
-28.32471594827796
 20
-0.3137872989863721
 30
0.0
 10
-28.777427181671
 20
-0.1044997422254678
 30
0.0
 10
-29.00390716140265
 20
0.0002015204092217
 30
0.0
  0
SPLINE
  5
2420
330
1F
100
AcDbEntity
  8
AM_0
100
AcDbSpline
210
0.0
220
0.0
230
1.0
 70
     8
 71
     3
 72
    11
 73
     7
 74
     0
 42
0.0000000001
 43
0.0000000001
 40
11.27226913003534
 40
11.27226913003534
 40
11.27226913003534
 40
11.2722691300354
 40
12.28301561507924
 40
13.29510212255852
 40
14.30984805882082
 40
15.18258238371378
 40
15.18258238371378
 40
15.18258238371378
 40
15.18258238371378
 10
-40.96607195845904
 20
-4.00000193011205
 30
0.0
 10
-41.19178257143362
 20
-3.980424767719637
 30
0.0
 10
-41.64277806424636
 20
-3.933029309600506
 30
0.0
 10
-42.31694244681826
 20
-3.837420947335446
 30
0.0
 10
-42.95673633324815
 20
-3.723227241657911
 30
0.0
 10
-43.37051746384331
 20
-3.635443141480893
 30
0.0
 10
-43.56119959122849
 20
-3.592080220677662
 30
0.0
  0
SPLINE
  5
2421
330
1F
100
AcDbEntity
  8
AM_0
100
AcDbSpline
210
0.0
220
0.0
230
1.0
 70
     8
 71
     3
 72
    17
 73
    13
 74
     0
 42
0.0000000001
 43
0.0000000001
 40
1.580019955310467
 40
1.580019955310467
 40
1.580019955310467
 40
1.580019955310467
 40
2.030549285115227
 40
3.082371838836284
 40
4.126290986361125
 40
5.162752068350215
 40
6.192395305374981
 40
7.216039564037012
 40
8.234688489606833
 40
9.249433870634691
 40
10.26152376260694
 40
11.27226744710342
 40
11.27226744710342
 40
11.27226744710342
 40
11.27226744710352
 10
-34.56080913239113
 20
-2.952119716473574
 30
0.0
 10
-34.65701836270913
 20
-2.982524077236976
 30
0.0
 10
-34.97838951463551
 20
-3.082178430721908
 30
0.0
 10
-35.52704976768432
 20
-3.238489849857663
 30
0.0
 10
-36.20664665685729
 20
-3.413537903161533
 30
0.0
 10
-36.8864306384176
 20
-3.567206852544294
 30
0.0
 10
-37.56624576744263
 20
-3.698980643136341
 30
0.0
 10
-38.24613496110758
 20
-3.807900746021169
 30
0.0
 10
-38.92607112636596
 20
-3.893345602198738
 30
0.0
 10
-39.60604962989284
 20
-3.954761500410818
 30
0.0
 10
-40.2860537187788
 20
-3.991753099388274
 30
0.0
 10
-40.73949980661915
 20
-4.000001953000264
 30
0.0
 10
-40.966071958459
 20
-4.00000193011205
 30
0.0
  0
LINE
  5
2422
330
1F
100
AcDbEntity
  8
AM_0
100
AcDbLine
 10
-55.33925845033965
 20
3.999998069888142
 30
0.0
 11
-39.30569062828239
 21
4.000566342480484
 31
0.0
  0
LINE
  5
2423
330
1F
100
AcDbEntity
  8
AM_0
 48
0.5
100
AcDbLine
 10
-55.33926358078208
 20
-4.000001930111806
 30
0.0
 11
-42.11837523578092
 21
-4.000001930111951
 31
0.0
  0
SPLINE
  5
2424
330
1F
100
AcDbEntity
  8
AM_0
100
AcDbSpline
210
0.0
220
0.0
230
1.0
 70
     8
 71
     3
 72
    22
 73
    18
 74
     0
 42
0.0000000001
 43
0.0000000001
 40
17.17441611292
 40
17.17441611292
 40
17.17441611292
 40
17.17441611292
 40
17.38177636558528
 40
18.41823744757437
 40
19.46215659509824
 40
20.51397914882054
 40
21.57394542641293
 40
22.64209583141747
 40
23.71826625065247
 40
24.80210429862395
 40
25.8930771157021
 40
26.99048705697709
 40
28.09349309193389
 40
29.20112995599786
 40
30.31233024745139
 40
31.42594771747373
 40
32.5407895042663
 40
32.54078950426994
 40
32.54078950426994
 40
32.54078950426994
 10
-43.56149698046094
 20
-3.592030880708249
 30
0.0
 10
-43.60703102366271
 20
-3.582771273035329
 30
0.0
 10
-43.87998274506801
 20
-3.5263699905995
 30
0.0
 10
-44.38001491791423
 20
-3.413278078525316
 30
0.0
 10
-45.05970641858898
 20
-3.238498816267773
 30
0.0
 10
-45.73932866012657
 20
-3.04376087268388
 30
0.0
 10
-46.4188864406219
 20
-2.830279850303365
 30
0.0
 10
-47.09837886242645
 20
-2.599364703429074
 30
0.0
 10
-47.77781428930397
 20
-2.352452523724651
 30
0.0
 10
-48.45719586723146
 20
-2.09106075400239
 30
0.0
 10
-49.13652988210407
 20
-1.816801382983556
 30
0.0
 10
-49.81582388768534
 20
-1.531366417268554
 30
0.0
 10
-50.49508377983737
 20
-1.236511005093331
 30
0.0
 10
-51.17431639640917
 20
-0.9340491467781671
 30
0.0
 10
-51.85352775820676
 20
-0.6258406403845652
 30
0.0
 10
-52.53272792715574
 20
-0.3137872989861361
 30
0.0
 10
-52.98543916054877
 20
-0.1044997422252319
 30
0.0
 10
-53.21191914028044
 20
0.0002015204094576
 30
0.0
  0
LINE
  5
2425
330
1F
100
AcDbEntity
  8
AM_11
 48
0.3
100
AcDbLine
 10
-39.30569062828239
 20
4.000566342480484
 30
0.0
 11
-31.1311420660092
 21
3.999998069887904
 31
0.0
  0
LINE
  5
2426
330
1F
100
AcDbEntity
  8
AM_11
 48
0.5
100
AcDbLine
 10
-40.96607195845742
 20
-4.000001930112049
 30
0.0
 11
-28.15654569788632
 21
-4.000570202704677
 31
0.0
  0
SPLINE
  5
2427
330
1F
100
AcDbEntity
  8
AM_0
100
AcDbSpline
210
0.0
220
0.0
230
1.0
 70
     8
 71
     3
 72
    23
 73
    19
 74
     0
 42
0.0000000001
 43
0.0000000001
 40
16.03460024169435
 40
16.03460024169435
 40
16.03460024169435
 40
16.03460024169435
 40
16.35212704903564
 40
17.38177054169784
 40
18.41822485651776
 40
19.46214173629503
 40
20.51396345435107
 40
21.57393551351153
 40
22.64208202342361
 40
23.7182574881101
 40
24.80209208578934
 40
25.89306333925047
 40
26.99048218457928
 40
28.09348763352352
 40
29.20111863782268
 40
30.31232390128032
 40
31.42594612798585
 40
32.5407912310448
 40
32.5407912310486
 40
32.5407912310486
 40
32.5407912310486
 10
-39.3056906282824
 20
4.000566342480485
 30
0.0
 10
-39.23582856358912
 20
3.987063046878946
 30
0.0
 10
-38.93972243492245
 20
3.928259995120003
 30
0.0
 10
-38.41812830043163
 20
3.813044389675422
 30
0.0
 10
-37.74266253081214
 20
3.641720044364916
 30
0.0
 10
-37.06782416557121
 20
3.449351361458432
 30
0.0
 10
-36.39357332797165
 20
3.237051672774376
 30
0.0
 10
-35.71988608765639
 20
3.006004553829921
 30
0.0
 10
-35.04672350711754
 20
2.757530767392563
 30
0.0
 10
-34.37403870987155
 20
2.493076368573254
 30
0.0
 10
-33.7017934715522
 20
2.214138947213839
 30
0.0
 10
-33.02993389582117
 20
1.922341575175328
 30
0.0
 10
-32.35840553597296
 20
1.619380304854583
 30
0.0
 10
-31.68716364998825
 20
1.306997036546445
 30
0.0
 10
-31.0161520758737
 20
0.9870082361769787
 30
0.0
 10
-30.34530866374652
 20
0.6612824035782868
 30
0.0
 10
-29.67457878801591
 20
0.3317070317468345
 30
0.0
 10
-29.22754564273594
 20
0.1107447659289208
 30
0.0
 10
-29.00390716139964
 20
0.0002015204077845
 30
0.0
  0
SPLINE
  5
2428
330
1F
100
AcDbEntity
  8
AM_0
100
AcDbSpline
210
0.0
220
0.0
230
1.0
 70
     8
 71
     3
 72
    46
 73
    42
 74
     0
 42
0.0000000001
 43
0.0000000001
 40
0.0
 40
0.0
 40
0.0
 40
0.0
 40
1.348332046947654
 40
2.024828967632893
 40
2.703918159304094
 40
3.386347665078122
 40
4.072776489761951
 40
4.763750544421345
 40
5.459696642770595
 40
6.160921452191748
 40
6.867565637253344
 40
7.579665907256597
 40
8.297112853413899
 40
9.019671552060666
 40
9.746986763446125
 40
10.47859339096365
 40
11.21393074760088
 40
11.95235532364327
 40
12.69315551794651
 40
13.43556823304427
 40
14.1787950170388
 40
14.92202180103393
 40
15.66443451613169
 40
16.40523471043432
 40
17.14365928647669
 40
17.87899664311455
 40
18.61060327063121
 40
19.33791848201689
 40
20.06048192311554
 40
20.77792886927282
 40
21.49002913927608
 40
22.19667332433747
 40
22.89788836015233
 40
23.59383445850157
 40
24.28480851316097
 40
24.97123685067575
 40
25.65366676154837
 40
26.33276604526151
 40
27.00926273560554
 40
27.68398960851752
 40
28.35781868496899
 40
28.35781868496899
 40
28.35781868496899
 40
28.35781868496899
 10
-26.25299626721426
 20
-4.000001930112245
 30
0.0
 10
-26.70646450252115
 20
-3.99088962090858
 30
0.0
 10
-27.38745077799339
 20
-3.977205404413559
 30
0.0
 10
-28.29298792509968
 20
-3.892954197378069
 30
0.0
 10
-28.97292822299077
 20
-3.808006568871739
 30
0.0
 10
-29.65281040217265
 20
-3.698948243573562
 30
0.0
 10
-30.33263267160288
 20
-3.567229409536938
 30
0.0
 10
-31.01239153890114
 20
-3.413479795002551
 30
0.0
 10
-31.69208586557343
 20
-3.238700981109415
 30
0.0
 10
-32.37171262674001
 20
-3.043966135647649
 30
0.0
 10
-33.05127318081169
 20
-2.830483076344964
 30
0.0
 10
-33.73076569997722
 20
-2.599568214705151
 30
0.0
 10
-34.41020110064751
 20
-2.352655958084306
 30
0.0
 10
-35.08958268501437
 20
-2.091264207785073
 30
0.0
 10
-35.76891670062515
 20
-1.817004836817181
 30
0.0
 10
-36.44821069666801
 20
-1.531569851109534
 30
0.0
 10
-37.12747062650986
 20
-1.236714519452755
 30
0.0
 10
-37.80670310106378
 20
-0.9342523573484523
 30
0.0
 10
-38.48591532213024
 20
-0.6260448421738363
 30
0.0
 10
-39.16511349435724
 20
-0.3139872334963234
 30
0.0
 10
-39.84430595712447
 20
-0.0000019301755932
 30
0.0
 10
-40.5234984197425
 20
0.3139833735266905
 30
0.0
 10
-41.20269659241706
 20
0.6260409810600941
 30
0.0
 10
-41.88190881184762
 20
0.9342485004159218
 30
0.0
 10
-42.56114129246748
 20
1.236710647013641
 30
0.0
 10
-43.24040119981743
 20
1.531566036167246
 30
0.0
 10
-43.91969527915554
 20
1.81700080894393
 30
0.0
 10
-44.59903046350155
 20
2.091261563773578
 30
0.0
 10
-45.27841468761751
 20
2.352650939196248
 30
0.0
 10
-45.9578513002964
 20
2.599564461898591
 30
0.0
 10
-46.63734380364143
 20
2.830479392247861
 30
0.0
 10
-47.31690156615557
 20
3.043960489823673
 30
0.0
 10
-47.99652379910877
 20
3.238698347668539
 30
0.0
 10
-48.67621535131444
 20
3.413477875552256
 30
0.0
 10
-49.35597382520396
 20
3.567217430979686
 30
0.0
 10
-50.03579659303828
 20
3.698974468668711
 30
0.0
 10
-50.71568311128068
 20
3.807877057279938
 30
0.0
 10
-51.39561990561179
 20
3.893422701265929
 30
0.0
 10
-52.07559876730146
 20
3.954455013748239
 30
0.0
 10
-52.75560231171803
 20
3.992860308139621
 30
0.0
 10
-53.20904858227051
 20
3.997619872193055
 30
0.0
 10
-53.43562077740338
 20
3.999998069888115
 30
0.0
  0
LINE
  5
2429
330
1F
100
AcDbEntity
  8
AM_11
 48
0.5
100
AcDbLine
 10
-16.75805997958129
 20
-4.000001930112285
 30
0.0
 11
-3.94853371900856
 21
-4.000001930112452
 31
0.0
  0
LINE
  5
242A
330
1F
100
AcDbEntity
  8
AM_11
 48
0.5
100
AcDbLine
 10
-16.75805997958117
 20
3.999998069887715
 30
0.0
 11
-3.948533719008452
 21
3.999998069887547
 31
0.0
  0
SPLINE
  5
242B
330
1F
100
AcDbEntity
  8
AM_0
 48
0.5
100
AcDbSpline
210
0.0
220
0.0
230
1.0
 70
     8
 71
     3
 72
    25
 73
    21
 74
     0
 42
0.0000000001
 43
0.0000000001
 40
6.846175049578289
 40
6.846175049578289
 40
6.846175049578289
 40
6.846175049578289
 40
7.604337694224321
 40
8.711974558287883
 40
9.814980593243754
 40
10.91239053451967
 40
12.0033633515982
 40
13.08720139956839
 40
14.16337181880432
 40
15.23152222380919
 40
16.29148850140128
 40
17.34331105512262
 40
18.38723020264746
 40
19.42369128463655
 40
20.45333379090873
 40
21.47697865721768
 40
22.49561244472435
 40
23.5103574802404
 40
24.52244778960836
 40
25.53320666051913
 40
25.53320666051913
 40
25.53320666051913
 40
25.53320666051913
 10
-4.741589656625741
 20
0.7240242572909115
 30
0.0
 10
-4.896063311601274
 20
0.7942571433171035
 30
0.0
 10
-5.276540176185425
 20
0.9663938826207996
 30
0.0
 10
-5.88358567946009
 20
1.236710529583628
 30
0.0
 10
-6.562845534489962
 20
1.531566025076751
 30
0.0
 10
-7.242139549939105
 20
1.817000968605559
 30
0.0
 10
-7.921473562209082
 20
2.091260345618757
 30
0.0
 10
-8.600855140757268
 20
2.35265211338047
 30
0.0
 10
-9.280290567729284
 20
2.599564294968476
 30
0.0
 10
-9.959782988553325
 20
2.830479436309401
 30
0.0
 10
-10.63934077283284
 20
3.043960478732828
 30
0.0
 10
-11.3189630003655
 20
3.238698348465827
 30
0.0
 10
-11.99865455273515
 20
3.413477883240213
 30
0.0
 10
-12.67841303127904
 20
3.567217399765468
 30
0.0
 10
-13.35823578051701
 20
3.698974584800763
 30
0.0
 10
-14.03811901755498
 20
3.807876090609793
 30
0.0
 10
-14.71805216368277
 20
3.893423504114715
 30
0.0
 10
-15.39802772534707
 20
3.954454879192778
 30
0.0
 10
-16.0780346644955
 20
3.992860541900584
 30
0.0
 10
-16.53148436135086
 20
3.997619938102854
 30
0.0
 10
-16.75805997958117
 20
3.999998069887715
 30
0.0
  0
SPLINE
  5
242C
330
1F
100
AcDbEntity
  8
AM_0
100
AcDbSpline
210
0.0
220
0.0
230
1.0
 70
     8
 71
     3
 72
    55
 73
    51
 74
     0
 42
0.0000000001
 43
0.0000000001
 40
0.0
 40
0.0
 40
0.0
 40
0.0
 40
1.010743684496582
 40
2.022833576467832
 40
3.037578957496688
 40
4.056212745003489
 40
5.079857003664532
 40
6.109500240690281
 40
7.145961322679372
 40
8.189895241603872
 40
9.241717795325891
 40
10.30168407291828
 40
11.36983447792315
 40
12.44600489715814
 40
13.52984294512926
 40
14.62081576220742
 40
15.7182257034828
 40
16.82123173843959
 40
17.92886860250316
 40
19.0400688939571
 40
20.15368796660465
 40
21.26852814259644
 40
22.38336992938901
 40
23.49698739941135
 40
24.6081876908653
 40
25.71582455492886
 40
26.81883757994213
 40
27.91624752121713
 40
29.00722033829659
 40
30.09105838626677
 40
31.16722880550176
 40
32.23537921050758
 40
33.29534548809967
 40
34.347168041821
 40
35.39108718934584
 40
36.42754827133493
 40
37.45720575381954
 40
38.48085062012849
 40
39.49948440763516
 40
40.51422944315121
 40
41.52631975251916
 40
42.53706336719636
 40
43.54780698187354
 40
44.55989729124051
 40
45.57464232675757
 40
46.59327611426424
 40
47.6169209805722
 40
48.64656348684535
 40
49.68302456883444
 40
50.58557219878025
 40
50.58557219878025
 40
50.58557219878025
 40
50.58557219878025
 10
-3.94853371900856
 20
-4.000001930112453
 30
0.0
 10
-4.175105873837561
 20
-3.997622027018374
 30
0.0
 10
-4.628551954491583
 20
-3.992859051042096
 30
0.0
 10
-5.3085560578008
 20
-3.95446411756164
 30
0.0
 10
-5.988531134298773
 20
-3.893426203203332
 30
0.0
 10
-6.668464127015305
 20
-3.807879244783487
 30
0.0
 10
-7.348348251289463
 20
-3.698982567604365
 30
0.0
 10
-8.02817009452759
 20
-3.567220417835514
 30
0.0
 10
-8.707931930703605
 20
-3.413480392281784
 30
0.0
 10
-9.387627731703798
 20
-3.238703921300713
 30
0.0
 10
-10.06725286756101
 20
-3.043964121821486
 30
0.0
 10
-10.74681072583083
 20
-2.830483355434928
 30
0.0
 10
-11.42630312650472
 20
-2.599568139066602
 30
0.0
 10
-12.10573855929595
 20
-2.352655978594865
 30
0.0
 10
-12.78512013491302
 20
-2.091264202148313
 30
0.0
 10
-13.46445415308321
 20
-1.817004838664435
 30
0.0
 10
-14.1437481477127
 20
-1.531569849396456
 30
0.0
 10
-14.82300808064827
 20
-1.236714524479159
 30
0.0
 10
-15.50224054418496
 20
-0.9342523388623369
 30
0.0
 10
-16.18145280639877
 20
-0.6260449113641581
 30
0.0
 10
-16.86065082462781
 20
-0.3139869745867278
 30
0.0
 10
-17.53984419020012
 20
-0.0000027462575765
 30
0.0
 10
-18.21903450676252
 20
0.3139871339833623
 30
0.0
 10
-18.89823480151527
 20
0.6260402111933053
 30
0.0
 10
-19.57744622523243
 20
0.9342485716178202
 30
0.0
 10
-20.25667989983309
 20
1.236711909480755
 30
0.0
 10
-20.93594265066471
 20
1.531564718050935
 30
0.0
 10
-21.61523771739959
 20
1.817001154871457
 30
0.0
 10
-22.29457183364301
 20
2.091260295959266
 30
0.0
 10
-22.97395338453955
 20
2.352652127375527
 30
0.0
 10
-23.65338881907055
 20
2.599564288208447
 30
0.0
 10
-24.33288123705165
 20
2.830479449361464
 30
0.0
 10
-25.01243902518368
 20
3.043960433731522
 30
0.0
 10
-25.69206124026172
 20
3.238698513660816
 30
0.0
 10
-26.37175283812844
 20
3.4134772737776
 30
0.0
 10
-27.05151442214809
 20
3.567220390849834
 30
0.0
 10
-27.73134111954203
 20
3.698967491552127
 30
0.0
 10
-28.41122748996122
 20
3.807897874554876
 30
0.0
 10
-29.0911606842403
 20
3.893343428097283
 30
0.0
 10
-29.77113623320562
 20
3.954752003474403
 30
0.0
 10
-30.45113975995239
 20
3.991755209514514
 30
0.0
 10
-31.13115822936428
 20
4.004116756251541
 30
0.0
 10
-31.81117669777561
 20
3.991755209495148
 30
0.0
 10
-32.49118022752988
 20
3.954752003552181
 30
0.0
 10
-33.17115576542251
 20
3.893343427804291
 30
0.0
 10
-33.85108900121582
 20
3.807897875656041
 30
0.0
 10
-34.53097190099166
 20
3.698968018464847
 30
0.0
 10
-35.21079592012716
 20
3.567221737892805
 30
0.0
 10
-35.85965022012118
 20
3.420456237939145
 30
0.0
 10
-36.2806342793201
 20
3.313125240349911
 30
0.0
 10
-36.4759463460628
 20
3.260817609303301
 30
0.0
  0
SPLINE
  5
242D
330
1F
100
AcDbEntity
  8
AM_0
 48
0.5
100
AcDbSpline
210
0.0
220
0.0
230
1.0
 70
     8
 71
     3
 72
    17
 73
    13
 74
     0
 42
0.0000000001
 43
0.0000000001
 40
0.0
 40
0.0
 40
0.0
 40
0.0
 40
1.010743614677189
 40
2.022833924044153
 40
3.037578959561199
 40
4.056212747067873
 40
5.079857613375832
 40
6.109500119648989
 40
7.14596120163808
 40
8.18989512056258
 40
9.241717674284874
 40
9.693948937866434
 40
9.693948937866434
 40
9.693948937866434
 40
9.693948937866434
 10
-3.948533719008451
 20
3.999998069887547
 30
0.0
 10
-4.175105915070879
 20
3.997619881867366
 30
0.0
 10
-4.62855218748356
 20
3.992860337176625
 30
0.0
 10
-5.308555717920563
 20
3.954454897289867
 30
0.0
 10
-5.988531253006926
 20
3.893423443321605
 30
0.0
 10
-6.668464499401803
 20
3.80787631701135
 30
0.0
 10
-7.348347359297214
 20
3.698973733753258
 30
0.0
 10
-8.028171528596104
 20
3.56722060489795
 30
0.0
 10
-8.707927882915571
 20
3.413465068908166
 30
0.0
 10
-9.387642799530777
 20
3.2387422476504
 30
0.0
 10
-9.936326404657314
 20
3.081343397068509
 30
0.0
 10
-10.25854558749982
 20
2.982946480509711
 30
0.0
 10
-10.35525849891626
 20
2.952827843048934
 30
0.0
  0
SPLINE
  5
242E
330
1F
100
AcDbEntity
  8
AM_0
100
AcDbSpline
210
0.0
220
0.0
230
1.0
 70
     8
 71
     3
 72
    13
 73
     9
 74
     0
 42
0.0000000001
 43
0.0000000001
 40
16.03460056234195
 40
16.03460056234195
 40
16.03460056234195
 40
16.03460056234195
 40
16.35212717791071
 40
17.38177067057215
 40
18.41822498539278
 40
19.46214186516937
 40
20.5139635832251
 40
21.34083983469381
 40
21.34083983469381
 40
21.34083983469381
 40
21.34083983469381
 10
-64.08536765085108
 20
-4.000365712482762
 30
0.0
 10
-64.02014724056643
 20
-3.986862814565592
 30
0.0
 10
-63.74371436617991
 20
-3.928061376172799
 30
0.0
 10
-63.2567755493401
 20
-3.812844425558984
 30
0.0
 10
-62.62618808370152
 20
-3.641520555289861
 30
0.0
 10
-61.99618643813604
 20
-3.44915174373414
 30
0.0
 10
-61.41322766480056
 20
-3.252533552713089
 30
0.0
 10
-61.0413102332609
 20
-3.117147935604678
 30
0.0
 10
-60.87815228510198
 20
-3.055952403037706
 30
0.0
  0
ELLIPSE
  5
242F
330
1F
100
AcDbEntity
  8
AM_0
 48
0.5
100
AcDbEllipse
 10
-64.51367732226515
 20
-2.707292579525722
 30
0.0
 11
0.0000000000000159
 21
0.9999999999999886
 31
0.0
210
0.0
220
0.0
230
1.0
 40
0.941663876961055
 41
-0.3953601559015774
 42
1.570796326794895
  0
ELLIPSE
  5
2430
330
1F
100
AcDbEntity
  8
AM_0
 48
0.5
100
AcDbEllipse
 10
-64.19955946487097
 20
-2.666668596778389
 30
0.0
 11
0.0000000000000276
 21
1.333333333333329
 31
0.0
210
0.0
220
0.0
230
1.0
 40
0.9416638769610438
 41
1.570796326794899
 42
3.141592339673291
  0
LINE
  5
2431
330
1F
100
AcDbEntity
  8
AM_0
 48
0.5
100
AcDbLine
 10
-57.19562305921277
 20
2.026723838930846
 30
0.0
 11
-65.45510651126853
 21
-0.3235009738943471
 31
0.0
  0
SPLINE
  5
2432
330
1F
100
AcDbEntity
  8
AM_0
 48
0.5
100
AcDbSpline
210
0.0
220
0.0
230
1.0
 70
     8
 71
     3
 72
    26
 73
    22
 74
     0
 42
0.0000000001
 43
0.0000000001
 40
0.0
 40
0.0
 40
0.0
 40
0.0
 40
0.6738291229976858
 40
1.34855571764586
 40
2.025052638331105
 40
2.7041418300023
 40
3.386571335776987
 40
4.073000160460178
 40
4.763974215119558
 40
5.459920313469455
 40
6.161135349283505
 40
6.867779534345081
 40
7.579884616450838
 40
8.297322010138517
 40
9.01989019369366
 40
9.747205405079087
 40
10.47881203259601
 40
11.21414938923388
 40
11.95257396527625
 40
12.69337415957888
 40
13.41285713964268
 40
13.41285713964268
 40
13.41285713964268
 40
13.41285713964268
 10
-53.42081573700434
 20
-4.000001930111886
 30
0.0
 10
-53.63233429110597
 20
-3.997622027121514
 30
0.0
 10
-54.0556531204451
 20
-3.992859051352775
 30
0.0
 10
-54.69047731020365
 20
-3.954464116312792
 30
0.0
 10
-55.32527440355386
 20
-3.893426207905197
 30
0.0
 10
-55.96003220224776
 20
-3.807879227116973
 30
0.0
 10
-56.59474440547766
 20
-3.698982634052002
 30
0.0
 10
-57.22939836731435
 20
-3.567220167572993
 30
0.0
 10
-57.86399366555073
 20
-3.413482066027639
 30
0.0
 10
-58.49852597226088
 20
-3.238702057216031
 30
0.0
 10
-59.132993787349
 20
-3.043964621890366
 30
0.0
 10
-59.76740233250891
 20
-2.830481822045738
 30
0.0
 10
-60.40174897895875
 20
-2.599571845158432
 30
0.0
 10
-61.03604091402471
 20
-2.352651150286252
 30
0.0
 10
-61.67028661862712
 20
-2.091266914052714
 30
0.0
 10
-62.30448746313264
 20
-1.817004760594421
 30
0.0
 10
-62.93864817517521
 20
-1.531568617891102
 30
0.0
 10
-63.5727804003703
 20
-1.236719565317199
 30
0.0
 10
-64.20687365897888
 20
-0.9342333051977698
 30
0.0
 10
-64.83445340217759
 20
-0.6292963904338987
 30
0.0
 10
-65.25024859405245
 20
-0.4244376320888333
 30
0.0
 10
-65.45511130081898
 20
-0.3235035170256868
 30
0.0
  0
SPLINE
  5
2433
330
1F
100
AcDbEntity
  8
AM_0
 48
0.5
100
AcDbSpline
210
0.0
220
0.0
230
1.0
 70
     8
 71
     3
 72
    22
 73
    18
 74
     0
 42
0.0000000001
 43
0.0000000001
 40
0.0
 40
0.0
 40
0.0
 40
0.0
 40
1.010743684496582
 40
2.022833993863546
 40
3.037578683882831
 40
4.056212471389632
 40
5.079857945358201
 40
6.109499720892564
 40
7.145961650132166
 40
8.189873411961459
 40
9.241710626092514
 40
10.30166235592959
 40
11.36982472628033
 40
12.44598212828784
 40
13.52983440361964
 40
14.62080578343036
 40
14.90544694398022
 40
14.90544694398022
 40
14.90544694398022
 40
14.90544694398022
 10
-55.19789211027824
 20
-4.000001930111855
 30
0.0
 10
-55.40941070477202
 20
-3.99762273801865
 30
0.0
 10
-55.83272970229754
 20
-3.992861184008613
 30
0.0
 10
-56.46755322726221
 20
-3.954455555177492
 30
0.0
 10
-57.1023510060699
 20
-3.893427916769379
 30
0.0
 10
-57.73710914777521
 20
-3.807880879487608
 30
0.0
 10
-58.37181960162136
 20
-3.698974042722279
 30
0.0
 10
-59.00647574611893
 20
-3.56722296868744
 30
0.0
 10
-59.64106828130287
 20
-3.413479280457515
 30
0.0
 10
-60.27560157085286
 20
-3.238696741189698
 30
0.0
 10
-60.91006989986281
 20
-3.043966663839501
 30
0.0
 10
-61.54447658400182
 20
-2.830474197592742
 30
0.0
 10
-62.17882571286203
 20
-2.599577892622095
 30
0.0
 10
-62.81311680997283
 20
-2.352650417686025
 30
0.0
 10
-63.44736175803067
 20
-2.091264812597124
 30
0.0
 10
-63.92404116034107
 20
-1.885133982108048
 30
0.0
 10
-64.18966355768965
 20
-1.767316225297794
 30
0.0
 10
-64.24458543684425
 20
-1.742834744133601
 30
0.0
  0
SPLINE
  5
2434
330
1F
100
AcDbEntity
  8
AM_0
100
AcDbSpline
210
0.0
220
0.0
230
1.0
 70
     8
 71
     3
 72
    55
 73
    51
 74
     0
 42
0.0000000001
 43
0.0000000001
 40
0.0
 40
0.0
 40
0.0
 40
0.0
 40
1.010743684496582
 40
2.022833576467832
 40
3.037578957496688
 40
4.056212745003489
 40
5.079857003664532
 40
6.109500240690281
 40
7.145961322679372
 40
8.189895241603872
 40
9.241717795325891
 40
10.30168407291828
 40
11.36983447792315
 40
12.44600489715814
 40
13.52984294512926
 40
14.62081576220742
 40
15.7182257034828
 40
16.82123173843959
 40
17.92886860250316
 40
19.0400688939571
 40
20.15368796660465
 40
21.26852814259644
 40
22.38336992938901
 40
23.49698739941135
 40
24.6081876908653
 40
25.71582455492886
 40
26.81883757994213
 40
27.91624752121713
 40
29.00722033829659
 40
30.09105838626677
 40
31.16722880550176
 40
32.23537921050758
 40
33.29534548809967
 40
34.347168041821
 40
35.39108718934584
 40
36.42754827133493
 40
37.45720575381954
 40
38.48085062012849
 40
39.49948440763516
 40
40.51422944315121
 40
41.52631975251916
 40
42.53706336719636
 40
43.54780698187354
 40
44.55989729124051
 40
45.57464232675757
 40
46.59327611426424
 40
47.6169209805722
 40
48.64656348684535
 40
49.68302456883444
 40
50.58557219878025
 40
50.58557219878025
 40
50.58557219878025
 40
50.58557219878025
 10
-28.15654569788631
 20
-4.000001930112217
 30
0.0
 10
-28.38311785271531
 20
-3.997622027018138
 30
0.0
 10
-28.83656393336933
 20
-3.99285905104186
 30
0.0
 10
-29.51656803667855
 20
-3.954464117561404
 30
0.0
 10
-30.19654311317652
 20
-3.893426203203096
 30
0.0
 10
-30.87647610589306
 20
-3.807879244783252
 30
0.0
 10
-31.55636023016722
 20
-3.698982567604129
 30
0.0
 10
-32.23618207340535
 20
-3.567220417835278
 30
0.0
 10
-32.91594390958135
 20
-3.413480392281548
 30
0.0
 10
-33.59563971058154
 20
-3.238703921300477
 30
0.0
 10
-34.27526484643878
 20
-3.04396412182125
 30
0.0
 10
-34.95482270470859
 20
-2.830483355434691
 30
0.0
 10
-35.63431510538249
 20
-2.599568139066366
 30
0.0
 10
-36.31375053817372
 20
-2.352655978594629
 30
0.0
 10
-36.9931321137908
 20
-2.091264202148078
 30
0.0
 10
-37.67246613196098
 20
-1.817004838664199
 30
0.0
 10
-38.35176012659049
 20
-1.531569849396221
 30
0.0
 10
-39.03102005952602
 20
-1.236714524478924
 30
0.0
 10
-39.71025252306272
 20
-0.934252338862101
 30
0.0
 10
-40.38946478527654
 20
-0.6260449113639223
 30
0.0
 10
-41.06866280350558
 20
-0.3139869745864919
 30
0.0
 10
-41.74785616907789
 20
-0.0000027462573405
 30
0.0
 10
-42.42704648564029
 20
0.3139871339835982
 30
0.0
 10
-43.10624678039303
 20
0.6260402111935412
 30
0.0
 10
-43.78545820411022
 20
0.9342485716180561
 30
0.0
 10
-44.46469187871088
 20
1.236711909480991
 30
0.0
 10
-45.14395462954246
 20
1.53156471805117
 30
0.0
 10
-45.82324969627735
 20
1.817001154871692
 30
0.0
 10
-46.50258381252077
 20
2.091260295959502
 30
0.0
 10
-47.18196536341733
 20
2.352652127375764
 30
0.0
 10
-47.86140079794832
 20
2.599564288208683
 30
0.0
 10
-48.54089321592942
 20
2.830479449361699
 30
0.0
 10
-49.22045100406145
 20
3.043960433731758
 30
0.0
 10
-49.90007321913949
 20
3.238698513661053
 30
0.0
 10
-50.57976481700621
 20
3.413477273777837
 30
0.0
 10
-51.25952640102587
 20
3.56722039085007
 30
0.0
 10
-51.93935309841982
 20
3.698967491552364
 30
0.0
 10
-52.619239468839
 20
3.807897874555111
 30
0.0
 10
-53.29917266311809
 20
3.893343428097519
 30
0.0
 10
-53.97914821208342
 20
3.954752003474638
 30
0.0
 10
-54.65915173883018
 20
3.99175520951475
 30
0.0
 10
-55.33917020824205
 20
4.004116756251776
 30
0.0
 10
-56.01918867665339
 20
3.991755209495384
 30
0.0
 10
-56.69919220640765
 20
3.954752003552417
 30
0.0
 10
-57.37916774430027
 20
3.893343427804527
 30
0.0
 10
-58.05910098009359
 20
3.807897875656278
 30
0.0
 10
-58.7389838798694
 20
3.698968018465083
 30
0.0
 10
-59.41880789900491
 20
3.56722173789304
 30
0.0
 10
-60.06766219899892
 20
3.420456237939381
 30
0.0
 10
-60.48864625819785
 20
3.313125240350147
 30
0.0
 10
-60.68395832494056
 20
3.260817609303537
 30
0.0
  0
LINE
  5
2435
330
1F
100
AcDbEntity
  8
AM_11
 48
0.3
100
AcDbLine
 10
-64.08565438307441
 20
-4.000001930111705
 30
0.0
 11
-55.19788732072779
 21
-4.000001930111854
 31
0.0
  0
LINE
  5
2436
330
1F
100
AcDbEntity
  8
AM_11
 48
0.3
100
AcDbLine
 10
-62.82655960110231
 20
3.999998069888274
 30
0.0
 11
-55.19788732072768
 21
3.999998069888148
 31
0.0
  0
SPLINE
  5
2437
330
1F
100
AcDbEntity
  8
AM_0
100
AcDbSpline
210
0.0
220
0.0
230
1.0
 70
     8
 71
     3
 72
    23
 73
    19
 74
     0
 42
0.0000000001
 43
0.0000000001
 40
16.03460024169435
 40
16.03460024169435
 40
16.03460024169435
 40
16.03460024169435
 40
16.35212704903564
 40
17.38177054169784
 40
18.41822485651776
 40
19.46214173629503
 40
20.51396345435107
 40
21.57393551351153
 40
22.64208202342361
 40
23.7182574881101
 40
24.80209208578934
 40
25.89306333925047
 40
26.99048218457928
 40
28.09348763352352
 40
29.20111863782268
 40
30.31232390128032
 40
31.42594612798585
 40
32.5407912310448
 40
32.5407912310486
 40
32.5407912310486
 40
32.5407912310486
 10
-62.82930328085491
 20
4.000566342480743
 30
0.0
 10
-62.76408289700035
 20
3.987063046879204
 30
0.0
 10
-62.48765025135617
 20
3.928259995120262
 30
0.0
 10
-62.00071116907836
 20
3.813044389675677
 30
0.0
 10
-61.37012378279635
 20
3.641720044365171
 30
0.0
 10
-60.74012211573951
 20
3.449351361458685
 30
0.0
 10
-60.11066894060694
 20
3.237051672774628
 30
0.0
 10
-59.48174191698998
 20
3.006004553830172
 30
0.0
 10
-58.85330469441397
 20
2.757530767392812
 30
0.0
 10
-58.22531351089929
 20
2.493076368573501
 30
0.0
 10
-57.59773268173143
 20
2.214138947214084
 30
0.0
 10
-56.97051189147962
 20
1.922341575175572
 30
0.0
 10
-56.34360031091279
 20
1.619380304854826
 30
0.0
 10
-55.71695617070047
 20
1.306997036546685
 30
0.0
 10
-55.09052704028839
 20
0.9870082361772169
 30
0.0
 10
-54.46425489907227
 20
0.6612824035785235
 30
0.0
 10
-53.838088750821
 20
0.3317070317470696
 30
0.0
 10
-53.42075677732616
 20
0.1107447659291548
 30
0.0
 10
-53.21197698157519
 20
0.0002015204080179
 30
0.0
  0
VIEWPORT
  5
110
330
101
100
AcDbEntity
 67
     1
  8
0
100
AcDbViewport
 10
420.5
 20
297.0
 30
0.0
 40
948.9782706766916
 41
628.452
 68
     1
 69
     1
1001
ACAD
1000
MVIEW
1002
{
1070
    16
1010
0.0
1020
0.0
1030
0.0
1010
0.0
1020
0.0
1030
1.0
1040
0.0
1040
628.452
1040
420.5
1040
297.0
1040
50.0
1040
0.0
1040
0.0
1070
     0
1070
   100
1070
     1
1070
     1
1070
     0
1070
     0
1070
     0
1070
     0
1040
0.0
1040
0.0
1040
0.0
1040
10.0
1040
10.0
1040
10.0
1040
10.0
1070
     0
1002
{
1002
}
1002
}
  0
ENDSEC
  0
SECTION
  2
OBJECTS
  0
DICTIONARY
  5
C
330
0
100
AcDbDictionary
  3
ACAD_GROUP
350
D
  3
ACAD_LAYOUT
350
1A
  3
ACAD_MLINESTYLE
350
17
  3
ACAD_PLOTSETTINGS
350
19
  3
ACAD_PLOTSTYLENAME
350
E
  3
ACDBVARIABLEDICTIONARY
350
34
  3
ACMDICTIONARY
350
43
  3
AMG
350
2B
  3
AMGSNAPSETTINGS
350
6E
  3
DWGPROPS
350
2452
  3
ACDBHEADERROUNDTRIPXREC
350
245F
  0
DICTIONARY
  5
74
330
1F
100
AcDbDictionary
280
     1
  3
ACAD_INDEX
360
2454
  3
ACAD_LAYOUTSELFREF
360
2482
  0
DICTIONARY
  5
2487
330
101
100
AcDbDictionary
280
     1
  3
ACAD_LAYOUTSELFREF
360
2488
  0
DICTIONARY
  5
D
102
{ACAD_REACTORS
330
C
102
}
330
C
100
AcDbDictionary
  0
DICTIONARY
  5
1A
102
{ACAD_REACTORS
330
C
102
}
330
C
100
AcDbDictionary
  0
DICTIONARY
  5
17
102
{ACAD_REACTORS
330
C
102
}
330
C
100
AcDbDictionary
  3
STANDARD
350
18
  0
DICTIONARY
  5
19
102
{ACAD_REACTORS
330
C
102
}
330
C
100
AcDbDictionary
  0
ACDBDICTIONARYWDFLT
  5
E
102
{ACAD_REACTORS
330
C
102
}
330
C
100
AcDbDictionary
281
     1
  3
Normal
350
F
100
AcDbDictionaryWithDefault
340
F
  0
DICTIONARY
  5
34
102
{ACAD_REACTORS
330
C
102
}
330
C
100
AcDbDictionary
  3
INDEXCTL
350
35
  3
SORTENTS
350
B5E
  0
DICTIONARY
  5
43
102
{ACAD_REACTORS
330
C
102
}
330
C
100
AcDbDictionary
  3
ACMSTDDICTIONARY
350
260
  0
DICTIONARY
  5
2B
102
{ACAD_REACTORS
330
C
102
}
330
C
100
AcDbDictionary
  3
ACMGSETTINGS
350
2C
  0
DICTIONARY
  5
6E
102
{ACAD_REACTORS
330
C
102
}
330
C
100
AcDbDictionary
  0
XRECORD
  5
2452
102
{ACAD_REACTORS
330
C
102
}
330
C
100
AcDbXrecord
  1
DWGPROPS COOKIE
  2

  3

  4

  6

  7

  8

  9

300
AmdtFileType=82
301
=
302
=
303
=
304
=
305
=
306
=
307
=
308
=
309
=
 40
0.0494056712962963
 41
2452800.443498622
 42
2452982.723134988
  1

 90
        1
  0
DICTIONARY
  5
245F
102
{ACAD_REACTORS
330
C
102
}
330
C
100
AcDbDictionary
  3
TSTACKALIGN
350
2460
  3
TSTACKSIZE
350
2461
  3
HYPERLINKBASE
350
2462
  3
STYLESHEET
350
2463
  3
LAYOUTDICT
350
2464
  3
PLOTSETDICT
350
2465
  3
PLOTSTYLNAMDICT
350
2466
  3
LWETCUNION
350
2467
  3
INSUNITS
350
2468
  3
CEPSNTYPE
350
2469
  3
FINGERPRINTGUID
350
246A
  3
VERSIONGUID
350
246B
  3
PSVPSCALE
350
246C
  3
DIMSTYLEDATA
350
246D
  3
PUCSORTHOREF
350
246E
  3
PUCSORTHOVIEW
350
246F
  3
PUCSBASE
350
2470
  3
PUCSORGTOP
350
2471
  3
PUCSORGBOTTOM
350
2472
  3
PUCSORGLEFT
350
2473
  3
PUCSORGRIGHT
350
2474
  3
PUCSORGFRONT
350
2475
  3
PUCSORGBACK
350
2476
  3
UCSORTHOREF
350
2477
  3
UCSORTHOVIEW
350
2478
  3
UCSBASE
350
2479
  3
UCSORGTOP
350
247A
  3
UCSORGBOTTOM
350
247B
  3
UCSORGLEFT
350
247C
  3
UCSORGRIGHT
350
247D
  3
UCSORGFRONT
350
247E
  3
UCSORGBACK
350
247F
  0
DICTIONARY
  5
2454
102
{ACAD_REACTORS
330
74
102
}
330
74
100
AcDbDictionary
  3
*A1
350
2455
  0
XRECORD
  5
2482
102
{ACAD_REACTORS
330
74
102
}
330
74
100
AcDbXrecord
340
1F
  0
XRECORD
  5
2488
102
{ACAD_REACTORS
330
2487
102
}
330
2487
100
AcDbXrecord
340
101
  0
MLINESTYLE
  5
18
102
{ACAD_REACTORS
330
17
102
}
330
17
100
AcDbMlineStyle
  2
STANDARD
 70
     0
  3

 62
   256
 51
90.0
 52
90.0
 71
     2
 49
0.5
 62
   256
  6
BYLAYER
 49
-0.5
 62
   256
  6
BYLAYER
  0
ACDBPLACEHOLDER
  5
F
102
{ACAD_REACTORS
330
E
102
}
330
E
100
AcDbPlaceHolder
280
     0
  0
DICTIONARYVAR
  5
35
102
{ACAD_REACTORS
330
34
102
}
330
34
100
DictionaryVariables
280
     0
  1
1
  0
DICTIONARYVAR
  5
B5E
102
{ACAD_REACTORS
330
34
102
}
330
34
100
DictionaryVariables
280
     0
  1
96
  0
DICTIONARY
  5
260
102
{ACAD_REACTORS
330
43
102
}
330
43
100
AcDbDictionary
  0
DICTIONARY
  5
2C
102
{ACAD_REACTORS
330
2B
102
}
330
2B
100
AcDbDictionary
  3
DWGSETTINGS
350
2D
  0
XRECORD
  5
2460
102
{ACAD_REACTORS
330
245F
102
}
330
245F
100
AcDbXrecord
 90
        1
  0
XRECORD
  5
2461
102
{ACAD_REACTORS
330
245F
102
}
330
245F
100
AcDbXrecord
 90
       70
  0
XRECORD
  5
2462
102
{ACAD_REACTORS
330
245F
102
}
330
245F
100
AcDbXrecord
  1

  0
XRECORD
  5
2463
102
{ACAD_REACTORS
330
245F
102
}
330
245F
100
AcDbXrecord
  1
ASAMI.ctb
  0
XRECORD
  5
2464
102
{ACAD_REACTORS
330
245F
102
}
330
245F
100
AcDbXrecord
340
1A
  0
XRECORD
  5
2465
102
{ACAD_REACTORS
330
245F
102
}
330
245F
100
AcDbXrecord
340
19
  0
XRECORD
  5
2466
102
{ACAD_REACTORS
330
245F
102
}
330
245F
100
AcDbXrecord
340
E
  0
XRECORD
  5
2467
102
{ACAD_REACTORS
330
245F
102
}
330
245F
100
AcDbXrecord
 90
    10781
  0
XRECORD
  5
2468
102
{ACAD_REACTORS
330
245F
102
}
330
245F
100
AcDbXrecord
 90
        4
  0
XRECORD
  5
2469
102
{ACAD_REACTORS
330
245F
102
}
330
245F
100
AcDbXrecord
 90
        0
  0
XRECORD
  5
246A
102
{ACAD_REACTORS
330
245F
102
}
330
245F
100
AcDbXrecord
  1
{AFB28963-8C59-40AE-9337-C84526B81ACE}
  0
XRECORD
  5
246B
102
{ACAD_REACTORS
330
245F
102
}
330
245F
100
AcDbXrecord
  1
{849434B7-F6FD-45EB-87F2-990452EA5847}
  0
XRECORD
  5
246C
102
{ACAD_REACTORS
330
245F
102
}
330
245F
100
AcDbXrecord
 40
0.0
  0
XRECORD
  5
246D
102
{ACAD_REACTORS
330
245F
102
}
330
245F
100
AcDbXrecord
1000
DSTYLE
1002
{
1070
    79
 70
     2
1070
   341
340
59
1070
   342
340
59
1070
   371
 70
    -1
1070
   372
 70
    -1
1002
}
  0
XRECORD
  5
246E
102
{ACAD_REACTORS
330
245F
102
}
330
245F
100
AcDbXrecord
340
0
  0
XRECORD
  5
246F
102
{ACAD_REACTORS
330
245F
102
}
330
245F
100
AcDbXrecord
 70
     0
  0
XRECORD
  5
2470
102
{ACAD_REACTORS
330
245F
102
}
330
245F
100
AcDbXrecord
340
0
  0
XRECORD
  5
2471
102
{ACAD_REACTORS
330
245F
102
}
330
245F
100
AcDbXrecord
 10
0.0
 20
0.0
 30
0.0
  0
XRECORD
  5
2472
102
{ACAD_REACTORS
330
245F
102
}
330
245F
100
AcDbXrecord
 10
0.0
 20
0.0
 30
0.0
  0
XRECORD
  5
2473
102
{ACAD_REACTORS
330
245F
102
}
330
245F
100
AcDbXrecord
 10
0.0
 20
0.0
 30
0.0
  0
XRECORD
  5
2474
102
{ACAD_REACTORS
330
245F
102
}
330
245F
100
AcDbXrecord
 10
0.0
 20
0.0
 30
0.0
  0
XRECORD
  5
2475
102
{ACAD_REACTORS
330
245F
102
}
330
245F
100
AcDbXrecord
 10
0.0
 20
0.0
 30
0.0
  0
XRECORD
  5
2476
102
{ACAD_REACTORS
330
245F
102
}
330
245F
100
AcDbXrecord
 10
0.0
 20
0.0
 30
0.0
  0
XRECORD
  5
2477
102
{ACAD_REACTORS
330
245F
102
}
330
245F
100
AcDbXrecord
340
0
  0
XRECORD
  5
2478
102
{ACAD_REACTORS
330
245F
102
}
330
245F
100
AcDbXrecord
 70
     0
  0
XRECORD
  5
2479
102
{ACAD_REACTORS
330
245F
102
}
330
245F
100
AcDbXrecord
340
0
  0
XRECORD
  5
247A
102
{ACAD_REACTORS
330
245F
102
}
330
245F
100
AcDbXrecord
 10
0.0
 20
0.0
 30
0.0
  0
XRECORD
  5
247B
102
{ACAD_REACTORS
330
245F
102
}
330
245F
100
AcDbXrecord
 10
0.0
 20
0.0
 30
0.0
  0
XRECORD
  5
247C
102
{ACAD_REACTORS
330
245F
102
}
330
245F
100
AcDbXrecord
 10
0.0
 20
0.0
 30
0.0
  0
XRECORD
  5
247D
102
{ACAD_REACTORS
330
245F
102
}
330
245F
100
AcDbXrecord
 10
0.0
 20
0.0
 30
0.0
  0
XRECORD
  5
247E
102
{ACAD_REACTORS
330
245F
102
}
330
245F
100
AcDbXrecord
 10
0.0
 20
0.0
 30
0.0
  0
XRECORD
  5
247F
102
{ACAD_REACTORS
330
245F
102
}
330
245F
100
AcDbXrecord
 10
0.0
 20
0.0
 30
0.0
  0
LAYER_INDEX
  5
2455
102
{ACAD_REACTORS
330
2454
102
}
330
2454
100
AcDbIndex
 40
2453151.585112292
100
AcDbLayerIndex
  8
0
360
2456
 90
        0
  8
AM_0
360
2457
 90
       44
  8
AM_7
360
2458
 90
        1
  8
AM_11
360
2459
 90
        6
  8
AM_5
360
245A
 90
        5
  8
Defpoints
360
245B
 90
        0
  8
AM_6
360
245C
 90
        1
  8
AM_CL
360
245D
 90
        0
  0
XRECORD
  5
2D
102
{ACAD_REACTORS
330
2C
102
}
330
2C
100
AcDbXrecord
  1
VERSION
140
15.0
  1
PRODUCT
  2
AutoCAD Mechanical 2000
  0
IDBUFFER
  5
2456
330
0
100
AcDbIdBuffer
  0
IDBUFFER
  5
2457
330
0
100
AcDbIdBuffer
330
229B
330
229C
330
2418
330
2419
330
241A
330
241B
330
241C
330
241D
330
241E
330
241F
330
2420
330
2421
330
2422
330
2423
330
2424
330
2427
330
2428
330
242B
330
242C
330
242D
330
242E
330
242F
330
2430
330
2431
330
2432
330
2433
330
2434
330
2437
330
C30
330
1E12
330
1E16
330
1E1D
330
1E21
330
1E22
330
20CE
330
20CF
330
20D0
330
20D2
330
20E4
330
20EF
330
20F0
330
20F5
330
20FD
330
229A
  0
IDBUFFER
  5
2458
330
0
100
AcDbIdBuffer
330
C9F
  0
IDBUFFER
  5
2459
330
0
100
AcDbIdBuffer
330
2425
330
2426
330
2429
330
242A
330
2435
330
2436
  0
IDBUFFER
  5
245A
330
0
100
AcDbIdBuffer
330
CC6
330
DF5
330
11B2
330
20BF
330
2157
  0
IDBUFFER
  5
245B
330
0
100
AcDbIdBuffer
  0
IDBUFFER
  5
245C
330
0
100
AcDbIdBuffer
330
19BD
  0
IDBUFFER
  5
245D
330
0
100
AcDbIdBuffer
  0
ENDSEC
  0
EOF
