  0
SECTION
  2
HEADER
  9
$ACADVER
  1
AC1014
  9
$ACADMAINTVER
 70
     9
  9
$DWGCODEPAGE
  3
ANSI_932
  9
$INSBASE
 10
0.0
 20
0.0
 30
0.0
  9
$EXTMIN
 10
-141.1499755686908
 20
-27.75003143075874
 30
-0.00000001
  9
$EXTMAX
 10
13.96806287202249
 20
13.64550037054431
 30
0.00000001
  9
$LIMMIN
 10
-144.2947427153176
 20
-45.0190390766545
  9
$LIMMAX
 10
17.32561424894453
 20
28.94485128504129
  9
$ORTHOMODE
 70
     0
  9
$REGENMODE
 70
     1
  9
$FILLMODE
 70
     1
  9
$QTEXTMODE
 70
     0
  9
$MIRRTEXT
 70
     0
  9
$DRAGMODE
 70
     2
  9
$LTSCALE
 40
1.0
  9
$OSMODE
 70
    55
  9
$ATTMODE
 70
     1
  9
$TEXTSIZE
 40
2.5
  9
$TRACEWID
 40
1.0
  9
$TEXTSTYLE
  7
STANDARD
  9
$CLAYER
  8
AM_0
  9
$CELTYPE
  6
BYLAYER
  9
$CECOLOR
 62
   256
  9
$CELTSCALE
 40
1.0
  9
$DELOBJ
 70
     1
  9
$DISPSILH
 70
     0
  9
$DIMSCALE
 40
0.5
  9
$DIMASZ
 40
2.5
  9
$DIMEXO
 40
1.0
  9
$DIMDLI
 40
12.0
  9
$DIMRND
 40
0.0
  9
$DIMDLE
 40
0.0
  9
$DIMEXE
 40
1.0
  9
$DIMTP
 40
0.1
  9
$DIMTM
 40
0.1
  9
$DIMTXT
 40
3.2
  9
$DIMCEN
 40
0.0
  9
$DIMTSZ
 40
0.0
  9
$DIMTOL
 70
     0
  9
$DIMLIM
 70
     0
  9
$DIMTIH
 70
     0
  9
$DIMTOH
 70
     0
  9
$DIMSE1
 70
     0
  9
$DIMSE2
 70
     0
  9
$DIMTAD
 70
     3
  9
$DIMZIN
 70
     8
  9
$DIMBLK
  1
OPEN30
  9
$DIMASO
 70
     1
  9
$DIMSHO
 70
     1
  9
$DIMPOST
  1

  9
$DIMAPOST
  1
"
  9
$DIMALT
 70
     0
  9
$DIMALTD
 70
     2
  9
$DIMALTF
 40
0.0393701
  9
$DIMLFAC
 40
1.0
  9
$DIMTOFL
 70
     1
  9
$DIMTVP
 40
0.0
  9
$DIMTIX
 70
     0
  9
$DIMSOXD
 70
     0
  9
$DIMSAH
 70
     0
  9
$DIMBLK1
  1

  9
$DIMBLK2
  1

  9
$DIMSTYLE
  2
AM_JIS
  9
$DIMCLRD
 70
   256
  9
$DIMCLRE
 70
   256
  9
$DIMCLRT
 70
     2
  9
$DIMTFAC
 40
0.71
  9
$DIMGAP
 40
1.5
  9
$DIMJUST
 70
     0
  9
$DIMSD1
 70
     0
  9
$DIMSD2
 70
     0
  9
$DIMTOLJ
 70
     0
  9
$DIMTZIN
 70
     0
  9
$DIMALTZ
 70
     0
  9
$DIMALTTZ
 70
     0
  9
$DIMFIT
 70
     3
  9
$DIMUPT
 70
     0
  9
$DIMUNIT
 70
     2
  9
$DIMDEC
 70
     3
  9
$DIMTDEC
 70
     3
  9
$DIMALTU
 70
     2
  9
$DIMALTTD
 70
     2
  9
$DIMTXSTY
  7
ASAMI
  9
$DIMAUNIT
 70
     0
  9
$LUNITS
 70
     2
  9
$LUPREC
 70
     2
  9
$SKETCHINC
 40
1.0
  9
$FILLETRAD
 40
2.5
  9
$AUNITS
 70
     0
  9
$AUPREC
 70
     0
  9
$MENU
  1
.
  9
$ELEVATION
 40
0.0
  9
$PELEVATION
 40
0.0
  9
$THICKNESS
 40
0.0
  9
$LIMCHECK
 70
     0
  9
$BLIPMODE
 70
     0
  9
$CHAMFERA
 40
2.5
  9
$CHAMFERB
 40
2.5
  9
$CHAMFERC
 40
20.0
  9
$CHAMFERD
 40
0.0
  9
$SKPOLY
 70
     0
  9
$TDCREATE
 40
2452800.443498622
  9
$TDUPDATE
 40
2453151.679077673
  9
$TDINDWG
 40
0.1206193750
  9
$TDUSRTIMER
 40
0.1206193750
  9
$USRTIMER
 70
     1
  9
$ANGBASE
 50
0.0
  9
$ANGDIR
 70
     0
  9
$PDMODE
 70
     3
  9
$PDSIZE
 40
0.0
  9
$PLINEWID
 40
0.0
  9
$COORDS
 70
     1
  9
$SPLFRAME
 70
     0
  9
$SPLINETYPE
 70
     6
  9
$SPLINESEGS
 70
     8
  9
$ATTDIA
 70
     1
  9
$ATTREQ
 70
     1
  9
$HANDLING
 70
 12289
  9
$HANDSEED
  5
2EB0
  9
$SURFTAB1
 70
     6
  9
$SURFTAB2
 70
     6
  9
$SURFTYPE
 70
     6
  9
$SURFU
 70
     6
  9
$SURFV
 70
     6
  9
$UCSNAME
  2

  9
$UCSORG
 10
0.0
 20
0.0
 30
0.0
  9
$UCSXDIR
 10
1.0
 20
0.000000000000002
 30
0.0
  9
$UCSYDIR
 10
-0.000000000000002
 20
1.0
 30
0.0
  9
$PUCSNAME
  2

  9
$PUCSORG
 10
0.0
 20
0.0
 30
0.0
  9
$PUCSXDIR
 10
1.0
 20
0.0
 30
0.0
  9
$PUCSYDIR
 10
0.0
 20
1.0
 30
0.0
  9
$USERI1
 70
     0
  9
$USERI2
 70
     0
  9
$USERI3
 70
     0
  9
$USERI4
 70
     0
  9
$USERI5
 70
     0
  9
$USERR1
 40
0.0
  9
$USERR2
 40
0.0
  9
$USERR3
 40
0.0
  9
$USERR4
 40
0.0
  9
$USERR5
 40
0.0
  9
$WORLDVIEW
 70
     1
  9
$SHADEDGE
 70
     3
  9
$SHADEDIF
 70
    70
  9
$TILEMODE
 70
     1
  9
$MAXACTVP
 70
    64
  9
$PINSBASE
 10
0.0
 20
0.0
 30
0.0
  9
$PLIMCHECK
 70
     0
  9
$PEXTMIN
 10
1.000000000000000E+20
 20
1.000000000000000E+20
 30
1.000000000000000E+20
  9
$PEXTMAX
 10
-1.000000000000000E+20
 20
-1.000000000000000E+20
 30
-1.000000000000000E+20
  9
$PLIMMIN
 10
0.0
 20
0.0
  9
$PLIMMAX
 10
841.0
 20
594.0
  9
$UNITMODE
 70
     0
  9
$VISRETAIN
 70
     1
  9
$PLINEGEN
 70
     0
  9
$PSLTSCALE
 70
     0
  9
$TREEDEPTH
 70
  3020
  9
$PICKSTYLE
 70
     0
  9
$CMLSTYLE
  2
STANDARD
  9
$CMLJUST
 70
     0
  9
$CMLSCALE
 40
20.0
  9
$PROXYGRAPHICS
 70
     1
  9
$MEASUREMENT
 70
     1
  0
ENDSEC
  0
SECTION
  2
CLASSES
  0
CLASS
  1
ACDBDICTIONARYWDFLT
  2
AcDbDictionaryWithDefault
  3
AutoCAD 2000
 90
        0
280
     0
281
     0
  0
CLASS
  1
ACDBPLACEHOLDER
  2
AcDbPlaceHolder
  3
AutoCAD 2000
 90
        0
280
     0
281
     0
  0
CLASS
  1
LAYOUT
  2
AcDbLayout
  3
AutoCAD 2000
 90
        0
280
     0
281
     0
  0
CLASS
  1
AMGSETTINGSOBJ
  2
AmgSettingsObj
  3
"AcadM|Product Description: AutoCAD Mechanical 2000|Company: Autodesk"
 90
        0
280
     0
281
     0
  0
CLASS
  1
ACME_DOCUMENT
  2
AcMeDbDoc
  3
AcMeServices
 90
        0
280
     0
281
     0
  0
CLASS
  1
ACMESCOPE
  2
AcMeScope
  3
AcMeServices
 90
        0
280
     0
281
     0
  0
CLASS
  1
ACMECOMMANDHISTORY
  2
AcMeCommandHistory
  3
AcMeServices
 90
        0
280
     0
281
     0
  0
CLASS
  1
DICTIONARYVAR
  2
AcDbDictionaryVar
  3
AutoCAD 2000
 90
        0
280
     0
281
     0
  0
CLASS
  1
ACIMSYSVARMAN
  2
AcImSysVarManager
  3
AcMeServices
 90
        0
280
     0
281
     0
  0
CLASS
  1
ACIMREALSYSVAR
  2
AcImRealSysVar
  3
AcMeServices
 90
        0
280
     0
281
     0
  0
CLASS
  1
ACIMINTSYSVAR
  2
AcImIntSysVar
  3
AcMeServices
 90
        0
280
     0
281
     0
  0
CLASS
  1
ACMEDRAWINGMAN
  2
AcMeDrawingMan
  3
AcMeServices
 90
        0
280
     0
281
     0
  0
CLASS
  1
ACMEVIEW
  2
AcMeView
  3
AcMeServices
 90
        0
280
     0
281
     0
  0
CLASS
  1
ACDBENTITYCACHE
  2
AcMeEntityCache
  3
AcMeServices
 90
        0
280
     0
281
     0
  0
CLASS
  1
GSMANAGER
  2
AcMeGSManager
  3
AcMeServices
 90
        0
280
     0
281
     0
  0
CLASS
  1
AmdtInternalReactor
  2
AmdtInternalReactor
  3
AcMeServices
 90
        0
280
     0
281
     0
  0
CLASS
  1
ACMESTATEMGR
  2
AcMeStateMgr
  3
AcMeServices
 90
        0
280
     0
281
     0
  0
CLASS
  1
ACME_DATABASE
  2
AcMeDbDatabase
  3
AcMeServices
 90
        0
280
     0
281
     0
  0
CLASS
  1
ACRFINSADJUSTERMGR
  2
AcRfInsAdjusterMgr
  3
AcMeServices
 90
        0
280
     0
281
     0
  0
CLASS
  1
ACMDATADICTIONARY
  2
AcmDataDictionary
  3
"AcmSymBB|Product Description: AutoCAD Mechanical 2000|Company: Autodesk"
 90
        0
280
     0
281
     0
  0
CLASS
  1
ACMDATAENTRYBLOCK
  2
AcmDataEntryBlock
  3
"AcmSymBB|Product Description: AutoCAD Mechanical 2000|Company: Autodesk"
 90
        0
280
     0
281
     0
  0
CLASS
  1
AMGOBJPROPCFG
  2
AmgObjPropCfg
  3
"AmgLay|Product Description: AutoCAD Mechanical 2000|Company: Autodesk"
 90
        1
280
     0
281
     0
  0
CLASS
  1
ACAMGFILTERDAT
  2
AcAmgFilterDat
  3
"AcadM|Product Description: AutoCAD Mechanical 2000|Company: Autodesk"
 90
        0
280
     0
281
     0
  0
CLASS
  1
LAYER_INDEX
  2
AcDbLayerIndex
  3
AutoCAD 2000
 90
        0
280
     0
281
     0
  0
CLASS
  1
IDBUFFER
  2
AcDbIdBuffer
  3
AutoCAD 2000
 90
        0
280
     0
281
     0
  0
CLASS
  1
ACIMSTRSYSVAR
  2
AcImStrSysVar
  3
AcMeServices
 90
        0
280
     0
281
     0
  0
CLASS
  1
ACMSTANDARDJIS
  2
AcmStandardJIS
  3
"AcmSymBB|Product Description: AutoCAD Mechanical 2000|Company: Autodesk"
 90
        0
280
     0
281
     0
  0
CLASS
  1
ACMSURFSTANDARDJIS
  2
AcmSurfTextStdJIS
  3
"AcmSymBB|Product Description: AutoCAD Mechanical 2000|Company: Autodesk"
 90
        0
280
     0
281
     0
  0
CLASS
  1
ACMFCFSTANDARDJIS
  2
AcmFCFStdJIS
  3
"AcmSymBB|Product Description: AutoCAD Mechanical 2000|Company: Autodesk"
 90
        0
280
     0
281
     0
  0
CLASS
  1
ACMWELDSTANDARDJIS
  2
AcmWeldingStdJIS
  3
"AcmSymBB|Product Description: AutoCAD Mechanical 2000|Company: Autodesk"
 90
        0
280
     0
281
     0
  0
CLASS
  1
ACMIDSTANDARDJIS
  2
AcmIdStdJIS
  3
"AcmSymBB|Product Description: AutoCAD Mechanical 2000|Company: Autodesk"
 90
        0
280
     0
281
     0
  0
CLASS
  1
ACMDATUMSTANDARDJIS
  2
AcmDatumStdJIS
  3
"AcmSymBB|Product Description: AutoCAD Mechanical 2000|Company: Autodesk"
 90
        0
280
     0
281
     0
  0
CLASS
  1
ACMBOMSTANDARDJIS
  2
AcmBOMStdJIS
  3
"AcmSymBB|Product Description: AutoCAD Mechanical 2000|Company: Autodesk"
 90
        0
280
     0
281
     0
  0
CLASS
  1
ACMSTANDARDANSI
  2
AcmStandardANSI
  3
"AcmSymBB|Product Description: AutoCAD Mechanical 2000|Company: Autodesk"
 90
        0
280
     0
281
     0
  0
CLASS
  1
ACMSURFSTANDARDANSI
  2
AcmSurfTextStdANSI
  3
"AcmSymBB|Product Description: AutoCAD Mechanical 2000|Company: Autodesk"
 90
        0
280
     0
281
     0
  0
CLASS
  1
ACMFCFSTANDARDANSI
  2
AcmFCFStdANSI
  3
"AcmSymBB|Product Description: AutoCAD Mechanical 2000|Company: Autodesk"
 90
        0
280
     0
281
     0
  0
CLASS
  1
ACMWELDSTANDARDANSI
  2
AcmWeldingStdANSI
  3
"AcmSymBB|Product Description: AutoCAD Mechanical 2000|Company: Autodesk"
 90
        0
280
     0
281
     0
  0
CLASS
  1
ACMIDSTANDARDANSI
  2
AcmIdStdANSI
  3
"AcmSymBB|Product Description: AutoCAD Mechanical 2000|Company: Autodesk"
 90
        0
280
     0
281
     0
  0
CLASS
  1
ACMDATUMSTANDARDANSI
  2
AcmDatumStdANSI
  3
"AcmSymBB|Product Description: AutoCAD Mechanical 2000|Company: Autodesk"
 90
        0
280
     0
281
     0
  0
CLASS
  1
ACMBOMSTANDARDANSI
  2
AcmBOMStdANSI
  3
"AcmSymBB|Product Description: AutoCAD Mechanical 2000|Company: Autodesk"
 90
        0
280
     0
281
     0
  0
CLASS
  1
ACMSTANDARDBSI
  2
AcmStandardBSI
  3
"AcmSymBB|Product Description: AutoCAD Mechanical 2000|Company: Autodesk"
 90
        0
280
     0
281
     0
  0
CLASS
  1
ACMSURFSTANDARDBSI
  2
AcmSurfTextStdBSI
  3
"AcmSymBB|Product Description: AutoCAD Mechanical 2000|Company: Autodesk"
 90
        0
280
     0
281
     0
  0
CLASS
  1
ACMFCFSTANDARDBSI
  2
AcmFCFStdBSI
  3
"AcmSymBB|Product Description: AutoCAD Mechanical 2000|Company: Autodesk"
 90
        0
280
     0
281
     0
  0
CLASS
  1
ACMWELDSTANDARDBSI
  2
AcmWeldingStdBSI
  3
"AcmSymBB|Product Description: AutoCAD Mechanical 2000|Company: Autodesk"
 90
        0
280
     0
281
     0
  0
CLASS
  1
ACMIDSTANDARDBSI
  2
AcmIdStdBSI
  3
"AcmSymBB|Product Description: AutoCAD Mechanical 2000|Company: Autodesk"
 90
        0
280
     0
281
     0
  0
CLASS
  1
ACMDATUMSTANDARDBSI
  2
AcmDatumStdBSI
  3
"AcmSymBB|Product Description: AutoCAD Mechanical 2000|Company: Autodesk"
 90
        0
280
     0
281
     0
  0
CLASS
  1
ACMBOMSTANDARDBSI
  2
AcmBOMStdBSI
  3
"AcmSymBB|Product Description: AutoCAD Mechanical 2000|Company: Autodesk"
 90
        0
280
     0
281
     0
  0
CLASS
  1
LONG_TRANSACTION
  2
AcDbLongTransaction
  3
AutoCAD 2000
 90
        0
280
     0
281
     0
  0
CLASS
  1
LWPOLYLINE
  2
AcDbPolyline
  3
AutoCAD 2000
 90
        0
280
     0
281
     1
  0
CLASS
  1
HATCH
  2
AcDbHatch
  3
AutoCAD 2000
 90
        0
280
     0
281
     1
  0
CLASS
  1
XRECORD
  2
AcDbXrecord
  3
AutoCAD 2000
 90
        0
280
     0
281
     0
  0
ENDSEC
  0
SECTION
  2
TABLES
  0
TABLE
  2
VPORT
  5
8
330
0
100
AcDbSymbolTable
 70
     3
  0
VPORT
  5
2E85
330
8
100
AcDbSymbolTableRecord
100
AcDbViewportTableRecord
  2
*ACTIVE
 70
     0
 10
0.0
 20
0.0
 11
1.0
 21
1.0
 12
-60.68926847006145
 22
-7.052390744840707
 13
0.0
 23
0.0
 14
2.5
 24
2.5
 15
10.0
 25
10.0
 16
0.0
 26
0.0
 36
1.0
 17
0.0
 27
0.0
 37
0.0
 40
103.2784241739081
 41
1.56570841889117
 42
50.0
 43
0.0
 44
0.0
 50
0.0
 51
0.0
 71
     0
 72
   100
 73
     1
 74
     1
 75
     0
 76
     0
 77
     0
 78
     0
  0
ENDTAB
  0
TABLE
  2
LTYPE
  5
5
330
0
100
AcDbSymbolTable
 70
    10
  0
LTYPE
  5
14
330
5
100
AcDbSymbolTableRecord
100
AcDbLinetypeTableRecord
  2
BYBLOCK
 70
     0
  3

 72
    65
 73
     0
 40
0.0
  0
LTYPE
  5
15
330
5
100
AcDbSymbolTableRecord
100
AcDbLinetypeTableRecord
  2
BYLAYER
 70
     0
  3

 72
    65
 73
     0
 40
0.0
  0
LTYPE
  5
16
330
5
100
AcDbSymbolTableRecord
100
AcDbLinetypeTableRecord
  2
CONTINUOUS
 70
     0
  3
Solid line
 72
    65
 73
     0
 40
0.0
  0
LTYPE
  5
4B
330
5
100
AcDbSymbolTableRecord
100
AcDbLinetypeTableRecord
  2
AM_ISO02W050
 70
     0
  3
__ __ __ __ __ __ __ __ __ __ __ __ __ __ __
 72
    65
 73
     2
 40
7.5
 49
6.0
 74
     0
 49
-1.5
 74
     0
  0
LTYPE
  5
4C
330
5
100
AcDbSymbolTableRecord
100
AcDbLinetypeTableRecord
  2
AM_ISO08W050
 70
     0
  3
____ . ____ . ____ . ____ . ____ . ____ . ____
 72
    65
 73
     4
 40
18.0
 49
12.0
 74
     0
 49
-1.5
 74
     0
 49
3.0
 74
     0
 49
-1.5
 74
     0
  0
LTYPE
  5
4D
330
5
100
AcDbSymbolTableRecord
100
AcDbLinetypeTableRecord
  2
AM_ISO09W050
 70
     0
  3
_____ . . _____ . . _____ . . ____ .. ____
 72
    65
 73
     6
 40
22.5
 49
12.0
 74
     0
 49
-1.5
 74
     0
 49
3.0
 74
     0
 49
-1.5
 74
     0
 49
3.0
 74
     0
 49
-1.5
 74
     0
  0
LTYPE
  5
4E
330
5
100
AcDbSymbolTableRecord
100
AcDbLinetypeTableRecord
  2
AMCONSTR
 70
     0
  3
_______________________
 72
    65
 73
     2
 40
9999.0
 49
9999.0
 74
     0
 49
0.0
 74
     0
  0
LTYPE
  5
4F
330
5
100
AcDbSymbolTableRecord
100
AcDbLinetypeTableRecord
  2
AM_ISO02W050X2
 70
     0
  3
 _ _ _ _ _ _ _ _ _ _ _ _
 72
    65
 73
     2
 40
3.75
 49
3.0
 74
     0
 49
-0.75
 74
     0
  0
LTYPE
  5
50
330
5
100
AcDbSymbolTableRecord
100
AcDbLinetypeTableRecord
  2
AM_ISO08W050X2
 70
     0
  3
__ . __ . __ . __ . __ . __
 72
    65
 73
     4
 40
9.0
 49
6.0
 74
     0
 49
-0.75
 74
     0
 49
1.5
 74
     0
 49
-0.75
 74
     0
  0
LTYPE
  5
53
330
5
100
AcDbSymbolTableRecord
100
AcDbLinetypeTableRecord
  2
AMZIGZAG
 70
     0
  3
/\/-/\/-/\/-/\/-/\/-/\/
 72
    65
 73
     2
 40
11.00009999999999
 49
0.0001
 74
     4
 75
   135
340
52
 46
0.04
 50
0.0
 44
0.0
 45
0.0
 49
-11.0
 74
     0
  0
LTYPE
  5
166
330
5
100
AcDbSymbolTableRecord
100
AcDbLinetypeTableRecord
  2
ACJISTGL
 70
     0
  3
_ _ _ _ _
 72
    65
 73
     2
 40
3.0
 49
2.0
 74
     0
 49
-1.0
 74
     0
  0
LTYPE
  5
26A
330
5
100
AcDbSymbolTableRecord
100
AcDbLinetypeTableRecord
  2
ACJISTGB
 70
     0
  3
__ . . __ . .
 72
    65
 73
     6
 40
9.0
 49
4.0
 74
     0
 49
-1.0
 74
     0
 49
1.0
 74
     0
 49
-1.0
 74
     0
 49
1.0
 74
     0
 49
-1.0
 74
     0
  0
ENDTAB
  0
TABLE
  2
LAYER
  5
2
330
0
100
AcDbSymbolTable
 70
     8
  0
LAYER
  5
10
330
2
100
AcDbSymbolTableRecord
100
AcDbLayerTableRecord
  2
0
 70
     0
 62
     7
  6
CONTINUOUS
  0
LAYER
  5
3F9
330
2
100
AcDbSymbolTableRecord
100
AcDbLayerTableRecord
  2
AM_0
 70
     0
 62
     7
  6
CONTINUOUS
  0
LAYER
  5
C7C
330
2
100
AcDbSymbolTableRecord
100
AcDbLayerTableRecord
  2
AM_7
 70
     0
 62
     4
  6
AM_ISO08W050
  0
LAYER
  5
C97
330
2
100
AcDbSymbolTableRecord
100
AcDbLayerTableRecord
  2
AM_11
 70
     0
 62
     3
  6
AM_ISO09W050
  0
LAYER
  5
CC5
330
2
100
AcDbSymbolTableRecord
100
AcDbLayerTableRecord
  2
AM_5
 70
     0
 62
     3
  6
CONTINUOUS
  0
LAYER
  5
CC7
330
2
100
AcDbSymbolTableRecord
100
AcDbLayerTableRecord
  2
DEFPOINTS
 70
     0
 62
     7
  6
CONTINUOUS
  0
LAYER
  5
19BC
330
2
100
AcDbSymbolTableRecord
100
AcDbLayerTableRecord
  2
AM_6
 70
     0
 62
     2
  6
CONTINUOUS
  0
LAYER
  5
2C33
330
2
100
AcDbSymbolTableRecord
100
AcDbLayerTableRecord
  2
AM_CL
 70
     0
 62
     1
  6
AMCONSTR
  0
ENDTAB
  0
TABLE
  2
STYLE
  5
3
330
0
100
AcDbSymbolTable
 70
     5
  0
STYLE
  5
11
330
3
100
AcDbSymbolTableRecord
100
AcDbTextStyleTableRecord
  2
STANDARD
 70
     0
 40
0.0
 41
1.0
 50
0.0
 71
     0
 42
2.5
  3
simplex.shx
  4
EXTFONT.SHX
  0
STYLE
  5
52
330
3
100
AcDbSymbolTableRecord
100
AcDbTextStyleTableRecord
  2

 70
     1
 40
0.0
 41
1.0
 50
0.0
 71
     0
 42
2.5
  3
ltypeshp.shx
  4

  0
STYLE
  5
6B
330
3
100
AcDbSymbolTableRecord
100
AcDbTextStyleTableRecord
  2
ASAMI
 70
     0
 40
0.0
 41
1.0
 50
0.0
 71
     0
 42
2.5
  3
simplex.shx
  4
EXTFONT.SHX
  0
STYLE
  5
262
330
3
100
AcDbSymbolTableRecord
100
AcDbTextStyleTableRecord
  2
ACJISTS
 70
     0
 40
1.0
 41
1.0
 50
0.0
 71
     0
 42
2.5
  3
simplex.shx
  4
bigfont.shx
  0
STYLE
  5
269
330
3
100
AcDbSymbolTableRecord
100
AcDbTextStyleTableRecord
  2
ACJISGDT
 70
     0
 40
0.0
 41
1.0
 50
0.0
 71
     0
 42
2.5
  3
amgdtans.shx
  4

  0
ENDTAB
  0
TABLE
  2
VIEW
  5
6
330
0
100
AcDbSymbolTable
 70
     0
  0
ENDTAB
  0
TABLE
  2
UCS
  5
7
330
0
100
AcDbSymbolTable
 70
     0
  0
ENDTAB
  0
TABLE
  2
APPID
  5
9
330
0
100
AcDbSymbolTable
 70
    14
  0
APPID
  5
12
330
9
100
AcDbSymbolTableRecord
100
AcDbRegAppTableRecord
  2
ACAD
 70
     0
  0
APPID
  5
30
330
9
100
AcDbSymbolTableRecord
100
AcDbRegAppTableRecord
  2
MCAD_NO_VIS
 70
     0
  0
APPID
  5
31
330
9
100
AcDbSymbolTableRecord
100
AcDbRegAppTableRecord
  2
ACAD_TEMP_GRAPHIC
 70
     0
  0
APPID
  5
2C2
330
9
100
AcDbSymbolTableRecord
100
AcDbRegAppTableRecord
  2
GENIUS_GENDTOL_13
 70
     0
  0
APPID
  5
339
330
9
100
AcDbSymbolTableRecord
100
AcDbRegAppTableRecord
  2
GENIUS_GENODEF_13
 70
     0
  0
APPID
  5
33A
330
9
100
AcDbSymbolTableRecord
100
AcDbRegAppTableRecord
  2
GENIUS_GENOBJ-N-RSBK_13
 70
     0
  0
APPID
  5
33B
330
9
100
AcDbSymbolTableRecord
100
AcDbRegAppTableRecord
  2
GENIUS_GENOBJ-N-LIB_13
 70
     0
  0
APPID
  5
33C
330
9
100
AcDbSymbolTableRecord
100
AcDbRegAppTableRecord
  2
GENIUS_GENSCALE_13
 70
     0
  0
APPID
  5
378
330
9
100
AcDbSymbolTableRecord
100
AcDbRegAppTableRecord
  2
GENIUS_GENDIMSH_14
 70
     0
  0
APPID
  5
C82
330
9
100
AcDbSymbolTableRecord
100
AcDbRegAppTableRecord
  2
GENIUS_GENOBJ-N-CRS_13
 70
     0
  0
APPID
  5
C83
330
9
100
AcDbSymbolTableRecord
100
AcDbRegAppTableRecord
  2
GENIUS_GENOENT_13
 70
     0
  0
APPID
  5
C84
330
9
100
AcDbSymbolTableRecord
100
AcDbRegAppTableRecord
  2
GENIUS_GENOREF_13
 70
     0
  0
APPID
  5
C85
330
9
100
AcDbSymbolTableRecord
100
AcDbRegAppTableRecord
  2
GENIUS_GENOLIS_13
 70
     0
  0
APPID
  5
CA0
330
9
100
AcDbSymbolTableRecord
100
AcDbRegAppTableRecord
  2
GENIUS_GENOBJ-N-CEN_13
 70
     0
  0
ENDTAB
  0
TABLE
  2
DIMSTYLE
  5
A
330
0
100
AcDbSymbolTable
 70
     9
  0
DIMSTYLE
105
58
330
A
100
AcDbSymbolTableRecord
100
AcDbDimStyleTableRecord
  2
AM_JIS
 70
     0
  3

  4
"
  5
OPEN30
  6

  7

 40
0.5
 41
2.5
 42
1.0
 43
12.0
 44
1.0
 45
0.0
 46
0.0
 47
0.1
 48
0.1
140
3.2
141
0.0
142
0.0
143
0.0393701
144
1.0
145
0.0
146
0.71
147
1.5
 71
     0
 72
     0
 73
     0
 74
     0
 75
     0
 76
     0
 77
     3
 78
     8
170
     0
171
     2
172
     1
173
     0
174
     0
175
     0
176
   256
177
   256
178
     2
270
     2
271
     3
272
     3
273
     2
274
     2
340
6B
275
     0
280
     0
281
     0
282
     0
283
     0
284
     0
285
     0
286
     0
287
     3
288
     0
  0
DIMSTYLE
105
5F
330
A
100
AcDbSymbolTableRecord
100
AcDbDimStyleTableRecord
  2
AM_JIS$3
 70
     0
  3

  4
"
  5
OPEN30
  6

  7

 40
0.5
 41
2.5
 42
1.0
 43
10.0
 44
1.0
 45
0.0
 46
0.0
 47
0.1
 48
0.1
140
3.2
141
0.0
142
0.0
143
0.0393701
144
1.0
145
0.0
146
0.71
147
1.5
 71
     0
 72
     0
 73
     0
 74
     1
 75
     0
 76
     0
 77
     3
 78
     8
170
     0
171
     2
172
     0
173
     0
174
     0
175
     0
176
   256
177
   256
178
     2
270
     2
271
     2
272
     3
273
     2
274
     2
340
6B
275
     0
280
     0
281
     0
282
     0
283
     0
284
     0
285
     0
286
     0
287
     0
288
     1
  0
DIMSTYLE
105
60
330
A
100
AcDbSymbolTableRecord
100
AcDbDimStyleTableRecord
  2
AM_JIS$4
 70
     0
  3

  4
"
  5
OPEN30
  6

  7

 40
0.5
 41
2.5
 42
1.0
 43
10.0
 44
1.0
 45
0.0
 46
0.0
 47
0.1
 48
0.1
140
3.2
141
0.0
142
0.0
143
0.0393701
144
1.0
145
0.0
146
0.71
147
1.5
 71
     0
 72
     0
 73
     0
 74
     1
 75
     0
 76
     0
 77
     3
 78
     8
170
     0
171
     2
172
     0
173
     0
174
     0
175
     0
176
   256
177
   256
178
     2
270
     2
271
     2
272
     3
273
     2
274
     2
340
6B
275
     0
280
     0
281
     0
282
     0
283
     0
284
     0
285
     0
286
     0
287
     0
288
     1
  0
DIMSTYLE
105
61
330
A
100
AcDbSymbolTableRecord
100
AcDbDimStyleTableRecord
  2
AM_JIS$6
 70
     0
  3

  4
"
  5
OPEN30
  6

  7

 40
0.5
 41
2.5
 42
1.0
 43
10.0
 44
1.0
 45
0.0
 46
0.0
 47
0.1
 48
0.1
140
3.2
141
0.0
142
0.0
143
0.0393701
144
1.0
145
0.0
146
0.71
147
1.5
 71
     0
 72
     0
 73
     0
 74
     0
 75
     0
 76
     0
 77
     0
 78
     8
170
     0
171
     2
172
     1
173
     0
174
     0
175
     0
176
   256
177
   256
178
     2
270
     2
271
     2
272
     2
273
     2
274
     2
340
6B
275
     0
280
     0
281
     0
282
     0
283
     0
284
     0
285
     0
286
     0
287
     3
288
     0
  0
DIMSTYLE
105
62
330
A
100
AcDbSymbolTableRecord
100
AcDbDimStyleTableRecord
  2
AM_JIS$7
 70
     0
  3

  4
"
  5
OPEN30
  6

  7

 40
0.5
 41
2.5
 42
1.0
 43
10.0
 44
1.0
 45
0.0
 46
0.0
 47
0.1
 48
0.1
140
3.2
141
0.0
142
0.0
143
0.0393701
144
1.0
145
0.0
146
0.71
147
1.5
 71
     0
 72
     0
 73
     0
 74
     0
 75
     0
 76
     0
 77
     3
 78
     8
170
     0
171
     2
172
     1
173
     0
174
     0
175
     0
176
   256
177
   256
178
     2
270
     2
271
     2
272
     3
273
     2
274
     2
340
6B
275
     0
280
     0
281
     0
282
     0
283
     0
284
     0
285
     0
286
     0
287
     3
288
     0
  0
DIMSTYLE
105
63
330
A
100
AcDbSymbolTableRecord
100
AcDbDimStyleTableRecord
  2
AM_JIS$SF
 70
     0
  3

  4
"
  5
OPEN30
  6

  7

 40
0.5
 41
2.5
 42
1.0
 43
10.0
 44
1.0
 45
0.0
 46
0.0
 47
0.1
 48
0.1
140
3.2
141
0.0
142
0.0
143
0.0393701
144
1.0
145
0.0
146
0.71
147
1.5
 71
     0
 72
     0
 73
     0
 74
     0
 75
     1
 76
     1
 77
     3
 78
     8
170
     0
171
     2
172
     1
173
     0
174
     0
175
     0
176
   256
177
   256
178
     2
270
     2
271
     2
272
     2
273
     2
274
     2
340
6B
275
     0
280
     0
281
     0
282
     0
283
     0
284
     0
285
     0
286
     0
287
     3
288
     0
  0
DIMSTYLE
105
68
330
A
100
AcDbSymbolTableRecord
100
AcDbDimStyleTableRecord
  2
AM_JIS$SH
 70
     0
  3

  4
"
  5

  6
GENAXEH
  7
OPEN30
 40
0.5
 41
2.5
 42
1.0
 43
10.0
 44
1.0
 45
0.0
 46
0.0
 47
0.1
 48
0.1
140
3.2
141
0.0
142
0.0
143
0.0393701
144
2.0
145
0.0
146
0.71
147
1.5
 71
     0
 72
     0
 73
     0
 74
     0
 75
     1
 76
     1
 77
     3
 78
     8
170
     0
171
     2
172
     1
173
     1
174
     0
175
     0
176
   256
177
   256
178
     2
270
     2
271
     2
272
     2
273
     2
274
     2
340
6B
275
     0
280
     0
281
     0
282
     0
283
     0
284
     0
285
     0
286
     0
287
     3
288
     0
  0
DIMSTYLE
105
B34
102
{ACAD_REACTORS
330
2CA7
102
}
330
A
100
AcDbSymbolTableRecord
100
AcDbDimStyleTableRecord
  2
AM_JIS$2
 70
     0
  3

  4
"
  5
OPEN30
  6

  7

 40
0.5
 41
2.5
 42
1.0
 43
12.0
 44
1.0
 45
0.0
 46
0.0
 47
0.1
 48
0.1
140
3.2
141
0.0
142
0.0
143
0.0393701
144
1.0
145
0.0
146
0.71
147
1.5
 71
     0
 72
     0
 73
     0
 74
     0
 75
     0
 76
     0
 77
     3
 78
     8
170
     0
171
     2
172
     1
173
     0
174
     0
175
     0
176
   256
177
   256
178
     2
270
     2
271
     3
272
     3
273
     2
274
     2
340
6B
275
     0
280
     0
281
     0
282
     0
283
     0
284
     0
285
     0
286
     0
287
     3
288
     0
  0
DIMSTYLE
105
BA5
102
{ACAD_REACTORS
330
CC6
330
DF5
330
1EEB
330
2A8C
102
}
330
A
100
AcDbSymbolTableRecord
100
AcDbDimStyleTableRecord
  2
AM_JIS$0
 70
     0
  3

  4
"
  5
OPEN30
  6

  7

 40
0.5
 41
2.5
 42
0.0
 43
10.0
 44
1.0
 45
0.0
 46
0.0
 47
0.1
 48
0.1000000001
140
3.799999999999999
141
0.0
142
0.0
143
0.0393701
144
1.0
145
0.0
146
0.71
147
1.5
 71
     0
 72
     0
 73
     0
 74
     0
 75
     0
 76
     0
 77
     3
 78
     1
170
     0
171
     2
172
     1
173
     0
174
     0
175
     0
176
     3
177
     3
178
     2
270
     2
271
     2
272
     2
273
     2
274
     2
340
11
275
     1
280
     0
281
     0
282
     0
283
     0
284
     8
285
     0
286
     0
287
     0
288
     0
  0
ENDTAB
  0
TABLE
  2
BLOCK_RECORD
  5
1
330
0
100
AcDbSymbolTable
 70
    12
  0
BLOCK_RECORD
  5
1F
102
{ACAD_XDICTIONARY
360
74
102
}
330
1
100
AcDbSymbolTableRecord
100
AcDbBlockTableRecord
  2
*MODEL_SPACE
  0
BLOCK_RECORD
  5
101
102
{ACAD_XDICTIONARY
360
2EAE
102
}
330
1
100
AcDbSymbolTableRecord
100
AcDbBlockTableRecord
  2
*PAPER_SPACE
  0
BLOCK_RECORD
  5
59
330
1
100
AcDbSymbolTableRecord
100
AcDbBlockTableRecord
  2
_OPEN30
  0
BLOCK_RECORD
  5
64
330
1
100
AcDbSymbolTableRecord
100
AcDbBlockTableRecord
  2
GENAXEH
  0
BLOCK_RECORD
  5
CC8
330
1
100
AcDbSymbolTableRecord
100
AcDbBlockTableRecord
  2
*D5
  0
BLOCK_RECORD
  5
DF6
330
1
100
AcDbSymbolTableRecord
100
AcDbBlockTableRecord
  2
*D6
  0
BLOCK_RECORD
  5
1EEC
330
1
100
AcDbSymbolTableRecord
100
AcDbBlockTableRecord
  2
*D8
  0
BLOCK_RECORD
  5
2A8D
330
1
100
AcDbSymbolTableRecord
100
AcDbBlockTableRecord
  2
*D9
  0
BLOCK_RECORD
  5
2CA8
330
1
100
AcDbSymbolTableRecord
100
AcDbBlockTableRecord
  2
*D11
  0
ENDTAB
  0
ENDSEC
  0
SECTION
  2
BLOCKS
  0
BLOCK
  5
20
330
1F
100
AcDbEntity
  8
0
100
AcDbBlockBegin
  2
*MODEL_SPACE
 70
     0
 10
0.0
 20
0.0
 30
0.0
  3
*MODEL_SPACE
  1

  0
ENDBLK
  5
21
330
1F
100
AcDbEntity
  8
0
100
AcDbBlockEnd
  0
BLOCK
  5
103
330
101
100
AcDbEntity
 67
     1
  8
0
100
AcDbBlockBegin
  2
*PAPER_SPACE
 70
     0
 10
0.0
 20
0.0
 30
0.0
  3
*PAPER_SPACE
  1

  0
ENDBLK
  5
104
330
101
100
AcDbEntity
 67
     1
  8
0
100
AcDbBlockEnd
  0
BLOCK
  5
5D
330
59
100
AcDbEntity
  8
0
100
AcDbBlockBegin
  2
_OPEN30
 70
     0
 10
0.0
 20
0.0
 30
0.0
  3
_OPEN30
  1

  0
LINE
  5
5A
330
59
100
AcDbEntity
  8
0
 62
     0
100
AcDbLine
 10
-1.0
 20
0.26794919
 30
0.0
 11
0.0
 21
0.0
 31
0.0
  0
LINE
  5
5B
330
59
100
AcDbEntity
  8
0
 62
     0
100
AcDbLine
 10
0.0
 20
0.0
 30
0.0
 11
-1.0
 21
-0.26794919
 31
0.0
  0
LINE
  5
5C
330
59
100
AcDbEntity
  8
0
 62
     0
100
AcDbLine
 10
0.0
 20
0.0
 30
0.0
 11
-1.0
 21
0.0
 31
0.0
  0
ENDBLK
  5
5E
330
59
100
AcDbEntity
  8
0
100
AcDbBlockEnd
  0
BLOCK
  5
66
330
64
100
AcDbEntity
  8
0
100
AcDbBlockBegin
  2
GENAXEH
 70
     0
 10
0.0
 20
0.0
 30
0.0
  3
GENAXEH
  1

  0
LINE
  5
65
330
64
100
AcDbEntity
  8
0
100
AcDbLine
 10
-1.0
 20
0.0
 30
0.0
 11
1.0
 21
0.0
 31
0.0
  0
ENDBLK
  5
67
330
64
100
AcDbEntity
  8
0
100
AcDbBlockEnd
  0
BLOCK
  5
CD2
330
CC8
100
AcDbEntity
  8
0
100
AcDbBlockBegin
  2
*D5
 70
     1
 10
0.0
 20
0.0
 30
0.0
  3
*D5
  1

  0
LINE
  5
2D88
330
CC8
100
AcDbEntity
  8
AM_5
 62
     3
100
AcDbLine
 10
-129.0
 20
-4.234865101779198
 30
0.0
 11
-129.0
 21
-17.00003143075871
 31
0.0
  0
LINE
  5
2D89
330
CC8
100
AcDbEntity
  8
AM_5
 62
     3
100
AcDbLine
 10
-2.000000000000001
 20
-4.049999856186739
 30
0.0
 11
-2.000000000000002
 21
-17.00003143075871
 31
0.0
  0
LINE
  5
2D8A
330
CC8
100
AcDbEntity
  8
AM_5
 62
     3
100
AcDbLine
 10
-127.75
 20
-16.50003143075871
 30
0.0
 11
-3.250000000000002
 21
-16.50003143075871
 31
0.0
  0
INSERT
  5
2D8B
330
CC8
100
AcDbEntity
  8
AM_5
 62
     3
100
AcDbBlockReference
  2
_OPEN30
 10
-129.0
 20
-16.50003143075871
 30
0.0
 41
1.25
 42
1.25
 43
1.25
 50
180.0
  0
INSERT
  5
2D8C
330
CC8
100
AcDbEntity
  8
AM_5
 62
     3
100
AcDbBlockReference
  2
_OPEN30
 10
-2.000000000000002
 20
-16.50003143075871
 30
0.0
 41
1.25
 42
1.25
 43
1.25
  0
MTEXT
  5
2D8D
330
CC8
100
AcDbEntity
  8
AM_5
 62
     2
100
AcDbMText
 10
-65.5
 20
-14.80003143075871
 30
0.0
 40
1.9
 41
0.0
 71
     5
 72
     1
  1
127
1001
ACAD
1000
MTEXTBEGIN
1070
    73
1070
     1
1070
    44
1040
1.0
1070
    74
1070
     0
1000
MTEXTEND
  0
POINT
  5
2D8E
330
CC8
100
AcDbEntity
  8
DEFPOINTS
 62
     0
100
AcDbPoint
 10
-129.0
 20
-4.234865101779198
 30
0.0
  0
POINT
  5
2D8F
330
CC8
100
AcDbEntity
  8
DEFPOINTS
 62
     0
100
AcDbPoint
 10
-2.000000000000001
 20
-4.049999856186739
 30
0.0
  0
POINT
  5
2D90
330
CC8
100
AcDbEntity
  8
DEFPOINTS
 62
     0
100
AcDbPoint
 10
-2.000000000000002
 20
-16.50003143075871
 30
0.0
  0
ENDBLK
  5
CD3
330
CC8
100
AcDbEntity
  8
0
100
AcDbBlockEnd
  0
BLOCK
  5
E00
330
DF6
100
AcDbEntity
  8
0
100
AcDbBlockBegin
  2
*D6
 70
     1
 10
0.0
 20
0.0
 30
0.0
  3
*D6
  1

  0
LINE
  5
2D7F
330
DF6
100
AcDbEntity
  8
AM_5
 62
     3
100
AcDbLine
 10
-73.99999999847472
 20
-4.500000388439782
 30
0.0
 11
-73.99999999847472
 21
-12.00003143075863
 31
0.0
  0
LINE
  5
2D80
330
DF6
100
AcDbEntity
  8
AM_5
 62
     3
100
AcDbLine
 10
-2.000000000000001
 20
-4.049999856186739
 30
0.0
 11
-2.000000000000002
 21
-12.00003143075863
 31
0.0
  0
LINE
  5
2D81
330
DF6
100
AcDbEntity
  8
AM_5
 62
     3
100
AcDbLine
 10
-72.74999999847472
 20
-11.50003143075863
 30
0.0
 11
-3.250000000000002
 21
-11.50003143075863
 31
0.0
  0
INSERT
  5
2D82
330
DF6
100
AcDbEntity
  8
AM_5
 62
     3
100
AcDbBlockReference
  2
_OPEN30
 10
-73.99999999847472
 20
-11.50003143075863
 30
0.0
 41
1.25
 42
1.25
 43
1.25
 50
180.0
  0
INSERT
  5
2D83
330
DF6
100
AcDbEntity
  8
AM_5
 62
     3
100
AcDbBlockReference
  2
_OPEN30
 10
-2.000000000000002
 20
-11.50003143075863
 30
0.0
 41
1.25
 42
1.25
 43
1.25
  0
MTEXT
  5
2D84
330
DF6
100
AcDbEntity
  8
AM_5
 62
     2
100
AcDbMText
 10
-37.99999999923736
 20
-9.800031430758631
 30
0.0
 40
1.9
 41
0.0
 71
     5
 72
     1
  1
72
1001
ACAD
1000
MTEXTBEGIN
1070
    73
1070
     1
1070
    44
1040
1.0
1070
    74
1070
     0
1000
MTEXTEND
  0
POINT
  5
2D85
330
DF6
100
AcDbEntity
  8
DEFPOINTS
 62
     0
100
AcDbPoint
 10
-73.99999999847472
 20
-4.500000388439782
 30
0.0
  0
POINT
  5
2D86
330
DF6
100
AcDbEntity
  8
DEFPOINTS
 62
     0
100
AcDbPoint
 10
-2.000000000000001
 20
-4.049999856186739
 30
0.0
  0
POINT
  5
2D87
330
DF6
100
AcDbEntity
  8
DEFPOINTS
 62
     0
100
AcDbPoint
 10
-2.000000000000002
 20
-11.50003143075863
 30
0.0
  0
ENDBLK
  5
E01
330
DF6
100
AcDbEntity
  8
0
100
AcDbBlockEnd
  0
BLOCK
  5
1EF6
330
1EEC
100
AcDbEntity
  8
0
100
AcDbBlockBegin
  2
*D8
 70
     1
 10
0.0
 20
0.0
 30
0.0
  3
*D8
  1

  0
LINE
  5
2D91
330
1EEC
100
AcDbEntity
  8
AM_5
 62
     3
100
AcDbLine
 10
-128.7053273518916
 20
-4.500007542575746
 30
0.0
 11
-138.9999755686908
 21
-4.500007542575765
 31
0.0
  0
LINE
  5
2D92
330
1EEC
100
AcDbEntity
  8
AM_5
 62
     3
100
AcDbLine
 10
-128.7053273518916
 20
4.499981016489259
 30
0.0
 11
-138.9999755686908
 21
4.49998101648924
 31
0.0
  0
LINE
  5
2D93
330
1EEC
100
AcDbEntity
  8
AM_5
 62
     3
100
AcDbLine
 10
-138.4999755686908
 20
-3.250007542575764
 30
0.0
 11
-138.4999755686908
 21
3.249981016489241
 31
0.0
  0
INSERT
  5
2D94
330
1EEC
100
AcDbEntity
  8
AM_5
 62
     3
100
AcDbBlockReference
  2
_OPEN30
 10
-138.4999755686908
 20
-4.500007542575764
 30
0.0
 41
1.25
 42
1.25
 43
1.25
 50
270.0000000000001
  0
INSERT
  5
2D95
330
1EEC
100
AcDbEntity
  8
AM_5
 62
     3
100
AcDbBlockReference
  2
_OPEN30
 10
-138.4999755686908
 20
4.499981016489241
 30
0.0
 41
1.25
 42
1.25
 43
1.25
 50
90.0000000000001
  0
MTEXT
  5
2D96
330
1EEC
100
AcDbEntity
  8
AM_5
 62
     2
100
AcDbMText
 10
-140.1999755686908
 20
-0.0000132630432595
 30
0.0
 40
1.9
 41
0.0
 71
     5
 72
     1
  1
%%c9
 11
-0.000000000000002
 21
1.0
 31
0.0
1001
ACAD
1000
MTEXTBEGIN
1070
    73
1070
     1
1070
    44
1040
1.0
1070
    74
1070
     0
1000
MTEXTEND
  0
POINT
  5
2D97
330
1EEC
100
AcDbEntity
  8
DEFPOINTS
 62
     0
100
AcDbPoint
 10
-128.7053273518916
 20
-4.50000754257546
 30
0.0
  0
POINT
  5
2D98
330
1EEC
100
AcDbEntity
  8
DEFPOINTS
 62
     0
100
AcDbPoint
 10
-128.7053273518916
 20
4.499981016489545
 30
0.0
  0
POINT
  5
2D99
330
1EEC
100
AcDbEntity
  8
DEFPOINTS
 62
     0
100
AcDbPoint
 10
-138.4999755686908
 20
4.499981016489549
 30
0.0
  0
ENDBLK
  5
1EF7
330
1EEC
100
AcDbEntity
  8
0
100
AcDbBlockEnd
  0
BLOCK
  5
2A97
330
2A8D
100
AcDbEntity
  8
0
100
AcDbBlockBegin
  2
*D9
 70
     1
 10
0.0
 20
0.0
 30
0.0
  3
*D9
  1

  0
LINE
  5
2DA5
330
2A8D
100
AcDbEntity
  8
AM_5
 62
     3
100
AcDbLine
 10
-2.000000000000008
 20
4.050000143813258
 30
0.0
 11
9.819888315414948
 21
4.050000143813281
 31
0.0
  0
LINE
  5
2DA6
330
2A8D
100
AcDbEntity
  8
AM_5
 62
     3
100
AcDbLine
 10
-1.999999999999991
 20
-4.04999985618674
 30
0.0
 11
9.819888315414962
 21
-4.049999856186718
 31
0.0
  0
LINE
  5
2DA7
330
2A8D
100
AcDbEntity
  8
AM_5
 62
     3
100
AcDbLine
 10
9.319888315414949
 20
2.80000014381328
 30
0.0
 11
9.31988831541496
 21
-2.799999856186719
 31
0.0
  0
INSERT
  5
2DA8
330
2A8D
100
AcDbEntity
  8
AM_5
 62
     3
100
AcDbBlockReference
  2
_OPEN30
 10
9.319888315414946
 20
4.05000014381328
 30
0.0
 41
1.25
 42
1.25
 43
1.25
 50
90.0000000000001
  0
INSERT
  5
2DA9
330
2A8D
100
AcDbEntity
  8
AM_5
 62
     3
100
AcDbBlockReference
  2
_OPEN30
 10
9.319888315414964
 20
-4.049999856186719
 30
0.0
 41
1.25
 42
1.25
 43
1.25
 50
270.0000000000001
  0
MTEXT
  5
2DAA
330
2A8D
100
AcDbEntity
  8
AM_5
 62
     2
100
AcDbMText
 10
7.619888315414955
 20
0.0000001438132768
 30
0.0
 40
1.9
 41
0.0
 71
     5
 72
     1
  1
%%c8.1
 11
-0.000000000000002
 21
1.0
 31
0.0
1001
ACAD
1000
MTEXTBEGIN
1070
    73
1070
     1
1070
    44
1040
1.0
1070
    74
1070
     0
1000
MTEXTEND
  0
POINT
  5
2DAB
330
2A8D
100
AcDbEntity
  8
DEFPOINTS
 62
     0
100
AcDbPoint
 10
-2.0
 20
4.050000143813263
 30
0.0
  0
POINT
  5
2DAC
330
2A8D
100
AcDbEntity
  8
DEFPOINTS
 62
     0
100
AcDbPoint
 10
-2.0
 20
-4.049999856186737
 30
0.0
  0
POINT
  5
2DAD
330
2A8D
100
AcDbEntity
  8
DEFPOINTS
 62
     0
100
AcDbPoint
 10
9.319888315414953
 20
-4.049999856186739
 30
0.0
  0
ENDBLK
  5
2A98
330
2A8D
100
AcDbEntity
  8
0
100
AcDbBlockEnd
  0
BLOCK
  5
2CB8
330
2CA8
100
AcDbEntity
  8
0
100
AcDbBlockBegin
  2
*D11
 70
     1
 10
0.0
 20
0.0
 30
0.0
  3
*D11
  1

  0
LINE
  5
2D9A
330
2CA8
100
AcDbEntity
  8
AM_5
100
AcDbLine
 10
0.171010071662763
 20
-0.4698463103929555
 30
0.0
 11
4.966555966546227
 21
-13.64550037054423
 31
0.0
  0
LINE
  5
2D9B
330
2CA8
100
AcDbEntity
  8
AM_5
100
AcDbLine
 10
0.1710100716627556
 20
0.4698463103929611
 30
0.0
 11
4.966555966546014
 21
13.64550037054431
 31
0.0
  0
ARC
  5
2D9C
330
2CA8
100
AcDbEntity
  8
AM_5
100
AcDbCircle
 10
-0.0000000000000639
 20
0.0000000000000015
 30
0.0
 40
14.02123818864491
100
AcDbArc
 50
295.1096388312757
 51
64.89036116872518
  0
INSERT
  5
2D9D
330
2CA8
100
AcDbEntity
  8
AM_5
100
AcDbBlockReference
  2
_OPEN30
 10
4.7955458948834
 20
-13.17565406015127
 30
0.0
 41
1.25
 42
1.25
 43
1.25
 50
202.5548194156373
  0
INSERT
  5
2D9E
330
2CA8
100
AcDbEntity
  8
AM_5
100
AcDbBlockReference
  2
_OPEN30
 10
4.795545894883194
 20
13.17565406015135
 30
0.0
 41
1.25
 42
1.25
 43
1.25
 50
157.4451805843634
  0
MTEXT
  5
2D9F
330
2CA8
100
AcDbEntity
  8
AM_5
 62
     2
100
AcDbMText
 10
12.47123818864485
 20
0.0000000000001107
 30
0.0
 40
1.6
 41
0.0
 71
     5
 72
     1
  1
140°
  7
ASAMI
 11
-0.000000000000002
 21
1.0
 31
0.0
1001
ACAD
1000
MTEXTBEGIN
1070
    73
1070
     1
1070
    44
1040
1.0
1070
    74
1070
     0
1000
MTEXTEND
  0
POINT
  5
2DA0
330
2CA8
100
AcDbEntity
  8
DEFPOINTS
 62
     0
100
AcDbPoint
 10
12.87452674321848
 20
-5.553528741337792
 30
0.0
  0
POINT
  5
2DA1
330
2CA8
100
AcDbEntity
  8
DEFPOINTS
 62
     0
100
AcDbPoint
 10
-0.0000000000000639
 20
0.0000000000000015
 30
0.0
  0
POINT
  5
2DA2
330
2CA8
100
AcDbEntity
  8
DEFPOINTS
 62
     0
100
AcDbPoint
 10
-0.4058444933443237
 20
1.115048581273418
 30
0.0
  0
POINT
  5
2DA3
330
2CA8
100
AcDbEntity
  8
DEFPOINTS
 62
     0
100
AcDbPoint
 10
-0.0000000000000639
 20
0.0000000000000015
 30
0.0
  0
POINT
  5
2DA4
330
2CA8
100
AcDbEntity
  8
DEFPOINTS
 62
     0
100
AcDbPoint
 10
-0.4058444933443095
 20
-1.115048581273416
 30
0.0
  0
ENDBLK
  5
2CB9
330
2CA8
100
AcDbEntity
  8
0
100
AcDbBlockEnd
  0
ENDSEC
  0
SECTION
  2
ENTITIES
  0
LINE
  5
C9F
330
1F
100
AcDbEntity
  8
AM_7
100
AcDbLine
 10
-131.4999745686908
 20
-0.0000000000000533
 30
0.0
 11
2.319887315415111
 21
0.0000000000000009
 31
0.0
1001
GENIUS_GENODEF_13
1002
{
1000
HIER
1070
     0
1002
}
1002
{
1000
MANEDIT
1070
     0
1002
}
1002
{
1000
NOSEL
1070
     0
1002
}
1002
{
1000
BEHIND
1070
     0
1002
}
1002
{
1000
REACTOR
1002
}
1001
GENIUS_GENOBJ-N-CEN_13
1002
{
1000
OWNER
1000
GEN
1002
}
  0
DIMENSION
  5
CC6
330
1F
100
AcDbEntity
  8
AM_5
100
AcDbDimension
  2
*D5
 10
-2.000000000000002
 20
-16.50003143075871
 30
0.0
 11
-65.5
 21
-14.80003143075871
 31
0.0
 70
    32
  1
<>
  3
AM_JIS$0
100
AcDbAlignedDimension
 13
-129.0
 23
-4.234865101779198
 33
0.0
 14
-2.000000000000001
 24
-4.049999856186739
 34
0.0
 50
0.0000000000001132
100
AcDbRotatedDimension
1001
GENIUS_GENDTOL_13
1000

1000
h7
1000

1040
0.0
1001
ACAD
1000
DSTYLE
1002
{
1070
   271
1070
     0
1002
}
  0
DIMENSION
  5
DF5
330
1F
100
AcDbEntity
  8
AM_5
100
AcDbDimension
  2
*D6
 10
-2.000000000000002
 20
-11.50003143075863
 30
0.0
 11
-37.99999999923736
 21
-9.800031430758631
 31
0.0
 70
    32
  1
<>
  3
AM_JIS$0
100
AcDbAlignedDimension
 13
-73.99999999847472
 23
-4.500000388439782
 33
0.0
 14
-2.000000000000001
 24
-4.049999856186739
 34
0.0
 50
0.0000000000001527
100
AcDbRotatedDimension
1001
GENIUS_GENDTOL_13
1000

1000
h7
1000

1040
0.0
1001
ACAD
1000
DSTYLE
1002
{
1070
   271
1070
     0
1002
}
  0
TEXT
  5
19BD
330
1F
100
AcDbEntity
  8
AM_6
100
AcDbText
 10
-76.0952190217547
 20
-27.75003143075874
 30
0.0
 40
2.5
  1
MDW081LHK
 50
0.0000000000001527
 72
     4
 11
-65.49998092651661
 21
-26.50003143075871
 31
0.0
100
AcDbText
  0
LINE
  5
1C24
330
1F
100
AcDbEntity
  8
AM_0
 48
0.5
100
AcDbLine
 10
-128.9999618530333
 20
4.234815687510544
 30
0.0
 11
-128.7053273518916
 21
4.499981016489545
 31
0.0
  0
LINE
  5
1C25
330
1F
100
AcDbEntity
  8
AM_0
 48
0.5
100
AcDbLine
 10
-128.9999618530333
 20
-4.234842213595711
 30
0.0
 11
-128.7053273518916
 21
-4.50000754257546
 31
0.0
  0
LINE
  5
1C26
330
1F
100
AcDbEntity
  8
AM_0
 48
0.5
100
AcDbLine
 10
-128.705378214525
 20
-4.500030430758968
 30
0.0
 11
-128.705378214525
 21
4.500029653880044
 31
0.0
  0
LINE
  5
1C27
330
1F
100
AcDbEntity
  8
AM_0
 48
0.5
100
AcDbLine
 10
-129.0
 20
-4.234865101779198
 30
0.0
 11
-129.0
 21
4.234864324900297
 31
0.0
  0
LINE
  5
1C28
330
1F
100
AcDbEntity
  8
AM_0
100
AcDbLine
 10
-80.26791127523409
 20
4.499999611560396
 30
0.0
 11
-128.705378214525
 21
4.500015348764787
 31
0.0
  0
LINE
  5
1C2B
330
1F
100
AcDbEntity
  8
AM_0
 48
0.5
100
AcDbLine
 10
-73.99999999847472
 20
-4.500000388439782
 30
0.0
 11
-128.705378214525
 21
-4.500018986667214
 31
0.0
  0
LINE
  5
1C2C
330
1F
100
AcDbEntity
  8
AM_0
 48
0.5
100
AcDbLine
 10
-73.99999999999998
 20
4.501278224012891
 30
0.0
 11
-128.705378214525
 21
4.500015348764787
 31
0.0
  0
LINE
  5
1C2D
330
1F
100
AcDbEntity
  8
AM_0
 48
0.5
100
AcDbLine
 10
-73.99999999999998
 20
4.501278224012891
 30
0.0
 11
-128.705378214525
 21
4.500015348764787
 31
0.0
  0
LINE
  5
1EDD
330
1F
100
AcDbEntity
  8
AM_0
100
AcDbLine
 10
-74.0
 20
-4.500000389320357
 30
0.0
 11
-74.0
 21
4.501278224012891
 31
0.0
  0
LINE
  5
1EDF
330
1F
100
AcDbEntity
  8
AM_0
100
AcDbLine
 10
-73.99999999999991
 20
-4.500000389320357
 30
0.0
 11
-73.21957963423229
 21
-4.049424481063359
 31
0.0
  0
DIMENSION
  5
1EEB
330
1F
100
AcDbEntity
  8
AM_5
100
AcDbDimension
  2
*D8
 10
-138.4999755686908
 20
4.499981016489549
 30
0.0
 11
-140.1999755686908
 21
-0.0000132630429761
 31
0.0
 70
    32
  1
%%c<>
 51
359.9999999999998
  3
AM_JIS$0
100
AcDbAlignedDimension
 13
-128.7053273518916
 23
-4.50000754257546
 33
0.0
 14
-128.7053273518916
 24
4.499981016489545
 34
0.0
 50
270.0000000000002
100
AcDbRotatedDimension
1001
ACAD
1000
DSTYLE
1002
{
1070
   271
1070
     0
1002
}
1001
GENIUS_GENDTOL_13
1000

1000
h7
1000

1040
0.0
  0
LINE
  5
1FEC
330
1F
100
AcDbEntity
  8
AM_0
100
AcDbLine
 10
-74.0
 20
4.501278224012891
 30
0.0
 11
-73.21964387994102
 21
4.050739408033045
 31
0.0
  0
LINE
  5
293E
330
1F
100
AcDbEntity
  8
AM_0
 48
0.5
100
AcDbLine
 10
-4.698300679530716
 20
4.050000143813313
 30
0.0
 11
-2.0
 21
4.050000143813262
 31
0.0
  0
LINE
  5
293F
330
1F
100
AcDbEntity
  8
AM_0
 48
0.5
100
AcDbLine
 10
-38.3841374715224
 20
4.050000143813933
 30
0.0
 11
-15.51931663513627
 21
4.050000521321349
 31
0.0
  0
LINE
  5
2940
330
1F
100
AcDbEntity
  8
AM_11
 48
0.5
100
AcDbLine
 10
-15.51931663513627
 20
4.050000521321349
 30
0.0
 11
-4.698300679530716
 21
4.050000143813313
 31
0.0
  0
LINE
  5
2942
330
1F
100
AcDbEntity
  8
AM_0
 48
0.5
100
AcDbLine
 10
-4.698300679530889
 20
-4.049999856186689
 30
0.0
 11
-2.0
 21
-4.049999856186736
 31
0.0
  0
LINE
  5
2943
330
1F
100
AcDbEntity
  8
AM_0
 48
0.5
100
AcDbLine
 10
-34.69787979242296
 20
-4.049999856186218
 30
0.0
 11
-20.57240041097586
 21
-4.049999856186399
 31
0.0
  0
LINE
  5
2944
330
1F
100
AcDbEntity
  8
AM_11
 48
0.5
100
AcDbLine
 10
-20.57240041097586
 20
-4.049999856186399
 30
0.0
 11
-4.698300679530889
 21
-4.049999856186689
 31
0.0
  0
LINE
  5
2945
330
1F
100
AcDbEntity
  8
AM_0
100
AcDbLine
 10
-70.07814563361363
 20
4.050739408913636
 30
0.0
 11
-73.21960573297438
 21
4.050739408913669
 31
0.0
  0
LINE
  5
2946
330
1F
100
AcDbEntity
  8
AM_11
 48
0.5
100
AcDbLine
 10
-70.07814563361363
 20
4.050739408913636
 30
0.0
 11
-66.24120923107517
 21
4.050448451731814
 31
0.0
  0
POLYLINE
  5
2947
330
1F
100
AcDbEntity
  8
AM_0
100
AcDb2dPolyline
 66
     1
 10
0.0
 20
0.0
 30
0.0
 70
     2
  0
VERTEX
  5
2948
330
2947
100
AcDbEntity
  8
AM_0
100
AcDbVertex
100
AcDb2dVertex
 10
-68.49996185303321
 20
3.967627832755945
 30
0.0
 42
0.0276737331564208
  0
VERTEX
  5
2949
330
2947
100
AcDbEntity
  8
AM_0
100
AcDbVertex
100
AcDb2dVertex
 10
-68.84235679135615
 20
3.898180381153207
 30
0.0
 42
0.0414024687830266
 70
     1
  0
VERTEX
  5
294A
330
2947
100
AcDbEntity
  8
AM_0
100
AcDbVertex
100
AcDb2dVertex
 10
-69.06246185303321
 20
3.822459848793813
 30
0.0
 42
0.0280074108471844
  0
VERTEX
  5
294B
330
2947
100
AcDbEntity
  8
AM_0
100
AcDbVertex
100
AcDb2dVertex
 10
-69.56430950741456
 20
3.570975093874904
 30
0.0
 42
0.0512701366748525
 70
     1
  0
VERTEX
  5
294C
330
2947
100
AcDbEntity
  8
AM_0
100
AcDbVertex
100
AcDb2dVertex
 10
-69.81246185303326
 20
3.394250039996761
 30
0.0
 42
0.0658714570033076
  0
VERTEX
  5
294D
330
2947
100
AcDbEntity
  8
AM_0
100
AcDbVertex
100
AcDb2dVertex
 10
-69.96820509726228
 20
3.216295059602494
 30
0.0
 42
0.1411961588081283
 70
     1
  0
VERTEX
  5
294E
330
2947
100
AcDbEntity
  8
AM_0
100
AcDbVertex
100
AcDb2dVertex
 10
-69.99996185303328
 20
3.111208215161839
 30
0.0
 42
0.1226739033459629
  0
VERTEX
  5
294F
330
2947
100
AcDbEntity
  8
AM_0
100
AcDbVertex
100
AcDb2dVertex
 10
-69.96898108799836
 20
2.995666341924151
 30
0.0
 42
0.0555312784770531
 70
     1
  0
VERTEX
  5
2950
330
2947
100
AcDbEntity
  8
AM_0
100
AcDbVertex
100
AcDb2dVertex
 10
-69.81246185303328
 20
2.781312750619722
 30
0.0
 42
0.0351528005485752
  0
VERTEX
  5
2951
330
2947
100
AcDbEntity
  8
AM_0
100
AcDbVertex
100
AcDb2dVertex
 10
-69.55950470542257
 20
2.542239785769518
 30
0.0
 42
0.0197318127063559
 70
     1
  0
VERTEX
  5
2952
330
2947
100
AcDbEntity
  8
AM_0
100
AcDbVertex
100
AcDb2dVertex
 10
-69.06246185303328
 20
2.165688382993884
 30
0.0
 42
0.0358460074876439
  0
VERTEX
  5
2953
330
2947
100
AcDbEntity
  8
AM_0
100
AcDbVertex
100
AcDb2dVertex
 10
-68.85859988186004
 20
2.043625267699161
 30
0.0
 42
0.021710998496176
 70
     1
  0
VERTEX
  5
2954
330
2947
100
AcDbEntity
  8
AM_0
100
AcDbVertex
100
AcDb2dVertex
 10
-68.49996185303329
 20
1.879959479910165
 30
0.0
  0
SEQEND
  5
2955
330
2947
100
AcDbEntity
  8
AM_0
  0
LINE
  5
2956
330
1F
100
AcDbEntity
  8
AM_0
 48
0.5
100
AcDbLine
 10
-66.32610272022509
 20
4.050575519814321
 30
0.0
 11
-48.51436565967848
 21
4.050575519814
 31
0.0
  0
LINE
  5
2957
330
1F
100
AcDbEntity
  8
AM_0
 48
0.5
100
AcDbLine
 10
-60.57858911337729
 20
-4.049424480185864
 30
0.0
 11
-48.51436565967862
 21
-4.049424480186001
 31
0.0
  0
LINE
  5
2958
330
1F
100
AcDbEntity
  8
AM_0
100
AcDbLine
 10
-70.0
 20
-4.049424480182756
 30
0.0
 11
-73.21948538641544
 21
-4.049424480182735
 31
0.0
  0
POLYLINE
  5
2959
330
1F
100
AcDbEntity
  8
AM_0
100
AcDb2dPolyline
 66
     1
 10
0.0
 20
0.0
 30
0.0
 70
     2
  0
VERTEX
  5
295A
330
2959
100
AcDbEntity
  8
AM_0
100
AcDbVertex
100
AcDb2dVertex
 10
-69.19996185303329
 20
-2.809321244219047
 30
0.0
 42
0.0351157762658453
  0
VERTEX
  5
295B
330
2959
100
AcDbEntity
  8
AM_0
100
AcDbVertex
100
AcDb2dVertex
 10
-69.36661158095422
 20
-2.777255795876762
 30
0.0
 42
0.044786481860755
 70
     1
  0
VERTEX
  5
295C
330
2959
100
AcDbEntity
  8
AM_0
100
AcDbVertex
100
AcDb2dVertex
 10
-69.49996185303328
 20
-2.772002660365518
 30
0.0
 42
0.0378244354854128
  0
VERTEX
  5
295D
330
2959
100
AcDbEntity
  8
AM_0
100
AcDbVertex
100
AcDb2dVertex
 10
-69.7744770875369
 20
-2.804051637319848
 30
0.0
 42
0.0785304530199817
 70
     1
  0
VERTEX
  5
295E
330
2959
100
AcDbEntity
  8
AM_0
100
AcDbVertex
100
AcDb2dVertex
 10
-69.89996185303329
 20
-2.84795601461404
 30
0.0
 42
0.0914341172496281
  0
VERTEX
  5
295F
330
2959
100
AcDbEntity
  8
AM_0
100
AcDbVertex
100
AcDb2dVertex
 10
-69.98058015419961
 20
-2.911237063695373
 30
0.0
 42
0.1734786634335468
 70
     1
  0
VERTEX
  5
2960
330
2959
100
AcDbEntity
  8
AM_0
100
AcDbVertex
100
AcDb2dVertex
 10
-69.99996185303328
 20
-2.961227952716092
 30
0.0
 42
0.1707159826348874
  0
VERTEX
  5
2961
330
2959
100
AcDbEntity
  8
AM_0
100
AcDbVertex
100
AcDb2dVertex
 10
-69.98134133135517
 20
-3.012165386219725
 30
0.0
 42
0.0878858945849485
 70
     1
  0
VERTEX
  5
2962
330
2959
100
AcDbEntity
  8
AM_0
100
AcDbVertex
100
AcDb2dVertex
 10
-69.89996185303329
 20
-3.08016951929348
 30
0.0
 42
0.0737173247185441
  0
VERTEX
  5
2963
330
2959
100
AcDbEntity
  8
AM_0
100
AcDbVertex
100
AcDb2dVertex
 10
-69.77167479637069
 20
-3.131714576189752
 30
0.0
 42
0.037064748993984
 70
     1
  0
VERTEX
  5
2964
330
2959
100
AcDbEntity
  8
AM_0
100
AcDbVertex
100
AcDb2dVertex
 10
-69.49996185303328
 20
-3.17880138744334
 30
0.0
 42
0.0449345368811406
  0
VERTEX
  5
2965
330
2959
100
AcDbEntity
  8
AM_0
100
AcDbVertex
100
AcDb2dVertex
 10
-69.36895573240554
 20
-3.181029317929963
 30
0.0
 42
0.0344667769950814
 70
     1
  0
VERTEX
  5
2966
330
2959
100
AcDbEntity
  8
AM_0
100
AcDbVertex
100
AcDb2dVertex
 10
-69.19996185303329
 20
-3.158491689015812
 30
0.0
  0
SEQEND
  5
2967
330
2959
100
AcDbEntity
  8
AM_0
  0
LINE
  5
2968
330
1F
100
AcDbEntity
  8
AM_11
100
AcDbLine
 10
-70.0
 20
-4.049424480182756
 30
0.0
 11
-59.82341580391161
 21
-4.049424480182837
 31
0.0
  0
LINE
  5
2969
330
1F
100
AcDbEntity
  8
AM_0
100
AcDbLine
 10
-73.21952353338208
 20
-4.049424481063358
 30
0.0
 11
-73.21964387994102
 21
4.050739408033045
 31
0.0
  0
LINE
  5
296A
330
1F
100
AcDbEntity
  8
AM_11
 48
0.5
100
AcDbLine
 10
-48.51436565967848
 20
4.050575519814
 30
0.0
 11
-38.38412379925367
 21
4.050000143813933
 31
0.0
  0
LINE
  5
296B
330
1F
100
AcDbEntity
  8
AM_11
 48
0.5
100
AcDbLine
 10
-48.51436565967855
 20
-4.049999856185959
 30
0.0
 11
-34.69787979242296
 21
-4.050575232186085
 31
0.0
  0
ELLIPSE
  5
296C
330
1F
100
AcDbEntity
  8
AM_0
100
AcDbEllipse
 10
-68.65547044702745
 20
14.68184945096856
 30
0.0
 11
11.3766562035602
 21
0.0000000000002988
 31
0.0
210
0.0
220
0.0
230
1.0
 40
0.9418604651162992
 41
4.587008598431575
 42
4.726058501047344
  0
ELLIPSE
  5
296D
330
1F
100
AcDbEntity
  8
AM_0
100
AcDbEllipse
 10
-68.89587612988825
 20
-4.164804200812937
 30
0.0
 11
1.110906425065806
 21
0.0005580594843303
 31
0.0
210
0.0
220
0.0
230
0.9999999999999998
 40
0.9418347756266786
 41
1.8475896699438
 42
3.03055951135237
  0
SPLINE
  5
296E
330
1F
100
AcDbEntity
  8
AM_0
100
AcDbSpline
210
0.0
220
0.0
230
1.0
 70
     8
 71
     3
 72
    18
 73
    14
 74
     0
 42
0.0000000001
 43
0.0000000001
 40
0.0
 40
0.0
 40
0.0
 40
0.0
 40
1.010743684496582
 40
2.022833576467832
 40
3.037578957496688
 40
4.056212745003489
 40
5.079857003664532
 40
6.109500240690281
 40
7.145961322679372
 40
8.189895241603872
 40
9.241717795325891
 40
10.30168407291828
 40
10.55450228288433
 40
10.55450228288433
 40
10.55450228288433
 40
10.55450228288433
 10
-60.57858911337729
 20
-4.049424480185864
 30
0.0
 10
-60.85936678688067
 20
-4.047014828303103
 30
0.0
 10
-61.42129610110441
 20
-4.04219231512712
 30
0.0
 10
-62.26398557565175
 20
-4.003317444978152
 30
0.0
 10
-63.10663907896274
 20
-3.941516556690355
 30
0.0
 10
-63.9492404302948
 20
-3.854900261290256
 30
0.0
 10
-64.79178122181292
 20
-3.74464237564639
 30
0.0
 10
-65.63424483207093
 20
-3.611233199005421
 30
0.0
 10
-66.47663407907227
 20
-3.455571423132265
 30
0.0
 10
-67.31894149252679
 20
-3.278610246263921
 30
0.0
 10
-68.16116133478593
 20
-3.0814361992912
 30
0.0
 10
-68.78737513212027
 20
-2.920707310487209
 30
0.0
 10
-69.13338691028164
 20
-2.827430663415194
 30
0.0
 10
-69.19996185303299
 20
-2.809321244218065
 30
0.0
  0
SPLINE
  5
296F
330
1F
100
AcDbEntity
  8
AM_0
100
AcDbSpline
210
0.0
220
0.0
230
1.0
 70
     8
 71
     3
 72
    46
 73
    42
 74
     0
 42
0.0000000001
 43
0.0000000001
 40
0.0
 40
0.0
 40
0.0
 40
0.0
 40
1.685415058684573
 40
2.531036209541122
 40
3.379897699130124
 40
4.232934581347659
 40
5.09097061220244
 40
5.954688180526682
 40
6.824620803463244
 40
7.701151815239691
 40
8.584457046566678
 40
9.474582384070743
 40
10.37139106676737
 40
11.27458944007584
 40
12.18373345430765
 40
13.09824173870457
 40
14.01741343450111
 40
14.9404441545541
 40
15.86644439743314
 40
16.79446029130534
 40
17.7234937712985
 40
18.65252725129241
 40
19.58054314516461
 40
20.5065433880429
 40
21.42957410809587
 40
22.34874580389318
 40
23.26325408828902
 40
24.17239810252112
 40
25.07560240389442
 40
25.97241108659103
 40
26.8625364240951
 40
27.74584165542184
 40
28.62236045019042
 40
29.49229307312698
 40
30.35601064145123
 40
31.2140460633447
 40
32.06708345193549
 40
32.9159575565769
 40
33.76157841950695
 40
34.60498701064691
 40
35.44727335621126
 40
35.44727335621126
 40
35.44727335621126
 40
35.44727335621126
 10
-30.28130800180113
 20
-4.04942448018634
 30
0.0
 10
-30.84326477099565
 20
-4.040198267117628
 30
0.0
 10
-31.68717139429246
 20
-4.026342997916414
 30
0.0
 10
-32.80935083257019
 20
-3.941038650792969
 30
0.0
 10
-33.65196123677955
 20
-3.855029176930307
 30
0.0
 10
-34.49449961785804
 20
-3.744607622565896
 30
0.0
 10
-35.33696375627108
 20
-3.611242303103806
 30
0.0
 10
-36.17934932411519
 20
-3.455570818387733
 30
0.0
 10
-37.02165491052111
 20
-3.278607269320925
 30
0.0
 10
-37.86387676693147
 20
-3.081438238290883
 30
0.0
 10
-38.70601657674576
 20
-2.865286640746906
 30
0.0
 10
-39.54807207486396
 20
-2.631485343336592
 30
0.0
 10
-40.39005678935815
 20
-2.381486683507974
 30
0.0
 10
-41.23197481244238
 20
-2.116827536330001
 30
0.0
 10
-42.07383388633807
 20
-1.839139923224994
 30
0.0
 10
-42.91564336631433
 20
-1.550137000196008
 30
0.0
 10
-43.75741063003224
 20
-1.251595976893501
 30
0.0
 10
-44.59914387001099
 20
-0.9453530377628991
 30
0.0
 10
-45.44085201102254
 20
-0.6332929286485858
 30
0.0
 10
-46.2825427421257
 20
-0.3173345998626016
 30
0.0
 10
-47.12422639782795
 20
0.0005755197496462
 30
0.0
 10
-47.96591005334528
 20
0.3184856397482134
 30
0.0
 10
-48.80760078500308
 20
0.6344439673757913
 30
0.0
 10
-49.64930892398737
 20
0.9465040807235736
 30
0.0
 10
-50.49104217148328
 20
1.25274700415377
 30
0.0
 10
-51.33280940732826
 20
1.551288085671803
 30
0.0
 10
-52.17461899052747
 20
1.840290793108201
 30
0.0
 10
-53.01647951276868
 20
2.117979807373226
 30
0.0
 10
-53.85840080714018
 20
2.382636549988687
 30
0.0
 10
-54.70038702360607
 20
2.632636491724817
 30
0.0
 10
-55.54244250211882
 20
2.866437858703456
 30
0.0
 10
-56.38457885251845
 20
3.082587469998975
 30
0.0
 10
-57.22679509737776
 20
3.279759551066907
 30
0.0
 10
-58.06909724554876
 20
3.456723823049179
 30
0.0
 10
-58.91148232586438
 20
3.612385122919456
 30
0.0
 10
-59.75394708192054
 20
3.745789123579601
 30
0.0
 10
-60.59649084014402
 20
3.856052994548472
 30
0.0
 10
-61.43909690259556
 20
3.942667959084291
 30
0.0
 10
-62.28175509667416
 20
4.004463175472642
 30
0.0
 10
-63.12444387861837
 20
4.043348536043923
 30
0.0
 10
-63.68637342817224
 20
4.048167594648028
 30
0.0
 10
-63.96715115162184
 20
4.050575519814279
 30
0.0
  0
SPLINE
  5
2970
330
1F
100
AcDbEntity
  8
AM_0
100
AcDbSpline
210
0.0
220
0.0
230
1.0
 70
     8
 71
     3
 72
    17
 73
    13
 74
     0
 42
0.0000000001
 43
0.0000000001
 40
1.580019955310467
 40
1.580019955310467
 40
1.580019955310467
 40
1.580019955310467
 40
2.030549285115227
 40
3.082371838836284
 40
4.126290986361125
 40
5.162752068350215
 40
6.192395305374981
 40
7.216039564037012
 40
8.234688489606833
 40
9.249433870634691
 40
10.26152376260694
 40
11.27226744710342
 40
11.27226744710342
 40
11.27226744710342
 40
11.27226744710352
 10
-40.57669655008167
 20
-2.988443738877108
 30
0.0
 10
-40.69592304496417
 20
-3.019228154150054
 30
0.0
 10
-41.09417959346674
 20
-3.120128187053544
 30
0.0
 10
-41.77410228525154
 20
-3.278393498928491
 30
0.0
 10
-42.61628712304033
 20
-3.455629652898651
 30
0.0
 10
-43.45870381352646
 20
-3.611219464148692
 30
0.0
 10
-44.30115910325127
 20
-3.744640427123133
 30
0.0
 10
-45.14370617697004
 20
-3.854922031294015
 30
0.0
 10
-45.98631145984842
 20
-3.941434948173798
 30
0.0
 10
-46.8289692100767
 20
-4.003618545113521
 30
0.0
 10
-47.67165866675013
 20
-4.041072539078188
 30
0.0
 10
-48.23358798987946
 20
-4.049424503360324
 30
0.0
 10
-48.51436565967855
 20
-4.049424480186002
 30
0.0
  0
SPLINE
  5
2971
330
1F
100
AcDbEntity
  8
AM_0
100
AcDbSpline
210
0.0
220
0.0
230
1.0
 70
     8
 71
     3
 72
    22
 73
    18
 74
     0
 42
0.0000000001
 43
0.0000000001
 40
17.17441611292
 40
17.17441611292
 40
17.17441611292
 40
17.17441611292
 40
17.38177636558528
 40
18.41823744757437
 40
19.46215659509824
 40
20.51397914882054
 40
21.57394542641293
 40
22.64209583141747
 40
23.71826625065247
 40
24.80210429862395
 40
25.8930771157021
 40
26.99048705697709
 40
28.09349309193389
 40
29.20112995599786
 40
30.31233024745139
 40
31.42594771747373
 40
32.5407895042663
 40
32.54078950426994
 40
32.54078950426994
 40
32.54078950426994
 10
-51.73072470424052
 20
-3.636353792664634
 30
0.0
 10
-51.78715239159267
 20
-3.6269784398958
 30
0.0
 10
-52.12540556031395
 20
-3.569872141429521
 30
0.0
 10
-52.74506630492115
 20
-3.455366580454406
 30
0.0
 10
-53.58736838923291
 20
-3.278402577418634
 30
0.0
 10
-54.42958464473035
 20
-3.08123040953994
 30
0.0
 10
-55.27172101741306
 20
-2.865080874379661
 30
0.0
 10
-56.11377639487741
 20
-2.631279288169436
 30
0.0
 10
-56.95576114184873
 20
-2.381280706218699
 30
0.0
 10
-57.79767915695301
 20
-2.116621539374907
 30
0.0
 10
-58.63953822993394
 20
-1.838933926218331
 30
0.0
 10
-59.48134772173063
 20
-1.549931023431883
 30
0.0
 10
-60.32311493874167
 20
-1.251389918604464
 30
0.0
 10
-61.16484835471496
 20
-0.9451472870603538
 30
0.0
 10
-62.00655543088465
 20
-0.6330861743368257
 30
0.0
 10
-62.84824863640903
 20
-0.3171321661709099
 30
0.0
 10
-63.40926729722757
 20
-0.1052285149504898
 30
0.0
 10
-63.68993074350206
 20
0.0007815134671354
 30
0.0
  0
SPLINE
  5
2972
330
1F
100
AcDbEntity
  8
AM_0
100
AcDbSpline
210
0.0
220
0.0
230
1.0
 70
     8
 71
     3
 72
    11
 73
     7
 74
     0
 42
0.0000000001
 43
0.0000000001
 40
11.27226913003534
 40
11.27226913003534
 40
11.27226913003534
 40
11.2722691300354
 40
12.28301561507924
 40
13.29510212255852
 40
14.30984805882082
 40
15.18258238371378
 40
15.18258238371378
 40
15.18258238371378
 40
15.18258238371378
 10
-48.51436565967858
 20
-4.049424480186002
 30
0.0
 10
-48.79407567454719
 20
-4.029602603263687
 30
0.0
 10
-49.3529681180076
 20
-3.981614701918064
 30
0.0
 10
-50.18842076681273
 20
-3.884811235124685
 30
0.0
 10
-50.98128006185294
 20
-3.769190108126173
 30
0.0
 10
-51.49405491397804
 20
-3.680308706696938
 30
0.0
 10
-51.73035616708784
 20
-3.636403749383664
 30
0.0
  0
SPLINE
  5
2973
330
1F
100
AcDbEntity
  8
AM_0
100
AcDbSpline
210
0.0
220
0.0
230
1.0
 70
     8
 71
     3
 72
    23
 73
    19
 74
     0
 42
0.0000000001
 43
0.0000000001
 40
16.03460024169435
 40
16.03460024169435
 40
16.03460024169435
 40
16.03460024169435
 40
16.35212704903564
 40
17.38177054169784
 40
18.41822485651776
 40
19.46214173629503
 40
20.51396345435107
 40
21.57393551351153
 40
22.64208202342361
 40
23.7182574881101
 40
24.80209208578934
 40
25.89306333925047
 40
26.99048218457928
 40
28.09348763352352
 40
29.20111863782268
 40
30.31232390128032
 40
31.42594612798585
 40
32.5407912310448
 40
32.5407912310486
 40
32.5407912310486
 40
32.5407912310486
 10
-48.51436565967848
 20
4.050575519814
 30
0.0
 10
-48.42778967241503
 20
4.036903433017434
 30
0.0
 10
-48.0608425955341
 20
3.977365343111501
 30
0.0
 10
-47.41446136785912
 20
3.86070954259886
 30
0.0
 10
-46.57739598589254
 20
3.687243642971968
 30
0.0
 10
-45.7411081096256
 20
3.492470351529148
 30
0.0
 10
-44.90554832214075
 20
3.277516916736533
 30
0.0
 10
-44.07068696794044
 20
3.043581708805266
 30
0.0
 10
-43.23647579403925
 20
2.792002000037438
 30
0.0
 10
-42.4028567091417
 20
2.524241921232879
 30
0.0
 10
-41.56978234401736
 20
2.241817782106463
 30
0.0
 10
-40.73718590807359
 20
1.946372942917464
 30
0.0
 10
-39.90499992867992
 20
1.639624656717704
 30
0.0
 10
-39.07316895965799
 20
1.323336597555708
 30
0.0
 10
-38.2416234027209
 20
0.9993479371816178
 30
0.0
 10
-37.41028623913918
 20
0.6695505316754349
 30
0.0
 10
-36.5790897746002
 20
0.3358554676960833
 30
0.0
 10
-36.02510763762784
 20
0.1121311735554418
 30
0.0
 10
-35.74796549479556
 20
0.0002061374652892
 30
0.0
  0
SPLINE
  5
2974
330
1F
100
AcDbEntity
  8
AM_0
 48
0.5
100
AcDbSpline
210
0.0
220
0.0
230
1.0
 70
     8
 71
     3
 72
    15
 73
    11
 74
     0
 42
0.0000000001
 43
0.0000000001
 40
0.0
 40
0.0
 40
0.0
 40
0.0
 40
1.010743614677189
 40
2.022833924044153
 40
3.037578959561199
 40
4.056212747067873
 40
5.079857613375832
 40
6.109500119648989
 40
7.14596120163808
 40
7.429850053969086
 40
7.429850053969086
 40
7.429850053969086
 40
7.429850053969086
 10
-4.698300679530716
 20
4.050000143813313
 30
0.0
 10
-4.979078404132271
 20
4.047592228442885
 30
0.0
 10
-5.54100795599136
 20
4.042773189443512
 30
0.0
 10
-6.38369672061153
 20
4.003887681558175
 30
0.0
 10
-7.226350792224405
 20
3.942093334415319
 30
0.0
 10
-8.068952457925256
 20
3.855476869026192
 30
0.0
 10
-8.911491682572373
 20
3.745213003477376
 30
0.0
 10
-9.75395817538199
 20
3.611812960511385
 30
0.0
 10
-10.39047538573884
 20
3.494180648756014
 30
0.0
 10
-10.74648339040858
 20
3.422706033604291
 30
0.0
 10
-10.82295261247022
 20
3.407093651351128
 30
0.0
  0
SPLINE
  5
2977
330
1F
100
AcDbEntity
  8
AM_0
100
AcDbSpline
210
0.0
220
0.0
230
1.0
 70
     8
 71
     3
 72
    46
 73
    42
 74
     0
 42
0.0000000001
 43
0.0000000001
 40
0.0
 40
0.0
 40
0.0
 40
0.0
 40
1.685415058684571
 40
2.531036209541119
 40
3.379897699130121
 40
4.232934581347656
 40
5.090970612202441
 40
5.954688180526683
 40
6.824620803463245
 40
7.70115181523969
 40
8.584457046566678
 40
9.474582384070743
 40
10.37139106676737
 40
11.27458944007584
 40
12.18373345430765
 40
13.09824173870457
 40
14.01741343450111
 40
14.9404441545541
 40
15.86644439743314
 40
16.79446029130534
 40
17.7234937712985
 40
18.65252725129241
 40
19.58054314516461
 40
20.5065433880429
 40
21.42957410809586
 40
22.34874580389318
 40
23.26325408828901
 40
24.17239810252112
 40
25.07560240389442
 40
25.97241108659103
 40
26.8625364240951
 40
27.74584165542183
 40
28.62236045019041
 40
29.49229307312697
 40
30.35601064145122
 40
31.21404606334469
 40
32.06708345193548
 40
32.9159575565769
 40
33.76157841950694
 40
34.6049870106469
 40
35.44727335621125
 40
35.44727335621125
 40
35.44727335621125
 40
35.44727335621125
 10
-2.339342753098384
 20
-4.049999856186729
 30
0.0
 10
-2.901299522292905
 20
-4.040773643118018
 30
0.0
 10
-3.745206145589704
 20
-4.026918373916802
 30
0.0
 10
-4.867385583867454
 20
-3.941614026793366
 30
0.0
 10
-5.709995988076799
 20
-3.855604552930696
 30
0.0
 10
-6.552534369155285
 20
-3.745182998566289
 30
0.0
 10
-7.394998507568335
 20
-3.611817679104194
 30
0.0
 10
-8.237384075412444
 20
-3.456146194388122
 30
0.0
 10
-9.079689661818363
 20
-3.279182645321316
 30
0.0
 10
-9.921911518228712
 20
-3.082013614291277
 30
0.0
 10
-10.76405132804299
 20
-2.865862016747296
 30
0.0
 10
-11.60610682616118
 20
-2.632060719336981
 30
0.0
 10
-12.44809154065538
 20
-2.382062059508364
 30
0.0
 10
-13.29000956373959
 20
-2.117402912330394
 30
0.0
 10
-14.13186863763528
 20
-1.839715299225386
 30
0.0
 10
-14.97367811761161
 20
-1.550712376196396
 30
0.0
 10
-15.81544538132949
 20
-1.252171352893894
 30
0.0
 10
-16.65717862130828
 20
-0.9459284137632877
 30
0.0
 10
-17.49888676231978
 20
-0.6338683046489783
 30
0.0
 10
-18.34057749342294
 20
-0.3179099758629923
 30
0.0
 10
-19.18226114912519
 20
0.0000001437492534
 30
0.0
 10
-20.02394480464251
 20
0.3179102637478235
 30
0.0
 10
-20.86563553630031
 20
0.6338685913754008
 30
0.0
 10
-21.70734367528456
 20
0.9459287047231828
 30
0.0
 10
-22.5490769227805
 20
1.252171628153379
 30
0.0
 10
-23.39084415862545
 20
1.550712709671413
 30
0.0
 10
-24.23265374182475
 20
1.839715417107809
 30
0.0
 10
-25.07451426406596
 20
2.117404431372836
 30
0.0
 10
-25.91643555843746
 20
2.382061173988293
 30
0.0
 10
-26.75842177490332
 20
2.632061115724424
 30
0.0
 10
-27.60047725341606
 20
2.865862482703066
 30
0.0
 10
-28.44261360381569
 20
3.082012093998584
 30
0.0
 10
-29.28482984867499
 20
3.279184175066514
 30
0.0
 10
-30.12713199684601
 20
3.456148447048784
 30
0.0
 10
-30.9695170771616
 20
3.611809746919065
 30
0.0
 10
-31.8119818332178
 20
3.745213747579208
 30
0.0
 10
-32.65452559144125
 20
3.855477618548079
 30
0.0
 10
-33.4971316538928
 20
3.942092583083903
 30
0.0
 10
-34.33978984797139
 20
4.003887799472251
 30
0.0
 10
-35.18247862991561
 20
4.042773160043534
 30
0.0
 10
-35.74440817946948
 20
4.047592218647637
 30
0.0
 10
-36.02518590291907
 20
4.05000014381389
 30
0.0
  0
SPLINE
  5
2978
330
1F
100
AcDbEntity
  8
AM_0
100
AcDbSpline
210
0.0
220
0.0
230
1.0
 70
     8
 71
     3
 72
    55
 73
    51
 74
     0
 42
0.0000000001
 43
0.0000000001
 40
0.0
 40
0.0
 40
0.0
 40
0.0
 40
1.010743684496582
 40
2.022833576467832
 40
3.037578957496688
 40
4.056212745003489
 40
5.079857003664532
 40
6.109500240690281
 40
7.145961322679372
 40
8.189895241603872
 40
9.241717795325891
 40
10.30168407291828
 40
11.36983447792315
 40
12.44600489715814
 40
13.52984294512926
 40
14.62081576220742
 40
15.7182257034828
 40
16.82123173843959
 40
17.92886860250316
 40
19.0400688939571
 40
20.15368796660465
 40
21.26852814259644
 40
22.38336992938901
 40
23.49698739941135
 40
24.6081876908653
 40
25.71582455492886
 40
26.81883757994213
 40
27.91624752121713
 40
29.00722033829659
 40
30.09105838626677
 40
31.16722880550176
 40
32.23537921050758
 40
33.29534548809967
 40
34.347168041821
 40
35.39108718934584
 40
36.42754827133493
 40
37.45720575381954
 40
38.48085062012849
 40
39.49948440763516
 40
40.51422944315121
 40
41.52631975251916
 40
42.53706336719636
 40
43.54780698187354
 40
44.55989729124051
 40
45.57464232675757
 40
46.59327611426424
 40
47.6169209805722
 40
48.64656348684535
 40
49.68302456883444
 40
50.58557219878025
 40
50.58557219878025
 40
50.58557219878025
 40
50.58557219878025
 10
-4.698300679530889
 20
-4.049999856186689
 30
0.0
 10
-4.979078353034261
 20
-4.047590204303928
 30
0.0
 10
-5.541007667258015
 20
-4.042767691127944
 30
0.0
 10
-6.383697141805349
 20
-4.003892820978975
 30
0.0
 10
-7.226350645116339
 20
-3.942091932691181
 30
0.0
 10
-8.068951996448401
 20
-3.855475637291082
 30
0.0
 10
-8.911492787966444
 20
-3.745217751647218
 30
0.0
 10
-9.75395639822444
 20
-3.611808575006248
 30
0.0
 10
-10.59634564522581
 20
-3.456146799133092
 30
0.0
 10
-11.43865305868039
 20
-3.279185622264749
 30
0.0
 10
-12.28087290093957
 20
-3.082011575292025
 30
0.0
 10
-13.12300937000363
 20
-2.865862299325628
 30
0.0
 10
-13.96506472128202
 20
-2.632060642752695
 30
0.0
 10
-14.80704947558185
 20
-2.382062080275054
 30
0.0
 10
-15.64896748782295
 20
-2.117402906622912
 30
0.0
 10
-16.49082656489038
 20
-1.839715301095479
 30
0.0
 10
-17.33263604311523
 20
-1.550712374461644
 30
0.0
 10
-18.17440331066692
 20
-1.252171357982875
 30
0.0
 10
-19.0161365369927
 20
-0.9459283950458356
 30
0.0
 10
-19.85784472899573
 20
-0.6338683747039239
 30
0.0
 10
-20.69953526925819
 20
-0.3179097137167694
 30
0.0
 10
-21.54122004375418
 20
-0.000000682533497
 30
0.0
 10
-22.3829010397898
 20
0.3179140712104597
 30
0.0
 10
-23.22459440121547
 20
0.6338678118855335
 30
0.0
 10
-24.06630155411847
 20
0.945928776815362
 30
0.0
 10
-24.90803628124527
 20
1.25217290640159
 30
0.0
 10
-25.74980704085138
 20
1.550711375078901
 30
0.0
 10
-26.59161784767399
 20
1.839715767359687
 30
0.0
 10
-27.43347704627788
 20
2.117403147711101
 30
0.0
 10
-28.27539502788428
 20
2.382062377020072
 30
0.0
 10
-29.11737978434007
 20
2.632060939863411
 30
0.0
 10
-29.95943515706627
 20
2.865862540530843
 30
0.0
 10
-30.80157153921267
 20
3.082012037205536
 30
0.0
 10
-31.64378776192035
 20
3.279184343133953
 30
0.0
 10
-32.48608996667646
 20
3.456147837752205
 30
0.0
 10
-33.32847890119514
 20
3.611812743787846
 30
0.0
 10
-34.17094852692568
 20
3.745206683248926
 30
0.0
 10
-35.01349210196041
 20
3.855498696039211
 30
0.0
 10
-35.85609370307721
 20
3.942012319000906
 30
0.0
 10
-36.69874779188946
 20
4.004188501570246
 30
0.0
 10
-37.54143655193654
 20
4.041654247685867
 30
0.0
 10
-38.38414382955809
 20
4.054170313757112
 30
0.0
 10
-39.22685110593969
 20
4.041654247666274
 30
0.0
 10
-40.06953986971377
 20
4.004188501649027
 30
0.0
 10
-40.91219394480428
 20
3.942012318704294
 30
0.0
 10
-41.75479559736724
 20
3.855498697154192
 30
0.0
 10
-42.59733487143583
 20
3.745207216748117
 30
0.0
 10
-43.43980117815669
 20
3.61181410766893
 30
0.0
 10
-44.24388851595192
 20
3.463214038965857
 30
0.0
 10
-44.76558953792035
 20
3.35454140390676
 30
0.0
 10
-45.00762840517896
 20
3.30157992747207
 30
0.0
  0
SPLINE
  5
2979
330
1F
100
AcDbEntity
  8
AM_0
100
AcDbSpline
210
0.0
220
0.0
230
1.0
 70
     8
 71
     3
 72
    11
 73
     7
 74
     0
 42
0.0000000001
 43
0.0000000001
 40
11.27226913003534
 40
11.27226913003534
 40
11.27226913003534
 40
11.2722691300354
 40
12.28301561507924
 40
13.29510212255852
 40
14.30984805882082
 40
15.18258238371378
 40
15.18258238371378
 40
15.18258238371378
 40
15.18258238371378
 10
-20.57240041097583
 20
-4.049999856186399
 30
0.0
 10
-20.85211042584442
 20
-4.030177979264077
 30
0.0
 10
-21.41100286930483
 20
-3.982190077918453
 30
0.0
 10
-22.24645551810996
 20
-3.885386611125074
 30
0.0
 10
-23.03931481315018
 20
-3.769765484126563
 30
0.0
 10
-23.55208966527527
 20
-3.680884082697328
 30
0.0
 10
-23.78839091838507
 20
-3.636979125384056
 30
0.0
  0
SPLINE
  5
297A
330
1F
100
AcDbEntity
  8
AM_0
100
AcDbSpline
210
0.0
220
0.0
230
1.0
 70
     8
 71
     3
 72
    22
 73
    18
 74
     0
 42
0.0000000001
 43
0.0000000001
 40
17.17441611292
 40
17.17441611292
 40
17.17441611292
 40
17.17441611292
 40
17.38177636558528
 40
18.41823744757437
 40
19.46215659509824
 40
20.51397914882054
 40
21.57394542641293
 40
22.64209583141747
 40
23.71826625065247
 40
24.80210429862395
 40
25.8930771157021
 40
26.99048705697709
 40
28.09349309193389
 40
29.20112995599786
 40
30.31233024745139
 40
31.42594771747373
 40
32.5407895042663
 40
32.54078950426994
 40
32.54078950426994
 40
32.54078950426994
 10
-23.78875945553775
 20
-3.636929168665024
 30
0.0
 10
-23.84518714288991
 20
-3.627553815896192
 30
0.0
 10
-24.18344031161118
 20
-3.570447517429913
 30
0.0
 10
-24.80310105621839
 20
-3.455941956454795
 30
0.0
 10
-25.64540314053014
 20
-3.278977953419028
 30
0.0
 10
-26.48761939602759
 20
-3.081805785540331
 30
0.0
 10
-27.32975576871029
 20
-2.86565625038005
 30
0.0
 10
-28.17181114617465
 20
-2.631854664169825
 30
0.0
 10
-29.01379589314593
 20
-2.381856082219093
 30
0.0
 10
-29.8557139082502
 20
-2.117196915375297
 30
0.0
 10
-30.69757298123115
 20
-1.83950930221872
 30
0.0
 10
-31.5393824730279
 20
-1.550506399432275
 30
0.0
 10
-32.3811496900389
 20
-1.251965294604856
 30
0.0
 10
-33.2228831060122
 20
-0.9457226630607454
 30
0.0
 10
-34.06459018218188
 20
-0.6336615503372168
 30
0.0
 10
-34.90628338770626
 20
-0.3177075421713009
 30
0.0
 10
-35.4673020485248
 20
-0.105803890950881
 30
0.0
 10
-35.74796549479929
 20
0.0002061374667443
 30
0.0
  0
SPLINE
  5
297B
330
1F
100
AcDbEntity
  8
AM_0
100
AcDbSpline
210
0.0
220
0.0
230
1.0
 70
     8
 71
     3
 72
    17
 73
    13
 74
     0
 42
0.0000000001
 43
0.0000000001
 40
1.580019955310467
 40
1.580019955310467
 40
1.580019955310467
 40
1.580019955310467
 40
2.030549285115227
 40
3.082371838836284
 40
4.126290986361125
 40
5.162752068350215
 40
6.192395305374981
 40
7.216039564037012
 40
8.234688489606833
 40
9.249433870634691
 40
10.26152376260694
 40
11.27226744710342
 40
11.27226744710342
 40
11.27226744710342
 40
11.27226744710352
 10
-12.6347313013789
 20
-2.989019114877503
 30
0.0
 10
-12.75395779626141
 20
-3.019803530150444
 30
0.0
 10
-13.15221434476398
 20
-3.120703563053934
 30
0.0
 10
-13.83213703654878
 20
-3.278968874928882
 30
0.0
 10
-14.67432187433757
 20
-3.456205028899045
 30
0.0
 10
-15.51673856482371
 20
-3.611794840149085
 30
0.0
 10
-16.35919385454852
 20
-3.745215803123522
 30
0.0
 10
-17.20174092826728
 20
-3.855497407294405
 30
0.0
 10
-18.04434621114566
 20
-3.942010324174186
 30
0.0
 10
-18.88700396137394
 20
-4.004193921113911
 30
0.0
 10
-19.72969341804737
 20
-4.041647915078585
 30
0.0
 10
-20.29162274117671
 20
-4.049999879360713
 30
0.0
 10
-20.57240041097579
 20
-4.049999856186399
 30
0.0
  0
ELLIPSE
  5
297C
330
1F
100
AcDbEntity
  8
AM_11
 48
0.5
100
AcDbEllipse
 10
-39.06558227539688
 20
-17.88870656980653
 30
0.0
 11
-24.41816012064579
 21
0.0000000000004081
 31
0.0
210
0.0
220
0.0
230
1.0
 40
0.8099999999999994
 41
4.271664206181682
 42
5.15311366716499
  0
ELLIPSE
  5
297D
330
1F
100
AcDbEntity
  8
AM_11
 48
0.5
100
AcDbEllipse
 10
-39.06558227539614
 20
17.88871900544967
 30
0.0
 11
-24.41816012064577
 21
0.0000000000002617
 31
0.0
210
0.0
220
0.0
230
1.0
 40
0.8099999999999999
 41
1.130070686340296
 42
2.011520147323586
  0
ELLIPSE
  5
297E
330
1F
100
AcDbEntity
  8
AM_11
 48
0.5
100
AcDbEllipse
 10
-18.2322489420628
 20
17.88871900544927
 30
0.0
 11
-24.41816012064587
 21
0.0000000000004136
 31
0.0
210
0.0
220
0.0
230
1.0
 40
0.8099999999999969
 41
1.130070686340304
 42
2.01152014732359
  0
ELLIPSE
  5
297F
330
1F
100
AcDbEntity
  8
AM_11
 48
0.5
100
AcDbEllipse
 10
-18.23224894206356
 20
-17.88870656980692
 30
0.0
 11
-24.41816012064579
 21
0.0000000000003051
 31
0.0
210
0.0
220
0.0
230
1.0
 40
0.8099999999999985
 41
4.271664206181679
 42
5.153113667164986
  0
ELLIPSE
  5
2980
330
1F
100
AcDbEntity
  8
AM_11
 48
0.5
100
AcDbEllipse
 10
2.601084391270554
 20
17.88871900544887
 30
0.0
 11
-24.41816012064568
 21
0.0000000000000991
 31
0.0
210
0.0
220
0.0
230
1.0
 40
0.8100000000000028
 41
1.130070686340288
 42
1.29180073738098
  0
ELLIPSE
  5
2981
330
1F
100
AcDbEntity
  8
AM_11
 48
0.5
100
AcDbEllipse
 10
-59.89895714819369
 20
17.88873487558489
 30
0.0
 11
-24.41816012064583
 21
0.0000000000003539
 31
0.0
210
0.0
220
0.0
230
1.0
 40
0.809999999999998
 41
1.130070686340299
 42
2.011520147323587
  0
ELLIPSE
  5
2982
330
1F
100
AcDbEntity
  8
AM_11
 48
0.5
100
AcDbEllipse
 10
-59.89895714819443
 20
-17.8886906996713
 30
0.0
 11
-24.41816012064589
 21
0.0000000000003702
 31
0.0
210
0.0
220
0.0
230
0.9999999999999998
 40
0.8099999999999958
 41
4.271664206181682
 42
5.15311366716499
  0
SPLINE
  5
2989
330
1F
100
AcDbEntity
  8
AM_0
100
AcDbSpline
210
0.0
220
0.0
230
1.0
 70
     8
 71
     3
 72
    20
 73
    16
 74
     0
 42
0.0000000001
 43
0.0000000001
 40
1.604714676203542
 40
1.604714676203542
 40
1.604714676203542
 40
1.604714676203542
 40
1.685415058684573
 40
2.531036209541122
 40
3.379897699130124
 40
4.232934581347659
 40
5.09097061220244
 40
5.954688180526682
 40
6.824620803463244
 40
7.701151815239697
 40
8.58445704656667
 40
9.47458238407075
 40
10.37139106676736
 40
11.27458944007584
 40
12.17321262433756
 40
12.17321262433756
 40
12.17321262433756
 40
12.17321262433756
 10
-59.82341580391161
 20
-4.049424480182837
 30
0.0
 10
-59.85025462710999
 20
-4.048003913637064
 30
0.0
 10
-60.15828520632449
 20
-4.031135787114753
 30
0.0
 10
-60.74767401771385
 20
-3.985823281441143
 30
0.0
 10
-61.59028442192321
 20
-3.898836427193675
 30
0.0
 10
-62.43282280300167
 20
-3.787160082438767
 30
0.0
 10
-63.27528694141474
 20
-3.652279247982789
 30
0.0
 10
-64.11767250925885
 20
-3.494838769122218
 30
0.0
 10
-64.95997809566474
 20
-3.315864270634198
 30
0.0
 10
-65.80219995207507
 20
-3.116454682433367
 30
0.0
 10
-66.64433976188937
 20
-2.897846816735471
 30
0.0
 10
-67.48639526000754
 20
-2.661388686400055
 30
0.0
 10
-68.32837997450173
 20
-2.408549132709739
 30
0.0
 10
-69.16702845811032
 20
-2.141921962978206
 30
0.0
 10
-69.72332513896439
 20
-1.956393021884082
 30
0.0
 10
-70.0
 20
-1.86227886783557
 30
0.0
  0
SPLINE
  5
298A
330
1F
100
AcDbEntity
  8
AM_0
100
AcDbSpline
210
0.0
220
0.0
230
1.0
 70
     8
 71
     3
 72
    50
 73
    46
 74
     0
 42
0.0000000001
 43
0.0000000001
 40
0.0
 40
0.0
 40
0.0
 40
0.0
 40
1.010743684496582
 40
2.022833576467832
 40
3.037578957496688
 40
4.056212745003489
 40
5.079857003664532
 40
6.109500240690281
 40
7.145961322679372
 40
8.189895241603872
 40
9.241717795325891
 40
10.30168407291828
 40
11.36983447792315
 40
12.44600489715814
 40
13.52984294512926
 40
14.62081576220742
 40
15.7182257034828
 40
16.82123173843959
 40
17.92886860250316
 40
19.0400688939571
 40
20.15368796660465
 40
21.26852814259644
 40
22.38336992938901
 40
23.49698739941135
 40
24.6081876908653
 40
25.71582455492886
 40
26.81883757994213
 40
27.91624752121713
 40
29.00722033829659
 40
30.09105838626677
 40
31.16722880550176
 40
32.23537921050758
 40
33.29534548809967
 40
34.347168041821
 40
35.39108718934584
 40
36.42754827133493
 40
37.45720575381954
 40
38.48085062012849
 40
39.49948440763516
 40
40.51422944315121
 40
41.52631975251916
 40
42.53706336719636
 40
43.54780698187354
 40
44.55989729124051
 40
45.14939243453665
 40
45.14939243453665
 40
45.14939243453665
 40
45.14939243453665
 10
-32.64026592823363
 20
-4.049424480186298
 30
0.0
 10
-32.92104360173701
 20
-4.047014828303538
 30
0.0
 10
-33.48297291596075
 20
-4.042192315127555
 30
0.0
 10
-34.3256623905081
 20
-4.003317444978585
 30
0.0
 10
-35.16831589381908
 20
-3.94151655669079
 30
0.0
 10
-36.01091724515114
 20
-3.854900261290692
 30
0.0
 10
-36.85345803666919
 20
-3.744642375646825
 30
0.0
 10
-37.6959216469272
 20
-3.611233199005858
 30
0.0
 10
-38.53831089392858
 20
-3.455571423132699
 30
0.0
 10
-39.38061830738316
 20
-3.27861024626436
 30
0.0
 10
-40.22283814964232
 20
-3.081436199291634
 30
0.0
 10
-41.06497461870641
 20
-2.865286923325238
 30
0.0
 10
-41.90702996998481
 20
-2.631485266752301
 30
0.0
 10
-42.74901472428463
 20
-2.381486704274665
 30
0.0
 10
-43.59093273652574
 20
-2.116827530622522
 30
0.0
 10
-44.43279181359318
 20
-1.839139925095088
 30
0.0
 10
-45.27460129181796
 20
-1.550136998461255
 30
0.0
 10
-46.11636855936964
 20
-1.251595981982484
 30
0.0
 10
-46.95810178569543
 20
-0.9453530190454458
 30
0.0
 10
-47.79980997769849
 20
-0.6332929987035329
 30
0.0
 10
-48.64150051796094
 20
-0.3173343377163779
 30
0.0
 10
-49.48318529245695
 20
0.0005746934668941
 30
0.0
 10
-50.32486628849255
 20
0.318489447210851
 30
0.0
 10
-51.16655964991824
 20
0.6344431878859243
 30
0.0
 10
-52.00826680282126
 20
0.9465041528157522
 30
0.0
 10
-52.85000152994808
 20
1.252748282401982
 30
0.0
 10
-53.69177228955417
 20
1.551286751079293
 30
0.0
 10
-54.53358309637671
 20
1.840291143360079
 30
0.0
 10
-55.3754422949806
 20
2.117978523711494
 30
0.0
 10
-56.21736027658702
 20
2.382637753020461
 30
0.0
 10
-57.05934503304283
 20
2.632636315863801
 30
0.0
 10
-57.90140040576904
 20
2.866437916531237
 30
0.0
 10
-58.74353678791543
 20
3.08258741320593
 30
0.0
 10
-59.5857530106231
 20
3.279759719134344
 30
0.0
 10
-60.42805521537921
 20
3.456723213752595
 30
0.0
 10
-61.27044414989789
 20
3.612388119788239
 30
0.0
 10
-62.11291377562844
 20
3.745782059249319
 30
0.0
 10
-62.95545735066318
 20
3.856074072039607
 30
0.0
 10
-63.79805895177998
 20
3.942587695001304
 30
0.0
 10
-64.64071304059216
 20
4.004763877570637
 30
0.0
 10
-65.48340180063924
 20
4.042229623686256
 30
0.0
 10
-66.32610907826078
 20
4.054745689757502
 30
0.0
 10
-67.16881635464239
 20
4.042229623666663
 30
0.0
 10
-67.89353178809604
 20
4.010008944417365
 30
0.0
 10
-68.33692150531189
 20
3.980026776952542
 30
0.0
 10
-68.4999618530332
 20
3.967627832755946
 30
0.0
  0
SPLINE
  5
298B
330
1F
100
AcDbEntity
  8
AM_0
100
AcDbSpline
210
0.0
220
0.0
230
1.0
 70
     8
 71
     3
 72
    13
 73
     9
 74
     0
 42
0.0000000001
 43
0.0000000001
 40
26.13201924531566
 40
26.13201924531566
 40
26.13201924531566
 40
26.13201924531566
 40
26.99048218457928
 40
28.09348763352352
 40
29.20111863782268
 40
30.31232390128032
 40
31.42594612798585
 40
32.5407912310448
 40
32.5407912310486
 40
32.5407912310486
 40
32.5407912310486
 10
-68.49996185397071
 20
1.879959480251981
 30
0.0
 10
-68.2825155802831
 20
1.800670424627003
 30
0.0
 10
-67.78687823658049
 20
1.617353105163022
 30
0.0
 10
-67.01513420836075
 20
1.3239119735561
 30
0.0
 10
-66.18358865142366
 20
0.9999233131820078
 30
0.0
 10
-65.35225148784194
 20
0.6701259076758267
 30
0.0
 10
-64.52105502330296
 20
0.3364308436964747
 30
0.0
 10
-63.96707288633059
 20
0.1127065495558329
 30
0.0
 10
-63.68993074349832
 20
0.0007815134656803
 30
0.0
  0
SPLINE
  5
298C
330
1F
100
AcDbEntity
  8
AM_0
100
AcDbSpline
210
0.0
220
0.0
230
1.0
 70
     8
 71
     3
 72
    15
 73
    11
 74
     0
 42
0.0000000001
 43
0.0000000001
 40
5.241236682593577
 40
5.241236682593577
 40
5.241236682593577
 40
5.241236682593577
 40
5.954688180526682
 40
6.824620803463244
 40
7.701151815239697
 40
8.58445704656667
 40
9.47458238407075
 40
10.37139106676736
 40
11.27458944007584
 40
12.17321262433756
 40
12.17321262433756
 40
12.17321262433756
 40
12.17321262433756
 10
-63.41943130396844
 20
-0.1013785733345422
 30
0.0
 10
-63.6518303372541
 20
-0.142761356503337
 30
0.0
 10
-64.16616337663248
 20
-0.2400223870768529
 30
0.0
 10
-64.95997809566474
 20
-0.4086934650373033
 30
0.0
 10
-65.80219995207507
 20
-0.6081030532381206
 30
0.0
 10
-66.64433976188937
 20
-0.8267109189360034
 30
0.0
 10
-67.48639526000754
 20
-1.063169049271408
 30
0.0
 10
-68.32837997450173
 20
-1.316008602961711
 30
0.0
 10
-69.16702845811032
 20
-1.582635772693229
 30
0.0
 10
-69.72332513896439
 20
-1.768164713787346
 30
0.0
 10
-70.0
 20
-1.862278867835854
 30
0.0
  0
SPLINE
  5
298D
330
1F
100
AcDbEntity
  8
AM_0
100
AcDbSpline
210
0.0
220
0.0
230
1.0
 70
     8
 71
     3
 72
     9
 73
     5
 74
     0
 42
0.0000000001
 43
0.0000000001
 40
1.580019955310467
 40
1.580019955310467
 40
1.580019955310467
 40
1.580019955310467
 40
2.030549285115227
 40
2.43907978603305
 40
2.43907978603305
 40
2.43907978603305
 40
2.43907978603305
 10
-68.51539061115488
 20
-2.989019114876629
 30
0.0
 10
-68.63461710603738
 20
-3.019803530149574
 30
0.0
 10
-68.86234418309062
 20
-3.077499177977798
 30
0.0
 10
-69.09102329503953
 20
-3.132735948662062
 30
0.0
 10
-69.19996185303327
 20
-3.158491689015784
 30
0.0
  0
ELLIPSE
  5
29BD
330
1F
100
AcDbEntity
  8
AM_11
 48
0.5
100
AcDbEllipse
 10
-80.73167806602924
 20
17.88873487558483
 30
0.0
 11
-24.41816012064583
 21
0.0000000000003539
 31
0.0
210
0.0
220
0.0
230
1.0
 40
0.809999999999998
 41
1.130070686340299
 42
2.011520147323587
  0
ELLIPSE
  5
29BE
330
1F
100
AcDbEntity
  8
AM_11
 48
0.5
100
AcDbEllipse
 10
-80.73167806602999
 20
-17.88869069967136
 30
0.0
 11
-24.41816012064589
 21
0.0000000000003702
 31
0.0
210
0.0
220
0.0
230
0.9999999999999998
 40
0.8099999999999958
 41
4.271664206181682
 42
5.15311366716499
  0
ELLIPSE
  5
29BF
330
1F
100
AcDbEntity
  8
AM_11
 48
0.5
100
AcDbEllipse
 10
-101.5643989838648
 20
17.88873487558477
 30
0.0
 11
-24.41816012064583
 21
0.0000000000003539
 31
0.0
210
0.0
220
0.0
230
1.0
 40
0.809999999999998
 41
1.130070686340299
 42
2.011520147323587
  0
ELLIPSE
  5
29C0
330
1F
100
AcDbEntity
  8
AM_11
 48
0.5
100
AcDbEllipse
 10
-101.5643989838655
 20
-17.88869069967141
 30
0.0
 11
-24.41816012064589
 21
0.0000000000003702
 31
0.0
210
0.0
220
0.0
230
0.9999999999999998
 40
0.8099999999999958
 41
4.271664206181682
 42
5.15311366716499
  0
ELLIPSE
  5
29C1
330
1F
100
AcDbEntity
  8
AM_11
 48
0.5
100
AcDbEllipse
 10
-122.3977316674052
 20
17.88852152858116
 30
0.0
 11
-24.41816012064583
 21
0.0000000000003539
 31
0.0
210
0.0
220
0.0
230
1.0
 40
0.809999999999998
 41
1.297004949327763
 42
2.011520147323587
  0
ELLIPSE
  5
29C2
330
1F
100
AcDbEntity
  8
AM_11
 48
0.5
100
AcDbEllipse
 10
-122.397731667406
 20
-17.88890404667502
 30
0.0
 11
-24.41816012064589
 21
0.0000000000003702
 31
0.0
210
0.0
220
0.0
230
0.9999999999999998
 40
0.8099999999999958
 41
4.271664206181682
 42
4.986180357851814
  0
DIMENSION
  5
2A8C
330
1F
100
AcDbEntity
  8
AM_5
100
AcDbDimension
  2
*D9
 10
9.319888315414953
 20
-4.049999856186739
 30
0.0
 11
7.619888315414955
 21
0.0000001438132614
 31
0.0
 70
    32
  1
%%c<>
 51
359.9999999999998
  3
AM_JIS$0
100
AcDbAlignedDimension
 13
-2.0
 23
4.050000143813262
 33
0.0
 14
-2.0
 24
-4.049999856186736
 34
0.0
 50
89.99999999999896
100
AcDbRotatedDimension
1001
ACAD
1000
DSTYLE
1002
{
1070
   271
1070
     1
1002
}
1001
GENIUS_GENDTOL_13
1000

1000
h7
1000

1040
0.0
  0
SPLINE
  5
2B7C
330
1F
100
AcDbEntity
  8
AM_0
 48
0.5
100
AcDbSpline
210
0.0
220
0.0
230
1.0
 70
     8
 71
     3
 72
    10
 73
     6
 74
     0
 42
0.0000000001
 43
0.0000000001
 40
0.0
 40
0.0
 40
0.0
 40
0.0
 40
2.69986029516136
 40
4.147722969032201
 40
6.285750005020438
 40
6.285750005020438
 40
6.285750005020438
 40
6.285750005020438
 10
-4.100555511479381
 20
0.7330289331862881
 30
0.0
 10
-3.640660224011019
 20
0.3567559464249201
 30
0.0
 10
-2.934135426931414
 20
-0.2213021525861641
 30
0.0
 10
-1.263299191022341
 20
0.0585458998686421
 30
0.0
 10
-1.577966253512267
 20
1.00111116994549
 30
0.0
 10
-1.785878143503108
 20
1.575633732286293
 30
0.0
  0
ELLIPSE
  5
2B7D
330
1F
100
AcDbEntity
  8
AM_0
 48
0.5
100
AcDbEllipse
 10
3.61929185773909
 20
3.994774096322549
 30
0.0
 11
-0.0000000000005105
 21
8.782926099869538
 31
0.0
210
0.0
220
0.0
230
1.0
 40
0.9466666666666624
 41
1.951257656000286
 42
2.322034022628272
  0
ELLIPSE
  5
2B7E
330
1F
100
AcDbEntity
  8
AM_0
 48
0.5
100
AcDbEllipse
 10
4.221711747704368
 20
-1.968150663314384
 30
0.0
 11
6.671622738730739
 21
0.622025848808277
 31
0.0
210
0.0
220
0.0
230
1.0
 40
0.7394116482046131
 41
3.022558566214321
 42
3.448178411296061
  0
ELLIPSE
  5
2B7F
330
1F
100
AcDbEntity
  8
AM_0
 48
0.5
100
AcDbEllipse
 10
-1.593501803090349
 20
-1.439645320700817
 30
0.0
 11
-0.107334673700031
 21
0.6653738952765743
 31
0.0
210
0.0
220
0.0
230
1.0
 40
0.4747693777197638
 41
1.817358545192461
 42
4.952700434904437
  0
ELLIPSE
  5
2B80
330
1F
100
AcDbEntity
  8
AM_0
 48
0.5
100
AcDbEllipse
 10
-1.593501803090349
 20
-1.439645320700817
 30
0.0
 11
-0.5478064041206871
 21
0.3469809227539536
 31
0.0
210
0.0
220
0.0
230
0.9999999999999996
 40
0.5128888859691799
 41
4.516911409282998
 42
7.660351750612511
  0
ELLIPSE
  5
2B81
330
1F
100
AcDbEntity
  8
AM_0
 48
0.5
100
AcDbEllipse
 10
-6.519358108524812
 20
6.79736876167731
 30
0.0
 11
8.602481759038886
 21
7.553246211326376
 31
0.0
210
0.0
220
0.0
230
1.0
 40
0.8360940570171761
 41
4.469616422135231
 42
4.529546941333125
  0
ELLIPSE
  5
2B82
330
1F
100
AcDbEntity
  8
AM_0
 48
0.5
100
AcDbEllipse
 10
-6.756586538278217
 20
7.703546266586689
 30
0.0
 11
-5.588866174269526
 21
8.847975802968303
 31
0.0
210
0.0
220
0.0
230
1.0
 40
0.6006848179475486
 41
3.114723617166605
 42
3.398686155106291
  0
ELLIPSE
  5
2B83
330
1F
100
AcDbEntity
  8
AM_0
 48
0.5
100
AcDbEllipse
 10
7.55885405733725
 20
-7.03999238840452
 30
0.0
 11
-7.019308446023166
 21
-7.019308446027135
 31
0.0
210
0.0
220
0.0
230
-1.0
 40
0.9999999999999978
 41
1.171329590070667
 42
1.424984195904709
  0
ELLIPSE
  5
2B84
330
1F
100
AcDbEntity
  8
AM_0
 48
0.5
100
AcDbEllipse
 10
7.558854057335247
 20
7.039992388406203
 30
0.0
 11
-7.019308446025163
 21
7.019308446025134
 31
0.0
210
0.0
220
0.0
230
0.9999999999999998
 40
0.999999999999998
 41
1.171329590070667
 42
1.424984195904709
  0
LINE
  5
2B85
330
1F
100
AcDbEntity
  8
AM_0
 48
0.5
100
AcDbLine
 10
-1.637813295996544
 20
-3.303323857078343
 30
0.0
 11
-2.0
 21
-4.049999856186736
 31
0.0
  0
LINE
  5
2B86
330
1F
100
AcDbEntity
  8
AM_0
 48
0.5
100
AcDbLine
 10
-0.0000000000000142
 20
-0.0000000000000251
 30
0.0
 11
-1.766759044651623
 21
1.53347920327395
 31
0.0
  0
LINE
  5
2B87
330
1F
100
AcDbEntity
  8
AM_0
 48
0.5
100
AcDbLine
 10
-1.637813295997512
 20
3.303323857077387
 30
0.0
 11
-2.0
 21
4.050000143813262
 31
0.0
  0
LINE
  5
2B88
330
1F
100
AcDbEntity
  8
AM_0
100
AcDbLine
 10
-0.0000000000000639
 20
0.0000000000000015
 30
0.0
 11
-0.4058444933443095
 21
-1.115048581273416
 31
0.0
  0
LINE
  5
2B89
330
1F
100
AcDbEntity
  8
AM_0
100
AcDbLine
 10
-0.4058444933443237
 20
1.115048581273418
 30
0.0
 11
-0.0000000000000639
 21
0.0000000000000015
 31
0.0
  0
SPLINE
  5
2B8B
330
1F
100
AcDbEntity
  8
AM_0
 48
0.5
100
AcDbSpline
210
0.0
220
0.0
230
1.0
 70
     8
 71
     3
 72
    25
 73
    21
 74
     0
 42
0.0000000001
 43
0.0000000001
 40
6.846175049578289
 40
6.846175049578289
 40
6.846175049578289
 40
6.846175049578289
 40
7.604337694224321
 40
8.711974558287883
 40
9.814980593243754
 40
10.91239053451967
 40
12.0033633515982
 40
13.08720139956839
 40
14.16337181880432
 40
15.23152222380919
 40
16.29148850140128
 40
17.34331105512262
 40
18.38723020264746
 40
19.42369128463655
 40
20.45333379090873
 40
21.47697865721768
 40
22.49561244472435
 40
23.5103574802404
 40
24.52244778960836
 40
25.53320666051913
 40
25.53320666051913
 40
25.53320666051913
 40
25.53320666051913
 10
-4.100658820522163
 20
0.7330770360670245
 30
0.0
 10
-4.247447499737614
 20
0.8041878331685497
 30
0.0
 10
-4.608995858473559
 20
0.9784762817135346
 30
0.0
 10
-5.185841196039277
 20
1.252171886763404
 30
0.0
 10
-5.831308262767979
 20
1.550713075950197
 30
0.0
 10
-6.476807790454664
 20
1.839715956273119
 30
0.0
 10
-7.122345325143303
 20
2.117403575498987
 30
0.0
 10
-7.767928059715071
 20
2.382062740357726
 30
0.0
 10
-8.413561963782466
 20
2.632061324215582
 30
0.0
 10
-9.059250026290413
 20
2.865862904823275
 30
0.0
 10
-9.70500020045943
 20
3.082012460276993
 30
0.0
 10
-10.35081161186668
 20
3.279184553381666
 30
0.0
 10
-10.99668889924004
 20
3.456148832340731
 30
0.0
 10
-11.64262978324884
 20
3.611810092822552
 30
0.0
 10
-12.28863174052155
 20
3.745214242670795
 30
0.0
 10
-12.93469117636089
 20
3.855477017302438
 30
0.0
 10
-13.58079803834145
 20
3.942093773476171
 30
0.0
 10
-14.22694520570989
 20
4.003888040742721
 30
0.0
 10
-14.87312218955063
 20
4.042773774234378
 30
0.0
 10
-15.30401302399481
 20
4.047592662889178
 30
0.0
 10
-15.51931663513627
 20
4.050000521321349
 30
0.0
  0
DIMENSION
  5
2CA7
330
1F
100
AcDbEntity
  8
AM_5
100
AcDbDimension
  2
*D11
 10
-0.4058444933443095
 20
-1.115048581273416
 30
0.0
 11
12.47123818864485
 21
0.0000000000000835
 31
0.0
 70
    34
  1
<>
 51
359.9999999999998
  3
AM_JIS$2
100
AcDb2LineAngularDimension
 13
-0.4058444933443237
 23
1.115048581273418
 33
0.0
 14
-0.0000000000000639
 24
0.0000000000000015
 34
0.0
 15
-0.0000000000000639
 25
0.0000000000000015
 35
0.0
 16
12.87452674321848
 26
-5.553528741337792
 36
0.0
1001
ACAD
1000
DSTYLE
1002
{
1070
   179
1070
     3
1002
}
1001
GENIUS_GENDTOL_13
1000

1000
h7
1000

1040
0.0
  0
VIEWPORT
  5
110
330
101
100
AcDbEntity
 67
     1
  8
0
100
AcDbViewport
 10
420.5
 20
297.0
 30
0.0
 40
948.9782706766916
 41
628.452
 68
     1
 69
     1
1001
ACAD
1000
MVIEW
1002
{
1070
    16
1010
0.0
1020
0.0
1030
0.0
1010
0.0
1020
0.0
1030
1.0
1040
0.0
1040
628.452
1040
420.5
1040
297.0
1040
50.0
1040
0.0
1040
0.0
1070
     0
1070
   100
1070
     1
1070
     1
1070
     0
1070
     0
1070
     0
1070
     0
1040
0.0
1040
0.0
1040
0.0
1040
10.0
1040
10.0
1040
10.0
1040
10.0
1070
     0
1002
{
1002
}
1002
}
  0
ENDSEC
  0
SECTION
  2
OBJECTS
  0
DICTIONARY
  5
C
330
0
100
AcDbDictionary
  3
ACAD_GROUP
350
D
  3
ACAD_LAYOUT
350
1A
  3
ACAD_MLINESTYLE
350
17
  3
ACAD_PLOTSETTINGS
350
19
  3
ACAD_PLOTSTYLENAME
350
E
  3
ACDBVARIABLEDICTIONARY
350
34
  3
ACMDICTIONARY
350
43
  3
AMG
350
2B
  3
AMGSNAPSETTINGS
350
6E
  3
DWGPROPS
350
2E79
  3
ACDBHEADERROUNDTRIPXREC
350
2E86
  0
DICTIONARY
  5
74
330
1F
100
AcDbDictionary
280
     1
  3
ACAD_INDEX
360
2E7B
  3
ACAD_LAYOUTSELFREF
360
2EA9
  0
DICTIONARY
  5
2EAE
330
101
100
AcDbDictionary
280
     1
  3
ACAD_LAYOUTSELFREF
360
2EAF
  0
DICTIONARY
  5
D
102
{ACAD_REACTORS
330
C
102
}
330
C
100
AcDbDictionary
  0
DICTIONARY
  5
1A
102
{ACAD_REACTORS
330
C
102
}
330
C
100
AcDbDictionary
  0
DICTIONARY
  5
17
102
{ACAD_REACTORS
330
C
102
}
330
C
100
AcDbDictionary
  3
STANDARD
350
18
  0
DICTIONARY
  5
19
102
{ACAD_REACTORS
330
C
102
}
330
C
100
AcDbDictionary
  0
ACDBDICTIONARYWDFLT
  5
E
102
{ACAD_REACTORS
330
C
102
}
330
C
100
AcDbDictionary
281
     1
  3
Normal
350
F
100
AcDbDictionaryWithDefault
340
F
  0
DICTIONARY
  5
34
102
{ACAD_REACTORS
330
C
102
}
330
C
100
AcDbDictionary
  3
INDEXCTL
350
35
  3
SORTENTS
350
B5E
  0
DICTIONARY
  5
43
102
{ACAD_REACTORS
330
C
102
}
330
C
100
AcDbDictionary
  3
ACMSTDDICTIONARY
350
260
  0
DICTIONARY
  5
2B
102
{ACAD_REACTORS
330
C
102
}
330
C
100
AcDbDictionary
  3
ACMGSETTINGS
350
2C
  0
DICTIONARY
  5
6E
102
{ACAD_REACTORS
330
C
102
}
330
C
100
AcDbDictionary
  0
XRECORD
  5
2E79
102
{ACAD_REACTORS
330
C
102
}
330
C
100
AcDbXrecord
  1
DWGPROPS COOKIE
  2

  3

  4

  6

  7

  8

  9

300
AmdtFileType=82
301
=
302
=
303
=
304
=
305
=
306
=
307
=
308
=
309
=
 40
0.1204640277777778
 41
2452800.443498622
 42
2452948.564457997
  1

 90
        1
  0
DICTIONARY
  5
2E86
102
{ACAD_REACTORS
330
C
102
}
330
C
100
AcDbDictionary
  3
TSTACKALIGN
350
2E87
  3
TSTACKSIZE
350
2E88
  3
HYPERLINKBASE
350
2E89
  3
STYLESHEET
350
2E8A
  3
LAYOUTDICT
350
2E8B
  3
PLOTSETDICT
350
2E8C
  3
PLOTSTYLNAMDICT
350
2E8D
  3
LWETCUNION
350
2E8E
  3
INSUNITS
350
2E8F
  3
CEPSNTYPE
350
2E90
  3
FINGERPRINTGUID
350
2E91
  3
VERSIONGUID
350
2E92
  3
PSVPSCALE
350
2E93
  3
DIMSTYLEDATA
350
2E94
  3
PUCSORTHOREF
350
2E95
  3
PUCSORTHOVIEW
350
2E96
  3
PUCSBASE
350
2E97
  3
PUCSORGTOP
350
2E98
  3
PUCSORGBOTTOM
350
2E99
  3
PUCSORGLEFT
350
2E9A
  3
PUCSORGRIGHT
350
2E9B
  3
PUCSORGFRONT
350
2E9C
  3
PUCSORGBACK
350
2E9D
  3
UCSORTHOREF
350
2E9E
  3
UCSORTHOVIEW
350
2E9F
  3
UCSBASE
350
2EA0
  3
UCSORGTOP
350
2EA1
  3
UCSORGBOTTOM
350
2EA2
  3
UCSORGLEFT
350
2EA3
  3
UCSORGRIGHT
350
2EA4
  3
UCSORGFRONT
350
2EA5
  3
UCSORGBACK
350
2EA6
  0
DICTIONARY
  5
2E7B
102
{ACAD_REACTORS
330
74
102
}
330
74
100
AcDbDictionary
  3
*A1
350
2E7C
  0
XRECORD
  5
2EA9
102
{ACAD_REACTORS
330
74
102
}
330
74
100
AcDbXrecord
340
1F
  0
XRECORD
  5
2EAF
102
{ACAD_REACTORS
330
2EAE
102
}
330
2EAE
100
AcDbXrecord
340
101
  0
MLINESTYLE
  5
18
102
{ACAD_REACTORS
330
17
102
}
330
17
100
AcDbMlineStyle
  2
STANDARD
 70
     0
  3

 62
   256
 51
90.0
 52
90.0
 71
     2
 49
0.5
 62
   256
  6
BYLAYER
 49
-0.5
 62
   256
  6
BYLAYER
  0
ACDBPLACEHOLDER
  5
F
102
{ACAD_REACTORS
330
E
102
}
330
E
100
AcDbPlaceHolder
280
     0
  0
DICTIONARYVAR
  5
35
102
{ACAD_REACTORS
330
34
102
}
330
34
100
DictionaryVariables
280
     0
  1
1
  0
DICTIONARYVAR
  5
B5E
102
{ACAD_REACTORS
330
34
102
}
330
34
100
DictionaryVariables
280
     0
  1
96
  0
DICTIONARY
  5
260
102
{ACAD_REACTORS
330
43
102
}
330
43
100
AcDbDictionary
  0
DICTIONARY
  5
2C
102
{ACAD_REACTORS
330
2B
102
}
330
2B
100
AcDbDictionary
  3
DWGSETTINGS
350
2D
  0
XRECORD
  5
2E87
102
{ACAD_REACTORS
330
2E86
102
}
330
2E86
100
AcDbXrecord
 90
        1
  0
XRECORD
  5
2E88
102
{ACAD_REACTORS
330
2E86
102
}
330
2E86
100
AcDbXrecord
 90
       70
  0
XRECORD
  5
2E89
102
{ACAD_REACTORS
330
2E86
102
}
330
2E86
100
AcDbXrecord
  1

  0
XRECORD
  5
2E8A
102
{ACAD_REACTORS
330
2E86
102
}
330
2E86
100
AcDbXrecord
  1
ASAMI.ctb
  0
XRECORD
  5
2E8B
102
{ACAD_REACTORS
330
2E86
102
}
330
2E86
100
AcDbXrecord
340
1A
  0
XRECORD
  5
2E8C
102
{ACAD_REACTORS
330
2E86
102
}
330
2E86
100
AcDbXrecord
340
19
  0
XRECORD
  5
2E8D
102
{ACAD_REACTORS
330
2E86
102
}
330
2E86
100
AcDbXrecord
340
E
  0
XRECORD
  5
2E8E
102
{ACAD_REACTORS
330
2E86
102
}
330
2E86
100
AcDbXrecord
 90
    10781
  0
XRECORD
  5
2E8F
102
{ACAD_REACTORS
330
2E86
102
}
330
2E86
100
AcDbXrecord
 90
        4
  0
XRECORD
  5
2E90
102
{ACAD_REACTORS
330
2E86
102
}
330
2E86
100
AcDbXrecord
 90
        0
  0
XRECORD
  5
2E91
102
{ACAD_REACTORS
330
2E86
102
}
330
2E86
100
AcDbXrecord
  1
{AFB28963-8C59-40AE-9337-C84526B81ACE}
  0
XRECORD
  5
2E92
102
{ACAD_REACTORS
330
2E86
102
}
330
2E86
100
AcDbXrecord
  1
{00143469-CA8A-413F-8F0F-E02E8AF7243F}
  0
XRECORD
  5
2E93
102
{ACAD_REACTORS
330
2E86
102
}
330
2E86
100
AcDbXrecord
 40
0.0
  0
XRECORD
  5
2E94
102
{ACAD_REACTORS
330
2E86
102
}
330
2E86
100
AcDbXrecord
1000
DSTYLE
1002
{
1070
    79
 70
     2
1070
   341
340
59
1070
   342
340
59
1070
   371
 70
    -1
1070
   372
 70
    -1
1002
}
  0
XRECORD
  5
2E95
102
{ACAD_REACTORS
330
2E86
102
}
330
2E86
100
AcDbXrecord
340
0
  0
XRECORD
  5
2E96
102
{ACAD_REACTORS
330
2E86
102
}
330
2E86
100
AcDbXrecord
 70
     0
  0
XRECORD
  5
2E97
102
{ACAD_REACTORS
330
2E86
102
}
330
2E86
100
AcDbXrecord
340
0
  0
XRECORD
  5
2E98
102
{ACAD_REACTORS
330
2E86
102
}
330
2E86
100
AcDbXrecord
 10
0.0
 20
0.0
 30
0.0
  0
XRECORD
  5
2E99
102
{ACAD_REACTORS
330
2E86
102
}
330
2E86
100
AcDbXrecord
 10
0.0
 20
0.0
 30
0.0
  0
XRECORD
  5
2E9A
102
{ACAD_REACTORS
330
2E86
102
}
330
2E86
100
AcDbXrecord
 10
0.0
 20
0.0
 30
0.0
  0
XRECORD
  5
2E9B
102
{ACAD_REACTORS
330
2E86
102
}
330
2E86
100
AcDbXrecord
 10
0.0
 20
0.0
 30
0.0
  0
XRECORD
  5
2E9C
102
{ACAD_REACTORS
330
2E86
102
}
330
2E86
100
AcDbXrecord
 10
0.0
 20
0.0
 30
0.0
  0
XRECORD
  5
2E9D
102
{ACAD_REACTORS
330
2E86
102
}
330
2E86
100
AcDbXrecord
 10
0.0
 20
0.0
 30
0.0
  0
XRECORD
  5
2E9E
102
{ACAD_REACTORS
330
2E86
102
}
330
2E86
100
AcDbXrecord
340
0
  0
XRECORD
  5
2E9F
102
{ACAD_REACTORS
330
2E86
102
}
330
2E86
100
AcDbXrecord
 70
     0
  0
XRECORD
  5
2EA0
102
{ACAD_REACTORS
330
2E86
102
}
330
2E86
100
AcDbXrecord
340
0
  0
XRECORD
  5
2EA1
102
{ACAD_REACTORS
330
2E86
102
}
330
2E86
100
AcDbXrecord
 10
0.0
 20
0.0
 30
0.0
  0
XRECORD
  5
2EA2
102
{ACAD_REACTORS
330
2E86
102
}
330
2E86
100
AcDbXrecord
 10
0.0
 20
0.0
 30
0.0
  0
XRECORD
  5
2EA3
102
{ACAD_REACTORS
330
2E86
102
}
330
2E86
100
AcDbXrecord
 10
0.0
 20
0.0
 30
0.0
  0
XRECORD
  5
2EA4
102
{ACAD_REACTORS
330
2E86
102
}
330
2E86
100
AcDbXrecord
 10
0.0
 20
0.0
 30
0.0
  0
XRECORD
  5
2EA5
102
{ACAD_REACTORS
330
2E86
102
}
330
2E86
100
AcDbXrecord
 10
0.0
 20
0.0
 30
0.0
  0
XRECORD
  5
2EA6
102
{ACAD_REACTORS
330
2E86
102
}
330
2E86
100
AcDbXrecord
 10
0.0
 20
0.0
 30
0.0
  0
LAYER_INDEX
  5
2E7C
102
{ACAD_REACTORS
330
2E7B
102
}
330
2E7B
100
AcDbIndex
 40
2453151.679077673
100
AcDbLayerIndex
  8
0
360
2E7D
 90
        0
  8
AM_0
360
2E7E
 90
       56
  8
AM_7
360
2E7F
 90
        1
  8
AM_11
360
2E80
 90
       19
  8
AM_5
360
2E81
 90
        5
  8
Defpoints
360
2E82
 90
        0
  8
AM_6
360
2E83
 90
        1
  8
AM_CL
360
2E84
 90
        0
  0
XRECORD
  5
2D
102
{ACAD_REACTORS
330
2C
102
}
330
2C
100
AcDbXrecord
  1
VERSION
140
15.0
  1
PRODUCT
  2
AutoCAD Mechanical 2000
  0
IDBUFFER
  5
2E7D
330
0
100
AcDbIdBuffer
  0
IDBUFFER
  5
2E7E
330
0
100
AcDbIdBuffer
330
2B83
330
2B84
330
2B85
330
2B86
330
2B87
330
2B88
330
2B89
330
2B8B
330
1C24
330
1C25
330
1C26
330
1C27
330
1C28
330
1C2B
330
1C2C
330
1C2D
330
1EDD
330
1EDF
330
1FEC
330
293E
330
293F
330
2942
330
2943
330
2945
330
2947
330
2956
330
2957
330
2958
330
2959
330
2969
330
296C
330
296D
330
296E
330
296F
330
2970
330
2971
330
2972
330
2973
330
2974
330
2977
330
2978
330
2979
330
297A
330
297B
330
2989
330
298A
330
298B
330
298C
330
298D
330
2B7C
330
2B7D
330
2B7E
330
2B7F
330
2B80
330
2B81
330
2B82
  0
IDBUFFER
  5
2E7F
330
0
100
AcDbIdBuffer
330
C9F
  0
IDBUFFER
  5
2E80
330
0
100
AcDbIdBuffer
330
29C0
330
29C1
330
29C2
330
2940
330
2944
330
2946
330
2968
330
296A
330
296B
330
297C
330
297D
330
297E
330
297F
330
2980
330
2981
330
2982
330
29BD
330
29BE
330
29BF
  0
IDBUFFER
  5
2E81
330
0
100
AcDbIdBuffer
330
CC6
330
DF5
330
1EEB
330
2A8C
330
2CA7
  0
IDBUFFER
  5
2E82
330
0
100
AcDbIdBuffer
  0
IDBUFFER
  5
2E83
330
0
100
AcDbIdBuffer
330
19BD
  0
IDBUFFER
  5
2E84
330
0
100
AcDbIdBuffer
  0
ENDSEC
  0
EOF
