  0
SECTION
  2
HEADER
  9
$ACADVER
  1
AC1014
  9
$ACADMAINTVER
 70
     9
  9
$DWGCODEPAGE
  3
ANSI_932
  9
$INSBASE
 10
0.0
 20
0.0
 30
0.0
  9
$EXTMIN
 10
-141.1499755686908
 20
-27.75003143075874
 30
-0.00000001
  9
$EXTMAX
 10
13.96806287202249
 20
13.64550037054431
 30
0.00000001
  9
$LIMMIN
 10
-144.2947427153176
 20
-45.0190390766545
  9
$LIMMAX
 10
17.32561424894453
 20
28.94485128504129
  9
$ORTHOMODE
 70
     0
  9
$REGENMODE
 70
     1
  9
$FILLMODE
 70
     1
  9
$QTEXTMODE
 70
     0
  9
$MIRRTEXT
 70
     0
  9
$DRAGMODE
 70
     2
  9
$LTSCALE
 40
1.0
  9
$OSMODE
 70
    55
  9
$ATTMODE
 70
     1
  9
$TEXTSIZE
 40
2.5
  9
$TRACEWID
 40
1.0
  9
$TEXTSTYLE
  7
STANDARD
  9
$CLAYER
  8
AM_0
  9
$CELTYPE
  6
BYLAYER
  9
$CECOLOR
 62
   256
  9
$CELTSCALE
 40
1.0
  9
$DELOBJ
 70
     1
  9
$DISPSILH
 70
     0
  9
$DIMSCALE
 40
0.5
  9
$DIMASZ
 40
2.5
  9
$DIMEXO
 40
1.0
  9
$DIMDLI
 40
12.0
  9
$DIMRND
 40
0.0
  9
$DIMDLE
 40
0.0
  9
$DIMEXE
 40
1.0
  9
$DIMTP
 40
0.1
  9
$DIMTM
 40
0.1
  9
$DIMTXT
 40
3.2
  9
$DIMCEN
 40
0.0
  9
$DIMTSZ
 40
0.0
  9
$DIMTOL
 70
     0
  9
$DIMLIM
 70
     0
  9
$DIMTIH
 70
     0
  9
$DIMTOH
 70
     0
  9
$DIMSE1
 70
     0
  9
$DIMSE2
 70
     0
  9
$DIMTAD
 70
     3
  9
$DIMZIN
 70
     8
  9
$DIMBLK
  1
OPEN30
  9
$DIMASO
 70
     1
  9
$DIMSHO
 70
     1
  9
$DIMPOST
  1

  9
$DIMAPOST
  1
"
  9
$DIMALT
 70
     0
  9
$DIMALTD
 70
     2
  9
$DIMALTF
 40
0.0393701
  9
$DIMLFAC
 40
1.0
  9
$DIMTOFL
 70
     1
  9
$DIMTVP
 40
0.0
  9
$DIMTIX
 70
     0
  9
$DIMSOXD
 70
     0
  9
$DIMSAH
 70
     0
  9
$DIMBLK1
  1

  9
$DIMBLK2
  1

  9
$DIMSTYLE
  2
AM_JIS
  9
$DIMCLRD
 70
   256
  9
$DIMCLRE
 70
   256
  9
$DIMCLRT
 70
     2
  9
$DIMTFAC
 40
0.71
  9
$DIMGAP
 40
1.5
  9
$DIMJUST
 70
     0
  9
$DIMSD1
 70
     0
  9
$DIMSD2
 70
     0
  9
$DIMTOLJ
 70
     0
  9
$DIMTZIN
 70
     0
  9
$DIMALTZ
 70
     0
  9
$DIMALTTZ
 70
     0
  9
$DIMFIT
 70
     3
  9
$DIMUPT
 70
     0
  9
$DIMUNIT
 70
     2
  9
$DIMDEC
 70
     3
  9
$DIMTDEC
 70
     3
  9
$DIMALTU
 70
     2
  9
$DIMALTTD
 70
     2
  9
$DIMTXSTY
  7
ASAMI
  9
$DIMAUNIT
 70
     0
  9
$LUNITS
 70
     2
  9
$LUPREC
 70
     2
  9
$SKETCHINC
 40
1.0
  9
$FILLETRAD
 40
2.5
  9
$AUNITS
 70
     0
  9
$AUPREC
 70
     0
  9
$MENU
  1
.
  9
$ELEVATION
 40
0.0
  9
$PELEVATION
 40
0.0
  9
$THICKNESS
 40
0.0
  9
$LIMCHECK
 70
     0
  9
$BLIPMODE
 70
     0
  9
$CHAMFERA
 40
2.5
  9
$CHAMFERB
 40
2.5
  9
$CHAMFERC
 40
20.0
  9
$CHAMFERD
 40
0.0
  9
$SKPOLY
 70
     0
  9
$TDCREATE
 40
2452800.443498622
  9
$TDUPDATE
 40
2453151.679265393
  9
$TDINDWG
 40
0.1213678935
  9
$TDUSRTIMER
 40
0.1213678935
  9
$USRTIMER
 70
     1
  9
$ANGBASE
 50
0.0
  9
$ANGDIR
 70
     0
  9
$PDMODE
 70
     3
  9
$PDSIZE
 40
0.0
  9
$PLINEWID
 40
0.0
  9
$COORDS
 70
     1
  9
$SPLFRAME
 70
     0
  9
$SPLINETYPE
 70
     6
  9
$SPLINESEGS
 70
     8
  9
$ATTDIA
 70
     1
  9
$ATTREQ
 70
     1
  9
$HANDLING
 70
 12289
  9
$HANDSEED
  5
2F9D
  9
$SURFTAB1
 70
     6
  9
$SURFTAB2
 70
     6
  9
$SURFTYPE
 70
     6
  9
$SURFU
 70
     6
  9
$SURFV
 70
     6
  9
$UCSNAME
  2

  9
$UCSORG
 10
-0.0000000000001474
 20
-0.0000000000002278
 30
0.0
  9
$UCSXDIR
 10
1.0
 20
0.000000000000002
 30
0.0
  9
$UCSYDIR
 10
-0.000000000000002
 20
1.0
 30
0.0
  9
$PUCSNAME
  2

  9
$PUCSORG
 10
0.0
 20
0.0
 30
0.0
  9
$PUCSXDIR
 10
1.0
 20
0.0
 30
0.0
  9
$PUCSYDIR
 10
0.0
 20
1.0
 30
0.0
  9
$USERI1
 70
     0
  9
$USERI2
 70
     0
  9
$USERI3
 70
     0
  9
$USERI4
 70
     0
  9
$USERI5
 70
     0
  9
$USERR1
 40
0.0
  9
$USERR2
 40
0.0
  9
$USERR3
 40
0.0
  9
$USERR4
 40
0.0
  9
$USERR5
 40
0.0
  9
$WORLDVIEW
 70
     1
  9
$SHADEDGE
 70
     3
  9
$SHADEDIF
 70
    70
  9
$TILEMODE
 70
     1
  9
$MAXACTVP
 70
    64
  9
$PINSBASE
 10
0.0
 20
0.0
 30
0.0
  9
$PLIMCHECK
 70
     0
  9
$PEXTMIN
 10
1.000000000000000E+20
 20
1.000000000000000E+20
 30
1.000000000000000E+20
  9
$PEXTMAX
 10
-1.000000000000000E+20
 20
-1.000000000000000E+20
 30
-1.000000000000000E+20
  9
$PLIMMIN
 10
0.0
 20
0.0
  9
$PLIMMAX
 10
841.0
 20
594.0
  9
$UNITMODE
 70
     0
  9
$VISRETAIN
 70
     1
  9
$PLINEGEN
 70
     0
  9
$PSLTSCALE
 70
     0
  9
$TREEDEPTH
 70
  3020
  9
$PICKSTYLE
 70
     0
  9
$CMLSTYLE
  2
STANDARD
  9
$CMLJUST
 70
     0
  9
$CMLSCALE
 40
20.0
  9
$PROXYGRAPHICS
 70
     1
  9
$MEASUREMENT
 70
     1
  0
ENDSEC
  0
SECTION
  2
CLASSES
  0
CLASS
  1
ACDBDICTIONARYWDFLT
  2
AcDbDictionaryWithDefault
  3
AutoCAD 2000
 90
        0
280
     0
281
     0
  0
CLASS
  1
ACDBPLACEHOLDER
  2
AcDbPlaceHolder
  3
AutoCAD 2000
 90
        0
280
     0
281
     0
  0
CLASS
  1
LAYOUT
  2
AcDbLayout
  3
AutoCAD 2000
 90
        0
280
     0
281
     0
  0
CLASS
  1
AMGSETTINGSOBJ
  2
AmgSettingsObj
  3
"AcadM|Product Description: AutoCAD Mechanical 2000|Company: Autodesk"
 90
        0
280
     0
281
     0
  0
CLASS
  1
ACME_DOCUMENT
  2
AcMeDbDoc
  3
AcMeServices
 90
        0
280
     0
281
     0
  0
CLASS
  1
ACMESCOPE
  2
AcMeScope
  3
AcMeServices
 90
        0
280
     0
281
     0
  0
CLASS
  1
ACMECOMMANDHISTORY
  2
AcMeCommandHistory
  3
AcMeServices
 90
        0
280
     0
281
     0
  0
CLASS
  1
DICTIONARYVAR
  2
AcDbDictionaryVar
  3
AutoCAD 2000
 90
        0
280
     0
281
     0
  0
CLASS
  1
ACIMSYSVARMAN
  2
AcImSysVarManager
  3
AcMeServices
 90
        0
280
     0
281
     0
  0
CLASS
  1
ACIMREALSYSVAR
  2
AcImRealSysVar
  3
AcMeServices
 90
        0
280
     0
281
     0
  0
CLASS
  1
ACIMINTSYSVAR
  2
AcImIntSysVar
  3
AcMeServices
 90
        0
280
     0
281
     0
  0
CLASS
  1
ACMEDRAWINGMAN
  2
AcMeDrawingMan
  3
AcMeServices
 90
        0
280
     0
281
     0
  0
CLASS
  1
ACMEVIEW
  2
AcMeView
  3
AcMeServices
 90
        0
280
     0
281
     0
  0
CLASS
  1
ACDBENTITYCACHE
  2
AcMeEntityCache
  3
AcMeServices
 90
        0
280
     0
281
     0
  0
CLASS
  1
GSMANAGER
  2
AcMeGSManager
  3
AcMeServices
 90
        0
280
     0
281
     0
  0
CLASS
  1
AmdtInternalReactor
  2
AmdtInternalReactor
  3
AcMeServices
 90
        0
280
     0
281
     0
  0
CLASS
  1
ACMESTATEMGR
  2
AcMeStateMgr
  3
AcMeServices
 90
        0
280
     0
281
     0
  0
CLASS
  1
ACME_DATABASE
  2
AcMeDbDatabase
  3
AcMeServices
 90
        0
280
     0
281
     0
  0
CLASS
  1
ACRFINSADJUSTERMGR
  2
AcRfInsAdjusterMgr
  3
AcMeServices
 90
        0
280
     0
281
     0
  0
CLASS
  1
ACMDATADICTIONARY
  2
AcmDataDictionary
  3
"AcmSymBB|Product Description: AutoCAD Mechanical 2000|Company: Autodesk"
 90
        0
280
     0
281
     0
  0
CLASS
  1
ACMDATAENTRYBLOCK
  2
AcmDataEntryBlock
  3
"AcmSymBB|Product Description: AutoCAD Mechanical 2000|Company: Autodesk"
 90
        0
280
     0
281
     0
  0
CLASS
  1
AMGOBJPROPCFG
  2
AmgObjPropCfg
  3
"AmgLay|Product Description: AutoCAD Mechanical 2000|Company: Autodesk"
 90
        1
280
     0
281
     0
  0
CLASS
  1
ACAMGFILTERDAT
  2
AcAmgFilterDat
  3
"AcadM|Product Description: AutoCAD Mechanical 2000|Company: Autodesk"
 90
        0
280
     0
281
     0
  0
CLASS
  1
LAYER_INDEX
  2
AcDbLayerIndex
  3
AutoCAD 2000
 90
        0
280
     0
281
     0
  0
CLASS
  1
IDBUFFER
  2
AcDbIdBuffer
  3
AutoCAD 2000
 90
        0
280
     0
281
     0
  0
CLASS
  1
ACIMSTRSYSVAR
  2
AcImStrSysVar
  3
AcMeServices
 90
        0
280
     0
281
     0
  0
CLASS
  1
ACMSTANDARDJIS
  2
AcmStandardJIS
  3
"AcmSymBB|Product Description: AutoCAD Mechanical 2000|Company: Autodesk"
 90
        0
280
     0
281
     0
  0
CLASS
  1
ACMSURFSTANDARDJIS
  2
AcmSurfTextStdJIS
  3
"AcmSymBB|Product Description: AutoCAD Mechanical 2000|Company: Autodesk"
 90
        0
280
     0
281
     0
  0
CLASS
  1
ACMFCFSTANDARDJIS
  2
AcmFCFStdJIS
  3
"AcmSymBB|Product Description: AutoCAD Mechanical 2000|Company: Autodesk"
 90
        0
280
     0
281
     0
  0
CLASS
  1
ACMWELDSTANDARDJIS
  2
AcmWeldingStdJIS
  3
"AcmSymBB|Product Description: AutoCAD Mechanical 2000|Company: Autodesk"
 90
        0
280
     0
281
     0
  0
CLASS
  1
ACMIDSTANDARDJIS
  2
AcmIdStdJIS
  3
"AcmSymBB|Product Description: AutoCAD Mechanical 2000|Company: Autodesk"
 90
        0
280
     0
281
     0
  0
CLASS
  1
ACMDATUMSTANDARDJIS
  2
AcmDatumStdJIS
  3
"AcmSymBB|Product Description: AutoCAD Mechanical 2000|Company: Autodesk"
 90
        0
280
     0
281
     0
  0
CLASS
  1
ACMBOMSTANDARDJIS
  2
AcmBOMStdJIS
  3
"AcmSymBB|Product Description: AutoCAD Mechanical 2000|Company: Autodesk"
 90
        0
280
     0
281
     0
  0
CLASS
  1
ACMSTANDARDANSI
  2
AcmStandardANSI
  3
"AcmSymBB|Product Description: AutoCAD Mechanical 2000|Company: Autodesk"
 90
        0
280
     0
281
     0
  0
CLASS
  1
ACMSURFSTANDARDANSI
  2
AcmSurfTextStdANSI
  3
"AcmSymBB|Product Description: AutoCAD Mechanical 2000|Company: Autodesk"
 90
        0
280
     0
281
     0
  0
CLASS
  1
ACMFCFSTANDARDANSI
  2
AcmFCFStdANSI
  3
"AcmSymBB|Product Description: AutoCAD Mechanical 2000|Company: Autodesk"
 90
        0
280
     0
281
     0
  0
CLASS
  1
ACMWELDSTANDARDANSI
  2
AcmWeldingStdANSI
  3
"AcmSymBB|Product Description: AutoCAD Mechanical 2000|Company: Autodesk"
 90
        0
280
     0
281
     0
  0
CLASS
  1
ACMIDSTANDARDANSI
  2
AcmIdStdANSI
  3
"AcmSymBB|Product Description: AutoCAD Mechanical 2000|Company: Autodesk"
 90
        0
280
     0
281
     0
  0
CLASS
  1
ACMDATUMSTANDARDANSI
  2
AcmDatumStdANSI
  3
"AcmSymBB|Product Description: AutoCAD Mechanical 2000|Company: Autodesk"
 90
        0
280
     0
281
     0
  0
CLASS
  1
ACMBOMSTANDARDANSI
  2
AcmBOMStdANSI
  3
"AcmSymBB|Product Description: AutoCAD Mechanical 2000|Company: Autodesk"
 90
        0
280
     0
281
     0
  0
CLASS
  1
ACMSTANDARDBSI
  2
AcmStandardBSI
  3
"AcmSymBB|Product Description: AutoCAD Mechanical 2000|Company: Autodesk"
 90
        0
280
     0
281
     0
  0
CLASS
  1
ACMSURFSTANDARDBSI
  2
AcmSurfTextStdBSI
  3
"AcmSymBB|Product Description: AutoCAD Mechanical 2000|Company: Autodesk"
 90
        0
280
     0
281
     0
  0
CLASS
  1
ACMFCFSTANDARDBSI
  2
AcmFCFStdBSI
  3
"AcmSymBB|Product Description: AutoCAD Mechanical 2000|Company: Autodesk"
 90
        0
280
     0
281
     0
  0
CLASS
  1
ACMWELDSTANDARDBSI
  2
AcmWeldingStdBSI
  3
"AcmSymBB|Product Description: AutoCAD Mechanical 2000|Company: Autodesk"
 90
        0
280
     0
281
     0
  0
CLASS
  1
ACMIDSTANDARDBSI
  2
AcmIdStdBSI
  3
"AcmSymBB|Product Description: AutoCAD Mechanical 2000|Company: Autodesk"
 90
        0
280
     0
281
     0
  0
CLASS
  1
ACMDATUMSTANDARDBSI
  2
AcmDatumStdBSI
  3
"AcmSymBB|Product Description: AutoCAD Mechanical 2000|Company: Autodesk"
 90
        0
280
     0
281
     0
  0
CLASS
  1
ACMBOMSTANDARDBSI
  2
AcmBOMStdBSI
  3
"AcmSymBB|Product Description: AutoCAD Mechanical 2000|Company: Autodesk"
 90
        0
280
     0
281
     0
  0
CLASS
  1
LONG_TRANSACTION
  2
AcDbLongTransaction
  3
AutoCAD 2000
 90
        0
280
     0
281
     0
  0
CLASS
  1
LWPOLYLINE
  2
AcDbPolyline
  3
AutoCAD 2000
 90
        0
280
     0
281
     1
  0
CLASS
  1
HATCH
  2
AcDbHatch
  3
AutoCAD 2000
 90
        0
280
     0
281
     1
  0
CLASS
  1
XRECORD
  2
AcDbXrecord
  3
AutoCAD 2000
 90
        0
280
     0
281
     0
  0
ENDSEC
  0
SECTION
  2
TABLES
  0
TABLE
  2
VPORT
  5
8
330
0
100
AcDbSymbolTable
 70
     3
  0
VPORT
  5
2F72
330
8
100
AcDbSymbolTableRecord
100
AcDbViewportTableRecord
  2
*ACTIVE
 70
     0
 10
0.0
 20
0.0
 11
1.0
 21
1.0
 12
-60.68926847006145
 22
-7.052390744840707
 13
0.0
 23
0.0
 14
2.5
 24
2.5
 15
10.0
 25
10.0
 16
0.0
 26
0.0
 36
1.0
 17
0.0
 27
0.0
 37
0.0
 40
103.2784241739081
 41
1.56570841889117
 42
50.0
 43
0.0
 44
0.0
 50
0.0
 51
0.0
 71
     0
 72
   100
 73
     1
 74
     1
 75
     0
 76
     0
 77
     0
 78
     0
  0
ENDTAB
  0
TABLE
  2
LTYPE
  5
5
330
0
100
AcDbSymbolTable
 70
    10
  0
LTYPE
  5
14
330
5
100
AcDbSymbolTableRecord
100
AcDbLinetypeTableRecord
  2
BYBLOCK
 70
     0
  3

 72
    65
 73
     0
 40
0.0
  0
LTYPE
  5
15
330
5
100
AcDbSymbolTableRecord
100
AcDbLinetypeTableRecord
  2
BYLAYER
 70
     0
  3

 72
    65
 73
     0
 40
0.0
  0
LTYPE
  5
16
330
5
100
AcDbSymbolTableRecord
100
AcDbLinetypeTableRecord
  2
CONTINUOUS
 70
     0
  3
Solid line
 72
    65
 73
     0
 40
0.0
  0
LTYPE
  5
4B
330
5
100
AcDbSymbolTableRecord
100
AcDbLinetypeTableRecord
  2
AM_ISO02W050
 70
     0
  3
__ __ __ __ __ __ __ __ __ __ __ __ __ __ __
 72
    65
 73
     2
 40
7.5
 49
6.0
 74
     0
 49
-1.5
 74
     0
  0
LTYPE
  5
4C
330
5
100
AcDbSymbolTableRecord
100
AcDbLinetypeTableRecord
  2
AM_ISO08W050
 70
     0
  3
____ . ____ . ____ . ____ . ____ . ____ . ____
 72
    65
 73
     4
 40
18.0
 49
12.0
 74
     0
 49
-1.5
 74
     0
 49
3.0
 74
     0
 49
-1.5
 74
     0
  0
LTYPE
  5
4D
330
5
100
AcDbSymbolTableRecord
100
AcDbLinetypeTableRecord
  2
AM_ISO09W050
 70
     0
  3
_____ . . _____ . . _____ . . ____ .. ____
 72
    65
 73
     6
 40
22.5
 49
12.0
 74
     0
 49
-1.5
 74
     0
 49
3.0
 74
     0
 49
-1.5
 74
     0
 49
3.0
 74
     0
 49
-1.5
 74
     0
  0
LTYPE
  5
4E
330
5
100
AcDbSymbolTableRecord
100
AcDbLinetypeTableRecord
  2
AMCONSTR
 70
     0
  3
_______________________
 72
    65
 73
     2
 40
9999.0
 49
9999.0
 74
     0
 49
0.0
 74
     0
  0
LTYPE
  5
4F
330
5
100
AcDbSymbolTableRecord
100
AcDbLinetypeTableRecord
  2
AM_ISO02W050X2
 70
     0
  3
 _ _ _ _ _ _ _ _ _ _ _ _
 72
    65
 73
     2
 40
3.75
 49
3.0
 74
     0
 49
-0.75
 74
     0
  0
LTYPE
  5
50
330
5
100
AcDbSymbolTableRecord
100
AcDbLinetypeTableRecord
  2
AM_ISO08W050X2
 70
     0
  3
__ . __ . __ . __ . __ . __
 72
    65
 73
     4
 40
9.0
 49
6.0
 74
     0
 49
-0.75
 74
     0
 49
1.5
 74
     0
 49
-0.75
 74
     0
  0
LTYPE
  5
53
330
5
100
AcDbSymbolTableRecord
100
AcDbLinetypeTableRecord
  2
AMZIGZAG
 70
     0
  3
/\/-/\/-/\/-/\/-/\/-/\/
 72
    65
 73
     2
 40
11.00009999999999
 49
0.0001
 74
     4
 75
   135
340
52
 46
0.04
 50
0.0
 44
0.0
 45
0.0
 49
-11.0
 74
     0
  0
LTYPE
  5
166
330
5
100
AcDbSymbolTableRecord
100
AcDbLinetypeTableRecord
  2
ACJISTGL
 70
     0
  3
_ _ _ _ _
 72
    65
 73
     2
 40
3.0
 49
2.0
 74
     0
 49
-1.0
 74
     0
  0
LTYPE
  5
26A
330
5
100
AcDbSymbolTableRecord
100
AcDbLinetypeTableRecord
  2
ACJISTGB
 70
     0
  3
__ . . __ . .
 72
    65
 73
     6
 40
9.0
 49
4.0
 74
     0
 49
-1.0
 74
     0
 49
1.0
 74
     0
 49
-1.0
 74
     0
 49
1.0
 74
     0
 49
-1.0
 74
     0
  0
ENDTAB
  0
TABLE
  2
LAYER
  5
2
330
0
100
AcDbSymbolTable
 70
     7
  0
LAYER
  5
10
330
2
100
AcDbSymbolTableRecord
100
AcDbLayerTableRecord
  2
0
 70
     0
 62
     7
  6
CONTINUOUS
  0
LAYER
  5
3F9
330
2
100
AcDbSymbolTableRecord
100
AcDbLayerTableRecord
  2
AM_0
 70
     0
 62
     7
  6
CONTINUOUS
  0
LAYER
  5
C7C
330
2
100
AcDbSymbolTableRecord
100
AcDbLayerTableRecord
  2
AM_7
 70
     0
 62
     4
  6
AM_ISO08W050
  0
LAYER
  5
C97
330
2
100
AcDbSymbolTableRecord
100
AcDbLayerTableRecord
  2
AM_11
 70
     0
 62
     3
  6
AM_ISO09W050
  0
LAYER
  5
CC5
330
2
100
AcDbSymbolTableRecord
100
AcDbLayerTableRecord
  2
AM_5
 70
     0
 62
     3
  6
CONTINUOUS
  0
LAYER
  5
CC7
330
2
100
AcDbSymbolTableRecord
100
AcDbLayerTableRecord
  2
DEFPOINTS
 70
     0
 62
     7
  6
CONTINUOUS
  0
LAYER
  5
19BC
330
2
100
AcDbSymbolTableRecord
100
AcDbLayerTableRecord
  2
AM_6
 70
     0
 62
     2
  6
CONTINUOUS
  0
ENDTAB
  0
TABLE
  2
STYLE
  5
3
330
0
100
AcDbSymbolTable
 70
     5
  0
STYLE
  5
11
330
3
100
AcDbSymbolTableRecord
100
AcDbTextStyleTableRecord
  2
STANDARD
 70
     0
 40
0.0
 41
1.0
 50
0.0
 71
     0
 42
2.5
  3
simplex.shx
  4
EXTFONT.SHX
  0
STYLE
  5
52
330
3
100
AcDbSymbolTableRecord
100
AcDbTextStyleTableRecord
  2

 70
     1
 40
0.0
 41
1.0
 50
0.0
 71
     0
 42
2.5
  3
ltypeshp.shx
  4

  0
STYLE
  5
6B
330
3
100
AcDbSymbolTableRecord
100
AcDbTextStyleTableRecord
  2
ASAMI
 70
     0
 40
0.0
 41
1.0
 50
0.0
 71
     0
 42
2.5
  3
simplex.shx
  4
EXTFONT.SHX
  0
STYLE
  5
262
330
3
100
AcDbSymbolTableRecord
100
AcDbTextStyleTableRecord
  2
ACJISTS
 70
     0
 40
1.0
 41
1.0
 50
0.0
 71
     0
 42
2.5
  3
simplex.shx
  4
bigfont.shx
  0
STYLE
  5
269
330
3
100
AcDbSymbolTableRecord
100
AcDbTextStyleTableRecord
  2
ACJISGDT
 70
     0
 40
0.0
 41
1.0
 50
0.0
 71
     0
 42
2.5
  3
amgdtans.shx
  4

  0
ENDTAB
  0
TABLE
  2
VIEW
  5
6
330
0
100
AcDbSymbolTable
 70
     0
  0
ENDTAB
  0
TABLE
  2
UCS
  5
7
330
0
100
AcDbSymbolTable
 70
     0
  0
ENDTAB
  0
TABLE
  2
APPID
  5
9
330
0
100
AcDbSymbolTable
 70
    14
  0
APPID
  5
12
330
9
100
AcDbSymbolTableRecord
100
AcDbRegAppTableRecord
  2
ACAD
 70
     0
  0
APPID
  5
30
330
9
100
AcDbSymbolTableRecord
100
AcDbRegAppTableRecord
  2
MCAD_NO_VIS
 70
     0
  0
APPID
  5
31
330
9
100
AcDbSymbolTableRecord
100
AcDbRegAppTableRecord
  2
ACAD_TEMP_GRAPHIC
 70
     0
  0
APPID
  5
2C2
330
9
100
AcDbSymbolTableRecord
100
AcDbRegAppTableRecord
  2
GENIUS_GENDTOL_13
 70
     0
  0
APPID
  5
339
330
9
100
AcDbSymbolTableRecord
100
AcDbRegAppTableRecord
  2
GENIUS_GENODEF_13
 70
     0
  0
APPID
  5
33A
330
9
100
AcDbSymbolTableRecord
100
AcDbRegAppTableRecord
  2
GENIUS_GENOBJ-N-RSBK_13
 70
     0
  0
APPID
  5
33B
330
9
100
AcDbSymbolTableRecord
100
AcDbRegAppTableRecord
  2
GENIUS_GENOBJ-N-LIB_13
 70
     0
  0
APPID
  5
33C
330
9
100
AcDbSymbolTableRecord
100
AcDbRegAppTableRecord
  2
GENIUS_GENSCALE_13
 70
     0
  0
APPID
  5
378
330
9
100
AcDbSymbolTableRecord
100
AcDbRegAppTableRecord
  2
GENIUS_GENDIMSH_14
 70
     0
  0
APPID
  5
C82
330
9
100
AcDbSymbolTableRecord
100
AcDbRegAppTableRecord
  2
GENIUS_GENOBJ-N-CRS_13
 70
     0
  0
APPID
  5
C83
330
9
100
AcDbSymbolTableRecord
100
AcDbRegAppTableRecord
  2
GENIUS_GENOENT_13
 70
     0
  0
APPID
  5
C84
330
9
100
AcDbSymbolTableRecord
100
AcDbRegAppTableRecord
  2
GENIUS_GENOREF_13
 70
     0
  0
APPID
  5
C85
330
9
100
AcDbSymbolTableRecord
100
AcDbRegAppTableRecord
  2
GENIUS_GENOLIS_13
 70
     0
  0
APPID
  5
CA0
330
9
100
AcDbSymbolTableRecord
100
AcDbRegAppTableRecord
  2
GENIUS_GENOBJ-N-CEN_13
 70
     0
  0
ENDTAB
  0
TABLE
  2
DIMSTYLE
  5
A
330
0
100
AcDbSymbolTable
 70
     9
  0
DIMSTYLE
105
58
330
A
100
AcDbSymbolTableRecord
100
AcDbDimStyleTableRecord
  2
AM_JIS
 70
     0
  3

  4
"
  5
OPEN30
  6

  7

 40
0.5
 41
2.5
 42
1.0
 43
12.0
 44
1.0
 45
0.0
 46
0.0
 47
0.1
 48
0.1
140
3.2
141
0.0
142
0.0
143
0.0393701
144
1.0
145
0.0
146
0.71
147
1.5
 71
     0
 72
     0
 73
     0
 74
     0
 75
     0
 76
     0
 77
     3
 78
     8
170
     0
171
     2
172
     1
173
     0
174
     0
175
     0
176
   256
177
   256
178
     2
270
     2
271
     3
272
     3
273
     2
274
     2
340
6B
275
     0
280
     0
281
     0
282
     0
283
     0
284
     0
285
     0
286
     0
287
     3
288
     0
  0
DIMSTYLE
105
5F
330
A
100
AcDbSymbolTableRecord
100
AcDbDimStyleTableRecord
  2
AM_JIS$3
 70
     0
  3

  4
"
  5
OPEN30
  6

  7

 40
0.5
 41
2.5
 42
1.0
 43
10.0
 44
1.0
 45
0.0
 46
0.0
 47
0.1
 48
0.1
140
3.2
141
0.0
142
0.0
143
0.0393701
144
1.0
145
0.0
146
0.71
147
1.5
 71
     0
 72
     0
 73
     0
 74
     1
 75
     0
 76
     0
 77
     3
 78
     8
170
     0
171
     2
172
     0
173
     0
174
     0
175
     0
176
   256
177
   256
178
     2
270
     2
271
     2
272
     3
273
     2
274
     2
340
6B
275
     0
280
     0
281
     0
282
     0
283
     0
284
     0
285
     0
286
     0
287
     0
288
     1
  0
DIMSTYLE
105
60
330
A
100
AcDbSymbolTableRecord
100
AcDbDimStyleTableRecord
  2
AM_JIS$4
 70
     0
  3

  4
"
  5
OPEN30
  6

  7

 40
0.5
 41
2.5
 42
1.0
 43
10.0
 44
1.0
 45
0.0
 46
0.0
 47
0.1
 48
0.1
140
3.2
141
0.0
142
0.0
143
0.0393701
144
1.0
145
0.0
146
0.71
147
1.5
 71
     0
 72
     0
 73
     0
 74
     1
 75
     0
 76
     0
 77
     3
 78
     8
170
     0
171
     2
172
     0
173
     0
174
     0
175
     0
176
   256
177
   256
178
     2
270
     2
271
     2
272
     3
273
     2
274
     2
340
6B
275
     0
280
     0
281
     0
282
     0
283
     0
284
     0
285
     0
286
     0
287
     0
288
     1
  0
DIMSTYLE
105
61
330
A
100
AcDbSymbolTableRecord
100
AcDbDimStyleTableRecord
  2
AM_JIS$6
 70
     0
  3

  4
"
  5
OPEN30
  6

  7

 40
0.5
 41
2.5
 42
1.0
 43
10.0
 44
1.0
 45
0.0
 46
0.0
 47
0.1
 48
0.1
140
3.2
141
0.0
142
0.0
143
0.0393701
144
1.0
145
0.0
146
0.71
147
1.5
 71
     0
 72
     0
 73
     0
 74
     0
 75
     0
 76
     0
 77
     0
 78
     8
170
     0
171
     2
172
     1
173
     0
174
     0
175
     0
176
   256
177
   256
178
     2
270
     2
271
     2
272
     2
273
     2
274
     2
340
6B
275
     0
280
     0
281
     0
282
     0
283
     0
284
     0
285
     0
286
     0
287
     3
288
     0
  0
DIMSTYLE
105
62
330
A
100
AcDbSymbolTableRecord
100
AcDbDimStyleTableRecord
  2
AM_JIS$7
 70
     0
  3

  4
"
  5
OPEN30
  6

  7

 40
0.5
 41
2.5
 42
1.0
 43
10.0
 44
1.0
 45
0.0
 46
0.0
 47
0.1
 48
0.1
140
3.2
141
0.0
142
0.0
143
0.0393701
144
1.0
145
0.0
146
0.71
147
1.5
 71
     0
 72
     0
 73
     0
 74
     0
 75
     0
 76
     0
 77
     3
 78
     8
170
     0
171
     2
172
     1
173
     0
174
     0
175
     0
176
   256
177
   256
178
     2
270
     2
271
     2
272
     3
273
     2
274
     2
340
6B
275
     0
280
     0
281
     0
282
     0
283
     0
284
     0
285
     0
286
     0
287
     3
288
     0
  0
DIMSTYLE
105
63
330
A
100
AcDbSymbolTableRecord
100
AcDbDimStyleTableRecord
  2
AM_JIS$SF
 70
     0
  3

  4
"
  5
OPEN30
  6

  7

 40
0.5
 41
2.5
 42
1.0
 43
10.0
 44
1.0
 45
0.0
 46
0.0
 47
0.1
 48
0.1
140
3.2
141
0.0
142
0.0
143
0.0393701
144
1.0
145
0.0
146
0.71
147
1.5
 71
     0
 72
     0
 73
     0
 74
     0
 75
     1
 76
     1
 77
     3
 78
     8
170
     0
171
     2
172
     1
173
     0
174
     0
175
     0
176
   256
177
   256
178
     2
270
     2
271
     2
272
     2
273
     2
274
     2
340
6B
275
     0
280
     0
281
     0
282
     0
283
     0
284
     0
285
     0
286
     0
287
     3
288
     0
  0
DIMSTYLE
105
68
330
A
100
AcDbSymbolTableRecord
100
AcDbDimStyleTableRecord
  2
AM_JIS$SH
 70
     0
  3

  4
"
  5

  6
GENAXEH
  7
OPEN30
 40
0.5
 41
2.5
 42
1.0
 43
10.0
 44
1.0
 45
0.0
 46
0.0
 47
0.1
 48
0.1
140
3.2
141
0.0
142
0.0
143
0.0393701
144
2.0
145
0.0
146
0.71
147
1.5
 71
     0
 72
     0
 73
     0
 74
     0
 75
     1
 76
     1
 77
     3
 78
     8
170
     0
171
     2
172
     1
173
     1
174
     0
175
     0
176
   256
177
   256
178
     2
270
     2
271
     2
272
     2
273
     2
274
     2
340
6B
275
     0
280
     0
281
     0
282
     0
283
     0
284
     0
285
     0
286
     0
287
     3
288
     0
  0
DIMSTYLE
105
B34
102
{ACAD_REACTORS
330
2CA7
102
}
330
A
100
AcDbSymbolTableRecord
100
AcDbDimStyleTableRecord
  2
AM_JIS$2
 70
     0
  3

  4
"
  5
OPEN30
  6

  7

 40
0.5
 41
2.5
 42
1.0
 43
12.0
 44
1.0
 45
0.0
 46
0.0
 47
0.1
 48
0.1
140
3.2
141
0.0
142
0.0
143
0.0393701
144
1.0
145
0.0
146
0.71
147
1.5
 71
     0
 72
     0
 73
     0
 74
     0
 75
     0
 76
     0
 77
     3
 78
     8
170
     0
171
     2
172
     1
173
     0
174
     0
175
     0
176
   256
177
   256
178
     2
270
     2
271
     3
272
     3
273
     2
274
     2
340
6B
275
     0
280
     0
281
     0
282
     0
283
     0
284
     0
285
     0
286
     0
287
     3
288
     0
  0
DIMSTYLE
105
BA5
102
{ACAD_REACTORS
330
CC6
330
DF5
330
1EEB
330
2A8C
102
}
330
A
100
AcDbSymbolTableRecord
100
AcDbDimStyleTableRecord
  2
AM_JIS$0
 70
     0
  3

  4
"
  5
OPEN30
  6

  7

 40
0.5
 41
2.5
 42
0.0
 43
10.0
 44
1.0
 45
0.0
 46
0.0
 47
0.1
 48
0.1000000001
140
3.799999999999999
141
0.0
142
0.0
143
0.0393701
144
1.0
145
0.0
146
0.71
147
1.5
 71
     0
 72
     0
 73
     0
 74
     0
 75
     0
 76
     0
 77
     3
 78
     1
170
     0
171
     2
172
     1
173
     0
174
     0
175
     0
176
     3
177
     3
178
     2
270
     2
271
     2
272
     2
273
     2
274
     2
340
11
275
     1
280
     0
281
     0
282
     0
283
     0
284
     8
285
     0
286
     0
287
     0
288
     0
  0
ENDTAB
  0
TABLE
  2
BLOCK_RECORD
  5
1
330
0
100
AcDbSymbolTable
 70
    10
  0
BLOCK_RECORD
  5
1F
102
{ACAD_XDICTIONARY
360
74
102
}
330
1
100
AcDbSymbolTableRecord
100
AcDbBlockTableRecord
  2
*MODEL_SPACE
  0
BLOCK_RECORD
  5
101
102
{ACAD_XDICTIONARY
360
2F9B
102
}
330
1
100
AcDbSymbolTableRecord
100
AcDbBlockTableRecord
  2
*PAPER_SPACE
  0
BLOCK_RECORD
  5
59
330
1
100
AcDbSymbolTableRecord
100
AcDbBlockTableRecord
  2
_OPEN30
  0
BLOCK_RECORD
  5
64
330
1
100
AcDbSymbolTableRecord
100
AcDbBlockTableRecord
  2
GENAXEH
  0
BLOCK_RECORD
  5
CC8
330
1
100
AcDbSymbolTableRecord
100
AcDbBlockTableRecord
  2
*D5
  0
BLOCK_RECORD
  5
DF6
330
1
100
AcDbSymbolTableRecord
100
AcDbBlockTableRecord
  2
*D6
  0
BLOCK_RECORD
  5
1EEC
330
1
100
AcDbSymbolTableRecord
100
AcDbBlockTableRecord
  2
*D7
  0
BLOCK_RECORD
  5
2A8D
330
1
100
AcDbSymbolTableRecord
100
AcDbBlockTableRecord
  2
*D8
  0
BLOCK_RECORD
  5
2CA8
330
1
100
AcDbSymbolTableRecord
100
AcDbBlockTableRecord
  2
*D9
  0
ENDTAB
  0
ENDSEC
  0
SECTION
  2
BLOCKS
  0
BLOCK
  5
20
330
1F
100
AcDbEntity
  8
0
100
AcDbBlockBegin
  2
*MODEL_SPACE
 70
     0
 10
0.0
 20
0.0
 30
0.0
  3
*MODEL_SPACE
  1

  0
ENDBLK
  5
21
330
1F
100
AcDbEntity
  8
0
100
AcDbBlockEnd
  0
BLOCK
  5
103
330
101
100
AcDbEntity
 67
     1
  8
0
100
AcDbBlockBegin
  2
*PAPER_SPACE
 70
     0
 10
0.0
 20
0.0
 30
0.0
  3
*PAPER_SPACE
  1

  0
ENDBLK
  5
104
330
101
100
AcDbEntity
 67
     1
  8
0
100
AcDbBlockEnd
  0
BLOCK
  5
5D
330
59
100
AcDbEntity
  8
0
100
AcDbBlockBegin
  2
_OPEN30
 70
     0
 10
0.0
 20
0.0
 30
0.0
  3
_OPEN30
  1

  0
LINE
  5
5A
330
59
100
AcDbEntity
  8
0
 62
     0
100
AcDbLine
 10
-1.0
 20
0.26794919
 30
0.0
 11
0.0
 21
0.0
 31
0.0
  0
LINE
  5
5B
330
59
100
AcDbEntity
  8
0
 62
     0
100
AcDbLine
 10
0.0
 20
0.0
 30
0.0
 11
-1.0
 21
-0.26794919
 31
0.0
  0
LINE
  5
5C
330
59
100
AcDbEntity
  8
0
 62
     0
100
AcDbLine
 10
0.0
 20
0.0
 30
0.0
 11
-1.0
 21
0.0
 31
0.0
  0
ENDBLK
  5
5E
330
59
100
AcDbEntity
  8
0
100
AcDbBlockEnd
  0
BLOCK
  5
66
330
64
100
AcDbEntity
  8
0
100
AcDbBlockBegin
  2
GENAXEH
 70
     0
 10
0.0
 20
0.0
 30
0.0
  3
GENAXEH
  1

  0
LINE
  5
65
330
64
100
AcDbEntity
  8
0
100
AcDbLine
 10
-1.0
 20
0.0
 30
0.0
 11
1.0
 21
0.0
 31
0.0
  0
ENDBLK
  5
67
330
64
100
AcDbEntity
  8
0
100
AcDbBlockEnd
  0
BLOCK
  5
CD2
330
CC8
100
AcDbEntity
  8
0
100
AcDbBlockBegin
  2
*D5
 70
     1
 10
0.0
 20
0.0
 30
0.0
  3
*D5
  1

  0
LINE
  5
2F2A
330
CC8
100
AcDbEntity
  8
AM_5
 62
     3
100
AcDbLine
 10
-129.0
 20
-4.234865101779198
 30
0.0
 11
-129.0
 21
-17.00003143075871
 31
0.0
  0
LINE
  5
2F2B
330
CC8
100
AcDbEntity
  8
AM_5
 62
     3
100
AcDbLine
 10
-2.000000000000003
 20
-4.099999854411251
 30
0.0
 11
-2.000000000000004
 21
-17.00003143075871
 31
0.0
  0
LINE
  5
2F2C
330
CC8
100
AcDbEntity
  8
AM_5
 62
     3
100
AcDbLine
 10
-127.75
 20
-16.50003143075871
 30
0.0
 11
-3.250000000000004
 21
-16.50003143075871
 31
0.0
  0
INSERT
  5
2F2D
330
CC8
100
AcDbEntity
  8
AM_5
 62
     3
100
AcDbBlockReference
  2
_OPEN30
 10
-129.0
 20
-16.50003143075871
 30
0.0
 41
1.25
 42
1.25
 43
1.25
 50
180.0
  0
INSERT
  5
2F2E
330
CC8
100
AcDbEntity
  8
AM_5
 62
     3
100
AcDbBlockReference
  2
_OPEN30
 10
-2.000000000000004
 20
-16.50003143075871
 30
0.0
 41
1.25
 42
1.25
 43
1.25
  0
MTEXT
  5
2F2F
330
CC8
100
AcDbEntity
  8
AM_5
 62
     2
100
AcDbMText
 10
-65.5
 20
-14.80003143075871
 30
0.0
 40
1.9
 41
0.0
 71
     5
 72
     1
  1
127
1001
ACAD
1000
MTEXTBEGIN
1070
    73
1070
     1
1070
    44
1040
1.0
1070
    74
1070
     0
1000
MTEXTEND
  0
POINT
  5
2F30
330
CC8
100
AcDbEntity
  8
DEFPOINTS
 62
     0
100
AcDbPoint
 10
-129.0
 20
-4.234865101779198
 30
0.0
  0
POINT
  5
2F31
330
CC8
100
AcDbEntity
  8
DEFPOINTS
 62
     0
100
AcDbPoint
 10
-2.000000000000003
 20
-4.099999854411251
 30
0.0
  0
POINT
  5
2F32
330
CC8
100
AcDbEntity
  8
DEFPOINTS
 62
     0
100
AcDbPoint
 10
-2.000000000000004
 20
-16.50003143075871
 30
0.0
  0
ENDBLK
  5
CD3
330
CC8
100
AcDbEntity
  8
0
100
AcDbBlockEnd
  0
BLOCK
  5
E00
330
DF6
100
AcDbEntity
  8
0
100
AcDbBlockBegin
  2
*D6
 70
     1
 10
0.0
 20
0.0
 30
0.0
  3
*D6
  1

  0
LINE
  5
2F21
330
DF6
100
AcDbEntity
  8
AM_5
 62
     3
100
AcDbLine
 10
-73.99999999847472
 20
-4.500000388439782
 30
0.0
 11
-73.99999999847472
 21
-12.00003143075863
 31
0.0
  0
LINE
  5
2F22
330
DF6
100
AcDbEntity
  8
AM_5
 62
     3
100
AcDbLine
 10
-2.000000000000003
 20
-4.099999854411251
 30
0.0
 11
-2.000000000000003
 21
-12.00003143075863
 31
0.0
  0
LINE
  5
2F23
330
DF6
100
AcDbEntity
  8
AM_5
 62
     3
100
AcDbLine
 10
-72.74999999847472
 20
-11.50003143075863
 30
0.0
 11
-3.250000000000003
 21
-11.50003143075863
 31
0.0
  0
INSERT
  5
2F24
330
DF6
100
AcDbEntity
  8
AM_5
 62
     3
100
AcDbBlockReference
  2
_OPEN30
 10
-73.99999999847472
 20
-11.50003143075863
 30
0.0
 41
1.25
 42
1.25
 43
1.25
 50
180.0
  0
INSERT
  5
2F25
330
DF6
100
AcDbEntity
  8
AM_5
 62
     3
100
AcDbBlockReference
  2
_OPEN30
 10
-2.000000000000003
 20
-11.50003143075863
 30
0.0
 41
1.25
 42
1.25
 43
1.25
  0
MTEXT
  5
2F26
330
DF6
100
AcDbEntity
  8
AM_5
 62
     2
100
AcDbMText
 10
-37.99999999923736
 20
-9.800031430758631
 30
0.0
 40
1.9
 41
0.0
 71
     5
 72
     1
  1
72
1001
ACAD
1000
MTEXTBEGIN
1070
    73
1070
     1
1070
    44
1040
1.0
1070
    74
1070
     0
1000
MTEXTEND
  0
POINT
  5
2F27
330
DF6
100
AcDbEntity
  8
DEFPOINTS
 62
     0
100
AcDbPoint
 10
-73.99999999847472
 20
-4.500000388439782
 30
0.0
  0
POINT
  5
2F28
330
DF6
100
AcDbEntity
  8
DEFPOINTS
 62
     0
100
AcDbPoint
 10
-2.000000000000003
 20
-4.099999854411251
 30
0.0
  0
POINT
  5
2F29
330
DF6
100
AcDbEntity
  8
DEFPOINTS
 62
     0
100
AcDbPoint
 10
-2.000000000000003
 20
-11.50003143075863
 30
0.0
  0
ENDBLK
  5
E01
330
DF6
100
AcDbEntity
  8
0
100
AcDbBlockEnd
  0
BLOCK
  5
1EF6
330
1EEC
100
AcDbEntity
  8
0
100
AcDbBlockBegin
  2
*D7
 70
     1
 10
0.0
 20
0.0
 30
0.0
  3
*D7
  1

  0
LINE
  5
2D91
330
1EEC
100
AcDbEntity
  8
AM_5
 62
     3
100
AcDbLine
 10
-128.7053273518916
 20
-4.500007542575746
 30
0.0
 11
-138.9999755686908
 21
-4.500007542575765
 31
0.0
  0
LINE
  5
2D92
330
1EEC
100
AcDbEntity
  8
AM_5
 62
     3
100
AcDbLine
 10
-128.7053273518916
 20
4.499981016489259
 30
0.0
 11
-138.9999755686908
 21
4.49998101648924
 31
0.0
  0
LINE
  5
2D93
330
1EEC
100
AcDbEntity
  8
AM_5
 62
     3
100
AcDbLine
 10
-138.4999755686908
 20
-3.250007542575764
 30
0.0
 11
-138.4999755686908
 21
3.249981016489241
 31
0.0
  0
INSERT
  5
2D94
330
1EEC
100
AcDbEntity
  8
AM_5
 62
     3
100
AcDbBlockReference
  2
_OPEN30
 10
-138.4999755686908
 20
-4.500007542575764
 30
0.0
 41
1.25
 42
1.25
 43
1.25
 50
270.0000000000001
  0
INSERT
  5
2D95
330
1EEC
100
AcDbEntity
  8
AM_5
 62
     3
100
AcDbBlockReference
  2
_OPEN30
 10
-138.4999755686908
 20
4.499981016489241
 30
0.0
 41
1.25
 42
1.25
 43
1.25
 50
90.0000000000001
  0
MTEXT
  5
2D96
330
1EEC
100
AcDbEntity
  8
AM_5
 62
     2
100
AcDbMText
 10
-140.1999755686908
 20
-0.0000132630432595
 30
0.0
 40
1.9
 41
0.0
 71
     5
 72
     1
  1
%%c9
 11
-0.000000000000002
 21
1.0
 31
0.0
1001
ACAD
1000
MTEXTBEGIN
1070
    73
1070
     1
1070
    44
1040
1.0
1070
    74
1070
     0
1000
MTEXTEND
  0
POINT
  5
2D97
330
1EEC
100
AcDbEntity
  8
DEFPOINTS
 62
     0
100
AcDbPoint
 10
-128.7053273518916
 20
-4.50000754257546
 30
0.0
  0
POINT
  5
2D98
330
1EEC
100
AcDbEntity
  8
DEFPOINTS
 62
     0
100
AcDbPoint
 10
-128.7053273518916
 20
4.499981016489545
 30
0.0
  0
POINT
  5
2D99
330
1EEC
100
AcDbEntity
  8
DEFPOINTS
 62
     0
100
AcDbPoint
 10
-138.4999755686908
 20
4.499981016489549
 30
0.0
  0
ENDBLK
  5
1EF7
330
1EEC
100
AcDbEntity
  8
0
100
AcDbBlockEnd
  0
BLOCK
  5
2A97
330
2A8D
100
AcDbEntity
  8
0
100
AcDbBlockBegin
  2
*D8
 70
     1
 10
0.0
 20
0.0
 30
0.0
  3
*D8
  1

  0
LINE
  5
2F33
330
2A8D
100
AcDbEntity
  8
AM_5
 62
     3
100
AcDbLine
 10
-2.0
 20
4.100000145588738
 30
0.0
 11
9.819888315414946
 21
4.10000014558876
 31
0.0
  0
LINE
  5
2F34
330
2A8D
100
AcDbEntity
  8
AM_5
 62
     3
100
AcDbLine
 10
-1.999999999999992
 20
-4.099999854411253
 30
0.0
 11
9.819888315414965
 21
-4.09999985441123
 31
0.0
  0
LINE
  5
2F35
330
2A8D
100
AcDbEntity
  8
AM_5
 62
     3
100
AcDbLine
 10
9.319888315414949
 20
2.850000145588759
 30
0.0
 11
9.31988831541496
 21
-2.849999854411231
 31
0.0
  0
INSERT
  5
2F36
330
2A8D
100
AcDbEntity
  8
AM_5
 62
     3
100
AcDbBlockReference
  2
_OPEN30
 10
9.319888315414946
 20
4.100000145588759
 30
0.0
 41
1.25
 42
1.25
 43
1.25
 50
90.0000000000001
  0
INSERT
  5
2F37
330
2A8D
100
AcDbEntity
  8
AM_5
 62
     3
100
AcDbBlockReference
  2
_OPEN30
 10
9.319888315414964
 20
-4.099999854411231
 30
0.0
 41
1.25
 42
1.25
 43
1.25
 50
270.0000000000001
  0
MTEXT
  5
2F38
330
2A8D
100
AcDbEntity
  8
AM_5
 62
     2
100
AcDbMText
 10
7.619888315414955
 20
0.0000001455887605
 30
0.0
 40
1.9
 41
0.0
 71
     5
 72
     1
  1
%%c8.2
 11
-0.000000000000002
 21
1.0
 31
0.0
1001
ACAD
1000
MTEXTBEGIN
1070
    73
1070
     1
1070
    44
1040
1.0
1070
    74
1070
     0
1000
MTEXTEND
  0
POINT
  5
2F39
330
2A8D
100
AcDbEntity
  8
DEFPOINTS
 62
     0
100
AcDbPoint
 10
-1.999999999999992
 20
4.100000145588741
 30
0.0
  0
POINT
  5
2F3A
330
2A8D
100
AcDbEntity
  8
DEFPOINTS
 62
     0
100
AcDbPoint
 10
-2.000000000000001
 20
-4.099999854411247
 30
0.0
  0
POINT
  5
2F3B
330
2A8D
100
AcDbEntity
  8
DEFPOINTS
 62
     0
100
AcDbPoint
 10
9.319888315414953
 20
-4.099999854411251
 30
0.0
  0
ENDBLK
  5
2A98
330
2A8D
100
AcDbEntity
  8
0
100
AcDbBlockEnd
  0
BLOCK
  5
2CB8
330
2CA8
100
AcDbEntity
  8
0
100
AcDbBlockBegin
  2
*D9
 70
     1
 10
0.0
 20
0.0
 30
0.0
  3
*D9
  1

  0
LINE
  5
2D9A
330
2CA8
100
AcDbEntity
  8
AM_5
100
AcDbLine
 10
0.171010071662763
 20
-0.4698463103929555
 30
0.0
 11
4.966555966546227
 21
-13.64550037054423
 31
0.0
  0
LINE
  5
2D9B
330
2CA8
100
AcDbEntity
  8
AM_5
100
AcDbLine
 10
0.1710100716627556
 20
0.4698463103929611
 30
0.0
 11
4.966555966546014
 21
13.64550037054431
 31
0.0
  0
ARC
  5
2D9C
330
2CA8
100
AcDbEntity
  8
AM_5
100
AcDbCircle
 10
-0.0000000000000639
 20
0.0000000000000015
 30
0.0
 40
14.02123818864491
100
AcDbArc
 50
295.1096388312757
 51
64.89036116872518
  0
INSERT
  5
2D9D
330
2CA8
100
AcDbEntity
  8
AM_5
100
AcDbBlockReference
  2
_OPEN30
 10
4.7955458948834
 20
-13.17565406015127
 30
0.0
 41
1.25
 42
1.25
 43
1.25
 50
202.5548194156373
  0
INSERT
  5
2D9E
330
2CA8
100
AcDbEntity
  8
AM_5
100
AcDbBlockReference
  2
_OPEN30
 10
4.795545894883194
 20
13.17565406015135
 30
0.0
 41
1.25
 42
1.25
 43
1.25
 50
157.4451805843634
  0
MTEXT
  5
2D9F
330
2CA8
100
AcDbEntity
  8
AM_5
 62
     2
100
AcDbMText
 10
12.47123818864485
 20
0.0000000000001107
 30
0.0
 40
1.6
 41
0.0
 71
     5
 72
     1
  1
140°
  7
ASAMI
 11
-0.000000000000002
 21
1.0
 31
0.0
1001
ACAD
1000
MTEXTBEGIN
1070
    73
1070
     1
1070
    44
1040
1.0
1070
    74
1070
     0
1000
MTEXTEND
  0
POINT
  5
2DA0
330
2CA8
100
AcDbEntity
  8
DEFPOINTS
 62
     0
100
AcDbPoint
 10
12.87452674321848
 20
-5.553528741337792
 30
0.0
  0
POINT
  5
2DA1
330
2CA8
100
AcDbEntity
  8
DEFPOINTS
 62
     0
100
AcDbPoint
 10
-0.0000000000000639
 20
0.0000000000000015
 30
0.0
  0
POINT
  5
2DA2
330
2CA8
100
AcDbEntity
  8
DEFPOINTS
 62
     0
100
AcDbPoint
 10
-0.4058444933443237
 20
1.115048581273418
 30
0.0
  0
POINT
  5
2DA3
330
2CA8
100
AcDbEntity
  8
DEFPOINTS
 62
     0
100
AcDbPoint
 10
-0.0000000000000639
 20
0.0000000000000015
 30
0.0
  0
POINT
  5
2DA4
330
2CA8
100
AcDbEntity
  8
DEFPOINTS
 62
     0
100
AcDbPoint
 10
-0.4058444933443095
 20
-1.115048581273416
 30
0.0
  0
ENDBLK
  5
2CB9
330
2CA8
100
AcDbEntity
  8
0
100
AcDbBlockEnd
  0
ENDSEC
  0
SECTION
  2
ENTITIES
  0
LINE
  5
C9F
330
1F
100
AcDbEntity
  8
AM_7
100
AcDbLine
 10
-131.4999745686908
 20
-0.0000000000000533
 30
0.0
 11
2.319887315415111
 21
0.0000000000000009
 31
0.0
1001
GENIUS_GENODEF_13
1002
{
1000
HIER
1070
     0
1002
}
1002
{
1000
MANEDIT
1070
     0
1002
}
1002
{
1000
NOSEL
1070
     0
1002
}
1002
{
1000
BEHIND
1070
     0
1002
}
1002
{
1000
REACTOR
1002
}
1001
GENIUS_GENOBJ-N-CEN_13
1002
{
1000
OWNER
1000
GEN
1002
}
  0
DIMENSION
  5
CC6
330
1F
100
AcDbEntity
  8
AM_5
100
AcDbDimension
  2
*D5
 10
-2.000000000000004
 20
-16.50003143075871
 30
0.0
 11
-65.5
 21
-14.80003143075871
 31
0.0
 70
    32
  1
<>
  3
AM_JIS$0
100
AcDbAlignedDimension
 13
-129.0
 23
-4.234865101779198
 33
0.0
 14
-2.000000000000003
 24
-4.099999854411251
 34
0.0
 50
0.0000000000001132
100
AcDbRotatedDimension
1001
GENIUS_GENDTOL_13
1000

1000
h7
1000

1040
0.0
1001
ACAD
1000
DSTYLE
1002
{
1070
   271
1070
     0
1002
}
  0
DIMENSION
  5
DF5
330
1F
100
AcDbEntity
  8
AM_5
100
AcDbDimension
  2
*D6
 10
-2.000000000000003
 20
-11.50003143075863
 30
0.0
 11
-37.99999999923736
 21
-9.800031430758631
 31
0.0
 70
    32
  1
<>
  3
AM_JIS$0
100
AcDbAlignedDimension
 13
-73.99999999847472
 23
-4.500000388439782
 33
0.0
 14
-2.000000000000003
 24
-4.099999854411251
 34
0.0
 50
0.0000000000001527
100
AcDbRotatedDimension
1001
GENIUS_GENDTOL_13
1000

1000
h7
1000

1040
0.0
1001
ACAD
1000
DSTYLE
1002
{
1070
   271
1070
     0
1002
}
  0
TEXT
  5
19BD
330
1F
100
AcDbEntity
  8
AM_6
100
AcDbText
 10
-76.33331425984994
 20
-27.75003143075874
 30
0.0
 40
2.5
  1
MDW082LHK
 50
0.0000000000001527
 72
     4
 11
-65.49998092651661
 21
-26.50003143075871
 31
0.0
100
AcDbText
  0
LINE
  5
1C24
330
1F
100
AcDbEntity
  8
AM_0
 48
0.5
100
AcDbLine
 10
-128.9999618530333
 20
4.234815687510544
 30
0.0
 11
-128.7053273518916
 21
4.499981016489545
 31
0.0
  0
LINE
  5
1C25
330
1F
100
AcDbEntity
  8
AM_0
 48
0.5
100
AcDbLine
 10
-128.9999618530333
 20
-4.234842213595711
 30
0.0
 11
-128.7053273518916
 21
-4.50000754257546
 31
0.0
  0
LINE
  5
1C26
330
1F
100
AcDbEntity
  8
AM_0
 48
0.5
100
AcDbLine
 10
-128.705378214525
 20
-4.500030430758968
 30
0.0
 11
-128.705378214525
 21
4.500029653880044
 31
0.0
  0
LINE
  5
1C27
330
1F
100
AcDbEntity
  8
AM_0
 48
0.5
100
AcDbLine
 10
-129.0
 20
-4.234865101779198
 30
0.0
 11
-129.0
 21
4.234864324900297
 31
0.0
  0
LINE
  5
1C28
330
1F
100
AcDbEntity
  8
AM_0
100
AcDbLine
 10
-80.26791127523409
 20
4.499999611560396
 30
0.0
 11
-128.705378214525
 21
4.500015348764787
 31
0.0
  0
LINE
  5
1C2B
330
1F
100
AcDbEntity
  8
AM_0
 48
0.5
100
AcDbLine
 10
-73.99999999847472
 20
-4.500000388439782
 30
0.0
 11
-128.705378214525
 21
-4.500018986667214
 31
0.0
  0
LINE
  5
1C2C
330
1F
100
AcDbEntity
  8
AM_0
 48
0.5
100
AcDbLine
 10
-73.99999999999998
 20
4.501278224012891
 30
0.0
 11
-128.705378214525
 21
4.500015348764787
 31
0.0
  0
LINE
  5
1C2D
330
1F
100
AcDbEntity
  8
AM_0
 48
0.5
100
AcDbLine
 10
-73.99999999999998
 20
4.501278224012891
 30
0.0
 11
-128.705378214525
 21
4.500015348764787
 31
0.0
  0
LINE
  5
1EDD
330
1F
100
AcDbEntity
  8
AM_0
100
AcDbLine
 10
-74.0
 20
-4.500000389320357
 30
0.0
 11
-74.0
 21
4.501278224012891
 31
0.0
  0
LINE
  5
1EDF
330
1F
100
AcDbEntity
  8
AM_0
100
AcDbLine
 10
-73.99999999999991
 20
-4.500000389320357
 30
0.0
 11
-73.30614040081347
 21
-4.09940036295026
 31
0.0
  0
DIMENSION
  5
1EEB
330
1F
100
AcDbEntity
  8
AM_5
100
AcDbDimension
  2
*D7
 10
-138.4999755686908
 20
4.499981016489549
 30
0.0
 11
-140.1999755686908
 21
-0.0000132630429761
 31
0.0
 70
    32
  1
%%c<>
 51
359.9999999999998
  3
AM_JIS$0
100
AcDbAlignedDimension
 13
-128.7053273518916
 23
-4.50000754257546
 33
0.0
 14
-128.7053273518916
 24
4.499981016489545
 34
0.0
 50
270.0000000000002
100
AcDbRotatedDimension
1001
ACAD
1000
DSTYLE
1002
{
1070
   271
1070
     0
1002
}
1001
GENIUS_GENDTOL_13
1000

1000
h7
1000

1040
0.0
  0
LINE
  5
1FEC
330
1F
100
AcDbEntity
  8
AM_0
100
AcDbLine
 10
-74.0
 20
4.501278224012891
 30
0.0
 11
-73.30626223287964
 21
4.100748537418924
 31
0.0
  0
LINE
  5
2969
330
1F
100
AcDbEntity
  8
AM_0
100
AcDbLine
 10
-73.30614040081347
 20
-4.099400362950262
 30
0.0
 11
-73.30626223287964
 21
4.100748537418925
 31
0.0
  0
ELLIPSE
  5
29BD
330
1F
100
AcDbEntity
  8
AM_11
 48
0.5
100
AcDbEllipse
 10
-80.73167806602924
 20
17.88873487558483
 30
0.0
 11
-24.41816012064583
 21
0.0000000000003539
 31
0.0
210
0.0
220
0.0
230
1.0
 40
0.809999999999998
 41
1.130070686340299
 42
2.011520147323587
  0
ELLIPSE
  5
29BE
330
1F
100
AcDbEntity
  8
AM_11
 48
0.5
100
AcDbEllipse
 10
-80.73167806602999
 20
-17.88869069967136
 30
0.0
 11
-24.41816012064589
 21
0.0000000000003702
 31
0.0
210
0.0
220
0.0
230
0.9999999999999998
 40
0.8099999999999958
 41
4.271664206181682
 42
5.15311366716499
  0
ELLIPSE
  5
29BF
330
1F
100
AcDbEntity
  8
AM_11
 48
0.5
100
AcDbEllipse
 10
-101.5643989838648
 20
17.88873487558477
 30
0.0
 11
-24.41816012064583
 21
0.0000000000003539
 31
0.0
210
0.0
220
0.0
230
1.0
 40
0.809999999999998
 41
1.130070686340299
 42
2.011520147323587
  0
ELLIPSE
  5
29C0
330
1F
100
AcDbEntity
  8
AM_11
 48
0.5
100
AcDbEllipse
 10
-101.5643989838655
 20
-17.88869069967141
 30
0.0
 11
-24.41816012064589
 21
0.0000000000003702
 31
0.0
210
0.0
220
0.0
230
0.9999999999999998
 40
0.8099999999999958
 41
4.271664206181682
 42
5.15311366716499
  0
ELLIPSE
  5
29C1
330
1F
100
AcDbEntity
  8
AM_11
 48
0.5
100
AcDbEllipse
 10
-122.3977316674052
 20
17.88852152858116
 30
0.0
 11
-24.41816012064583
 21
0.0000000000003539
 31
0.0
210
0.0
220
0.0
230
1.0
 40
0.809999999999998
 41
1.297004949327763
 42
2.011520147323587
  0
ELLIPSE
  5
29C2
330
1F
100
AcDbEntity
  8
AM_11
 48
0.5
100
AcDbEllipse
 10
-122.397731667406
 20
-17.88890404667502
 30
0.0
 11
-24.41816012064589
 21
0.0000000000003702
 31
0.0
210
0.0
220
0.0
230
0.9999999999999998
 40
0.8099999999999958
 41
4.271664206181682
 42
4.986180357851814
  0
DIMENSION
  5
2A8C
330
1F
100
AcDbEntity
  8
AM_5
100
AcDbDimension
  2
*D8
 10
9.319888315414953
 20
-4.099999854411251
 30
0.0
 11
7.619888315414955
 21
0.0000001455887451
 31
0.0
 70
    32
  1
%%c<>
 51
359.9999999999998
  3
AM_JIS$0
100
AcDbAlignedDimension
 13
-1.999999999999992
 23
4.100000145588741
 33
0.0
 14
-2.000000000000001
 24
-4.099999854411247
 34
0.0
 50
89.99999999999896
100
AcDbRotatedDimension
1001
ACAD
1000
DSTYLE
1002
{
1070
   271
1070
     1
1002
}
1001
GENIUS_GENDTOL_13
1000

1000
h7
1000

1040
0.0
  0
ELLIPSE
  5
2B83
330
1F
100
AcDbEntity
  8
AM_0
 48
0.5
100
AcDbEllipse
 10
7.55885405733725
 20
-7.03999238840452
 30
0.0
 11
-7.019308446023166
 21
-7.019308446027135
 31
0.0
210
0.0
220
0.0
230
-1.0
 40
0.9999999999999978
 41
1.171329590070667
 42
1.424984195904709
  0
ELLIPSE
  5
2B84
330
1F
100
AcDbEntity
  8
AM_0
 48
0.5
100
AcDbEllipse
 10
7.558854057335247
 20
7.039992388406203
 30
0.0
 11
-7.019308446025163
 21
7.019308446025134
 31
0.0
210
0.0
220
0.0
230
0.9999999999999998
 40
0.999999999999998
 41
1.171329590070667
 42
1.424984195904709
  0
LINE
  5
2B85
330
1F
100
AcDbEntity
  8
AM_0
 48
0.5
100
AcDbLine
 10
-1.637813295996544
 20
-3.303323857078343
 30
0.0
 11
-2.000000000000001
 21
-4.099999854411247
 31
0.0
  0
LINE
  5
2B87
330
1F
100
AcDbEntity
  8
AM_0
 48
0.5
100
AcDbLine
 10
-1.637813295997512
 20
3.303323857077387
 30
0.0
 11
-1.999999999999992
 21
4.100000145588741
 31
0.0
  0
LINE
  5
2B88
330
1F
100
AcDbEntity
  8
AM_0
100
AcDbLine
 10
-0.0000000000000639
 20
0.0000000000000015
 30
0.0
 11
-0.4058444933443095
 21
-1.115048581273416
 31
0.0
  0
LINE
  5
2B89
330
1F
100
AcDbEntity
  8
AM_0
100
AcDbLine
 10
-0.4058444933443237
 20
1.115048581273418
 30
0.0
 11
-0.0000000000000639
 21
0.0000000000000015
 31
0.0
  0
DIMENSION
  5
2CA7
330
1F
100
AcDbEntity
  8
AM_5
100
AcDbDimension
  2
*D9
 10
-0.4058444933443095
 20
-1.115048581273416
 30
0.0
 11
12.47123818864485
 21
0.0000000000000835
 31
0.0
 70
    34
  1
<>
 51
359.9999999999998
  3
AM_JIS$2
100
AcDb2LineAngularDimension
 13
-0.4058444933443237
 23
1.115048581273418
 33
0.0
 14
-0.0000000000000639
 24
0.0000000000000015
 34
0.0
 15
-0.0000000000000639
 25
0.0000000000000015
 35
0.0
 16
12.87452674321848
 26
-5.553528741337792
 36
0.0
1001
ACAD
1000
DSTYLE
1002
{
1070
   179
1070
     3
1002
}
1001
GENIUS_GENDTOL_13
1000

1000
h7
1000

1040
0.0
  0
LINE
  5
2EC9
330
1F
100
AcDbEntity
  8
AM_0
100
AcDbLine
 10
-70.00000000000001
 20
-4.099417374999685
 30
0.0
 11
-73.30616986654736
 21
-4.099417374999656
 31
0.0
  0
LINE
  5
2ECA
330
1F
100
AcDbEntity
  8
AM_0
100
AcDbLine
 10
-70.07814563361361
 20
4.100748537418886
 30
0.0
 11
-73.30626223287964
 21
4.100748537418925
 31
0.0
  0
LINE
  5
2ECB
330
1F
100
AcDbEntity
  8
AM_0
 48
0.5
100
AcDbLine
 10
-4.698300679530708
 20
4.100000145588798
 30
0.0
 11
-1.999999999999992
 21
4.100000145588741
 31
0.0
  0
LINE
  5
2ECC
330
1F
100
AcDbEntity
  8
AM_0
 48
0.5
100
AcDbLine
 10
-4.698300679530897
 20
-4.099999854411204
 30
0.0
 11
-2.000000000000007
 21
-4.099999854411257
 31
0.0
  0
LINE
  5
2ECD
330
1F
100
AcDbEntity
  8
AM_0
 48
0.5
100
AcDbLine
 10
-0.0000000000000142
 20
-0.0000000000000226
 30
0.0
 11
-1.76675904465162
 21
1.552411045289684
 31
0.0
  0
LINE
  5
2ECE
330
1F
100
AcDbEntity
  8
AM_0
 48
0.5
100
AcDbLine
 10
-34.69787979242296
 20
-4.099999854410667
 30
0.0
 11
-20.57240041097587
 21
-4.099999854410879
 31
0.0
  0
LINE
  5
2ECF
330
1F
100
AcDbEntity
  8
AM_11
 48
0.5
100
AcDbLine
 10
-48.51436565967847
 20
4.100582624996989
 30
0.0
 11
-38.38412379925366
 21
4.100000145589492
 31
0.0
  0
LINE
  5
2ED0
330
1F
100
AcDbEntity
  8
AM_0
 48
0.5
100
AcDbLine
 10
-60.5785891133773
 20
-4.099417375002849
 30
0.0
 11
-48.51436565967862
 21
-4.099417375003012
 31
0.0
  0
LINE
  5
2ED1
330
1F
100
AcDbEntity
  8
AM_11
 48
0.5
100
AcDbLine
 10
-48.51436565967855
 20
-4.099999854410377
 30
0.0
 11
-34.69787979242297
 21
-4.10058233381794
 31
0.0
  0
LINE
  5
2ED2
330
1F
100
AcDbEntity
  8
AM_0
 48
0.5
100
AcDbLine
 10
-38.38413747152239
 20
4.100000145589492
 30
0.0
 11
-15.51931663513626
 21
4.100000527757449
 31
0.0
  0
LINE
  5
2ED3
330
1F
100
AcDbEntity
  8
AM_11
 48
0.5
100
AcDbLine
 10
-15.51931663513626
 20
4.100000527757449
 30
0.0
 11
-4.698300679530708
 21
4.100000145588798
 31
0.0
  0
LINE
  5
2ED4
330
1F
100
AcDbEntity
  8
AM_11
 48
0.5
100
AcDbLine
 10
-20.57240041097587
 20
-4.099999854410879
 30
0.0
 11
-4.698300679530897
 21
-4.099999854411204
 31
0.0
  0
SPLINE
  5
2ED5
330
1F
100
AcDbEntity
  8
AM_0
 48
0.5
100
AcDbSpline
210
0.0
220
0.0
230
1.0
 70
     8
 71
     3
 72
    15
 73
    11
 74
     0
 42
0.0000000001
 43
0.0000000001
 40
0.0
 40
0.0
 40
0.0
 40
0.0
 40
1.010743614677189
 40
2.022833924044153
 40
3.037578959561199
 40
4.056212747067873
 40
5.079857613375832
 40
6.109500119648989
 40
7.14596120163808
 40
7.429850053969086
 40
7.429850053969086
 40
7.429850053969086
 40
7.429850053969086
 10
-4.698300679530708
 20
4.100000145588798
 30
0.0
 10
-4.979078404132263
 20
4.097562502868119
 30
0.0
 10
-5.541007955991352
 20
4.092683969560113
 30
0.0
 10
-6.383696720611522
 20
4.053318393676193
 30
0.0
 10
-7.226350792224397
 20
3.990761153358735
 30
0.0
 10
-8.068952457925249
 20
3.903075348890732
 30
0.0
 10
-8.911491682572366
 20
3.791450201051191
 30
0.0
 10
-9.753958175381983
 20
3.656403243974511
 30
0.0
 10
-10.39047538573884
 20
3.537318681456729
 30
0.0
 10
-10.74648339040857
 20
3.464961663648812
 30
0.0
 10
-10.82295261247022
 20
3.449156535935735
 30
0.0
  0
ELLIPSE
  5
2ED6
330
1F
100
AcDbEntity
  8
AM_0
 48
0.5
100
AcDbEllipse
 10
4.221711747704365
 20
-1.992448819651604
 30
0.0
 11
6.669798325479988
 21
0.6489707562366557
 31
0.0
210
0.0
220
0.0
230
1.0
 40
0.7483750582049068
 41
3.018699856213931
 42
3.44431970129567
  0
ELLIPSE
  5
2ED7
330
1F
100
AcDbEntity
  8
AM_0
 48
0.5
100
AcDbEllipse
 10
-6.756586538278201
 20
7.798651776050739
 30
0.0
 11
-5.533853035900454
 21
8.991724291702567
 31
0.0
210
0.0
220
0.0
230
1.0
 40
0.5974494909933453
 41
3.125018916365481
 42
3.408981454305166
  0
ELLIPSE
  5
2ED8
330
1F
100
AcDbEntity
  8
AM_0
 48
0.5
100
AcDbEllipse
 10
-6.519358108524799
 20
6.88128689453754
 30
0.0
 11
8.382479061603385
 21
7.889969587774204
 31
0.0
210
0.0
220
0.0
230
1.0
 40
0.8370694681202778
 41
4.435562716632429
 42
4.49549323583033
  0
ELLIPSE
  5
2ED9
330
1F
100
AcDbEntity
  8
AM_0
 48
0.5
100
AcDbEllipse
 10
-1.593501803090352
 20
-1.457418719721809
 30
0.0
 11
-0.5464035601782145
 21
0.3534695434248356
 31
0.0
210
0.0
220
0.0
230
1.0
 40
0.5155305557443306
 41
4.52470090092919
 42
7.668141242258702
  0
ELLIPSE
  5
2EDA
330
1F
100
AcDbEntity
  8
AM_0
 48
0.5
100
AcDbEllipse
 10
-1.593501803090352
 20
-1.457418719721809
 30
0.0
 11
-0.1066008886194373
 21
0.6737063565540075
 31
0.0
210
0.0
220
0.0
230
0.9999999999999998
 40
0.4692660521600984
 41
1.819680477362583
 42
4.955022367074558
  0
ELLIPSE
  5
2EDB
330
1F
100
AcDbEntity
  8
AM_0
 48
0.5
100
AcDbEllipse
 10
3.619291857739098
 20
4.044092295042577
 30
0.0
 11
-0.0000000000004121
 21
8.89135728628768
 31
0.0
210
0.0
220
0.0
230
1.0
 40
0.9351219512195081
 41
1.951257656000295
 42
2.322034022628281
  0
SPLINE
  5
2EDC
330
1F
100
AcDbEntity
  8
AM_0
 48
0.5
100
AcDbSpline
210
0.0
220
0.0
230
1.0
 70
     8
 71
     3
 72
    25
 73
    21
 74
     0
 42
0.0000000001
 43
0.0000000001
 40
6.846175049578289
 40
6.846175049578289
 40
6.846175049578289
 40
6.846175049578289
 40
7.604337694224321
 40
8.711974558287883
 40
9.814980593243754
 40
10.91239053451967
 40
12.0033633515982
 40
13.08720139956839
 40
14.16337181880432
 40
15.23152222380919
 40
16.29148850140128
 40
17.34331105512262
 40
18.38723020264746
 40
19.42369128463655
 40
20.45333379090873
 40
21.47697865721768
 40
22.49561244472435
 40
23.5103574802404
 40
24.52244778960836
 40
25.53320666051913
 40
25.53320666051913
 40
25.53320666051913
 40
25.53320666051913
 10
-4.100658820522161
 20
0.7421273698456408
 30
0.0
 10
-4.247447499737612
 20
0.8141160780224938
 30
0.0
 10
-4.608995858473557
 20
0.9905562358087754
 30
0.0
 10
-5.185841196039274
 20
1.267630798945681
 30
0.0
 10
-5.831308262767977
 20
1.56985768182614
 30
0.0
 10
-6.47680779045466
 20
1.862428498943173
 30
0.0
 10
-7.122345325143299
 20
2.143544360381708
 30
0.0
 10
-7.767928059715067
 20
2.411470922337469
 30
0.0
 10
-8.413561963782461
 20
2.664555908465176
 30
0.0
 10
-9.059250026290408
 20
2.901243928339633
 30
0.0
 10
-9.705000200459425
 20
3.120061996823645
 30
0.0
 10
-10.35081161186667
 20
3.319668313299982
 30
0.0
 10
-10.99668889924003
 20
3.498817336443728
 30
0.0
 10
-11.64262978324883
 20
3.656400340882116
 30
0.0
 10
-12.28863174052154
 20
3.791451455543302
 30
0.0
 10
-12.93469117636088
 20
3.903075498997559
 30
0.0
 10
-13.58079803834145
 20
3.990761597840104
 30
0.0
 10
-14.22694520570989
 20
4.053318757295132
 30
0.0
 10
-14.87312218955062
 20
4.092684561570638
 30
0.0
 10
-15.3040130239948
 20
4.097562942677966
 30
0.0
 10
-15.51931663513626
 20
4.100000527757449
 30
0.0
  0
SPLINE
  5
2EDD
330
1F
100
AcDbEntity
  8
AM_0
 48
0.5
100
AcDbSpline
210
0.0
220
0.0
230
1.0
 70
     8
 71
     3
 72
    10
 73
     6
 74
     0
 42
0.0000000001
 43
0.0000000001
 40
0.0
 40
0.0
 40
0.0
 40
0.0
 40
2.69986029516136
 40
4.147722969032201
 40
6.285750005020438
 40
6.285750005020438
 40
6.285750005020438
 40
6.285750005020438
 10
-4.100555511479379
 20
0.7420786731021792
 30
0.0
 10
-3.640660224011019
 20
0.361160340825238
 30
0.0
 10
-2.934135426931414
 20
-0.2240342779267253
 30
0.0
 10
-1.26329919102234
 20
0.0592686887559146
 30
0.0
 10
-1.577966253512265
 20
1.013470567105317
 30
0.0
 10
-1.785878143503105
 20
1.59508600058613
 30
0.0
  0
ELLIPSE
  5
2EDE
330
1F
100
AcDbEntity
  8
AM_11
 48
0.5
100
AcDbEllipse
 10
2.60108439127059
 20
18.10956738823219
 30
0.0
 11
-24.41816012064598
 21
0.0000000000006575
 31
0.0
210
0.0
220
0.0
230
1.0
 40
0.8199999999999935
 41
1.13007068634031
 42
1.291800737381
  0
ELLIPSE
  5
2EDF
330
1F
100
AcDbEntity
  8
AM_11
 48
0.5
100
AcDbEllipse
 10
-18.2322489420636
 20
-18.10955479906376
 30
0.0
 11
-24.41816012064577
 21
0.000000000000381
 31
0.0
210
0.0
220
0.0
230
1.0
 40
0.8199999999999988
 41
4.27166420618168
 42
5.153113667164987
  0
ELLIPSE
  5
2EE0
330
1F
100
AcDbEntity
  8
AM_11
 48
0.5
100
AcDbEllipse
 10
-18.23224894206276
 20
18.10956738823263
 30
0.0
 11
-24.41816012064587
 21
0.0000000000004895
 31
0.0
210
0.0
220
0.0
230
1.0
 40
0.8199999999999969
 41
1.130070686340305
 42
2.011520147323591
  0
ELLIPSE
  5
2EE1
330
1F
100
AcDbEntity
  8
AM_11
 48
0.5
100
AcDbEllipse
 10
-39.06558227539611
 20
18.10956738823308
 30
0.0
 11
-24.41816012064579
 21
0.000000000000316
 31
0.0
210
0.0
220
0.0
230
1.0
 40
0.8199999999999992
 41
1.130070686340296
 42
2.011520147323586
  0
ELLIPSE
  5
2EE2
330
1F
100
AcDbEntity
  8
AM_11
 48
0.5
100
AcDbEllipse
 10
-39.06558227539692
 20
-18.10955479906332
 30
0.0
 11
-24.4181601206458
 21
0.0000000000004949
 31
0.0
210
0.0
220
0.0
230
1.0
 40
0.8199999999999992
 41
4.271664206181684
 42
5.153113667164991
  0
SPLINE
  5
2EE3
330
1F
100
AcDbEntity
  8
AM_0
100
AcDbSpline
210
0.0
220
0.0
230
1.0
 70
     8
 71
     3
 72
    17
 73
    13
 74
     0
 42
0.0000000001
 43
0.0000000001
 40
1.580019955310467
 40
1.580019955310467
 40
1.580019955310467
 40
1.580019955310467
 40
2.030549285115227
 40
3.082371838836284
 40
4.126290986361125
 40
5.162752068350215
 40
6.192395305374981
 40
7.216039564037012
 40
8.234688489606833
 40
9.249433870634691
 40
10.26152376260694
 40
11.27226744710342
 40
11.27226744710342
 40
11.27226744710342
 40
11.27226744710352
 10
-12.6347313013789
 20
-3.025920585431518
 30
0.0
 10
-12.75395779626141
 20
-3.057085055214002
 30
0.0
 10
-13.15221434476399
 20
-3.159230767536052
 30
0.0
 10
-13.83213703654879
 20
-3.319449972150195
 30
0.0
 10
-14.67432187433758
 20
-3.498874226786655
 30
0.0
 10
-15.51673856482372
 20
-3.656384899903978
 30
0.0
 10
-16.35919385454853
 20
-3.791453035260814
 30
0.0
 10
-17.20174092826729
 20
-3.903096140717755
 30
0.0
 10
-18.04434621114567
 20
-3.990677118299755
 30
0.0
 10
-18.88700396137395
 20
-4.053628413967128
 30
0.0
 10
-19.72969341804738
 20
-4.09154480291902
 30
0.0
 10
-20.29162274117672
 20
-4.099999877871296
 30
0.0
 10
-20.5724004109758
 20
-4.099999854410879
 30
0.0
  0
SPLINE
  5
2EE4
330
1F
100
AcDbEntity
  8
AM_0
100
AcDbSpline
210
0.0
220
0.0
230
1.0
 70
     8
 71
     3
 72
    22
 73
    18
 74
     0
 42
0.0000000001
 43
0.0000000001
 40
17.17441611292
 40
17.17441611292
 40
17.17441611292
 40
17.17441611292
 40
17.38177636558528
 40
18.41823744757437
 40
19.46215659509824
 40
20.51397914882054
 40
21.57394542641293
 40
22.64209583141747
 40
23.71826625065247
 40
24.80210429862395
 40
25.8930771157021
 40
26.99048705697709
 40
28.09349309193389
 40
29.20112995599786
 40
30.31233024745139
 40
31.42594771747373
 40
32.5407895042663
 40
32.54078950426994
 40
32.54078950426994
 40
32.54078950426994
 10
-23.78875945553776
 20
-3.68182952877195
 30
0.0
 10
-23.84518714288991
 20
-3.672338430907206
 30
0.0
 10
-24.18344031161119
 20
-3.614527116410478
 30
0.0
 10
-24.80310105621839
 20
-3.498607906534432
 30
0.0
 10
-25.64540314053015
 20
-3.319459162720443
 30
0.0
 10
-26.48761939602759
 20
-3.119852770546946
 30
0.0
 10
-27.3297557687103
 20
-2.901034722606907
 30
0.0
 10
-28.17181114617465
 20
-2.664346697060751
 30
0.0
 10
-29.01379589314593
 20
-2.411261712863712
 30
0.0
 10
-29.85571390825021
 20
-2.143335148898386
 30
0.0
 10
-30.69757298123116
 20
-1.862219293604072
 30
0.0
 10
-31.53938247302791
 20
-1.569648453746188
 30
0.0
 10
-32.3811496900389
 20
-1.267421656266577
 30
0.0
 10
-33.2228831060122
 20
-0.9573982514935249
 30
0.0
 10
-34.06459018218188
 20
-0.6414845324400745
 30
0.0
 10
-34.90628338770626
 20
-0.3216298575066765
 30
0.0
 10
-35.4673020485248
 20
-0.107110111826744
 30
0.0
 10
-35.74796549479929
 20
0.0002086823738155
 30
0.0
  0
SPLINE
  5
2EE5
330
1F
100
AcDbEntity
  8
AM_0
100
AcDbSpline
210
0.0
220
0.0
230
1.0
 70
     8
 71
     3
 72
    11
 73
     7
 74
     0
 42
0.0000000001
 43
0.0000000001
 40
11.27226913003534
 40
11.27226913003534
 40
11.27226913003534
 40
11.2722691300354
 40
12.28301561507924
 40
13.29510212255852
 40
14.30984805882082
 40
15.18258238371378
 40
15.18258238371378
 40
15.18258238371378
 40
15.18258238371378
 10
-20.57240041097584
 20
-4.099999854410879
 30
0.0
 10
-20.85211042584443
 20
-4.079933262958651
 30
0.0
 10
-21.41100286930484
 20
-4.031352918386536
 30
0.0
 10
-22.24645551810997
 20
-3.933354347064843
 30
0.0
 10
-23.03931481315018
 20
-3.816305798745361
 30
0.0
 10
-23.55208966527527
 20
-3.726327096063912
 30
0.0
 10
-23.78839091838507
 20
-3.681880102240599
 30
0.0
  0
SPLINE
  5
2EE6
330
1F
100
AcDbEntity
  8
AM_0
100
AcDbSpline
210
0.0
220
0.0
230
1.0
 70
     8
 71
     3
 72
    55
 73
    51
 74
     0
 42
0.0000000001
 43
0.0000000001
 40
0.0
 40
0.0
 40
0.0
 40
0.0
 40
1.010743684496582
 40
2.022833576467832
 40
3.037578957496688
 40
4.056212745003489
 40
5.079857003664532
 40
6.109500240690281
 40
7.145961322679372
 40
8.189895241603872
 40
9.241717795325891
 40
10.30168407291828
 40
11.36983447792315
 40
12.44600489715814
 40
13.52984294512926
 40
14.62081576220742
 40
15.7182257034828
 40
16.82123173843959
 40
17.92886860250316
 40
19.0400688939571
 40
20.15368796660465
 40
21.26852814259644
 40
22.38336992938901
 40
23.49698739941135
 40
24.6081876908653
 40
25.71582455492886
 40
26.81883757994213
 40
27.91624752121713
 40
29.00722033829659
 40
30.09105838626677
 40
31.16722880550176
 40
32.23537921050758
 40
33.29534548809967
 40
34.347168041821
 40
35.39108718934584
 40
36.42754827133493
 40
37.45720575381954
 40
38.48085062012849
 40
39.49948440763516
 40
40.51422944315121
 40
41.52631975251916
 40
42.53706336719636
 40
43.54780698187354
 40
44.55989729124051
 40
45.57464232675757
 40
46.59327611426424
 40
47.6169209805722
 40
48.64656348684535
 40
49.68302456883444
 40
50.58557219878025
 40
50.58557219878025
 40
50.58557219878025
 40
50.58557219878025
 10
-4.698300679530897
 20
-4.099999854411204
 30
0.0
 10
-4.979078353034269
 20
-4.097560453739766
 30
0.0
 10
-5.541007667258023
 20
-4.092678403364078
 30
0.0
 10
-6.383697141805357
 20
-4.053323596546601
 30
0.0
 10
-7.226350645116347
 20
-3.990759734329327
 30
0.0
 10
-8.068951996448408
 20
-3.903074101948978
 30
0.0
 10
-8.911492787966452
 20
-3.791455007840373
 30
0.0
 10
-9.753956398224447
 20
-3.656398804327291
 30
0.0
 10
-10.59634564522582
 20
-3.498815278134711
 30
0.0
 10
-11.4386530586804
 20
-3.319669395379103
 30
0.0
 10
-12.28087290093957
 20
-3.120061100912887
 30
0.0
 10
-13.12300937000364
 20
-2.901243315366657
 30
0.0
 10
-13.96506472128202
 20
-2.664555218589117
 30
0.0
 10
-14.80704947558185
 20
-2.411470254105578
 30
0.0
 10
-15.64896748782295
 20
-2.143543683247852
 30
0.0
 10
-16.49082656489038
 20
-1.862427835676869
 30
0.0
 10
-17.33263604311523
 20
-1.569856971677183
 30
0.0
 10
-18.17440331066692
 20
-1.267630263636946
 30
0.0
 10
-19.0161365369927
 20
-0.9576065233796942
 30
0.0
 10
-19.85784472899573
 20
-0.6416939101940534
 30
0.0
 10
-20.69953526925819
 20
-0.3218345249971791
 30
0.0
 10
-21.54122004375418
 20
-0.0000006909597906
 30
0.0
 10
-22.3829010397898
 20
0.3218389362871796
 30
0.0
 10
-23.22459440121547
 20
0.6416933404273794
 30
0.0
 10
-24.06630155411847
 20
0.9576069098625161
 30
0.0
 10
-24.90803628124527
 20
1.267631831172033
 30
0.0
 10
-25.74980704085137
 20
1.569855959956473
 30
0.0
 10
-26.59161784767399
 20
1.862428307697517
 30
0.0
 10
-27.43347704627787
 20
2.14354392731253
 30
0.0
 10
-28.27539502788427
 20
2.411470554514206
 30
0.0
 10
-29.11737978434007
 20
2.664555519367959
 30
0.0
 10
-29.95943515706626
 20
2.901243559549805
 30
0.0
 10
-30.80157153921266
 20
3.120061568529126
 30
0.0
 10
-31.64378776192034
 20
3.31966810045666
 30
0.0
 10
-32.48608996667645
 20
3.498816329576374
 30
0.0
 10
-33.32847890119513
 20
3.656403024575419
 30
0.0
 10
-34.17094852692567
 20
3.791443802795281
 30
0.0
 10
-35.01349210196041
 20
3.903097445373102
 30
0.0
 10
-35.8560937030772
 20
3.990679137754078
 30
0.0
 10
-36.69874779188946
 20
4.053622927515634
 30
0.0
 10
-37.54143655193654
 20
4.091551213706759
 30
0.0
 10
-38.38414382955808
 20
4.104221799112218
 30
0.0
 10
-39.22685110593969
 20
4.091551213686926
 30
0.0
 10
-40.06953986971376
 20
4.053622927595394
 30
0.0
 10
-40.91219394480427
 20
3.990679137453815
 30
0.0
 10
-41.75479559736723
 20
3.903097446501861
 30
0.0
 10
-42.59733487143582
 20
3.791444342880898
 30
0.0
 10
-43.43980117815668
 20
3.656404405294562
 30
0.0
 10
-44.24388851595191
 20
3.50596976784207
 30
0.0
 10
-44.76558953792035
 20
3.395955495313109
 30
0.0
 10
-45.00762840517895
 20
3.342340173490337
 30
0.0
  0
SPLINE
  5
2EE7
330
1F
100
AcDbEntity
  8
AM_0
100
AcDbSpline
210
0.0
220
0.0
230
1.0
 70
     8
 71
     3
 72
    46
 73
    42
 74
     0
 42
0.0000000001
 43
0.0000000001
 40
0.0
 40
0.0
 40
0.0
 40
0.0
 40
1.685415058684571
 40
2.531036209541119
 40
3.379897699130121
 40
4.232934581347656
 40
5.090970612202441
 40
5.954688180526683
 40
6.824620803463245
 40
7.70115181523969
 40
8.584457046566678
 40
9.474582384070743
 40
10.37139106676737
 40
11.27458944007584
 40
12.18373345430765
 40
13.09824173870457
 40
14.01741343450111
 40
14.9404441545541
 40
15.86644439743314
 40
16.79446029130534
 40
17.7234937712985
 40
18.65252725129241
 40
19.58054314516461
 40
20.5065433880429
 40
21.42957410809586
 40
22.34874580389318
 40
23.26325408828901
 40
24.17239810252112
 40
25.07560240389442
 40
25.97241108659103
 40
26.8625364240951
 40
27.74584165542183
 40
28.62236045019041
 40
29.49229307312697
 40
30.35601064145122
 40
31.21404606334469
 40
32.06708345193548
 40
32.9159575565769
 40
33.76157841950694
 40
34.6049870106469
 40
35.44727335621125
 40
35.44727335621125
 40
35.44727335621125
 40
35.44727335621125
 10
-2.339342753098392
 20
-4.099999854411249
 30
0.0
 10
-2.901299522292913
 20
-4.090659737477492
 30
0.0
 10
-3.745206145589712
 20
-4.076633415570086
 30
0.0
 10
-4.867385583867462
 20
-3.990275928358703
 30
0.0
 10
-5.709995988076807
 20
-3.903204609139704
 30
0.0
 10
-6.552534369155292
 20
-3.791419825709067
 30
0.0
 10
-7.394998507568342
 20
-3.656408020821513
 30
0.0
 10
-8.237384075412451
 20
-3.498814665923759
 30
0.0
 10
-9.07968966181837
 20
-3.319666381683287
 30
0.0
 10
-9.921911518228718
 20
-3.120063165084974
 30
0.0
 10
-10.76405132804299
 20
-2.901243029299708
 30
0.0
 10
-11.60610682616119
 20
-2.664555296118892
 30
0.0
 10
-12.44809154065538
 20
-2.411470233082514
 30
0.0
 10
-13.2900095637396
 20
-2.143543689025802
 30
0.0
 10
-14.13186863763528
 20
-1.862427833783693
 30
0.0
 10
-14.97367811761161
 20
-1.569856973433356
 30
0.0
 10
-15.8154453813295
 20
-1.267630258485143
 30
0.0
 10
-16.65717862130828
 20
-0.9576065423282306
 30
0.0
 10
-17.49888676231978
 20
-0.6416938392742365
 30
0.0
 10
-18.34057749342294
 20
-0.3218347903797798
 30
0.0
 10
-19.18226114912519
 20
0.0000001455239768
 30
0.0
 10
-20.02394480464251
 20
0.3218350818188272
 30
0.0
 10
-20.86563553630031
 20
0.6416941295405737
 30
0.0
 10
-21.70734367528455
 20
0.9576068368803053
 30
0.0
 10
-22.54907692278049
 20
1.267630537142975
 30
0.0
 10
-23.39084415862544
 20
1.56985731102543
 30
0.0
 10
-24.23265374182475
 20
1.862427953121538
 30
0.0
 10
-25.07451426406595
 20
2.143545226821936
 30
0.0
 10
-25.91643555843745
 20
2.411469336630178
 30
0.0
 10
-26.75842177490332
 20
2.664555697400091
 30
0.0
 10
-27.60047725341605
 20
2.901243501008101
 30
0.0
 10
-28.44261360381569
 20
3.120061626023318
 30
0.0
 10
-29.28482984867498
 20
3.31966793031431
 30
0.0
 10
-30.12713199684601
 20
3.498816946395129
 30
0.0
 10
-30.96951707716159
 20
3.656399990708254
 30
0.0
 10
-31.81198183321779
 20
3.791450954339512
 30
0.0
 10
-32.65452559144125
 20
3.903076107666025
 30
0.0
 10
-33.4971316538928
 20
3.990760392751676
 30
0.0
 10
-34.33978984797138
 20
4.053318513046054
 30
0.0
 10
-35.1824786299156
 20
4.092683939797231
 30
0.0
 10
-35.74440817946947
 20
4.097562492952004
 30
0.0
 10
-36.02518590291907
 20
4.100000145589445
 30
0.0
  0
SPLINE
  5
2EE8
330
1F
100
AcDbEntity
  8
AM_0
100
AcDbSpline
210
0.0
220
0.0
230
1.0
 70
     8
 71
     3
 72
    23
 73
    19
 74
     0
 42
0.0000000001
 43
0.0000000001
 40
16.03460024169435
 40
16.03460024169435
 40
16.03460024169435
 40
16.03460024169435
 40
16.35212704903564
 40
17.38177054169784
 40
18.41822485651776
 40
19.46214173629503
 40
20.51396345435107
 40
21.57393551351153
 40
22.64208202342361
 40
23.7182574881101
 40
24.80209208578934
 40
25.89306333925047
 40
26.99048218457928
 40
28.09348763352352
 40
29.20111863782268
 40
30.31232390128032
 40
31.42594612798585
 40
32.5407912310448
 40
32.5407912310486
 40
32.5407912310486
 40
32.5407912310486
 10
-48.51436565967847
 20
4.100582624996989
 30
0.0
 10
-48.42778967241502
 20
4.086741747005404
 30
0.0
 10
-48.06084259553409
 20
4.026468618952483
 30
0.0
 10
-47.41446136785911
 20
3.908372623371784
 30
0.0
 10
-46.57739598589253
 20
3.732765169428508
 30
0.0
 10
-45.74110810962559
 20
3.535587269449355
 30
0.0
 10
-44.90554832214075
 20
3.317980088548188
 30
0.0
 10
-44.07068696794044
 20
3.081156791630113
 30
0.0
 10
-43.23647579403924
 20
2.826471160531817
 30
0.0
 10
-42.40285670914169
 20
2.555405401742015
 30
0.0
 10
-41.56978234401736
 20
2.269494544848604
 30
0.0
 10
-40.73718590807358
 20
1.970402238509122
 30
0.0
 10
-39.90499992867992
 20
1.659866936430351
 30
0.0
 10
-39.07316895965799
 20
1.339674086414502
 30
0.0
 10
-38.2416234027209
 20
1.011685566035791
 30
0.0
 10
-37.41028623913918
 20
0.677816587622123
 30
0.0
 10
-36.5790897746002
 20
0.3400018314948764
 30
0.0
 10
-36.02510763762784
 20
0.1135155090315098
 30
0.0
 10
-35.74796549479556
 20
0.0002086823723424
 30
0.0
  0
SPLINE
  5
2EE9
330
1F
100
AcDbEntity
  8
AM_0
100
AcDbSpline
210
0.0
220
0.0
230
1.0
 70
     8
 71
     3
 72
    11
 73
     7
 74
     0
 42
0.0000000001
 43
0.0000000001
 40
11.27226913003534
 40
11.27226913003534
 40
11.27226913003534
 40
11.2722691300354
 40
12.28301561507924
 40
13.29510212255852
 40
14.30984805882082
 40
15.18258238371378
 40
15.18258238371378
 40
15.18258238371378
 40
15.18258238371378
 10
-48.51436565967859
 20
-4.099417375003013
 30
0.0
 10
-48.7940756745472
 20
-4.079350783550792
 30
0.0
 10
-49.3529681180076
 20
-4.030770438978678
 30
0.0
 10
-50.18842076681274
 20
-3.932771867656986
 30
0.0
 10
-50.98128006185294
 20
-3.815723319337502
 30
0.0
 10
-51.49405491397804
 20
-3.725744616656054
 30
0.0
 10
-51.73035616708784
 20
-3.681297622832739
 30
0.0
  0
SPLINE
  5
2EEA
330
1F
100
AcDbEntity
  8
AM_0
100
AcDbSpline
210
0.0
220
0.0
230
1.0
 70
     8
 71
     3
 72
    17
 73
    13
 74
     0
 42
0.0000000001
 43
0.0000000001
 40
1.580019955310467
 40
1.580019955310467
 40
1.580019955310467
 40
1.580019955310467
 40
2.030549285115227
 40
3.082371838836284
 40
4.126290986361125
 40
5.162752068350215
 40
6.192395305374981
 40
7.216039564037012
 40
8.234688489606833
 40
9.249433870634691
 40
10.26152376260694
 40
11.27226744710342
 40
11.27226744710342
 40
11.27226744710342
 40
11.27226744710352
 10
-40.57669655008168
 20
-3.025338106023655
 30
0.0
 10
-40.69592304496418
 20
-3.056502575806144
 30
0.0
 10
-41.09417959346675
 20
-3.158648288128194
 30
0.0
 10
-41.77410228525155
 20
-3.318867492742337
 30
0.0
 10
-42.61628712304034
 20
-3.498291747378793
 30
0.0
 10
-43.45870381352647
 20
-3.655802420496117
 30
0.0
 10
-44.30115910325128
 20
-3.790870555852957
 30
0.0
 10
-45.14370617697005
 20
-3.902513661309898
 30
0.0
 10
-45.98631145984843
 20
-3.990094638891898
 30
0.0
 10
-46.82896921007671
 20
-4.053045934559271
 30
0.0
 10
-47.67165866675013
 20
-4.090962323511154
 30
0.0
 10
-48.23358798987947
 20
-4.099417398463438
 30
0.0
 10
-48.51436565967855
 20
-4.099417375003013
 30
0.0
  0
LINE
  5
2EEB
330
1F
100
AcDbEntity
  8
AM_11
 48
0.5
100
AcDbLine
 10
-70.07814563361361
 20
4.100748537418886
 30
0.0
 11
-66.24120923107516
 21
4.100453988173083
 31
0.0
  0
POLYLINE
  5
2EEC
330
1F
100
AcDbEntity
  8
AM_0
100
AcDb2dPolyline
 66
     1
 10
0.0
 20
0.0
 30
0.0
 70
     2
  0
VERTEX
  5
2EED
330
2EEC
100
AcDbEntity
  8
AM_0
100
AcDbVertex
100
AcDb2dVertex
 10
-69.19996185303329
 20
-2.844004222542598
 30
0.0
 42
0.0351157762658453
  0
VERTEX
  5
2EEE
330
2EEC
100
AcDbEntity
  8
AM_0
100
AcDbVertex
100
AcDb2dVertex
 10
-69.36661158095422
 20
-2.811542904467691
 30
0.0
 42
0.044786481860755
 70
     1
  0
VERTEX
  5
2EEF
330
2EEC
100
AcDbEntity
  8
AM_0
100
AcDbVertex
100
AcDb2dVertex
 10
-69.49996185303328
 20
-2.806224915431618
 30
0.0
 42
0.0378244354854128
  0
VERTEX
  5
2EF0
330
2EEC
100
AcDbEntity
  8
AM_0
100
AcDbVertex
100
AcDb2dVertex
 10
-69.7744770875369
 20
-2.8386695587681
 30
0.0
 42
0.0785304530199817
 70
     1
  0
VERTEX
  5
2EF1
330
2EEC
100
AcDbEntity
  8
AM_0
100
AcDbVertex
100
AcDb2dVertex
 10
-69.89996185303329
 20
-2.883115965411602
 30
0.0
 42
0.0914341172496281
  0
VERTEX
  5
2EF2
330
2EEC
100
AcDbEntity
  8
AM_0
100
AcDbVertex
100
AcDb2dVertex
 10
-69.98058015419961
 20
-2.947178262012458
 30
0.0
 42
0.1734786634335468
 70
     1
  0
VERTEX
  5
2EF3
330
2EEC
100
AcDbEntity
  8
AM_0
100
AcDbVertex
100
AcDb2dVertex
 10
-69.99996185303328
 20
-2.997786322502568
 30
0.0
 42
0.1707159826348874
  0
VERTEX
  5
2EF4
330
2EEC
100
AcDbEntity
  8
AM_0
100
AcDbVertex
100
AcDb2dVertex
 10
-69.98134133135517
 20
-3.04935261320995
 30
0.0
 42
0.0878858945849485
 70
     1
  0
VERTEX
  5
2EF5
330
2EEC
100
AcDbEntity
  8
AM_0
100
AcDbVertex
100
AcDb2dVertex
 10
-69.89996185303329
 20
-3.118196303482146
 30
0.0
 42
0.0737173247185441
  0
VERTEX
  5
2EF6
330
2EEC
100
AcDbEntity
  8
AM_0
100
AcDbVertex
100
AcDb2dVertex
 10
-69.77167479637069
 20
-3.170377719105532
 30
0.0
 42
0.037064748993984
 70
     1
  0
VERTEX
  5
2EF7
330
2EEC
100
AcDbEntity
  8
AM_0
100
AcDbVertex
100
AcDb2dVertex
 10
-69.49996185303328
 20
-3.218045849016573
 30
0.0
 42
0.0449345368811406
  0
VERTEX
  5
2EF8
330
2EEC
100
AcDbEntity
  8
AM_0
100
AcDbVertex
100
AcDb2dVertex
 10
-69.36895573240554
 20
-3.220301284817845
 30
0.0
 42
0.0344667769950814
 70
     1
  0
VERTEX
  5
2EF9
330
2EEC
100
AcDbEntity
  8
AM_0
100
AcDbVertex
100
AcDb2dVertex
 10
-69.19996185303329
 20
-3.197485413571421
 30
0.0
  0
SEQEND
  5
2EFA
330
2EEC
100
AcDbEntity
  8
AM_0
  0
POLYLINE
  5
2EFB
330
1F
100
AcDbEntity
  8
AM_0
100
AcDb2dPolyline
 66
     1
 10
0.0
 20
0.0
 30
0.0
 70
     2
  0
VERTEX
  5
2EFC
330
2EFB
100
AcDbEntity
  8
AM_0
100
AcDbVertex
100
AcDb2dVertex
 10
-68.4999618530332
 20
4.016610892419739
 30
0.0
 42
0.0276737331564208
  0
VERTEX
  5
2EFD
330
2EFB
100
AcDbEntity
  8
AM_0
100
AcDbVertex
100
AcDb2dVertex
 10
-68.84235679135613
 20
3.946306064871289
 30
0.0
 42
0.0414024687830266
 70
     1
  0
VERTEX
  5
2EFE
330
2EFB
100
AcDbEntity
  8
AM_0
100
AcDbVertex
100
AcDb2dVertex
 10
-69.0624618530332
 20
3.869650711124742
 30
0.0
 42
0.0280074108471844
  0
VERTEX
  5
2EFF
330
2EFB
100
AcDbEntity
  8
AM_0
100
AcDbVertex
100
AcDb2dVertex
 10
-69.56430950741456
 20
3.615061206145107
 30
0.0
 42
0.0512701366748525
 70
     1
  0
VERTEX
  5
2F00
330
2EFB
100
AcDbEntity
  8
AM_0
100
AcDbVertex
100
AcDb2dVertex
 10
-69.81246185303326
 20
3.436154361478345
 30
0.0
 42
0.0658714570033076
  0
VERTEX
  5
2F01
330
2EFB
100
AcDbEntity
  8
AM_0
100
AcDbVertex
100
AcDb2dVertex
 10
-69.96820509726228
 20
3.256002406017482
 30
0.0
 42
0.1411961588081283
 70
     1
  0
VERTEX
  5
2F02
330
2EFB
100
AcDbEntity
  8
AM_0
100
AcDbVertex
100
AcDb2dVertex
 10
-69.99996185303328
 20
3.149618193126943
 30
0.0
 42
0.1226739033459629
  0
VERTEX
  5
2F03
330
2EFB
100
AcDbEntity
  8
AM_0
100
AcDbVertex
100
AcDb2dVertex
 10
-69.96898108799836
 20
3.032649877009777
 30
0.0
 42
0.0555312784770531
 70
     1
  0
VERTEX
  5
2F04
330
2EFB
100
AcDbEntity
  8
AM_0
100
AcDbVertex
100
AcDb2dVertex
 10
-69.81246185303328
 20
2.81564994507196
 30
0.0
 42
0.0351528005485752
  0
VERTEX
  5
2F05
330
2EFB
100
AcDbEntity
  8
AM_0
100
AcDbVertex
100
AcDb2dVertex
 10
-69.55950470542257
 20
2.573625462137185
 30
0.0
 42
0.0197318127063559
 70
     1
  0
VERTEX
  5
2F06
330
2EFB
100
AcDbEntity
  8
AM_0
100
AcDbVertex
100
AcDb2dVertex
 10
-69.06246185303328
 20
2.192425276611233
 30
0.0
 42
0.0358460074876439
  0
VERTEX
  5
2F07
330
2EFB
100
AcDbEntity
  8
AM_0
100
AcDbVertex
100
AcDb2dVertex
 10
-68.85859988186004
 20
2.068855209275834
 30
0.0
 42
0.021710998496176
 70
     1
  0
VERTEX
  5
2F08
330
2EFB
100
AcDbEntity
  8
AM_0
100
AcDbVertex
100
AcDb2dVertex
 10
-68.49996185303329
 20
1.903168856205492
 30
0.0
  0
SEQEND
  5
2F09
330
2EFB
100
AcDbEntity
  8
AM_0
  0
SPLINE
  5
2F0A
330
1F
100
AcDbEntity
  8
AM_0
100
AcDbSpline
210
0.0
220
0.0
230
1.0
 70
     8
 71
     3
 72
    13
 73
     9
 74
     0
 42
0.0000000001
 43
0.0000000001
 40
26.13201924531566
 40
26.13201924531566
 40
26.13201924531566
 40
26.13201924531566
 40
26.99048218457928
 40
28.09348763352352
 40
29.20111863782268
 40
30.31232390128032
 40
31.42594612798585
 40
32.5407912310448
 40
32.5407912310486
 40
32.5407912310486
 40
32.5407912310486
 10
-68.49996185397071
 20
1.903168856551528
 30
0.0
 10
-68.2825155802831
 20
1.822900923696612
 30
0.0
 10
-67.78687823658049
 20
1.637320427449124
 30
0.0
 10
-67.01513420836075
 20
1.340256565822362
 30
0.0
 10
-66.18358865142366
 20
1.012268045443649
 30
0.0
 10
-65.35225148784194
 20
0.6783990670299828
 30
0.0
 10
-64.52105502330296
 20
0.3405843109027359
 30
0.0
 10
-63.96707288633059
 20
0.114097988439369
 30
0.0
 10
-63.68993074349832
 20
0.0007911617802016
 30
0.0
  0
ELLIPSE
  5
2F0B
330
1F
100
AcDbEntity
  8
AM_0
100
AcDbEllipse
 10
-68.89587612988826
 20
-4.216221536625302
 30
0.0
 11
1.110906347821949
 21
0.0007019006070443
 31
0.0
210
0.0
220
0.0
230
1.0
 40
0.9534623580225723
 41
1.847460373740059
 42
3.030430215148637
  0
SPLINE
  5
2F0C
330
1F
100
AcDbEntity
  8
AM_0
100
AcDbSpline
210
0.0
220
0.0
230
1.0
 70
     8
 71
     3
 72
     9
 73
     5
 74
     0
 42
0.0000000001
 43
0.0000000001
 40
1.580019955310467
 40
1.580019955310467
 40
1.580019955310467
 40
1.580019955310467
 40
2.030549285115227
 40
2.43907978603305
 40
2.43907978603305
 40
2.43907978603305
 40
2.43907978603305
 10
-68.51539061115488
 20
-3.025920585430522
 30
0.0
 10
-68.63461710603738
 20
-3.057085055213009
 30
0.0
 10
-68.86234418309062
 20
-3.115492994989729
 30
0.0
 10
-69.09102329503953
 20
-3.171411701114539
 30
0.0
 10
-69.19996185303327
 20
-3.197485413571393
 30
0.0
  0
ELLIPSE
  5
2F0D
330
1F
100
AcDbEntity
  8
AM_0
100
AcDbEllipse
 10
-68.65547044702743
 20
14.86310685159794
 30
0.0
 11
-11.37665620356022
 21
0.0000000000000184
 31
0.0
210
0.0
220
0.0
230
1.0
 40
0.9534883720930423
 41
1.445415944841807
 42
1.584465847457574
  0
LINE
  5
2F0E
330
1F
100
AcDbEntity
  8
AM_11
100
AcDbLine
 10
-70.00000000000001
 20
-4.099417374999685
 30
0.0
 11
-59.82341580391162
 21
-4.099417374999787
 31
0.0
  0
SPLINE
  5
2F0F
330
1F
100
AcDbEntity
  8
AM_0
100
AcDbSpline
210
0.0
220
0.0
230
1.0
 70
     8
 71
     3
 72
    15
 73
    11
 74
     0
 42
0.0000000001
 43
0.0000000001
 40
5.241236682593577
 40
5.241236682593577
 40
5.241236682593577
 40
5.241236682593577
 40
5.954688180526682
 40
6.824620803463244
 40
7.701151815239697
 40
8.58445704656667
 40
9.47458238407075
 40
10.37139106676736
 40
11.27458944007584
 40
12.17321262433756
 40
12.17321262433756
 40
12.17321262433756
 40
12.17321262433756
 10
-63.41943130396844
 20
-0.1026301606595303
 30
0.0
 10
-63.6518303372541
 20
-0.1445238423859641
 30
0.0
 10
-64.16616337663248
 20
-0.2429856264233496
 30
0.0
 10
-64.95997809566474
 20
-0.4137390633709645
 30
0.0
 10
-65.80219995207507
 20
-0.6156104983396915
 30
0.0
 10
-66.64433976188937
 20
-0.8369172265770526
 30
0.0
 10
-67.48639526000754
 20
-1.076294593089436
 30
0.0
 10
-68.32837997450173
 20
-1.332255622751222
 30
0.0
 10
-69.16702845811032
 20
-1.602174485936215
 30
0.0
 10
-69.72332513896439
 20
-1.789993907784579
 30
0.0
 10
-70.0
 20
-1.885269964969488
 30
0.0
  0
SPLINE
  5
2F10
330
1F
100
AcDbEntity
  8
AM_0
100
AcDbSpline
210
0.0
220
0.0
230
1.0
 70
     8
 71
     3
 72
    20
 73
    16
 74
     0
 42
0.0000000001
 43
0.0000000001
 40
1.604714676203542
 40
1.604714676203542
 40
1.604714676203542
 40
1.604714676203542
 40
1.685415058684573
 40
2.531036209541122
 40
3.379897699130124
 40
4.232934581347659
 40
5.09097061220244
 40
5.954688180526682
 40
6.824620803463244
 40
7.701151815239697
 40
8.58445704656667
 40
9.47458238407075
 40
10.37139106676736
 40
11.27458944007584
 40
12.17321262433756
 40
12.17321262433756
 40
12.17321262433756
 40
12.17321262433756
 10
-59.82341580391162
 20
-4.099417374999787
 30
0.0
 10
-59.85025462711
 20
-4.097979270595424
 30
0.0
 10
-60.15828520632449
 20
-4.080902895597528
 30
0.0
 10
-60.74767401771385
 20
-4.035030976273625
 30
0.0
 10
-61.59028442192322
 20
-3.946970210245323
 30
0.0
 10
-62.43282280300168
 20
-3.833915145184798
 30
0.0
 10
-63.27528694141475
 20
-3.697369115241707
 30
0.0
 10
-64.11767250925885
 20
-3.537984926765572
 30
0.0
 10
-64.95997809566474
 20
-3.35680086656782
 30
0.0
 10
-65.80219995207507
 20
-3.154929431599077
 30
0.0
 10
-66.64433976188937
 20
-2.933622703361699
 30
0.0
 10
-67.48639526000754
 20
-2.6942453368493
 30
0.0
 10
-68.32837997450173
 20
-2.438284307187497
 30
0.0
 10
-69.16702845811032
 20
-2.168365444002488
 30
0.0
 10
-69.72332513896439
 20
-1.980546022154113
 30
0.0
 10
-70.0
 20
-1.885269964969199
 30
0.0
  0
SPLINE
  5
2F11
330
1F
100
AcDbEntity
  8
AM_0
100
AcDbSpline
210
0.0
220
0.0
230
1.0
 70
     8
 71
     3
 72
    50
 73
    46
 74
     0
 42
0.0000000001
 43
0.0000000001
 40
0.0
 40
0.0
 40
0.0
 40
0.0
 40
1.010743684496582
 40
2.022833576467832
 40
3.037578957496688
 40
4.056212745003489
 40
5.079857003664532
 40
6.109500240690281
 40
7.145961322679372
 40
8.189895241603872
 40
9.241717795325891
 40
10.30168407291828
 40
11.36983447792315
 40
12.44600489715814
 40
13.52984294512926
 40
14.62081576220742
 40
15.7182257034828
 40
16.82123173843959
 40
17.92886860250316
 40
19.0400688939571
 40
20.15368796660465
 40
21.26852814259644
 40
22.38336992938901
 40
23.49698739941135
 40
24.6081876908653
 40
25.71582455492886
 40
26.81883757994213
 40
27.91624752121713
 40
29.00722033829659
 40
30.09105838626677
 40
31.16722880550176
 40
32.23537921050758
 40
33.29534548809967
 40
34.347168041821
 40
35.39108718934584
 40
36.42754827133493
 40
37.45720575381954
 40
38.48085062012849
 40
39.49948440763516
 40
40.51422944315121
 40
41.52631975251916
 40
42.53706336719636
 40
43.54780698187354
 40
44.55989729124051
 40
45.14939243453665
 40
45.14939243453665
 40
45.14939243453665
 40
45.14939243453665
 10
-32.64026592823364
 20
-4.099417375003345
 30
0.0
 10
-32.92104360173702
 20
-4.096977974331909
 30
0.0
 10
-33.48297291596076
 20
-4.092095923956221
 30
0.0
 10
-34.3256623905081
 20
-4.052741117138744
 30
0.0
 10
-35.16831589381909
 20
-3.990177254921468
 30
0.0
 10
-36.01091724515115
 20
-3.90249162254112
 30
0.0
 10
-36.8534580366692
 20
-3.790872528432512
 30
0.0
 10
-37.69592164692721
 20
-3.655816324919433
 30
0.0
 10
-38.53831089392858
 20
-3.49823279872685
 30
0.0
 10
-39.38061830738316
 20
-3.319086915971246
 30
0.0
 10
-40.22283814964233
 20
-3.119478621505028
 30
0.0
 10
-41.06497461870642
 20
-2.900660835958798
 30
0.0
 10
-41.90702996998481
 20
-2.663972739181255
 30
0.0
 10
-42.74901472428464
 20
-2.41088777469772
 30
0.0
 10
-43.59093273652574
 20
-2.142961203839994
 30
0.0
 10
-44.43279181359319
 20
-1.86184535626901
 30
0.0
 10
-45.27460129181796
 20
-1.569274492269325
 30
0.0
 10
-46.11636855936964
 20
-1.267047784229086
 30
0.0
 10
-46.95810178569543
 20
-0.9570240439718361
 30
0.0
 10
-47.79980997769849
 20
-0.641111430786194
 30
0.0
 10
-48.64150051796094
 20
-0.3212520455893196
 30
0.0
 10
-49.48318529245695
 20
0.0005817884480686
 30
0.0
 10
-50.32486628849255
 20
0.3224214156950391
 30
0.0
 10
-51.16655964991824
 20
0.6422758198352384
 30
0.0
 10
-52.00826680282126
 20
0.9581893892703744
 30
0.0
 10
-52.85000152994808
 20
1.268214310579893
 30
0.0
 10
-53.69177228955417
 20
1.570438439364333
 30
0.0
 10
-54.53358309637671
 20
1.863010787105377
 30
0.0
 10
-55.3754422949806
 20
2.144126406720392
 30
0.0
 10
-56.21736027658701
 20
2.412053033922064
 30
0.0
 10
-57.05934503304282
 20
2.665137998775817
 30
0.0
 10
-57.90140040576903
 20
2.901826038957667
 30
0.0
 10
-58.74353678791543
 20
3.120644047936987
 30
0.0
 10
-59.5857530106231
 20
3.32025057986452
 30
0.0
 10
-60.42805521537921
 20
3.499398808984232
 30
0.0
 10
-61.27044414989789
 20
3.656985503983281
 30
0.0
 10
-62.11291377562844
 20
3.792026282203142
 30
0.0
 10
-62.95545735066317
 20
3.903679924780966
 30
0.0
 10
-63.79805895177997
 20
3.991261617161945
 30
0.0
 10
-64.64071304059214
 20
4.054205406923493
 30
0.0
 10
-65.48340180063923
 20
4.092133693114615
 30
0.0
 10
-66.32610907826077
 20
4.104804278520076
 30
0.0
 10
-67.16881635464237
 20
4.092133693094784
 30
0.0
 10
-67.89353178809602
 20
4.059515227681916
 30
0.0
 10
-68.33692150531188
 20
4.029162910001479
 30
0.0
 10
-68.49996185303318
 20
4.01661089241974
 30
0.0
  0
ELLIPSE
  5
2F12
330
1F
100
AcDbEntity
  8
AM_11
 48
0.5
100
AcDbEllipse
 10
-59.89895714819446
 20
-18.10953873300046
 30
0.0
 11
-24.41816012064585
 21
0.0000000000004244
 31
0.0
210
0.0
220
0.0
230
1.0
 40
0.8199999999999969
 41
4.271664206181682
 42
5.15311366716499
  0
ELLIPSE
  5
2F13
330
1F
100
AcDbEntity
  8
AM_11
 48
0.5
100
AcDbEllipse
 10
-59.89895714819366
 20
18.10958345429593
 30
0.0
 11
-24.41816012064582
 21
0.0000000000004081
 31
0.0
210
0.0
220
0.0
230
1.0
 40
0.8199999999999981
 41
1.130070686340299
 42
2.011520147323587
  0
SPLINE
  5
2F14
330
1F
100
AcDbEntity
  8
AM_0
100
AcDbSpline
210
0.0
220
0.0
230
1.0
 70
     8
 71
     3
 72
    22
 73
    18
 74
     0
 42
0.0000000001
 43
0.0000000001
 40
17.17441611292
 40
17.17441611292
 40
17.17441611292
 40
17.17441611292
 40
17.38177636558528
 40
18.41823744757437
 40
19.46215659509824
 40
20.51397914882054
 40
21.57394542641293
 40
22.64209583141747
 40
23.71826625065247
 40
24.80210429862395
 40
25.8930771157021
 40
26.99048705697709
 40
28.09349309193389
 40
29.20112995599786
 40
30.31233024745139
 40
31.42594771747373
 40
32.5407895042663
 40
32.54078950426994
 40
32.54078950426994
 40
32.54078950426994
 10
-51.73072470424052
 20
-3.681247049364091
 30
0.0
 10
-51.78715239159267
 20
-3.671755951499346
 30
0.0
 10
-52.12540556031395
 20
-3.613944637002618
 30
0.0
 10
-52.74506630492115
 20
-3.498025427126574
 30
0.0
 10
-53.58736838923292
 20
-3.318876683312582
 30
0.0
 10
-54.42958464473036
 20
-3.119270291139087
 30
0.0
 10
-55.27172101741307
 20
-2.90045224319905
 30
0.0
 10
-56.11377639487742
 20
-2.663764217652894
 30
0.0
 10
-56.95576114184873
 20
-2.41067923345585
 30
0.0
 10
-57.79767915695302
 20
-2.142752669490528
 30
0.0
 10
-58.63953822993395
 20
-1.861636814196215
 30
0.0
 10
-59.48134772173063
 20
-1.569065974338327
 30
0.0
 10
-60.32311493874167
 20
-1.266839176858717
 30
0.0
 10
-61.16484835471496
 20
-0.9568157720856651
 30
0.0
 10
-62.00655543088465
 20
-0.6409020530322153
 30
0.0
 10
-62.84824863640903
 20
-0.3210473780988173
 30
0.0
 10
-63.40926729722757
 20
-0.1065276324188848
 30
0.0
 10
-63.68993074350206
 20
0.0007911617816747
 30
0.0
  0
SPLINE
  5
2F15
330
1F
100
AcDbEntity
  8
AM_0
100
AcDbSpline
210
0.0
220
0.0
230
1.0
 70
     8
 71
     3
 72
    46
 73
    42
 74
     0
 42
0.0000000001
 43
0.0000000001
 40
0.0
 40
0.0
 40
0.0
 40
0.0
 40
1.685415058684573
 40
2.531036209541122
 40
3.379897699130124
 40
4.232934581347659
 40
5.09097061220244
 40
5.954688180526682
 40
6.824620803463244
 40
7.701151815239691
 40
8.584457046566678
 40
9.474582384070743
 40
10.37139106676737
 40
11.27458944007584
 40
12.18373345430765
 40
13.09824173870457
 40
14.01741343450111
 40
14.9404441545541
 40
15.86644439743314
 40
16.79446029130534
 40
17.7234937712985
 40
18.65252725129241
 40
19.58054314516461
 40
20.5065433880429
 40
21.42957410809587
 40
22.34874580389318
 40
23.26325408828902
 40
24.17239810252112
 40
25.07560240389442
 40
25.97241108659103
 40
26.8625364240951
 40
27.74584165542184
 40
28.62236045019042
 40
29.49229307312698
 40
30.35601064145123
 40
31.2140460633447
 40
32.06708345193549
 40
32.9159575565769
 40
33.76157841950695
 40
34.60498701064691
 40
35.44727335621126
 40
35.44727335621126
 40
35.44727335621126
 40
35.44727335621126
 10
-30.28130800180114
 20
-4.099417375003392
 30
0.0
 10
-30.84326477099566
 20
-4.090077258069633
 30
0.0
 10
-31.68717139429247
 20
-4.076050936162229
 30
0.0
 10
-32.8093508325702
 20
-3.989693448950839
 30
0.0
 10
-33.65196123677956
 20
-3.902622129731846
 30
0.0
 10
-34.49449961785804
 20
-3.790837346301206
 30
0.0
 10
-35.33696375627109
 20
-3.655825541413657
 30
0.0
 10
-36.1793493241152
 20
-3.498232186515902
 30
0.0
 10
-37.02165491052112
 20
-3.319083902275427
 30
0.0
 10
-37.86387676693148
 20
-3.119480685677112
 30
0.0
 10
-38.70601657674576
 20
-2.900660549891849
 30
0.0
 10
-39.54807207486397
 20
-2.663972816711036
 30
0.0
 10
-40.39005678935816
 20
-2.410887753674655
 30
0.0
 10
-41.23197481244239
 20
-2.142961209617941
 30
0.0
 10
-42.07383388633808
 20
-1.861845354375833
 30
0.0
 10
-42.91564336631433
 20
-1.5692744940255
 30
0.0
 10
-43.75741063003224
 20
-1.267047779077281
 30
0.0
 10
-44.59914387001099
 20
-0.9570240629203738
 30
0.0
 10
-45.44085201102254
 20
-0.6411113598663758
 30
0.0
 10
-46.2825427421257
 20
-0.3212523109719211
 30
0.0
 10
-47.12422639782795
 20
0.0005826249318377
 30
0.0
 10
-47.96591005334528
 20
0.3224175612266852
 30
0.0
 10
-48.80760078500308
 20
0.6422766089484325
 30
0.0
 10
-49.64930892398737
 20
0.9581893162881643
 30
0.0
 10
-50.49104217148328
 20
1.268213016550834
 30
0.0
 10
-51.33280940732826
 20
1.570439790433289
 30
0.0
 10
-52.17461899052747
 20
1.863010432529397
 30
0.0
 10
-53.01647951276867
 20
2.144127706229795
 30
0.0
 10
-53.85840080714018
 20
2.412051816038041
 30
0.0
 10
-54.70038702360606
 20
2.665138176807952
 30
0.0
 10
-55.54244250211881
 20
2.901825980415959
 30
0.0
 10
-56.38457885251845
 20
3.120644105431177
 30
0.0
 10
-57.22679509737776
 20
3.320250409722171
 30
0.0
 10
-58.06909724554875
 20
3.499399425802991
 30
0.0
 10
-58.91148232586438
 20
3.656982470116113
 30
0.0
 10
-59.75394708192053
 20
3.792033433747373
 30
0.0
 10
-60.59649084014402
 20
3.903658587073886
 30
0.0
 10
-61.43909690259555
 20
3.991342872159532
 30
0.0
 10
-62.28175509667416
 20
4.053900992453914
 30
0.0
 10
-63.12444387861836
 20
4.093266419205089
 30
0.0
 10
-63.68637342817224
 20
4.098144972359862
 30
0.0
 10
-63.96715115162183
 20
4.100582624997302
 30
0.0
  0
SPLINE
  5
2F16
330
1F
100
AcDbEntity
  8
AM_0
100
AcDbSpline
210
0.0
220
0.0
230
1.0
 70
     8
 71
     3
 72
    18
 73
    14
 74
     0
 42
0.0000000001
 43
0.0000000001
 40
0.0
 40
0.0
 40
0.0
 40
0.0
 40
1.010743684496582
 40
2.022833576467832
 40
3.037578957496688
 40
4.056212745003489
 40
5.079857003664532
 40
6.109500240690281
 40
7.145961322679372
 40
8.189895241603872
 40
9.241717795325891
 40
10.30168407291828
 40
10.55450228288433
 40
10.55450228288433
 40
10.55450228288433
 40
10.55450228288433
 10
-60.5785891133773
 20
-4.099417375002849
 30
0.0
 10
-60.85936678688067
 20
-4.096977974331412
 30
0.0
 10
-61.42129610110442
 20
-4.092095923955724
 30
0.0
 10
-62.26398557565176
 20
-4.052741117138249
 30
0.0
 10
-63.10663907896275
 20
-3.990177254920972
 30
0.0
 10
-63.94924043029481
 20
-3.902491622540623
 30
0.0
 10
-64.79178122181294
 20
-3.790872528432016
 30
0.0
 10
-65.63424483207095
 20
-3.655816324918935
 30
0.0
 10
-66.47663407907227
 20
-3.498232798726355
 30
0.0
 10
-67.31894149252679
 20
-3.319086915970746
 30
0.0
 10
-68.16116133478593
 20
-3.119478621504533
 30
0.0
 10
-68.78737513212027
 20
-2.956765425431355
 30
0.0
 10
-69.13338691028164
 20
-2.86233721481524
 30
0.0
 10
-69.19996185303299
 20
-2.844004222541604
 30
0.0
  0
LINE
  5
2F17
330
1F
100
AcDbEntity
  8
AM_0
 48
0.5
100
AcDbLine
 10
-66.32610272022508
 20
4.10058262499735
 30
0.0
 11
-48.51436565967847
 21
4.100582624996989
 31
0.0
  0
VIEWPORT
  5
110
330
101
100
AcDbEntity
 67
     1
  8
0
100
AcDbViewport
 10
420.5
 20
297.0
 30
0.0
 40
948.9782706766916
 41
628.452
 68
     1
 69
     1
1001
ACAD
1000
MVIEW
1002
{
1070
    16
1010
0.0
1020
0.0
1030
0.0
1010
0.0
1020
0.0
1030
1.0
1040
0.0
1040
628.452
1040
420.5
1040
297.0
1040
50.0
1040
0.0
1040
0.0
1070
     0
1070
   100
1070
     1
1070
     1
1070
     0
1070
     0
1070
     0
1070
     0
1040
0.0
1040
0.0
1040
0.0
1040
10.0
1040
10.0
1040
10.0
1040
10.0
1070
     0
1002
{
1002
}
1002
}
  0
ENDSEC
  0
SECTION
  2
OBJECTS
  0
DICTIONARY
  5
C
330
0
100
AcDbDictionary
  3
ACAD_GROUP
350
D
  3
ACAD_LAYOUT
350
1A
  3
ACAD_MLINESTYLE
350
17
  3
ACAD_PLOTSETTINGS
350
19
  3
ACAD_PLOTSTYLENAME
350
E
  3
ACDBVARIABLEDICTIONARY
350
34
  3
ACMDICTIONARY
350
43
  3
AMG
350
2B
  3
AMGSNAPSETTINGS
350
6E
  3
DWGPROPS
350
2F67
  3
ACDBHEADERROUNDTRIPXREC
350
2F73
  0
DICTIONARY
  5
74
330
1F
100
AcDbDictionary
280
     1
  3
ACAD_INDEX
360
2F69
  3
ACAD_LAYOUTSELFREF
360
2F96
  0
DICTIONARY
  5
2F9B
330
101
100
AcDbDictionary
280
     1
  3
ACAD_LAYOUTSELFREF
360
2F9C
  0
DICTIONARY
  5
D
102
{ACAD_REACTORS
330
C
102
}
330
C
100
AcDbDictionary
  0
DICTIONARY
  5
1A
102
{ACAD_REACTORS
330
C
102
}
330
C
100
AcDbDictionary
  0
DICTIONARY
  5
17
102
{ACAD_REACTORS
330
C
102
}
330
C
100
AcDbDictionary
  3
STANDARD
350
18
  0
DICTIONARY
  5
19
102
{ACAD_REACTORS
330
C
102
}
330
C
100
AcDbDictionary
  0
ACDBDICTIONARYWDFLT
  5
E
102
{ACAD_REACTORS
330
C
102
}
330
C
100
AcDbDictionary
281
     1
  3
Normal
350
F
100
AcDbDictionaryWithDefault
340
F
  0
DICTIONARY
  5
34
102
{ACAD_REACTORS
330
C
102
}
330
C
100
AcDbDictionary
  3
INDEXCTL
350
35
  3
SORTENTS
350
B5E
  0
DICTIONARY
  5
43
102
{ACAD_REACTORS
330
C
102
}
330
C
100
AcDbDictionary
  3
ACMSTDDICTIONARY
350
260
  0
DICTIONARY
  5
2B
102
{ACAD_REACTORS
330
C
102
}
330
C
100
AcDbDictionary
  3
ACMGSETTINGS
350
2C
  0
DICTIONARY
  5
6E
102
{ACAD_REACTORS
330
C
102
}
330
C
100
AcDbDictionary
  0
XRECORD
  5
2F67
102
{ACAD_REACTORS
330
C
102
}
330
C
100
AcDbXrecord
  1
DWGPROPS COOKIE
  2

  3

  4

  6

  7

  8

  9

300
AmdtFileType=82
301
=
302
=
303
=
304
=
305
=
306
=
307
=
308
=
309
=
 40
0.1212132638888889
 41
2452800.443498622
 42
2452948.690314664
  1

 90
        1
  0
DICTIONARY
  5
2F73
102
{ACAD_REACTORS
330
C
102
}
330
C
100
AcDbDictionary
  3
TSTACKALIGN
350
2F74
  3
TSTACKSIZE
350
2F75
  3
HYPERLINKBASE
350
2F76
  3
STYLESHEET
350
2F77
  3
LAYOUTDICT
350
2F78
  3
PLOTSETDICT
350
2F79
  3
PLOTSTYLNAMDICT
350
2F7A
  3
LWETCUNION
350
2F7B
  3
INSUNITS
350
2F7C
  3
CEPSNTYPE
350
2F7D
  3
FINGERPRINTGUID
350
2F7E
  3
VERSIONGUID
350
2F7F
  3
PSVPSCALE
350
2F80
  3
DIMSTYLEDATA
350
2F81
  3
PUCSORTHOREF
350
2F82
  3
PUCSORTHOVIEW
350
2F83
  3
PUCSBASE
350
2F84
  3
PUCSORGTOP
350
2F85
  3
PUCSORGBOTTOM
350
2F86
  3
PUCSORGLEFT
350
2F87
  3
PUCSORGRIGHT
350
2F88
  3
PUCSORGFRONT
350
2F89
  3
PUCSORGBACK
350
2F8A
  3
UCSORTHOREF
350
2F8B
  3
UCSORTHOVIEW
350
2F8C
  3
UCSBASE
350
2F8D
  3
UCSORGTOP
350
2F8E
  3
UCSORGBOTTOM
350
2F8F
  3
UCSORGLEFT
350
2F90
  3
UCSORGRIGHT
350
2F91
  3
UCSORGFRONT
350
2F92
  3
UCSORGBACK
350
2F93
  0
DICTIONARY
  5
2F69
102
{ACAD_REACTORS
330
74
102
}
330
74
100
AcDbDictionary
  3
*A1
350
2F6A
  0
XRECORD
  5
2F96
102
{ACAD_REACTORS
330
74
102
}
330
74
100
AcDbXrecord
340
1F
  0
XRECORD
  5
2F9C
102
{ACAD_REACTORS
330
2F9B
102
}
330
2F9B
100
AcDbXrecord
340
101
  0
MLINESTYLE
  5
18
102
{ACAD_REACTORS
330
17
102
}
330
17
100
AcDbMlineStyle
  2
STANDARD
 70
     0
  3

 62
   256
 51
90.0
 52
90.0
 71
     2
 49
0.5
 62
   256
  6
BYLAYER
 49
-0.5
 62
   256
  6
BYLAYER
  0
ACDBPLACEHOLDER
  5
F
102
{ACAD_REACTORS
330
E
102
}
330
E
100
AcDbPlaceHolder
280
     0
  0
DICTIONARYVAR
  5
35
102
{ACAD_REACTORS
330
34
102
}
330
34
100
DictionaryVariables
280
     0
  1
1
  0
DICTIONARYVAR
  5
B5E
102
{ACAD_REACTORS
330
34
102
}
330
34
100
DictionaryVariables
280
     0
  1
96
  0
DICTIONARY
  5
260
102
{ACAD_REACTORS
330
43
102
}
330
43
100
AcDbDictionary
  0
DICTIONARY
  5
2C
102
{ACAD_REACTORS
330
2B
102
}
330
2B
100
AcDbDictionary
  3
DWGSETTINGS
350
2D
  0
XRECORD
  5
2F74
102
{ACAD_REACTORS
330
2F73
102
}
330
2F73
100
AcDbXrecord
 90
        1
  0
XRECORD
  5
2F75
102
{ACAD_REACTORS
330
2F73
102
}
330
2F73
100
AcDbXrecord
 90
       70
  0
XRECORD
  5
2F76
102
{ACAD_REACTORS
330
2F73
102
}
330
2F73
100
AcDbXrecord
  1

  0
XRECORD
  5
2F77
102
{ACAD_REACTORS
330
2F73
102
}
330
2F73
100
AcDbXrecord
  1
ASAMI.ctb
  0
XRECORD
  5
2F78
102
{ACAD_REACTORS
330
2F73
102
}
330
2F73
100
AcDbXrecord
340
1A
  0
XRECORD
  5
2F79
102
{ACAD_REACTORS
330
2F73
102
}
330
2F73
100
AcDbXrecord
340
19
  0
XRECORD
  5
2F7A
102
{ACAD_REACTORS
330
2F73
102
}
330
2F73
100
AcDbXrecord
340
E
  0
XRECORD
  5
2F7B
102
{ACAD_REACTORS
330
2F73
102
}
330
2F73
100
AcDbXrecord
 90
    10781
  0
XRECORD
  5
2F7C
102
{ACAD_REACTORS
330
2F73
102
}
330
2F73
100
AcDbXrecord
 90
        4
  0
XRECORD
  5
2F7D
102
{ACAD_REACTORS
330
2F73
102
}
330
2F73
100
AcDbXrecord
 90
        0
  0
XRECORD
  5
2F7E
102
{ACAD_REACTORS
330
2F73
102
}
330
2F73
100
AcDbXrecord
  1
{AFB28963-8C59-40AE-9337-C84526B81ACE}
  0
XRECORD
  5
2F7F
102
{ACAD_REACTORS
330
2F73
102
}
330
2F73
100
AcDbXrecord
  1
{B04FB746-1521-43C6-9820-418871E807C0}
  0
XRECORD
  5
2F80
102
{ACAD_REACTORS
330
2F73
102
}
330
2F73
100
AcDbXrecord
 40
0.0
  0
XRECORD
  5
2F81
102
{ACAD_REACTORS
330
2F73
102
}
330
2F73
100
AcDbXrecord
1000
DSTYLE
1002
{
1070
    79
 70
     2
1070
   341
340
59
1070
   342
340
59
1070
   371
 70
    -1
1070
   372
 70
    -1
1002
}
  0
XRECORD
  5
2F82
102
{ACAD_REACTORS
330
2F73
102
}
330
2F73
100
AcDbXrecord
340
0
  0
XRECORD
  5
2F83
102
{ACAD_REACTORS
330
2F73
102
}
330
2F73
100
AcDbXrecord
 70
     0
  0
XRECORD
  5
2F84
102
{ACAD_REACTORS
330
2F73
102
}
330
2F73
100
AcDbXrecord
340
0
  0
XRECORD
  5
2F85
102
{ACAD_REACTORS
330
2F73
102
}
330
2F73
100
AcDbXrecord
 10
0.0
 20
0.0
 30
0.0
  0
XRECORD
  5
2F86
102
{ACAD_REACTORS
330
2F73
102
}
330
2F73
100
AcDbXrecord
 10
0.0
 20
0.0
 30
0.0
  0
XRECORD
  5
2F87
102
{ACAD_REACTORS
330
2F73
102
}
330
2F73
100
AcDbXrecord
 10
0.0
 20
0.0
 30
0.0
  0
XRECORD
  5
2F88
102
{ACAD_REACTORS
330
2F73
102
}
330
2F73
100
AcDbXrecord
 10
0.0
 20
0.0
 30
0.0
  0
XRECORD
  5
2F89
102
{ACAD_REACTORS
330
2F73
102
}
330
2F73
100
AcDbXrecord
 10
0.0
 20
0.0
 30
0.0
  0
XRECORD
  5
2F8A
102
{ACAD_REACTORS
330
2F73
102
}
330
2F73
100
AcDbXrecord
 10
0.0
 20
0.0
 30
0.0
  0
XRECORD
  5
2F8B
102
{ACAD_REACTORS
330
2F73
102
}
330
2F73
100
AcDbXrecord
340
0
  0
XRECORD
  5
2F8C
102
{ACAD_REACTORS
330
2F73
102
}
330
2F73
100
AcDbXrecord
 70
     0
  0
XRECORD
  5
2F8D
102
{ACAD_REACTORS
330
2F73
102
}
330
2F73
100
AcDbXrecord
340
0
  0
XRECORD
  5
2F8E
102
{ACAD_REACTORS
330
2F73
102
}
330
2F73
100
AcDbXrecord
 10
0.0
 20
0.0
 30
0.0
  0
XRECORD
  5
2F8F
102
{ACAD_REACTORS
330
2F73
102
}
330
2F73
100
AcDbXrecord
 10
0.0
 20
0.0
 30
0.0
  0
XRECORD
  5
2F90
102
{ACAD_REACTORS
330
2F73
102
}
330
2F73
100
AcDbXrecord
 10
0.0
 20
0.0
 30
0.0
  0
XRECORD
  5
2F91
102
{ACAD_REACTORS
330
2F73
102
}
330
2F73
100
AcDbXrecord
 10
0.0
 20
0.0
 30
0.0
  0
XRECORD
  5
2F92
102
{ACAD_REACTORS
330
2F73
102
}
330
2F73
100
AcDbXrecord
 10
0.0
 20
0.0
 30
0.0
  0
XRECORD
  5
2F93
102
{ACAD_REACTORS
330
2F73
102
}
330
2F73
100
AcDbXrecord
 10
0.0
 20
0.0
 30
0.0
  0
LAYER_INDEX
  5
2F6A
102
{ACAD_REACTORS
330
2F69
102
}
330
2F69
100
AcDbIndex
 40
2453151.679265393
100
AcDbLayerIndex
  8
0
360
2F6B
 90
        0
  8
AM_0
360
2F6C
 90
       56
  8
AM_7
360
2F6D
 90
        1
  8
AM_11
360
2F6E
 90
       19
  8
AM_5
360
2F6F
 90
        5
  8
Defpoints
360
2F70
 90
        0
  8
AM_6
360
2F71
 90
        1
  0
XRECORD
  5
2D
102
{ACAD_REACTORS
330
2C
102
}
330
2C
100
AcDbXrecord
  1
VERSION
140
15.0
  1
PRODUCT
  2
AutoCAD Mechanical 2000
  0
IDBUFFER
  5
2F6B
330
0
100
AcDbIdBuffer
  0
IDBUFFER
  5
2F6C
330
0
100
AcDbIdBuffer
330
2F0D
330
2F0F
330
2F10
330
2F11
330
2F14
330
2F15
330
2F16
330
2F17
330
1C24
330
1C25
330
1C26
330
1C27
330
1C28
330
1C2B
330
1C2C
330
1C2D
330
1EDD
330
1EDF
330
1FEC
330
2969
330
2B83
330
2B84
330
2B85
330
2B87
330
2B88
330
2B89
330
2EC9
330
2ECA
330
2ECB
330
2ECC
330
2ECD
330
2ECE
330
2ED0
330
2ED2
330
2ED5
330
2ED6
330
2ED7
330
2ED8
330
2ED9
330
2EDA
330
2EDB
330
2EDC
330
2EDD
330
2EE3
330
2EE4
330
2EE5
330
2EE6
330
2EE7
330
2EE8
330
2EE9
330
2EEA
330
2EEC
330
2EFB
330
2F0A
330
2F0B
330
2F0C
  0
IDBUFFER
  5
2F6D
330
0
100
AcDbIdBuffer
330
C9F
  0
IDBUFFER
  5
2F6E
330
0
100
AcDbIdBuffer
330
2F0E
330
2F12
330
2F13
330
29BD
330
29BE
330
29BF
330
29C0
330
29C1
330
29C2
330
2ECF
330
2ED1
330
2ED3
330
2ED4
330
2EDE
330
2EDF
330
2EE0
330
2EE1
330
2EE2
330
2EEB
  0
IDBUFFER
  5
2F6F
330
0
100
AcDbIdBuffer
330
CC6
330
DF5
330
1EEB
330
2A8C
330
2CA7
  0
IDBUFFER
  5
2F70
330
0
100
AcDbIdBuffer
  0
IDBUFFER
  5
2F71
330
0
100
AcDbIdBuffer
330
19BD
  0
ENDSEC
  0
EOF
