  0
SECTION
  2
HEADER
  9
$ACADVER
  1
AC1014
  9
$ACADMAINTVER
 70
     9
  9
$DWGCODEPAGE
  3
ANSI_932
  9
$INSBASE
 10
0.0
 20
0.0
 30
0.0
  9
$EXTMIN
 10
-141.1499755686908
 20
-27.75003143075874
 30
-0.00000001
  9
$EXTMAX
 10
13.96806287202249
 20
13.64550037054431
 30
0.00000001
  9
$LIMMIN
 10
-144.2947427153176
 20
-45.0190390766545
  9
$LIMMAX
 10
17.32561424894453
 20
28.94485128504129
  9
$ORTHOMODE
 70
     0
  9
$REGENMODE
 70
     1
  9
$FILLMODE
 70
     1
  9
$QTEXTMODE
 70
     0
  9
$MIRRTEXT
 70
     0
  9
$DRAGMODE
 70
     2
  9
$LTSCALE
 40
1.0
  9
$OSMODE
 70
    55
  9
$ATTMODE
 70
     1
  9
$TEXTSIZE
 40
2.5
  9
$TRACEWID
 40
1.0
  9
$TEXTSTYLE
  7
STANDARD
  9
$CLAYER
  8
AM_0
  9
$CELTYPE
  6
BYLAYER
  9
$CECOLOR
 62
   256
  9
$CELTSCALE
 40
1.0
  9
$DELOBJ
 70
     1
  9
$DISPSILH
 70
     0
  9
$DIMSCALE
 40
0.5
  9
$DIMASZ
 40
2.5
  9
$DIMEXO
 40
1.0
  9
$DIMDLI
 40
12.0
  9
$DIMRND
 40
0.0
  9
$DIMDLE
 40
0.0
  9
$DIMEXE
 40
1.0
  9
$DIMTP
 40
0.1
  9
$DIMTM
 40
0.1
  9
$DIMTXT
 40
3.2
  9
$DIMCEN
 40
0.0
  9
$DIMTSZ
 40
0.0
  9
$DIMTOL
 70
     0
  9
$DIMLIM
 70
     0
  9
$DIMTIH
 70
     0
  9
$DIMTOH
 70
     0
  9
$DIMSE1
 70
     0
  9
$DIMSE2
 70
     0
  9
$DIMTAD
 70
     3
  9
$DIMZIN
 70
     8
  9
$DIMBLK
  1
OPEN30
  9
$DIMASO
 70
     1
  9
$DIMSHO
 70
     1
  9
$DIMPOST
  1

  9
$DIMAPOST
  1
"
  9
$DIMALT
 70
     0
  9
$DIMALTD
 70
     2
  9
$DIMALTF
 40
0.0393701
  9
$DIMLFAC
 40
1.0
  9
$DIMTOFL
 70
     1
  9
$DIMTVP
 40
0.0
  9
$DIMTIX
 70
     0
  9
$DIMSOXD
 70
     0
  9
$DIMSAH
 70
     0
  9
$DIMBLK1
  1

  9
$DIMBLK2
  1

  9
$DIMSTYLE
  2
AM_JIS
  9
$DIMCLRD
 70
   256
  9
$DIMCLRE
 70
   256
  9
$DIMCLRT
 70
     2
  9
$DIMTFAC
 40
0.71
  9
$DIMGAP
 40
1.5
  9
$DIMJUST
 70
     0
  9
$DIMSD1
 70
     0
  9
$DIMSD2
 70
     0
  9
$DIMTOLJ
 70
     0
  9
$DIMTZIN
 70
     0
  9
$DIMALTZ
 70
     0
  9
$DIMALTTZ
 70
     0
  9
$DIMFIT
 70
     3
  9
$DIMUPT
 70
     0
  9
$DIMUNIT
 70
     2
  9
$DIMDEC
 70
     3
  9
$DIMTDEC
 70
     3
  9
$DIMALTU
 70
     2
  9
$DIMALTTD
 70
     2
  9
$DIMTXSTY
  7
ASAMI
  9
$DIMAUNIT
 70
     0
  9
$LUNITS
 70
     2
  9
$LUPREC
 70
     2
  9
$SKETCHINC
 40
1.0
  9
$FILLETRAD
 40
2.5
  9
$AUNITS
 70
     0
  9
$AUPREC
 70
     0
  9
$MENU
  1
.
  9
$ELEVATION
 40
0.0
  9
$PELEVATION
 40
0.0
  9
$THICKNESS
 40
0.0
  9
$LIMCHECK
 70
     0
  9
$BLIPMODE
 70
     0
  9
$CHAMFERA
 40
2.5
  9
$CHAMFERB
 40
2.5
  9
$CHAMFERC
 40
20.0
  9
$CHAMFERD
 40
0.0
  9
$SKPOLY
 70
     0
  9
$TDCREATE
 40
2452800.443498622
  9
$TDUPDATE
 40
2453151.679453657
  9
$TDINDWG
 40
0.1219807870
  9
$TDUSRTIMER
 40
0.1219807870
  9
$USRTIMER
 70
     1
  9
$ANGBASE
 50
0.0
  9
$ANGDIR
 70
     0
  9
$PDMODE
 70
     3
  9
$PDSIZE
 40
0.0
  9
$PLINEWID
 40
0.0
  9
$COORDS
 70
     1
  9
$SPLFRAME
 70
     0
  9
$SPLINETYPE
 70
     6
  9
$SPLINESEGS
 70
     8
  9
$ATTDIA
 70
     1
  9
$ATTREQ
 70
     1
  9
$HANDLING
 70
 12289
  9
$HANDSEED
  5
306E
  9
$SURFTAB1
 70
     6
  9
$SURFTAB2
 70
     6
  9
$SURFTYPE
 70
     6
  9
$SURFU
 70
     6
  9
$SURFV
 70
     6
  9
$UCSNAME
  2

  9
$UCSORG
 10
-0.0000000000001518
 20
-0.0000000000002399
 30
0.0
  9
$UCSXDIR
 10
1.0
 20
0.000000000000002
 30
0.0
  9
$UCSYDIR
 10
-0.000000000000002
 20
1.0
 30
0.0
  9
$PUCSNAME
  2

  9
$PUCSORG
 10
0.0
 20
0.0
 30
0.0
  9
$PUCSXDIR
 10
1.0
 20
0.0
 30
0.0
  9
$PUCSYDIR
 10
0.0
 20
1.0
 30
0.0
  9
$USERI1
 70
     0
  9
$USERI2
 70
     0
  9
$USERI3
 70
     0
  9
$USERI4
 70
     0
  9
$USERI5
 70
     0
  9
$USERR1
 40
0.0
  9
$USERR2
 40
0.0
  9
$USERR3
 40
0.0
  9
$USERR4
 40
0.0
  9
$USERR5
 40
0.0
  9
$WORLDVIEW
 70
     1
  9
$SHADEDGE
 70
     3
  9
$SHADEDIF
 70
    70
  9
$TILEMODE
 70
     1
  9
$MAXACTVP
 70
    64
  9
$PINSBASE
 10
0.0
 20
0.0
 30
0.0
  9
$PLIMCHECK
 70
     0
  9
$PEXTMIN
 10
1.000000000000000E+20
 20
1.000000000000000E+20
 30
1.000000000000000E+20
  9
$PEXTMAX
 10
-1.000000000000000E+20
 20
-1.000000000000000E+20
 30
-1.000000000000000E+20
  9
$PLIMMIN
 10
0.0
 20
0.0
  9
$PLIMMAX
 10
841.0
 20
594.0
  9
$UNITMODE
 70
     0
  9
$VISRETAIN
 70
     1
  9
$PLINEGEN
 70
     0
  9
$PSLTSCALE
 70
     0
  9
$TREEDEPTH
 70
  3020
  9
$PICKSTYLE
 70
     0
  9
$CMLSTYLE
  2
STANDARD
  9
$CMLJUST
 70
     0
  9
$CMLSCALE
 40
20.0
  9
$PROXYGRAPHICS
 70
     1
  9
$MEASUREMENT
 70
     1
  0
ENDSEC
  0
SECTION
  2
CLASSES
  0
CLASS
  1
ACDBDICTIONARYWDFLT
  2
AcDbDictionaryWithDefault
  3
AutoCAD 2000
 90
        0
280
     0
281
     0
  0
CLASS
  1
ACDBPLACEHOLDER
  2
AcDbPlaceHolder
  3
AutoCAD 2000
 90
        0
280
     0
281
     0
  0
CLASS
  1
LAYOUT
  2
AcDbLayout
  3
AutoCAD 2000
 90
        0
280
     0
281
     0
  0
CLASS
  1
AMGSETTINGSOBJ
  2
AmgSettingsObj
  3
"AcadM|Product Description: AutoCAD Mechanical 2000|Company: Autodesk"
 90
        0
280
     0
281
     0
  0
CLASS
  1
ACME_DOCUMENT
  2
AcMeDbDoc
  3
AcMeServices
 90
        0
280
     0
281
     0
  0
CLASS
  1
ACMESCOPE
  2
AcMeScope
  3
AcMeServices
 90
        0
280
     0
281
     0
  0
CLASS
  1
ACMECOMMANDHISTORY
  2
AcMeCommandHistory
  3
AcMeServices
 90
        0
280
     0
281
     0
  0
CLASS
  1
DICTIONARYVAR
  2
AcDbDictionaryVar
  3
AutoCAD 2000
 90
        0
280
     0
281
     0
  0
CLASS
  1
ACIMSYSVARMAN
  2
AcImSysVarManager
  3
AcMeServices
 90
        0
280
     0
281
     0
  0
CLASS
  1
ACIMREALSYSVAR
  2
AcImRealSysVar
  3
AcMeServices
 90
        0
280
     0
281
     0
  0
CLASS
  1
ACIMINTSYSVAR
  2
AcImIntSysVar
  3
AcMeServices
 90
        0
280
     0
281
     0
  0
CLASS
  1
ACMEDRAWINGMAN
  2
AcMeDrawingMan
  3
AcMeServices
 90
        0
280
     0
281
     0
  0
CLASS
  1
ACMEVIEW
  2
AcMeView
  3
AcMeServices
 90
        0
280
     0
281
     0
  0
CLASS
  1
ACDBENTITYCACHE
  2
AcMeEntityCache
  3
AcMeServices
 90
        0
280
     0
281
     0
  0
CLASS
  1
GSMANAGER
  2
AcMeGSManager
  3
AcMeServices
 90
        0
280
     0
281
     0
  0
CLASS
  1
AmdtInternalReactor
  2
AmdtInternalReactor
  3
AcMeServices
 90
        0
280
     0
281
     0
  0
CLASS
  1
ACMESTATEMGR
  2
AcMeStateMgr
  3
AcMeServices
 90
        0
280
     0
281
     0
  0
CLASS
  1
ACME_DATABASE
  2
AcMeDbDatabase
  3
AcMeServices
 90
        0
280
     0
281
     0
  0
CLASS
  1
ACRFINSADJUSTERMGR
  2
AcRfInsAdjusterMgr
  3
AcMeServices
 90
        0
280
     0
281
     0
  0
CLASS
  1
ACMDATADICTIONARY
  2
AcmDataDictionary
  3
"AcmSymBB|Product Description: AutoCAD Mechanical 2000|Company: Autodesk"
 90
        0
280
     0
281
     0
  0
CLASS
  1
ACMDATAENTRYBLOCK
  2
AcmDataEntryBlock
  3
"AcmSymBB|Product Description: AutoCAD Mechanical 2000|Company: Autodesk"
 90
        0
280
     0
281
     0
  0
CLASS
  1
AMGOBJPROPCFG
  2
AmgObjPropCfg
  3
"AmgLay|Product Description: AutoCAD Mechanical 2000|Company: Autodesk"
 90
        1
280
     0
281
     0
  0
CLASS
  1
ACAMGFILTERDAT
  2
AcAmgFilterDat
  3
"AcadM|Product Description: AutoCAD Mechanical 2000|Company: Autodesk"
 90
        0
280
     0
281
     0
  0
CLASS
  1
LAYER_INDEX
  2
AcDbLayerIndex
  3
AutoCAD 2000
 90
        0
280
     0
281
     0
  0
CLASS
  1
IDBUFFER
  2
AcDbIdBuffer
  3
AutoCAD 2000
 90
        0
280
     0
281
     0
  0
CLASS
  1
ACIMSTRSYSVAR
  2
AcImStrSysVar
  3
AcMeServices
 90
        0
280
     0
281
     0
  0
CLASS
  1
ACMSTANDARDJIS
  2
AcmStandardJIS
  3
"AcmSymBB|Product Description: AutoCAD Mechanical 2000|Company: Autodesk"
 90
        0
280
     0
281
     0
  0
CLASS
  1
ACMSURFSTANDARDJIS
  2
AcmSurfTextStdJIS
  3
"AcmSymBB|Product Description: AutoCAD Mechanical 2000|Company: Autodesk"
 90
        0
280
     0
281
     0
  0
CLASS
  1
ACMFCFSTANDARDJIS
  2
AcmFCFStdJIS
  3
"AcmSymBB|Product Description: AutoCAD Mechanical 2000|Company: Autodesk"
 90
        0
280
     0
281
     0
  0
CLASS
  1
ACMWELDSTANDARDJIS
  2
AcmWeldingStdJIS
  3
"AcmSymBB|Product Description: AutoCAD Mechanical 2000|Company: Autodesk"
 90
        0
280
     0
281
     0
  0
CLASS
  1
ACMIDSTANDARDJIS
  2
AcmIdStdJIS
  3
"AcmSymBB|Product Description: AutoCAD Mechanical 2000|Company: Autodesk"
 90
        0
280
     0
281
     0
  0
CLASS
  1
ACMDATUMSTANDARDJIS
  2
AcmDatumStdJIS
  3
"AcmSymBB|Product Description: AutoCAD Mechanical 2000|Company: Autodesk"
 90
        0
280
     0
281
     0
  0
CLASS
  1
ACMBOMSTANDARDJIS
  2
AcmBOMStdJIS
  3
"AcmSymBB|Product Description: AutoCAD Mechanical 2000|Company: Autodesk"
 90
        0
280
     0
281
     0
  0
CLASS
  1
ACMSTANDARDANSI
  2
AcmStandardANSI
  3
"AcmSymBB|Product Description: AutoCAD Mechanical 2000|Company: Autodesk"
 90
        0
280
     0
281
     0
  0
CLASS
  1
ACMSURFSTANDARDANSI
  2
AcmSurfTextStdANSI
  3
"AcmSymBB|Product Description: AutoCAD Mechanical 2000|Company: Autodesk"
 90
        0
280
     0
281
     0
  0
CLASS
  1
ACMFCFSTANDARDANSI
  2
AcmFCFStdANSI
  3
"AcmSymBB|Product Description: AutoCAD Mechanical 2000|Company: Autodesk"
 90
        0
280
     0
281
     0
  0
CLASS
  1
ACMWELDSTANDARDANSI
  2
AcmWeldingStdANSI
  3
"AcmSymBB|Product Description: AutoCAD Mechanical 2000|Company: Autodesk"
 90
        0
280
     0
281
     0
  0
CLASS
  1
ACMIDSTANDARDANSI
  2
AcmIdStdANSI
  3
"AcmSymBB|Product Description: AutoCAD Mechanical 2000|Company: Autodesk"
 90
        0
280
     0
281
     0
  0
CLASS
  1
ACMDATUMSTANDARDANSI
  2
AcmDatumStdANSI
  3
"AcmSymBB|Product Description: AutoCAD Mechanical 2000|Company: Autodesk"
 90
        0
280
     0
281
     0
  0
CLASS
  1
ACMBOMSTANDARDANSI
  2
AcmBOMStdANSI
  3
"AcmSymBB|Product Description: AutoCAD Mechanical 2000|Company: Autodesk"
 90
        0
280
     0
281
     0
  0
CLASS
  1
ACMSTANDARDBSI
  2
AcmStandardBSI
  3
"AcmSymBB|Product Description: AutoCAD Mechanical 2000|Company: Autodesk"
 90
        0
280
     0
281
     0
  0
CLASS
  1
ACMSURFSTANDARDBSI
  2
AcmSurfTextStdBSI
  3
"AcmSymBB|Product Description: AutoCAD Mechanical 2000|Company: Autodesk"
 90
        0
280
     0
281
     0
  0
CLASS
  1
ACMFCFSTANDARDBSI
  2
AcmFCFStdBSI
  3
"AcmSymBB|Product Description: AutoCAD Mechanical 2000|Company: Autodesk"
 90
        0
280
     0
281
     0
  0
CLASS
  1
ACMWELDSTANDARDBSI
  2
AcmWeldingStdBSI
  3
"AcmSymBB|Product Description: AutoCAD Mechanical 2000|Company: Autodesk"
 90
        0
280
     0
281
     0
  0
CLASS
  1
ACMIDSTANDARDBSI
  2
AcmIdStdBSI
  3
"AcmSymBB|Product Description: AutoCAD Mechanical 2000|Company: Autodesk"
 90
        0
280
     0
281
     0
  0
CLASS
  1
ACMDATUMSTANDARDBSI
  2
AcmDatumStdBSI
  3
"AcmSymBB|Product Description: AutoCAD Mechanical 2000|Company: Autodesk"
 90
        0
280
     0
281
     0
  0
CLASS
  1
ACMBOMSTANDARDBSI
  2
AcmBOMStdBSI
  3
"AcmSymBB|Product Description: AutoCAD Mechanical 2000|Company: Autodesk"
 90
        0
280
     0
281
     0
  0
CLASS
  1
LONG_TRANSACTION
  2
AcDbLongTransaction
  3
AutoCAD 2000
 90
        0
280
     0
281
     0
  0
CLASS
  1
LWPOLYLINE
  2
AcDbPolyline
  3
AutoCAD 2000
 90
        0
280
     0
281
     1
  0
CLASS
  1
HATCH
  2
AcDbHatch
  3
AutoCAD 2000
 90
        0
280
     0
281
     1
  0
CLASS
  1
XRECORD
  2
AcDbXrecord
  3
AutoCAD 2000
 90
        0
280
     0
281
     0
  0
ENDSEC
  0
SECTION
  2
TABLES
  0
TABLE
  2
VPORT
  5
8
330
0
100
AcDbSymbolTable
 70
     3
  0
VPORT
  5
3043
330
8
100
AcDbSymbolTableRecord
100
AcDbViewportTableRecord
  2
*ACTIVE
 70
     0
 10
0.0
 20
0.0
 11
1.0
 21
1.0
 12
-60.68926847006145
 22
-7.052390744840707
 13
0.0
 23
0.0
 14
2.5
 24
2.5
 15
10.0
 25
10.0
 16
0.0
 26
0.0
 36
1.0
 17
0.0
 27
0.0
 37
0.0
 40
103.2784241739081
 41
1.56570841889117
 42
50.0
 43
0.0
 44
0.0
 50
0.0
 51
0.0
 71
     0
 72
   100
 73
     1
 74
     1
 75
     0
 76
     0
 77
     0
 78
     0
  0
ENDTAB
  0
TABLE
  2
LTYPE
  5
5
330
0
100
AcDbSymbolTable
 70
    10
  0
LTYPE
  5
14
330
5
100
AcDbSymbolTableRecord
100
AcDbLinetypeTableRecord
  2
BYBLOCK
 70
     0
  3

 72
    65
 73
     0
 40
0.0
  0
LTYPE
  5
15
330
5
100
AcDbSymbolTableRecord
100
AcDbLinetypeTableRecord
  2
BYLAYER
 70
     0
  3

 72
    65
 73
     0
 40
0.0
  0
LTYPE
  5
16
330
5
100
AcDbSymbolTableRecord
100
AcDbLinetypeTableRecord
  2
CONTINUOUS
 70
     0
  3
Solid line
 72
    65
 73
     0
 40
0.0
  0
LTYPE
  5
4B
330
5
100
AcDbSymbolTableRecord
100
AcDbLinetypeTableRecord
  2
AM_ISO02W050
 70
     0
  3
__ __ __ __ __ __ __ __ __ __ __ __ __ __ __
 72
    65
 73
     2
 40
7.5
 49
6.0
 74
     0
 49
-1.5
 74
     0
  0
LTYPE
  5
4C
330
5
100
AcDbSymbolTableRecord
100
AcDbLinetypeTableRecord
  2
AM_ISO08W050
 70
     0
  3
____ . ____ . ____ . ____ . ____ . ____ . ____
 72
    65
 73
     4
 40
18.0
 49
12.0
 74
     0
 49
-1.5
 74
     0
 49
3.0
 74
     0
 49
-1.5
 74
     0
  0
LTYPE
  5
4D
330
5
100
AcDbSymbolTableRecord
100
AcDbLinetypeTableRecord
  2
AM_ISO09W050
 70
     0
  3
_____ . . _____ . . _____ . . ____ .. ____
 72
    65
 73
     6
 40
22.5
 49
12.0
 74
     0
 49
-1.5
 74
     0
 49
3.0
 74
     0
 49
-1.5
 74
     0
 49
3.0
 74
     0
 49
-1.5
 74
     0
  0
LTYPE
  5
4E
330
5
100
AcDbSymbolTableRecord
100
AcDbLinetypeTableRecord
  2
AMCONSTR
 70
     0
  3
_______________________
 72
    65
 73
     2
 40
9999.0
 49
9999.0
 74
     0
 49
0.0
 74
     0
  0
LTYPE
  5
4F
330
5
100
AcDbSymbolTableRecord
100
AcDbLinetypeTableRecord
  2
AM_ISO02W050X2
 70
     0
  3
 _ _ _ _ _ _ _ _ _ _ _ _
 72
    65
 73
     2
 40
3.75
 49
3.0
 74
     0
 49
-0.75
 74
     0
  0
LTYPE
  5
50
330
5
100
AcDbSymbolTableRecord
100
AcDbLinetypeTableRecord
  2
AM_ISO08W050X2
 70
     0
  3
__ . __ . __ . __ . __ . __
 72
    65
 73
     4
 40
9.0
 49
6.0
 74
     0
 49
-0.75
 74
     0
 49
1.5
 74
     0
 49
-0.75
 74
     0
  0
LTYPE
  5
53
330
5
100
AcDbSymbolTableRecord
100
AcDbLinetypeTableRecord
  2
AMZIGZAG
 70
     0
  3
/\/-/\/-/\/-/\/-/\/-/\/
 72
    65
 73
     2
 40
11.00009999999999
 49
0.0001
 74
     4
 75
   135
340
52
 46
0.04
 50
0.0
 44
0.0
 45
0.0
 49
-11.0
 74
     0
  0
LTYPE
  5
166
330
5
100
AcDbSymbolTableRecord
100
AcDbLinetypeTableRecord
  2
ACJISTGL
 70
     0
  3
_ _ _ _ _
 72
    65
 73
     2
 40
3.0
 49
2.0
 74
     0
 49
-1.0
 74
     0
  0
LTYPE
  5
26A
330
5
100
AcDbSymbolTableRecord
100
AcDbLinetypeTableRecord
  2
ACJISTGB
 70
     0
  3
__ . . __ . .
 72
    65
 73
     6
 40
9.0
 49
4.0
 74
     0
 49
-1.0
 74
     0
 49
1.0
 74
     0
 49
-1.0
 74
     0
 49
1.0
 74
     0
 49
-1.0
 74
     0
  0
ENDTAB
  0
TABLE
  2
LAYER
  5
2
330
0
100
AcDbSymbolTable
 70
     7
  0
LAYER
  5
10
330
2
100
AcDbSymbolTableRecord
100
AcDbLayerTableRecord
  2
0
 70
     0
 62
     7
  6
CONTINUOUS
  0
LAYER
  5
3F9
330
2
100
AcDbSymbolTableRecord
100
AcDbLayerTableRecord
  2
AM_0
 70
     0
 62
     7
  6
CONTINUOUS
  0
LAYER
  5
C7C
330
2
100
AcDbSymbolTableRecord
100
AcDbLayerTableRecord
  2
AM_7
 70
     0
 62
     4
  6
AM_ISO08W050
  0
LAYER
  5
C97
330
2
100
AcDbSymbolTableRecord
100
AcDbLayerTableRecord
  2
AM_11
 70
     0
 62
     3
  6
AM_ISO09W050
  0
LAYER
  5
CC5
330
2
100
AcDbSymbolTableRecord
100
AcDbLayerTableRecord
  2
AM_5
 70
     0
 62
     3
  6
CONTINUOUS
  0
LAYER
  5
CC7
330
2
100
AcDbSymbolTableRecord
100
AcDbLayerTableRecord
  2
DEFPOINTS
 70
     0
 62
     7
  6
CONTINUOUS
  0
LAYER
  5
19BC
330
2
100
AcDbSymbolTableRecord
100
AcDbLayerTableRecord
  2
AM_6
 70
     0
 62
     2
  6
CONTINUOUS
  0
ENDTAB
  0
TABLE
  2
STYLE
  5
3
330
0
100
AcDbSymbolTable
 70
     5
  0
STYLE
  5
11
330
3
100
AcDbSymbolTableRecord
100
AcDbTextStyleTableRecord
  2
STANDARD
 70
     0
 40
0.0
 41
1.0
 50
0.0
 71
     0
 42
2.5
  3
simplex.shx
  4
EXTFONT.SHX
  0
STYLE
  5
52
330
3
100
AcDbSymbolTableRecord
100
AcDbTextStyleTableRecord
  2

 70
     1
 40
0.0
 41
1.0
 50
0.0
 71
     0
 42
2.5
  3
ltypeshp.shx
  4

  0
STYLE
  5
6B
330
3
100
AcDbSymbolTableRecord
100
AcDbTextStyleTableRecord
  2
ASAMI
 70
     0
 40
0.0
 41
1.0
 50
0.0
 71
     0
 42
2.5
  3
simplex.shx
  4
EXTFONT.SHX
  0
STYLE
  5
262
330
3
100
AcDbSymbolTableRecord
100
AcDbTextStyleTableRecord
  2
ACJISTS
 70
     0
 40
1.0
 41
1.0
 50
0.0
 71
     0
 42
2.5
  3
simplex.shx
  4
bigfont.shx
  0
STYLE
  5
269
330
3
100
AcDbSymbolTableRecord
100
AcDbTextStyleTableRecord
  2
ACJISGDT
 70
     0
 40
0.0
 41
1.0
 50
0.0
 71
     0
 42
2.5
  3
amgdtans.shx
  4

  0
ENDTAB
  0
TABLE
  2
VIEW
  5
6
330
0
100
AcDbSymbolTable
 70
     0
  0
ENDTAB
  0
TABLE
  2
UCS
  5
7
330
0
100
AcDbSymbolTable
 70
     0
  0
ENDTAB
  0
TABLE
  2
APPID
  5
9
330
0
100
AcDbSymbolTable
 70
    14
  0
APPID
  5
12
330
9
100
AcDbSymbolTableRecord
100
AcDbRegAppTableRecord
  2
ACAD
 70
     0
  0
APPID
  5
30
330
9
100
AcDbSymbolTableRecord
100
AcDbRegAppTableRecord
  2
MCAD_NO_VIS
 70
     0
  0
APPID
  5
31
330
9
100
AcDbSymbolTableRecord
100
AcDbRegAppTableRecord
  2
ACAD_TEMP_GRAPHIC
 70
     0
  0
APPID
  5
2C2
330
9
100
AcDbSymbolTableRecord
100
AcDbRegAppTableRecord
  2
GENIUS_GENDTOL_13
 70
     0
  0
APPID
  5
339
330
9
100
AcDbSymbolTableRecord
100
AcDbRegAppTableRecord
  2
GENIUS_GENODEF_13
 70
     0
  0
APPID
  5
33A
330
9
100
AcDbSymbolTableRecord
100
AcDbRegAppTableRecord
  2
GENIUS_GENOBJ-N-RSBK_13
 70
     0
  0
APPID
  5
33B
330
9
100
AcDbSymbolTableRecord
100
AcDbRegAppTableRecord
  2
GENIUS_GENOBJ-N-LIB_13
 70
     0
  0
APPID
  5
33C
330
9
100
AcDbSymbolTableRecord
100
AcDbRegAppTableRecord
  2
GENIUS_GENSCALE_13
 70
     0
  0
APPID
  5
378
330
9
100
AcDbSymbolTableRecord
100
AcDbRegAppTableRecord
  2
GENIUS_GENDIMSH_14
 70
     0
  0
APPID
  5
C82
330
9
100
AcDbSymbolTableRecord
100
AcDbRegAppTableRecord
  2
GENIUS_GENOBJ-N-CRS_13
 70
     0
  0
APPID
  5
C83
330
9
100
AcDbSymbolTableRecord
100
AcDbRegAppTableRecord
  2
GENIUS_GENOENT_13
 70
     0
  0
APPID
  5
C84
330
9
100
AcDbSymbolTableRecord
100
AcDbRegAppTableRecord
  2
GENIUS_GENOREF_13
 70
     0
  0
APPID
  5
C85
330
9
100
AcDbSymbolTableRecord
100
AcDbRegAppTableRecord
  2
GENIUS_GENOLIS_13
 70
     0
  0
APPID
  5
CA0
330
9
100
AcDbSymbolTableRecord
100
AcDbRegAppTableRecord
  2
GENIUS_GENOBJ-N-CEN_13
 70
     0
  0
ENDTAB
  0
TABLE
  2
DIMSTYLE
  5
A
330
0
100
AcDbSymbolTable
 70
     9
  0
DIMSTYLE
105
58
330
A
100
AcDbSymbolTableRecord
100
AcDbDimStyleTableRecord
  2
AM_JIS
 70
     0
  3

  4
"
  5
OPEN30
  6

  7

 40
0.5
 41
2.5
 42
1.0
 43
12.0
 44
1.0
 45
0.0
 46
0.0
 47
0.1
 48
0.1
140
3.2
141
0.0
142
0.0
143
0.0393701
144
1.0
145
0.0
146
0.71
147
1.5
 71
     0
 72
     0
 73
     0
 74
     0
 75
     0
 76
     0
 77
     3
 78
     8
170
     0
171
     2
172
     1
173
     0
174
     0
175
     0
176
   256
177
   256
178
     2
270
     2
271
     3
272
     3
273
     2
274
     2
340
6B
275
     0
280
     0
281
     0
282
     0
283
     0
284
     0
285
     0
286
     0
287
     3
288
     0
  0
DIMSTYLE
105
5F
330
A
100
AcDbSymbolTableRecord
100
AcDbDimStyleTableRecord
  2
AM_JIS$3
 70
     0
  3

  4
"
  5
OPEN30
  6

  7

 40
0.5
 41
2.5
 42
1.0
 43
10.0
 44
1.0
 45
0.0
 46
0.0
 47
0.1
 48
0.1
140
3.2
141
0.0
142
0.0
143
0.0393701
144
1.0
145
0.0
146
0.71
147
1.5
 71
     0
 72
     0
 73
     0
 74
     1
 75
     0
 76
     0
 77
     3
 78
     8
170
     0
171
     2
172
     0
173
     0
174
     0
175
     0
176
   256
177
   256
178
     2
270
     2
271
     2
272
     3
273
     2
274
     2
340
6B
275
     0
280
     0
281
     0
282
     0
283
     0
284
     0
285
     0
286
     0
287
     0
288
     1
  0
DIMSTYLE
105
60
330
A
100
AcDbSymbolTableRecord
100
AcDbDimStyleTableRecord
  2
AM_JIS$4
 70
     0
  3

  4
"
  5
OPEN30
  6

  7

 40
0.5
 41
2.5
 42
1.0
 43
10.0
 44
1.0
 45
0.0
 46
0.0
 47
0.1
 48
0.1
140
3.2
141
0.0
142
0.0
143
0.0393701
144
1.0
145
0.0
146
0.71
147
1.5
 71
     0
 72
     0
 73
     0
 74
     1
 75
     0
 76
     0
 77
     3
 78
     8
170
     0
171
     2
172
     0
173
     0
174
     0
175
     0
176
   256
177
   256
178
     2
270
     2
271
     2
272
     3
273
     2
274
     2
340
6B
275
     0
280
     0
281
     0
282
     0
283
     0
284
     0
285
     0
286
     0
287
     0
288
     1
  0
DIMSTYLE
105
61
330
A
100
AcDbSymbolTableRecord
100
AcDbDimStyleTableRecord
  2
AM_JIS$6
 70
     0
  3

  4
"
  5
OPEN30
  6

  7

 40
0.5
 41
2.5
 42
1.0
 43
10.0
 44
1.0
 45
0.0
 46
0.0
 47
0.1
 48
0.1
140
3.2
141
0.0
142
0.0
143
0.0393701
144
1.0
145
0.0
146
0.71
147
1.5
 71
     0
 72
     0
 73
     0
 74
     0
 75
     0
 76
     0
 77
     0
 78
     8
170
     0
171
     2
172
     1
173
     0
174
     0
175
     0
176
   256
177
   256
178
     2
270
     2
271
     2
272
     2
273
     2
274
     2
340
6B
275
     0
280
     0
281
     0
282
     0
283
     0
284
     0
285
     0
286
     0
287
     3
288
     0
  0
DIMSTYLE
105
62
330
A
100
AcDbSymbolTableRecord
100
AcDbDimStyleTableRecord
  2
AM_JIS$7
 70
     0
  3

  4
"
  5
OPEN30
  6

  7

 40
0.5
 41
2.5
 42
1.0
 43
10.0
 44
1.0
 45
0.0
 46
0.0
 47
0.1
 48
0.1
140
3.2
141
0.0
142
0.0
143
0.0393701
144
1.0
145
0.0
146
0.71
147
1.5
 71
     0
 72
     0
 73
     0
 74
     0
 75
     0
 76
     0
 77
     3
 78
     8
170
     0
171
     2
172
     1
173
     0
174
     0
175
     0
176
   256
177
   256
178
     2
270
     2
271
     2
272
     3
273
     2
274
     2
340
6B
275
     0
280
     0
281
     0
282
     0
283
     0
284
     0
285
     0
286
     0
287
     3
288
     0
  0
DIMSTYLE
105
63
330
A
100
AcDbSymbolTableRecord
100
AcDbDimStyleTableRecord
  2
AM_JIS$SF
 70
     0
  3

  4
"
  5
OPEN30
  6

  7

 40
0.5
 41
2.5
 42
1.0
 43
10.0
 44
1.0
 45
0.0
 46
0.0
 47
0.1
 48
0.1
140
3.2
141
0.0
142
0.0
143
0.0393701
144
1.0
145
0.0
146
0.71
147
1.5
 71
     0
 72
     0
 73
     0
 74
     0
 75
     1
 76
     1
 77
     3
 78
     8
170
     0
171
     2
172
     1
173
     0
174
     0
175
     0
176
   256
177
   256
178
     2
270
     2
271
     2
272
     2
273
     2
274
     2
340
6B
275
     0
280
     0
281
     0
282
     0
283
     0
284
     0
285
     0
286
     0
287
     3
288
     0
  0
DIMSTYLE
105
68
330
A
100
AcDbSymbolTableRecord
100
AcDbDimStyleTableRecord
  2
AM_JIS$SH
 70
     0
  3

  4
"
  5

  6
GENAXEH
  7
OPEN30
 40
0.5
 41
2.5
 42
1.0
 43
10.0
 44
1.0
 45
0.0
 46
0.0
 47
0.1
 48
0.1
140
3.2
141
0.0
142
0.0
143
0.0393701
144
2.0
145
0.0
146
0.71
147
1.5
 71
     0
 72
     0
 73
     0
 74
     0
 75
     1
 76
     1
 77
     3
 78
     8
170
     0
171
     2
172
     1
173
     1
174
     0
175
     0
176
   256
177
   256
178
     2
270
     2
271
     2
272
     2
273
     2
274
     2
340
6B
275
     0
280
     0
281
     0
282
     0
283
     0
284
     0
285
     0
286
     0
287
     3
288
     0
  0
DIMSTYLE
105
B34
102
{ACAD_REACTORS
330
2CA7
102
}
330
A
100
AcDbSymbolTableRecord
100
AcDbDimStyleTableRecord
  2
AM_JIS$2
 70
     0
  3

  4
"
  5
OPEN30
  6

  7

 40
0.5
 41
2.5
 42
1.0
 43
12.0
 44
1.0
 45
0.0
 46
0.0
 47
0.1
 48
0.1
140
3.2
141
0.0
142
0.0
143
0.0393701
144
1.0
145
0.0
146
0.71
147
1.5
 71
     0
 72
     0
 73
     0
 74
     0
 75
     0
 76
     0
 77
     3
 78
     8
170
     0
171
     2
172
     1
173
     0
174
     0
175
     0
176
   256
177
   256
178
     2
270
     2
271
     3
272
     3
273
     2
274
     2
340
6B
275
     0
280
     0
281
     0
282
     0
283
     0
284
     0
285
     0
286
     0
287
     3
288
     0
  0
DIMSTYLE
105
BA5
102
{ACAD_REACTORS
330
CC6
330
DF5
330
1EEB
330
2A8C
102
}
330
A
100
AcDbSymbolTableRecord
100
AcDbDimStyleTableRecord
  2
AM_JIS$0
 70
     0
  3

  4
"
  5
OPEN30
  6

  7

 40
0.5
 41
2.5
 42
0.0
 43
10.0
 44
1.0
 45
0.0
 46
0.0
 47
0.1
 48
0.1000000001
140
3.799999999999999
141
0.0
142
0.0
143
0.0393701
144
1.0
145
0.0
146
0.71
147
1.5
 71
     0
 72
     0
 73
     0
 74
     0
 75
     0
 76
     0
 77
     3
 78
     1
170
     0
171
     2
172
     1
173
     0
174
     0
175
     0
176
     3
177
     3
178
     2
270
     2
271
     2
272
     2
273
     2
274
     2
340
11
275
     1
280
     0
281
     0
282
     0
283
     0
284
     8
285
     0
286
     0
287
     0
288
     0
  0
ENDTAB
  0
TABLE
  2
BLOCK_RECORD
  5
1
330
0
100
AcDbSymbolTable
 70
    10
  0
BLOCK_RECORD
  5
1F
102
{ACAD_XDICTIONARY
360
74
102
}
330
1
100
AcDbSymbolTableRecord
100
AcDbBlockTableRecord
  2
*MODEL_SPACE
  0
BLOCK_RECORD
  5
101
102
{ACAD_XDICTIONARY
360
306C
102
}
330
1
100
AcDbSymbolTableRecord
100
AcDbBlockTableRecord
  2
*PAPER_SPACE
  0
BLOCK_RECORD
  5
59
330
1
100
AcDbSymbolTableRecord
100
AcDbBlockTableRecord
  2
_OPEN30
  0
BLOCK_RECORD
  5
64
330
1
100
AcDbSymbolTableRecord
100
AcDbBlockTableRecord
  2
GENAXEH
  0
BLOCK_RECORD
  5
CC8
330
1
100
AcDbSymbolTableRecord
100
AcDbBlockTableRecord
  2
*D5
  0
BLOCK_RECORD
  5
DF6
330
1
100
AcDbSymbolTableRecord
100
AcDbBlockTableRecord
  2
*D6
  0
BLOCK_RECORD
  5
1EEC
330
1
100
AcDbSymbolTableRecord
100
AcDbBlockTableRecord
  2
*D7
  0
BLOCK_RECORD
  5
2A8D
330
1
100
AcDbSymbolTableRecord
100
AcDbBlockTableRecord
  2
*D8
  0
BLOCK_RECORD
  5
2CA8
330
1
100
AcDbSymbolTableRecord
100
AcDbBlockTableRecord
  2
*D9
  0
ENDTAB
  0
ENDSEC
  0
SECTION
  2
BLOCKS
  0
BLOCK
  5
20
330
1F
100
AcDbEntity
  8
0
100
AcDbBlockBegin
  2
*MODEL_SPACE
 70
     0
 10
0.0
 20
0.0
 30
0.0
  3
*MODEL_SPACE
  1

  0
ENDBLK
  5
21
330
1F
100
AcDbEntity
  8
0
100
AcDbBlockEnd
  0
BLOCK
  5
103
330
101
100
AcDbEntity
 67
     1
  8
0
100
AcDbBlockBegin
  2
*PAPER_SPACE
 70
     0
 10
0.0
 20
0.0
 30
0.0
  3
*PAPER_SPACE
  1

  0
ENDBLK
  5
104
330
101
100
AcDbEntity
 67
     1
  8
0
100
AcDbBlockEnd
  0
BLOCK
  5
5D
330
59
100
AcDbEntity
  8
0
100
AcDbBlockBegin
  2
_OPEN30
 70
     0
 10
0.0
 20
0.0
 30
0.0
  3
_OPEN30
  1

  0
LINE
  5
5A
330
59
100
AcDbEntity
  8
0
 62
     0
100
AcDbLine
 10
-1.0
 20
0.26794919
 30
0.0
 11
0.0
 21
0.0
 31
0.0
  0
LINE
  5
5B
330
59
100
AcDbEntity
  8
0
 62
     0
100
AcDbLine
 10
0.0
 20
0.0
 30
0.0
 11
-1.0
 21
-0.26794919
 31
0.0
  0
LINE
  5
5C
330
59
100
AcDbEntity
  8
0
 62
     0
100
AcDbLine
 10
0.0
 20
0.0
 30
0.0
 11
-1.0
 21
0.0
 31
0.0
  0
ENDBLK
  5
5E
330
59
100
AcDbEntity
  8
0
100
AcDbBlockEnd
  0
BLOCK
  5
66
330
64
100
AcDbEntity
  8
0
100
AcDbBlockBegin
  2
GENAXEH
 70
     0
 10
0.0
 20
0.0
 30
0.0
  3
GENAXEH
  1

  0
LINE
  5
65
330
64
100
AcDbEntity
  8
0
100
AcDbLine
 10
-1.0
 20
0.0
 30
0.0
 11
1.0
 21
0.0
 31
0.0
  0
ENDBLK
  5
67
330
64
100
AcDbEntity
  8
0
100
AcDbBlockEnd
  0
BLOCK
  5
CD2
330
CC8
100
AcDbEntity
  8
0
100
AcDbBlockBegin
  2
*D5
 70
     1
 10
0.0
 20
0.0
 30
0.0
  3
*D5
  1

  0
LINE
  5
2FFD
330
CC8
100
AcDbEntity
  8
AM_5
 62
     3
100
AcDbLine
 10
-129.0
 20
-4.234865101779198
 30
0.0
 11
-129.0
 21
-17.00003143075871
 31
0.0
  0
LINE
  5
2FFE
330
CC8
100
AcDbEntity
  8
AM_5
 62
     3
100
AcDbLine
 10
-2.000000000000004
 20
-4.149999852635778
 30
0.0
 11
-2.000000000000005
 21
-17.00003143075871
 31
0.0
  0
LINE
  5
2FFF
330
CC8
100
AcDbEntity
  8
AM_5
 62
     3
100
AcDbLine
 10
-127.75
 20
-16.50003143075871
 30
0.0
 11
-3.250000000000005
 21
-16.50003143075871
 31
0.0
  0
INSERT
  5
3000
330
CC8
100
AcDbEntity
  8
AM_5
 62
     3
100
AcDbBlockReference
  2
_OPEN30
 10
-129.0
 20
-16.50003143075871
 30
0.0
 41
1.25
 42
1.25
 43
1.25
 50
180.0
  0
INSERT
  5
3001
330
CC8
100
AcDbEntity
  8
AM_5
 62
     3
100
AcDbBlockReference
  2
_OPEN30
 10
-2.000000000000005
 20
-16.50003143075871
 30
0.0
 41
1.25
 42
1.25
 43
1.25
  0
MTEXT
  5
3002
330
CC8
100
AcDbEntity
  8
AM_5
 62
     2
100
AcDbMText
 10
-65.5
 20
-14.80003143075871
 30
0.0
 40
1.9
 41
0.0
 71
     5
 72
     1
  1
127
1001
ACAD
1000
MTEXTBEGIN
1070
    73
1070
     1
1070
    44
1040
1.0
1070
    74
1070
     0
1000
MTEXTEND
  0
POINT
  5
3003
330
CC8
100
AcDbEntity
  8
DEFPOINTS
 62
     0
100
AcDbPoint
 10
-129.0
 20
-4.234865101779198
 30
0.0
  0
POINT
  5
3004
330
CC8
100
AcDbEntity
  8
DEFPOINTS
 62
     0
100
AcDbPoint
 10
-2.000000000000004
 20
-4.149999852635778
 30
0.0
  0
POINT
  5
3005
330
CC8
100
AcDbEntity
  8
DEFPOINTS
 62
     0
100
AcDbPoint
 10
-2.000000000000005
 20
-16.50003143075871
 30
0.0
  0
ENDBLK
  5
CD3
330
CC8
100
AcDbEntity
  8
0
100
AcDbBlockEnd
  0
BLOCK
  5
E00
330
DF6
100
AcDbEntity
  8
0
100
AcDbBlockBegin
  2
*D6
 70
     1
 10
0.0
 20
0.0
 30
0.0
  3
*D6
  1

  0
LINE
  5
2FF4
330
DF6
100
AcDbEntity
  8
AM_5
 62
     3
100
AcDbLine
 10
-73.99999999847472
 20
-4.500000388439782
 30
0.0
 11
-73.99999999847472
 21
-12.00003143075863
 31
0.0
  0
LINE
  5
2FF5
330
DF6
100
AcDbEntity
  8
AM_5
 62
     3
100
AcDbLine
 10
-2.000000000000004
 20
-4.149999852635778
 30
0.0
 11
-2.000000000000005
 21
-12.00003143075863
 31
0.0
  0
LINE
  5
2FF6
330
DF6
100
AcDbEntity
  8
AM_5
 62
     3
100
AcDbLine
 10
-72.74999999847472
 20
-11.50003143075863
 30
0.0
 11
-3.250000000000005
 21
-11.50003143075863
 31
0.0
  0
INSERT
  5
2FF7
330
DF6
100
AcDbEntity
  8
AM_5
 62
     3
100
AcDbBlockReference
  2
_OPEN30
 10
-73.99999999847472
 20
-11.50003143075863
 30
0.0
 41
1.25
 42
1.25
 43
1.25
 50
180.0
  0
INSERT
  5
2FF8
330
DF6
100
AcDbEntity
  8
AM_5
 62
     3
100
AcDbBlockReference
  2
_OPEN30
 10
-2.000000000000005
 20
-11.50003143075863
 30
0.0
 41
1.25
 42
1.25
 43
1.25
  0
MTEXT
  5
2FF9
330
DF6
100
AcDbEntity
  8
AM_5
 62
     2
100
AcDbMText
 10
-37.99999999923736
 20
-9.800031430758631
 30
0.0
 40
1.9
 41
0.0
 71
     5
 72
     1
  1
72
1001
ACAD
1000
MTEXTBEGIN
1070
    73
1070
     1
1070
    44
1040
1.0
1070
    74
1070
     0
1000
MTEXTEND
  0
POINT
  5
2FFA
330
DF6
100
AcDbEntity
  8
DEFPOINTS
 62
     0
100
AcDbPoint
 10
-73.99999999847472
 20
-4.500000388439782
 30
0.0
  0
POINT
  5
2FFB
330
DF6
100
AcDbEntity
  8
DEFPOINTS
 62
     0
100
AcDbPoint
 10
-2.000000000000004
 20
-4.149999852635778
 30
0.0
  0
POINT
  5
2FFC
330
DF6
100
AcDbEntity
  8
DEFPOINTS
 62
     0
100
AcDbPoint
 10
-2.000000000000005
 20
-11.50003143075863
 30
0.0
  0
ENDBLK
  5
E01
330
DF6
100
AcDbEntity
  8
0
100
AcDbBlockEnd
  0
BLOCK
  5
1EF6
330
1EEC
100
AcDbEntity
  8
0
100
AcDbBlockBegin
  2
*D7
 70
     1
 10
0.0
 20
0.0
 30
0.0
  3
*D7
  1

  0
LINE
  5
2D91
330
1EEC
100
AcDbEntity
  8
AM_5
 62
     3
100
AcDbLine
 10
-128.7053273518916
 20
-4.500007542575746
 30
0.0
 11
-138.9999755686908
 21
-4.500007542575765
 31
0.0
  0
LINE
  5
2D92
330
1EEC
100
AcDbEntity
  8
AM_5
 62
     3
100
AcDbLine
 10
-128.7053273518916
 20
4.499981016489259
 30
0.0
 11
-138.9999755686908
 21
4.49998101648924
 31
0.0
  0
LINE
  5
2D93
330
1EEC
100
AcDbEntity
  8
AM_5
 62
     3
100
AcDbLine
 10
-138.4999755686908
 20
-3.250007542575764
 30
0.0
 11
-138.4999755686908
 21
3.249981016489241
 31
0.0
  0
INSERT
  5
2D94
330
1EEC
100
AcDbEntity
  8
AM_5
 62
     3
100
AcDbBlockReference
  2
_OPEN30
 10
-138.4999755686908
 20
-4.500007542575764
 30
0.0
 41
1.25
 42
1.25
 43
1.25
 50
270.0000000000001
  0
INSERT
  5
2D95
330
1EEC
100
AcDbEntity
  8
AM_5
 62
     3
100
AcDbBlockReference
  2
_OPEN30
 10
-138.4999755686908
 20
4.499981016489241
 30
0.0
 41
1.25
 42
1.25
 43
1.25
 50
90.0000000000001
  0
MTEXT
  5
2D96
330
1EEC
100
AcDbEntity
  8
AM_5
 62
     2
100
AcDbMText
 10
-140.1999755686908
 20
-0.0000132630432595
 30
0.0
 40
1.9
 41
0.0
 71
     5
 72
     1
  1
%%c9
 11
-0.000000000000002
 21
1.0
 31
0.0
1001
ACAD
1000
MTEXTBEGIN
1070
    73
1070
     1
1070
    44
1040
1.0
1070
    74
1070
     0
1000
MTEXTEND
  0
POINT
  5
2D97
330
1EEC
100
AcDbEntity
  8
DEFPOINTS
 62
     0
100
AcDbPoint
 10
-128.7053273518916
 20
-4.50000754257546
 30
0.0
  0
POINT
  5
2D98
330
1EEC
100
AcDbEntity
  8
DEFPOINTS
 62
     0
100
AcDbPoint
 10
-128.7053273518916
 20
4.499981016489545
 30
0.0
  0
POINT
  5
2D99
330
1EEC
100
AcDbEntity
  8
DEFPOINTS
 62
     0
100
AcDbPoint
 10
-138.4999755686908
 20
4.499981016489549
 30
0.0
  0
ENDBLK
  5
1EF7
330
1EEC
100
AcDbEntity
  8
0
100
AcDbBlockEnd
  0
BLOCK
  5
2A97
330
2A8D
100
AcDbEntity
  8
0
100
AcDbBlockBegin
  2
*D8
 70
     1
 10
0.0
 20
0.0
 30
0.0
  3
*D8
  1

  0
LINE
  5
3006
330
2A8D
100
AcDbEntity
  8
AM_5
 62
     3
100
AcDbLine
 10
-1.999999999999993
 20
4.150000147364217
 30
0.0
 11
9.819888315414944
 21
4.150000147364239
 31
0.0
  0
LINE
  5
3007
330
2A8D
100
AcDbEntity
  8
AM_5
 62
     3
100
AcDbLine
 10
-1.999999999999993
 20
-4.149999852635779
 30
0.0
 11
9.819888315414964
 21
-4.149999852635756
 31
0.0
  0
LINE
  5
3008
330
2A8D
100
AcDbEntity
  8
AM_5
 62
     3
100
AcDbLine
 10
9.319888315414949
 20
2.900000147364238
 30
0.0
 11
9.31988831541496
 21
-2.899999852635757
 31
0.0
  0
INSERT
  5
3009
330
2A8D
100
AcDbEntity
  8
AM_5
 62
     3
100
AcDbBlockReference
  2
_OPEN30
 10
9.319888315414946
 20
4.150000147364238
 30
0.0
 41
1.25
 42
1.25
 43
1.25
 50
90.0000000000001
  0
INSERT
  5
300A
330
2A8D
100
AcDbEntity
  8
AM_5
 62
     3
100
AcDbBlockReference
  2
_OPEN30
 10
9.319888315414964
 20
-4.149999852635757
 30
0.0
 41
1.25
 42
1.25
 43
1.25
 50
270.0000000000001
  0
MTEXT
  5
300B
330
2A8D
100
AcDbEntity
  8
AM_5
 62
     2
100
AcDbMText
 10
7.619888315414955
 20
0.0000001473642368
 30
0.0
 40
1.9
 41
0.0
 71
     5
 72
     1
  1
%%c8.3
 11
-0.000000000000002
 21
1.0
 31
0.0
1001
ACAD
1000
MTEXTBEGIN
1070
    73
1070
     1
1070
    44
1040
1.0
1070
    74
1070
     0
1000
MTEXTEND
  0
POINT
  5
300C
330
2A8D
100
AcDbEntity
  8
DEFPOINTS
 62
     0
100
AcDbPoint
 10
-1.999999999999984
 20
4.15000014736422
 30
0.0
  0
POINT
  5
300D
330
2A8D
100
AcDbEntity
  8
DEFPOINTS
 62
     0
100
AcDbPoint
 10
-2.000000000000003
 20
-4.149999852635774
 30
0.0
  0
POINT
  5
300E
330
2A8D
100
AcDbEntity
  8
DEFPOINTS
 62
     0
100
AcDbPoint
 10
9.319888315414953
 20
-4.149999852635778
 30
0.0
  0
ENDBLK
  5
2A98
330
2A8D
100
AcDbEntity
  8
0
100
AcDbBlockEnd
  0
BLOCK
  5
2CB8
330
2CA8
100
AcDbEntity
  8
0
100
AcDbBlockBegin
  2
*D9
 70
     1
 10
0.0
 20
0.0
 30
0.0
  3
*D9
  1

  0
LINE
  5
2D9A
330
2CA8
100
AcDbEntity
  8
AM_5
100
AcDbLine
 10
0.171010071662763
 20
-0.4698463103929555
 30
0.0
 11
4.966555966546227
 21
-13.64550037054423
 31
0.0
  0
LINE
  5
2D9B
330
2CA8
100
AcDbEntity
  8
AM_5
100
AcDbLine
 10
0.1710100716627556
 20
0.4698463103929611
 30
0.0
 11
4.966555966546014
 21
13.64550037054431
 31
0.0
  0
ARC
  5
2D9C
330
2CA8
100
AcDbEntity
  8
AM_5
100
AcDbCircle
 10
-0.0000000000000639
 20
0.0000000000000015
 30
0.0
 40
14.02123818864491
100
AcDbArc
 50
295.1096388312757
 51
64.89036116872518
  0
INSERT
  5
2D9D
330
2CA8
100
AcDbEntity
  8
AM_5
100
AcDbBlockReference
  2
_OPEN30
 10
4.7955458948834
 20
-13.17565406015127
 30
0.0
 41
1.25
 42
1.25
 43
1.25
 50
202.5548194156373
  0
INSERT
  5
2D9E
330
2CA8
100
AcDbEntity
  8
AM_5
100
AcDbBlockReference
  2
_OPEN30
 10
4.795545894883194
 20
13.17565406015135
 30
0.0
 41
1.25
 42
1.25
 43
1.25
 50
157.4451805843634
  0
MTEXT
  5
2D9F
330
2CA8
100
AcDbEntity
  8
AM_5
 62
     2
100
AcDbMText
 10
12.47123818864485
 20
0.0000000000001107
 30
0.0
 40
1.6
 41
0.0
 71
     5
 72
     1
  1
140°
  7
ASAMI
 11
-0.000000000000002
 21
1.0
 31
0.0
1001
ACAD
1000
MTEXTBEGIN
1070
    73
1070
     1
1070
    44
1040
1.0
1070
    74
1070
     0
1000
MTEXTEND
  0
POINT
  5
2DA0
330
2CA8
100
AcDbEntity
  8
DEFPOINTS
 62
     0
100
AcDbPoint
 10
12.87452674321848
 20
-5.553528741337792
 30
0.0
  0
POINT
  5
2DA1
330
2CA8
100
AcDbEntity
  8
DEFPOINTS
 62
     0
100
AcDbPoint
 10
-0.0000000000000639
 20
0.0000000000000015
 30
0.0
  0
POINT
  5
2DA2
330
2CA8
100
AcDbEntity
  8
DEFPOINTS
 62
     0
100
AcDbPoint
 10
-0.4058444933443237
 20
1.115048581273418
 30
0.0
  0
POINT
  5
2DA3
330
2CA8
100
AcDbEntity
  8
DEFPOINTS
 62
     0
100
AcDbPoint
 10
-0.0000000000000639
 20
0.0000000000000015
 30
0.0
  0
POINT
  5
2DA4
330
2CA8
100
AcDbEntity
  8
DEFPOINTS
 62
     0
100
AcDbPoint
 10
-0.4058444933443095
 20
-1.115048581273416
 30
0.0
  0
ENDBLK
  5
2CB9
330
2CA8
100
AcDbEntity
  8
0
100
AcDbBlockEnd
  0
ENDSEC
  0
SECTION
  2
ENTITIES
  0
LINE
  5
C9F
330
1F
100
AcDbEntity
  8
AM_7
100
AcDbLine
 10
-131.4999745686908
 20
-0.0000000000000533
 30
0.0
 11
2.319887315415111
 21
0.0000000000000009
 31
0.0
1001
GENIUS_GENODEF_13
1002
{
1000
HIER
1070
     0
1002
}
1002
{
1000
MANEDIT
1070
     0
1002
}
1002
{
1000
NOSEL
1070
     0
1002
}
1002
{
1000
BEHIND
1070
     0
1002
}
1002
{
1000
REACTOR
1002
}
1001
GENIUS_GENOBJ-N-CEN_13
1002
{
1000
OWNER
1000
GEN
1002
}
  0
DIMENSION
  5
CC6
330
1F
100
AcDbEntity
  8
AM_5
100
AcDbDimension
  2
*D5
 10
-2.000000000000005
 20
-16.50003143075871
 30
0.0
 11
-65.5
 21
-14.80003143075871
 31
0.0
 70
    32
  1
<>
  3
AM_JIS$0
100
AcDbAlignedDimension
 13
-129.0
 23
-4.234865101779198
 33
0.0
 14
-2.000000000000004
 24
-4.149999852635778
 34
0.0
 50
0.0000000000001132
100
AcDbRotatedDimension
1001
GENIUS_GENDTOL_13
1000

1000
h7
1000

1040
0.0
1001
ACAD
1000
DSTYLE
1002
{
1070
   271
1070
     0
1002
}
  0
DIMENSION
  5
DF5
330
1F
100
AcDbEntity
  8
AM_5
100
AcDbDimension
  2
*D6
 10
-2.000000000000005
 20
-11.50003143075863
 30
0.0
 11
-37.99999999923736
 21
-9.800031430758631
 31
0.0
 70
    32
  1
<>
  3
AM_JIS$0
100
AcDbAlignedDimension
 13
-73.99999999847472
 23
-4.500000388439782
 33
0.0
 14
-2.000000000000004
 24
-4.149999852635778
 34
0.0
 50
0.0000000000001527
100
AcDbRotatedDimension
1001
GENIUS_GENDTOL_13
1000

1000
h7
1000

1040
0.0
1001
ACAD
1000
DSTYLE
1002
{
1070
   271
1070
     0
1002
}
  0
TEXT
  5
19BD
330
1F
100
AcDbEntity
  8
AM_6
100
AcDbText
 10
-76.33331425984994
 20
-27.75003143075874
 30
0.0
 40
2.5
  1
MDW083LHK
 50
0.0000000000001527
 72
     4
 11
-65.49998092651661
 21
-26.50003143075871
 31
0.0
100
AcDbText
  0
LINE
  5
1C24
330
1F
100
AcDbEntity
  8
AM_0
 48
0.5
100
AcDbLine
 10
-128.9999618530333
 20
4.234815687510544
 30
0.0
 11
-128.7053273518916
 21
4.499981016489545
 31
0.0
  0
LINE
  5
1C25
330
1F
100
AcDbEntity
  8
AM_0
 48
0.5
100
AcDbLine
 10
-128.9999618530333
 20
-4.234842213595711
 30
0.0
 11
-128.7053273518916
 21
-4.50000754257546
 31
0.0
  0
LINE
  5
1C26
330
1F
100
AcDbEntity
  8
AM_0
 48
0.5
100
AcDbLine
 10
-128.705378214525
 20
-4.500030430758968
 30
0.0
 11
-128.705378214525
 21
4.500029653880044
 31
0.0
  0
LINE
  5
1C27
330
1F
100
AcDbEntity
  8
AM_0
 48
0.5
100
AcDbLine
 10
-129.0
 20
-4.234865101779198
 30
0.0
 11
-129.0
 21
4.234864324900297
 31
0.0
  0
LINE
  5
1C28
330
1F
100
AcDbEntity
  8
AM_0
100
AcDbLine
 10
-80.26791127523409
 20
4.499999611560396
 30
0.0
 11
-128.705378214525
 21
4.500015348764787
 31
0.0
  0
LINE
  5
1C2B
330
1F
100
AcDbEntity
  8
AM_0
 48
0.5
100
AcDbLine
 10
-73.99999999847472
 20
-4.500000388439782
 30
0.0
 11
-128.705378214525
 21
-4.500018986667214
 31
0.0
  0
LINE
  5
1C2C
330
1F
100
AcDbEntity
  8
AM_0
 48
0.5
100
AcDbLine
 10
-73.99999999999998
 20
4.501278224012891
 30
0.0
 11
-128.705378214525
 21
4.500015348764787
 31
0.0
  0
LINE
  5
1C2D
330
1F
100
AcDbEntity
  8
AM_0
 48
0.5
100
AcDbLine
 10
-73.99999999999998
 20
4.501278224012891
 30
0.0
 11
-128.705378214525
 21
4.500015348764787
 31
0.0
  0
LINE
  5
1EDD
330
1F
100
AcDbEntity
  8
AM_0
100
AcDbLine
 10
-74.0
 20
-4.500000389320357
 30
0.0
 11
-74.0
 21
4.501278224012891
 31
0.0
  0
LINE
  5
1EDF
330
1F
100
AcDbEntity
  8
AM_0
100
AcDbLine
 10
-73.99999999999991
 20
-4.500000389320357
 30
0.0
 11
-73.3927601003877
 21
-4.149410269816574
 31
0.0
  0
DIMENSION
  5
1EEB
330
1F
100
AcDbEntity
  8
AM_5
100
AcDbDimension
  2
*D7
 10
-138.4999755686908
 20
4.499981016489549
 30
0.0
 11
-140.1999755686908
 21
-0.0000132630429761
 31
0.0
 70
    32
  1
%%c<>
 51
359.9999999999998
  3
AM_JIS$0
100
AcDbAlignedDimension
 13
-128.7053273518916
 23
-4.50000754257546
 33
0.0
 14
-128.7053273518916
 24
4.499981016489545
 34
0.0
 50
270.0000000000002
100
AcDbRotatedDimension
1001
ACAD
1000
DSTYLE
1002
{
1070
   271
1070
     0
1002
}
1001
GENIUS_GENDTOL_13
1000

1000
h7
1000

1040
0.0
  0
LINE
  5
1FEC
330
1F
100
AcDbEntity
  8
AM_0
100
AcDbLine
 10
-74.0
 20
4.501278224012891
 30
0.0
 11
-73.392880584293
 21
4.150757665924185
 31
0.0
  0
LINE
  5
2969
330
1F
100
AcDbEntity
  8
AM_0
100
AcDbLine
 10
-73.39275726623842
 20
-4.149408633519704
 30
0.0
 11
-73.392880584293
 21
4.150757665924186
 31
0.0
  0
ELLIPSE
  5
29BD
330
1F
100
AcDbEntity
  8
AM_11
 48
0.5
100
AcDbEllipse
 10
-80.73167806602924
 20
17.88873487558483
 30
0.0
 11
-24.41816012064583
 21
0.0000000000003539
 31
0.0
210
0.0
220
0.0
230
1.0
 40
0.809999999999998
 41
1.130070686340299
 42
2.011520147323587
  0
ELLIPSE
  5
29BE
330
1F
100
AcDbEntity
  8
AM_11
 48
0.5
100
AcDbEllipse
 10
-80.73167806602999
 20
-17.88869069967136
 30
0.0
 11
-24.41816012064589
 21
0.0000000000003702
 31
0.0
210
0.0
220
0.0
230
0.9999999999999998
 40
0.8099999999999958
 41
4.271664206181682
 42
5.15311366716499
  0
ELLIPSE
  5
29BF
330
1F
100
AcDbEntity
  8
AM_11
 48
0.5
100
AcDbEllipse
 10
-101.5643989838648
 20
17.88873487558477
 30
0.0
 11
-24.41816012064583
 21
0.0000000000003539
 31
0.0
210
0.0
220
0.0
230
1.0
 40
0.809999999999998
 41
1.130070686340299
 42
2.011520147323587
  0
ELLIPSE
  5
29C0
330
1F
100
AcDbEntity
  8
AM_11
 48
0.5
100
AcDbEllipse
 10
-101.5643989838655
 20
-17.88869069967141
 30
0.0
 11
-24.41816012064589
 21
0.0000000000003702
 31
0.0
210
0.0
220
0.0
230
0.9999999999999998
 40
0.8099999999999958
 41
4.271664206181682
 42
5.15311366716499
  0
ELLIPSE
  5
29C1
330
1F
100
AcDbEntity
  8
AM_11
 48
0.5
100
AcDbEllipse
 10
-122.3977316674052
 20
17.88852152858116
 30
0.0
 11
-24.41816012064583
 21
0.0000000000003539
 31
0.0
210
0.0
220
0.0
230
1.0
 40
0.809999999999998
 41
1.297004949327763
 42
2.011520147323587
  0
ELLIPSE
  5
29C2
330
1F
100
AcDbEntity
  8
AM_11
 48
0.5
100
AcDbEllipse
 10
-122.397731667406
 20
-17.88890404667502
 30
0.0
 11
-24.41816012064589
 21
0.0000000000003702
 31
0.0
210
0.0
220
0.0
230
0.9999999999999998
 40
0.8099999999999958
 41
4.271664206181682
 42
4.986180357851814
  0
DIMENSION
  5
2A8C
330
1F
100
AcDbEntity
  8
AM_5
100
AcDbDimension
  2
*D8
 10
9.319888315414953
 20
-4.149999852635778
 30
0.0
 11
7.619888315414955
 21
0.0000001473642214
 31
0.0
 70
    32
  1
%%c<>
 51
359.9999999999998
  3
AM_JIS$0
100
AcDbAlignedDimension
 13
-1.999999999999984
 23
4.15000014736422
 33
0.0
 14
-2.000000000000003
 24
-4.149999852635774
 34
0.0
 50
89.99999999999896
100
AcDbRotatedDimension
1001
ACAD
1000
DSTYLE
1002
{
1070
   271
1070
     1
1002
}
1001
GENIUS_GENDTOL_13
1000

1000
h7
1000

1040
0.0
  0
ELLIPSE
  5
2B83
330
1F
100
AcDbEntity
  8
AM_0
 48
0.5
100
AcDbEllipse
 10
7.55885405733725
 20
-7.03999238840452
 30
0.0
 11
-7.019308446023166
 21
-7.019308446027135
 31
0.0
210
0.0
220
0.0
230
-1.0
 40
0.9999999999999978
 41
1.171329590070667
 42
1.424984195904709
  0
ELLIPSE
  5
2B84
330
1F
100
AcDbEntity
  8
AM_0
 48
0.5
100
AcDbEllipse
 10
7.558854057335247
 20
7.039992388406203
 30
0.0
 11
-7.019308446025163
 21
7.019308446025134
 31
0.0
210
0.0
220
0.0
230
0.9999999999999998
 40
0.999999999999998
 41
1.171329590070667
 42
1.424984195904709
  0
LINE
  5
2B85
330
1F
100
AcDbEntity
  8
AM_0
 48
0.5
100
AcDbLine
 10
-1.637813295996544
 20
-3.303323857078343
 30
0.0
 11
-2.000000000000003
 21
-4.149999852635774
 31
0.0
  0
LINE
  5
2B87
330
1F
100
AcDbEntity
  8
AM_0
 48
0.5
100
AcDbLine
 10
-1.637813295997512
 20
3.303323857077387
 30
0.0
 11
-1.999999999999984
 21
4.15000014736422
 31
0.0
  0
LINE
  5
2B88
330
1F
100
AcDbEntity
  8
AM_0
100
AcDbLine
 10
-0.0000000000000639
 20
0.0000000000000015
 30
0.0
 11
-0.4058444933443095
 21
-1.115048581273416
 31
0.0
  0
LINE
  5
2B89
330
1F
100
AcDbEntity
  8
AM_0
100
AcDbLine
 10
-0.4058444933443237
 20
1.115048581273418
 30
0.0
 11
-0.0000000000000639
 21
0.0000000000000015
 31
0.0
  0
DIMENSION
  5
2CA7
330
1F
100
AcDbEntity
  8
AM_5
100
AcDbDimension
  2
*D9
 10
-0.4058444933443095
 20
-1.115048581273416
 30
0.0
 11
12.47123818864485
 21
0.0000000000000835
 31
0.0
 70
    34
  1
<>
 51
359.9999999999998
  3
AM_JIS$2
100
AcDb2LineAngularDimension
 13
-0.4058444933443237
 23
1.115048581273418
 33
0.0
 14
-0.0000000000000639
 24
0.0000000000000015
 34
0.0
 15
-0.0000000000000639
 25
0.0000000000000015
 35
0.0
 16
12.87452674321848
 26
-5.553528741337792
 36
0.0
1001
ACAD
1000
DSTYLE
1002
{
1070
   179
1070
     3
1002
}
1001
GENIUS_GENDTOL_13
1000

1000
h7
1000

1040
0.0
  0
LINE
  5
2F9C
330
1F
100
AcDbEntity
  8
AM_0
100
AcDbLine
 10
-70.00000000000003
 20
-4.149410269816611
 30
0.0
 11
-73.39276010038772
 21
-4.149410269816574
 31
0.0
  0
LINE
  5
2F9D
330
1F
100
AcDbEntity
  8
AM_0
100
AcDbLine
 10
-70.0781456336136
 20
4.150757665924138
 30
0.0
 11
-73.392880584293
 21
4.150757665924185
 31
0.0
  0
LINE
  5
2F9E
330
1F
100
AcDbEntity
  8
AM_0
 48
0.5
100
AcDbLine
 10
-4.6983006795307
 20
4.150000147364283
 30
0.0
 11
-1.999999999999984
 21
4.15000014736422
 31
0.0
  0
LINE
  5
2F9F
330
1F
100
AcDbEntity
  8
AM_0
 48
0.5
100
AcDbLine
 10
-4.698300679530905
 20
-4.149999852635719
 30
0.0
 11
-2.000000000000015
 21
-4.149999852635779
 31
0.0
  0
LINE
  5
2FA0
330
1F
100
AcDbEntity
  8
AM_0
 48
0.5
100
AcDbLine
 10
-0.0000000000000142
 20
-0.00000000000002
 30
0.0
 11
-1.766759044651617
 21
1.571342887305418
 31
0.0
  0
LINE
  5
2FA1
330
1F
100
AcDbEntity
  8
AM_0
 48
0.5
100
AcDbLine
 10
-34.69787979242297
 20
-4.149999852635116
 30
0.0
 11
-20.57240041097587
 21
-4.149999852635358
 31
0.0
  0
LINE
  5
2FA2
330
1F
100
AcDbEntity
  8
AM_11
 48
0.5
100
AcDbLine
 10
-48.51436565967846
 20
4.150589730179979
 30
0.0
 11
-38.38412379925365
 21
4.150000147365053
 31
0.0
  0
LINE
  5
2FA3
330
1F
100
AcDbEntity
  8
AM_0
 48
0.5
100
AcDbLine
 10
-60.57858911337731
 20
-4.149410269819833
 30
0.0
 11
-48.51436565967863
 21
-4.149410269820022
 31
0.0
  0
LINE
  5
2FA4
330
1F
100
AcDbEntity
  8
AM_11
 48
0.5
100
AcDbLine
 10
-48.51436565967856
 20
-4.149999852634794
 30
0.0
 11
-34.69787979242298
 21
-4.150589435449794
 31
0.0
  0
LINE
  5
2FA5
330
1F
100
AcDbEntity
  8
AM_0
 48
0.5
100
AcDbLine
 10
-38.38413747152238
 20
4.150000147365053
 30
0.0
 11
-15.51931663513625
 21
4.150000534193551
 31
0.0
  0
LINE
  5
2FA6
330
1F
100
AcDbEntity
  8
AM_11
 48
0.5
100
AcDbLine
 10
-15.51931663513625
 20
4.150000534193551
 30
0.0
 11
-4.6983006795307
 21
4.150000147364283
 31
0.0
  0
LINE
  5
2FA7
330
1F
100
AcDbEntity
  8
AM_11
 48
0.5
100
AcDbLine
 10
-20.57240041097587
 20
-4.149999852635358
 30
0.0
 11
-4.698300679530905
 21
-4.149999852635719
 31
0.0
  0
SPLINE
  5
2FA8
330
1F
100
AcDbEntity
  8
AM_0
 48
0.5
100
AcDbSpline
210
0.0
220
0.0
230
1.0
 70
     8
 71
     3
 72
    15
 73
    11
 74
     0
 42
0.0000000001
 43
0.0000000001
 40
0.0
 40
0.0
 40
0.0
 40
0.0
 40
1.010743614677189
 40
2.022833924044153
 40
3.037578959561199
 40
4.056212747067873
 40
5.079857613375832
 40
6.109500119648989
 40
7.14596120163808
 40
7.429850053969086
 40
7.429850053969086
 40
7.429850053969086
 40
7.429850053969086
 10
-4.6983006795307
 20
4.150000147364283
 30
0.0
 10
-4.979078404132255
 20
4.147532777293353
 30
0.0
 10
-5.541007955991344
 20
4.142594749676713
 30
0.0
 10
-6.383696720611514
 20
4.102749105794211
 30
0.0
 10
-7.226350792224389
 20
4.039428972302151
 30
0.0
 10
-8.068952457925242
 20
3.950673828755272
 30
0.0
 10
-8.911491682572359
 20
3.837687398625007
 30
0.0
 10
-9.753958175381976
 20
3.700993527437637
 30
0.0
 10
-10.39047538573883
 20
3.580456714157445
 30
0.0
 10
-10.74648339040856
 20
3.507217293693335
 30
0.0
 10
-10.82295261247021
 20
3.491219420520341
 30
0.0
  0
ELLIPSE
  5
2FA9
330
1F
100
AcDbEntity
  8
AM_0
 48
0.5
100
AcDbEllipse
 10
4.221711747704361
 20
-2.016746975988825
 30
0.0
 11
6.667725511198347
 21
0.6778451288432343
 31
0.0
210
0.0
220
0.0
230
1.0
 40
0.7573217317832251
 41
3.014550168458939
 42
3.440170013540678
  0
ELLIPSE
  5
2FAA
330
1F
100
AcDbEntity
  8
AM_0
 48
0.5
100
AcDbEllipse
 10
-6.756586538278186
 20
7.893757285514789
 30
0.0
 11
-5.48019570227393
 21
9.134185367292062
 31
0.0
210
0.0
220
0.0
230
1.0
 40
0.5941227486500217
 41
3.134956363856435
 42
3.418918901796121
  0
ELLIPSE
  5
2FAB
330
1F
100
AcDbEntity
  8
AM_0
 48
0.5
100
AcDbEllipse
 10
-6.519358108524786
 20
6.96520502739777
 30
0.0
 11
8.153646214578218
 21
8.22248890425757
 31
0.0
210
0.0
220
0.0
230
1.0
 40
0.8373339826420799
 41
4.40163822384002
 42
4.461568743037914
  0
ELLIPSE
  5
2FAC
330
1F
100
AcDbEntity
  8
AM_0
 48
0.5
100
AcDbEllipse
 10
-1.593501803090355
 20
-1.475192118742801
 30
0.0
 11
-0.5449602200048007
 21
0.3600013497818785
 31
0.0
210
0.0
220
0.0
230
1.0
 40
0.5180437306204766
 41
4.532529766732401
 42
7.675970108061912
  0
ELLIPSE
  5
2FAD
330
1F
100
AcDbEntity
  8
AM_0
 48
0.5
100
AcDbEllipse
 10
-1.593501803090355
 20
-1.475192118742801
 30
0.0
 11
-0.1059013103772692
 21
0.6820326222048414
 31
0.0
210
0.0
220
0.0
230
1.0
 40
0.4638818428636497
 41
1.821892476405649
 42
4.957234366117624
  0
ELLIPSE
  5
2FAE
330
1F
100
AcDbEntity
  8
AM_0
 48
0.5
100
AcDbEllipse
 10
3.619291857739106
 20
4.093410493762604
 30
0.0
 11
-0.0000000000003047
 21
8.999788472705821
 31
0.0
210
0.0
220
0.0
230
1.0
 40
0.9238554216867429
 41
1.951257656000306
 42
2.322034022628292
  0
SPLINE
  5
2FAF
330
1F
100
AcDbEntity
  8
AM_0
 48
0.5
100
AcDbSpline
210
0.0
220
0.0
230
1.0
 70
     8
 71
     3
 72
    25
 73
    21
 74
     0
 42
0.0000000001
 43
0.0000000001
 40
6.846175049578289
 40
6.846175049578289
 40
6.846175049578289
 40
6.846175049578289
 40
7.604337694224321
 40
8.711974558287883
 40
9.814980593243754
 40
10.91239053451967
 40
12.0033633515982
 40
13.08720139956839
 40
14.16337181880432
 40
15.23152222380919
 40
16.29148850140128
 40
17.34331105512262
 40
18.38723020264746
 40
19.42369128463655
 40
20.45333379090873
 40
21.47697865721768
 40
22.49561244472435
 40
23.5103574802404
 40
24.52244778960836
 40
25.53320666051913
 40
25.53320666051913
 40
25.53320666051913
 40
25.53320666051913
 10
-4.100658820522159
 20
0.7511777036242573
 30
0.0
 10
-4.24744749973761
 20
0.824044322876438
 30
0.0
 10
-4.608995858473555
 20
1.002636189904016
 30
0.0
 10
-5.185841196039271
 20
1.283089711127959
 30
0.0
 10
-5.831308262767974
 20
1.589002287702083
 30
0.0
 10
-6.476807790454657
 20
1.885141041613228
 30
0.0
 10
-7.122345325143294
 20
2.16968514526443
 30
0.0
 10
-7.767928059715062
 20
2.440879104317213
 30
0.0
 10
-8.413561963782456
 20
2.697050492714771
 30
0.0
 10
-9.059250026290403
 20
2.936624951855991
 30
0.0
 10
-9.705000200459419
 20
3.158111533370297
 30
0.0
 10
-10.35081161186667
 20
3.360152073218298
 30
0.0
 10
-10.99668889924003
 20
3.541485840546726
 30
0.0
 10
-11.64262978324883
 20
3.700990588941681
 30
0.0
 10
-12.28863174052153
 20
3.837688668415809
 30
0.0
 10
-12.93469117636087
 20
3.95067398069268
 30
0.0
 10
-13.58079803834144
 20
4.039429422204038
 30
0.0
 10
-14.22694520570988
 20
4.102749473847543
 30
0.0
 10
-14.87312218955062
 20
4.142595348906898
 30
0.0
 10
-15.30401302399479
 20
4.147533222466756
 30
0.0
 10
-15.51931663513625
 20
4.150000534193551
 30
0.0
  0
SPLINE
  5
2FB0
330
1F
100
AcDbEntity
  8
AM_0
 48
0.5
100
AcDbSpline
210
0.0
220
0.0
230
1.0
 70
     8
 71
     3
 72
    10
 73
     6
 74
     0
 42
0.0000000001
 43
0.0000000001
 40
0.0
 40
0.0
 40
0.0
 40
0.0
 40
2.69986029516136
 40
4.147722969032201
 40
6.285750005020438
 40
6.285750005020438
 40
6.285750005020438
 40
6.285750005020438
 10
-4.100555511479377
 20
0.7511284130180707
 30
0.0
 10
-3.640660224011018
 20
0.365564735225556
 30
0.0
 10
-2.934135426931415
 20
-0.2267664032672863
 30
0.0
 10
-1.26329919102234
 20
0.0599914776431873
 30
0.0
 10
-1.577966253512263
 20
1.025829964265144
 30
0.0
 10
-1.785878143503102
 20
1.614538268885968
 30
0.0
  0
ELLIPSE
  5
2FB1
330
1F
100
AcDbEntity
  8
AM_11
 48
0.5
100
AcDbEllipse
 10
2.601084391270626
 20
18.33041577101551
 30
0.0
 11
-24.41816012064595
 21
0.0000000000007389
 31
0.0
210
0.0
220
0.0
230
1.0
 40
0.8299999999999943
 41
1.130070686340311
 42
1.291800737381002
  0
ELLIPSE
  5
2FB2
330
1F
100
AcDbEntity
  8
AM_11
 48
0.5
100
AcDbEllipse
 10
-18.23224894206363
 20
-18.3304030283206
 30
0.0
 11
-24.41816012064577
 21
0.0000000000004732
 31
0.0
210
0.0
220
0.0
230
1.0
 40
0.8299999999999988
 41
4.271664206181681
 42
5.153113667164989
  0
ELLIPSE
  5
2FB3
330
1F
100
AcDbEntity
  8
AM_11
 48
0.5
100
AcDbEllipse
 10
-18.23224894206273
 20
18.33041577101599
 30
0.0
 11
-24.41816012064585
 21
0.0000000000005925
 31
0.0
210
0.0
220
0.0
230
1.0
 40
0.8299999999999972
 41
1.130070686340306
 42
2.011520147323593
  0
ELLIPSE
  5
2FB4
330
1F
100
AcDbEntity
  8
AM_11
 48
0.5
100
AcDbEllipse
 10
-39.06558227539607
 20
18.33041577101649
 30
0.0
 11
-24.4181601206458
 21
0.0000000000003865
 31
0.0
210
0.0
220
0.0
230
1.0
 40
0.8299999999999986
 41
1.130070686340297
 42
2.011520147323587
  0
ELLIPSE
  5
2FB5
330
1F
100
AcDbEntity
  8
AM_11
 48
0.5
100
AcDbEllipse
 10
-39.06558227539695
 20
-18.33040302832011
 30
0.0
 11
-24.41816012064579
 21
0.0000000000005654
 31
0.0
210
0.0
220
0.0
230
1.0
 40
0.8299999999999997
 41
4.271664206181685
 42
5.153113667164991
  0
SPLINE
  5
2FB6
330
1F
100
AcDbEntity
  8
AM_0
100
AcDbSpline
210
0.0
220
0.0
230
1.0
 70
     8
 71
     3
 72
    17
 73
    13
 74
     0
 42
0.0000000001
 43
0.0000000001
 40
1.580019955310467
 40
1.580019955310467
 40
1.580019955310467
 40
1.580019955310467
 40
2.030549285115227
 40
3.082371838836284
 40
4.126290986361125
 40
5.162752068350215
 40
6.192395305374981
 40
7.216039564037012
 40
8.234688489606833
 40
9.249433870634691
 40
10.26152376260694
 40
11.27226744710342
 40
11.27226744710342
 40
11.27226744710342
 40
11.27226744710352
 10
-12.63473130137891
 20
-3.062822055985533
 30
0.0
 10
-12.75395779626142
 20
-3.094366580277559
 30
0.0
 10
-13.15221434476399
 20
-3.19775797201817
 30
0.0
 10
-13.8321370365488
 20
-3.359931069371508
 30
0.0
 10
-14.67432187433759
 20
-3.541543424674265
 30
0.0
 10
-15.51673856482372
 20
-3.700974959658871
 30
0.0
 10
-16.35919385454854
 20
-3.837690267398106
 30
0.0
 10
-17.2017409282673
 20
-3.950694874141105
 30
0.0
 10
-18.04434621114568
 20
-4.039343912425323
 30
0.0
 10
-18.88700396137396
 20
-4.103062906820345
 30
0.0
 10
-19.72969341804738
 20
-4.141441690759453
 30
0.0
 10
-20.29162274117673
 20
-4.149999876381879
 30
0.0
 10
-20.5724004109758
 20
-4.149999852635358
 30
0.0
  0
SPLINE
  5
2FB7
330
1F
100
AcDbEntity
  8
AM_0
100
AcDbSpline
210
0.0
220
0.0
230
1.0
 70
     8
 71
     3
 72
    22
 73
    18
 74
     0
 42
0.0000000001
 43
0.0000000001
 40
17.17441611292
 40
17.17441611292
 40
17.17441611292
 40
17.17441611292
 40
17.38177636558528
 40
18.41823744757437
 40
19.46215659509824
 40
20.51397914882054
 40
21.57394542641293
 40
22.64209583141747
 40
23.71826625065247
 40
24.80210429862395
 40
25.8930771157021
 40
26.99048705697709
 40
28.09349309193389
 40
29.20112995599786
 40
30.31233024745139
 40
31.42594771747373
 40
32.5407895042663
 40
32.54078950426994
 40
32.54078950426994
 40
32.54078950426994
 10
-23.78875945553776
 20
-3.726729888878874
 30
0.0
 10
-23.84518714288992
 20
-3.717123045918219
 30
0.0
 10
-24.1834403116112
 20
-3.658606715391042
 30
0.0
 10
-24.8031010562184
 20
-3.541273856614068
 30
0.0
 10
-25.64540314053015
 20
-3.359940372021858
 30
0.0
 10
-26.4876193960276
 20
-3.15789975555356
 30
0.0
 10
-27.3297557687103
 20
-2.936413194833763
 30
0.0
 10
-28.17181114617466
 20
-2.696838729951677
 30
0.0
 10
-29.01379589314593
 20
-2.440667343508331
 30
0.0
 10
-29.85571390825021
 20
-2.169473382421474
 30
0.0
 10
-30.69757298123116
 20
-1.884929284989423
 30
0.0
 10
-31.53938247302791
 20
-1.588790508060099
 30
0.0
 10
-32.3811496900389
 20
-1.282878017928297
 30
0.0
 10
-33.2228831060122
 20
-0.9690738399263032
 30
0.0
 10
-34.06459018218188
 20
-0.6493075145429312
 30
0.0
 10
-34.90628338770626
 20
-0.325552172842051
 30
0.0
 10
-35.4673020485248
 20
-0.1084163327026061
 30
0.0
 10
-35.74796549479929
 20
0.0002112272808876
 30
0.0
  0
SPLINE
  5
2FB8
330
1F
100
AcDbEntity
  8
AM_0
100
AcDbSpline
210
0.0
220
0.0
230
1.0
 70
     8
 71
     3
 72
    11
 73
     7
 74
     0
 42
0.0000000001
 43
0.0000000001
 40
11.27226913003534
 40
11.27226913003534
 40
11.27226913003534
 40
11.2722691300354
 40
12.28301561507924
 40
13.29510212255852
 40
14.30984805882082
 40
15.18258238371378
 40
15.18258238371378
 40
15.18258238371378
 40
15.18258238371378
 10
-20.57240041097585
 20
-4.149999852635358
 30
0.0
 10
-20.85211042584444
 20
-4.129688546653225
 30
0.0
 10
-21.41100286930484
 20
-4.080515758854619
 30
0.0
 10
-22.24645551810997
 20
-3.98132208300461
 30
0.0
 10
-23.03931481315019
 20
-3.862846113364158
 30
0.0
 10
-23.55208966527528
 20
-3.771770109430495
 30
0.0
 10
-23.78839091838508
 20
-3.726781079097141
 30
0.0
  0
SPLINE
  5
2FB9
330
1F
100
AcDbEntity
  8
AM_0
100
AcDbSpline
210
0.0
220
0.0
230
1.0
 70
     8
 71
     3
 72
    55
 73
    51
 74
     0
 42
0.0000000001
 43
0.0000000001
 40
0.0
 40
0.0
 40
0.0
 40
0.0
 40
1.010743684496582
 40
2.022833576467832
 40
3.037578957496688
 40
4.056212745003489
 40
5.079857003664532
 40
6.109500240690281
 40
7.145961322679372
 40
8.189895241603872
 40
9.241717795325891
 40
10.30168407291828
 40
11.36983447792315
 40
12.44600489715814
 40
13.52984294512926
 40
14.62081576220742
 40
15.7182257034828
 40
16.82123173843959
 40
17.92886860250316
 40
19.0400688939571
 40
20.15368796660465
 40
21.26852814259644
 40
22.38336992938901
 40
23.49698739941135
 40
24.6081876908653
 40
25.71582455492886
 40
26.81883757994213
 40
27.91624752121713
 40
29.00722033829659
 40
30.09105838626677
 40
31.16722880550176
 40
32.23537921050758
 40
33.29534548809967
 40
34.347168041821
 40
35.39108718934584
 40
36.42754827133493
 40
37.45720575381954
 40
38.48085062012849
 40
39.49948440763516
 40
40.51422944315121
 40
41.52631975251916
 40
42.53706336719636
 40
43.54780698187354
 40
44.55989729124051
 40
45.57464232675757
 40
46.59327611426424
 40
47.6169209805722
 40
48.64656348684535
 40
49.68302456883444
 40
50.58557219878025
 40
50.58557219878025
 40
50.58557219878025
 40
50.58557219878025
 10
-4.698300679530905
 20
-4.149999852635719
 30
0.0
 10
-4.979078353034277
 20
-4.147530703175604
 30
0.0
 10
-5.541007667258031
 20
-4.142589115600212
 30
0.0
 10
-6.383697141805365
 20
-4.102754372114227
 30
0.0
 10
-7.226350645116355
 20
-4.039427535967472
 30
0.0
 10
-8.068951996448415
 20
-3.950672566606873
 30
0.0
 10
-8.911492787966459
 20
-3.837692264033527
 30
0.0
 10
-9.753956398224454
 20
-3.700989033648333
 30
0.0
 10
-10.59634564522583
 20
-3.54148375713633
 30
0.0
 10
-11.43865305868041
 20
-3.360153168493456
 30
0.0
 10
-12.28087290093958
 20
-3.158110626533748
 30
0.0
 10
-13.12300937000364
 20
-2.936624331407685
 30
0.0
 10
-13.96506472128203
 20
-2.697049794425539
 30
0.0
 10
-14.80704947558186
 20
-2.440878427936101
 30
0.0
 10
-15.64896748782296
 20
-2.169684459872792
 30
0.0
 10
-16.49082656489039
 20
-1.885140370258259
 30
0.0
 10
-17.33263604311523
 20
-1.589001568892721
 30
0.0
 10
-18.17440331066693
 20
-1.283089169291016
 30
0.0
 10
-19.01613653699271
 20
-0.9692846517135521
 30
0.0
 10
-19.85784472899573
 20
-0.6495194456841821
 30
0.0
 10
-20.69953526925819
 20
-0.3257593362775881
 30
0.0
 10
-21.54122004375418
 20
-0.0000006993860835
 30
0.0
 10
-22.3829010397898
 20
0.3257638013639003
 30
0.0
 10
-23.22459440121547
 20
0.6495188689692261
 30
0.0
 10
-24.06630155411846
 20
0.9692850429096711
 30
0.0
 10
-24.90803628124526
 20
1.283090755942476
 30
0.0
 10
-25.74980704085137
 20
1.589000544834045
 30
0.0
 10
-26.59161784767398
 20
1.885140848035348
 30
0.0
 10
-27.43347704627787
 20
2.16968470691396
 30
0.0
 10
-28.27539502788427
 20
2.440878732008342
 30
0.0
 10
-29.11737978434006
 20
2.697050098872508
 30
0.0
 10
-29.95943515706626
 20
2.936624578568768
 30
0.0
 10
-30.80157153921266
 20
3.158111099852716
 30
0.0
 10
-31.64378776192033
 20
3.360151857779369
 30
0.0
 10
-32.48608996667644
 20
3.541484821400544
 30
0.0
 10
-33.32847890119512
 20
3.700993305362994
 30
0.0
 10
-34.17094852692567
 20
3.837680922341636
 30
0.0
 10
-35.0134921019604
 20
3.950696194706994
 30
0.0
 10
-35.8560937030772
 20
4.039345956507252
 30
0.0
 10
-36.69874779188945
 20
4.103057353461023
 30
0.0
 10
-37.54143655193653
 20
4.141448179727652
 30
0.0
 10
-38.38414382955807
 20
4.154273284467324
 30
0.0
 10
-39.22685110593968
 20
4.141448179707579
 30
0.0
 10
-40.06953986971375
 20
4.103057353541763
 30
0.0
 10
-40.91219394480426
 20
4.039345956203336
 30
0.0
 10
-41.75479559736722
 20
3.950696195849532
 30
0.0
 10
-42.59733487143581
 20
3.837681469013679
 30
0.0
 10
-43.43980117815667
 20
3.700994702920195
 30
0.0
 10
-44.2438885159519
 20
3.548725496718284
 30
0.0
 10
-44.76558953792034
 20
3.437369586719458
 30
0.0
 10
-45.00762840517894
 20
3.383100419508605
 30
0.0
  0
SPLINE
  5
2FBA
330
1F
100
AcDbEntity
  8
AM_0
100
AcDbSpline
210
0.0
220
0.0
230
1.0
 70
     8
 71
     3
 72
    46
 73
    42
 74
     0
 42
0.0000000001
 43
0.0000000001
 40
0.0
 40
0.0
 40
0.0
 40
0.0
 40
1.685415058684571
 40
2.531036209541119
 40
3.379897699130121
 40
4.232934581347656
 40
5.090970612202441
 40
5.954688180526683
 40
6.824620803463245
 40
7.70115181523969
 40
8.584457046566678
 40
9.474582384070743
 40
10.37139106676737
 40
11.27458944007584
 40
12.18373345430765
 40
13.09824173870457
 40
14.01741343450111
 40
14.9404441545541
 40
15.86644439743314
 40
16.79446029130534
 40
17.7234937712985
 40
18.65252725129241
 40
19.58054314516461
 40
20.5065433880429
 40
21.42957410809586
 40
22.34874580389318
 40
23.26325408828901
 40
24.17239810252112
 40
25.07560240389442
 40
25.97241108659103
 40
26.8625364240951
 40
27.74584165542183
 40
28.62236045019041
 40
29.49229307312697
 40
30.35601064145122
 40
31.21404606334469
 40
32.06708345193548
 40
32.9159575565769
 40
33.76157841950694
 40
34.6049870106469
 40
35.44727335621125
 40
35.44727335621125
 40
35.44727335621125
 40
35.44727335621125
 10
-2.3393427530984
 20
-4.14999985263577
 30
0.0
 10
-2.901299522292921
 20
-4.140545831836965
 30
0.0
 10
-3.74520614558972
 20
-4.12634845722337
 30
0.0
 10
-4.86738558386747
 20
-4.038937829924041
 30
0.0
 10
-5.709995988076815
 20
-3.95080466534871
 30
0.0
 10
-6.552534369155299
 20
-3.837656652851844
 30
0.0
 10
-7.394998507568349
 20
-3.700998362538831
 30
0.0
 10
-8.237384075412458
 20
-3.541483137459395
 30
0.0
 10
-9.079689661818377
 20
-3.360150118045257
 30
0.0
 10
-9.921911518228723
 20
-3.15811271587867
 30
0.0
 10
-10.764051328043
 20
-2.936624041852118
 30
0.0
 10
-11.60610682616119
 20
-2.697049872900804
 30
0.0
 10
-12.44809154065539
 20
-2.440878406656663
 30
0.0
 10
-13.2900095637396
 20
-2.169684465721209
 30
0.0
 10
-14.13186863763529
 20
-1.885140368342
 30
0.0
 10
-14.97367811761161
 20
-1.589001570670315
 30
0.0
 10
-15.8154453813295
 20
-1.28308916407639
 30
0.0
 10
-16.65717862130829
 20
-0.9692846708931728
 30
0.0
 10
-17.49888676231978
 20
-0.6495193738994943
 30
0.0
 10
-18.34057749342294
 20
-0.3257596048965668
 30
0.0
 10
-19.18226114912519
 20
0.0000001472987007
 30
0.0
 10
-20.02394480464251
 20
0.3257598998898315
 30
0.0
 10
-20.86563553630031
 20
0.6495196677057474
 30
0.0
 10
-21.70734367528455
 20
0.9692849690374284
 30
0.0
 10
-22.54907692278049
 20
1.283089446132572
 30
0.0
 10
-23.39084415862544
 20
1.589001912379449
 30
0.0
 10
-24.23265374182475
 20
1.885140489135267
 30
0.0
 10
-25.07451426406595
 20
2.169686022271037
 30
0.0
 10
-25.91643555843745
 20
2.440877499272064
 30
0.0
 10
-26.75842177490332
 20
2.697050279075758
 30
0.0
 10
-27.60047725341605
 20
2.936624519313136
 30
0.0
 10
-28.44261360381568
 20
3.158111158048052
 30
0.0
 10
-29.28482984867498
 20
3.360151685562107
 30
0.0
 10
-30.127131996846
 20
3.541485445741474
 30
0.0
 10
-30.96951707716158
 20
3.700990234497444
 30
0.0
 10
-31.81198183321778
 20
3.837688161099817
 30
0.0
 10
-32.65452559144124
 20
3.950674596783972
 30
0.0
 10
-33.49713165389279
 20
4.03942820241945
 30
0.0
 10
-34.33978984797137
 20
4.102749226619858
 30
0.0
 10
-35.18247862991559
 20
4.142594719550928
 30
0.0
 10
-35.74440817946946
 20
4.147532767256372
 30
0.0
 10
-36.02518590291906
 20
4.150000147365001
 30
0.0
  0
SPLINE
  5
2FBB
330
1F
100
AcDbEntity
  8
AM_0
100
AcDbSpline
210
0.0
220
0.0
230
1.0
 70
     8
 71
     3
 72
    23
 73
    19
 74
     0
 42
0.0000000001
 43
0.0000000001
 40
16.03460024169435
 40
16.03460024169435
 40
16.03460024169435
 40
16.03460024169435
 40
16.35212704903564
 40
17.38177054169784
 40
18.41822485651776
 40
19.46214173629503
 40
20.51396345435107
 40
21.57393551351153
 40
22.64208202342361
 40
23.7182574881101
 40
24.80209208578934
 40
25.89306333925047
 40
26.99048218457928
 40
28.09348763352352
 40
29.20111863782268
 40
30.31232390128032
 40
31.42594612798585
 40
32.5407912310448
 40
32.5407912310486
 40
32.5407912310486
 40
32.5407912310486
 10
-48.51436565967846
 20
4.150589730179979
 30
0.0
 10
-48.42778967241502
 20
4.136580060993375
 30
0.0
 10
-48.06084259553408
 20
4.075571894793466
 30
0.0
 10
-47.4144613678591
 20
3.956035704144708
 30
0.0
 10
-46.57739598589252
 20
3.778286695885049
 30
0.0
 10
-45.74110810962558
 20
3.578704187369563
 30
0.0
 10
-44.90554832214074
 20
3.358443260359844
 30
0.0
 10
-44.07068696794043
 20
3.118731874454962
 30
0.0
 10
-43.23647579403924
 20
2.860940321026196
 30
0.0
 10
-42.40285670914168
 20
2.586568882251151
 30
0.0
 10
-41.56978234401735
 20
2.297171307590747
 30
0.0
 10
-40.73718590807358
 20
1.994431534100781
 30
0.0
 10
-39.90499992867992
 20
1.680109216142999
 30
0.0
 10
-39.07316895965799
 20
1.356011575273296
 30
0.0
 10
-38.2416234027209
 20
1.024023194889965
 30
0.0
 10
-37.41028623913918
 20
0.686082643568812
 30
0.0
 10
-36.5790897746002
 20
0.3441481952936705
 30
0.0
 10
-36.02510763762784
 20
0.1148998445075788
 30
0.0
 10
-35.74796549479556
 20
0.0002112272793966
 30
0.0
  0
SPLINE
  5
2FBC
330
1F
100
AcDbEntity
  8
AM_0
100
AcDbSpline
210
0.0
220
0.0
230
1.0
 70
     8
 71
     3
 72
    11
 73
     7
 74
     0
 42
0.0000000001
 43
0.0000000001
 40
11.27226913003534
 40
11.27226913003534
 40
11.27226913003534
 40
11.2722691300354
 40
12.28301561507924
 40
13.29510212255852
 40
14.30984805882082
 40
15.18258238371378
 40
15.18258238371378
 40
15.18258238371378
 40
15.18258238371378
 10
-48.5143656596786
 20
-4.149410269820023
 30
0.0
 10
-48.7940756745472
 20
-4.129098963837896
 30
0.0
 10
-49.3529681180076
 20
-4.079926176039292
 30
0.0
 10
-50.18842076681274
 20
-3.980732500189285
 30
0.0
 10
-50.98128006185295
 20
-3.862256530548831
 30
0.0
 10
-51.49405491397804
 20
-3.771180526615168
 30
0.0
 10
-51.73035616708784
 20
-3.726191496281813
 30
0.0
  0
SPLINE
  5
2FBD
330
1F
100
AcDbEntity
  8
AM_0
100
AcDbSpline
210
0.0
220
0.0
230
1.0
 70
     8
 71
     3
 72
    17
 73
    13
 74
     0
 42
0.0000000001
 43
0.0000000001
 40
1.580019955310467
 40
1.580019955310467
 40
1.580019955310467
 40
1.580019955310467
 40
2.030549285115227
 40
3.082371838836284
 40
4.126290986361125
 40
5.162752068350215
 40
6.192395305374981
 40
7.216039564037012
 40
8.234688489606833
 40
9.249433870634691
 40
10.26152376260694
 40
11.27226744710342
 40
11.27226744710342
 40
11.27226744710342
 40
11.27226744710352
 10
-40.57669655008168
 20
-3.062232473170201
 30
0.0
 10
-40.69592304496419
 20
-3.093776997462232
 30
0.0
 10
-41.09417959346676
 20
-3.197168389202843
 30
0.0
 10
-41.77410228525156
 20
-3.359341486556181
 30
0.0
 10
-42.61628712304035
 20
-3.540953841858934
 30
0.0
 10
-43.45870381352648
 20
-3.700385376843541
 30
0.0
 10
-44.30115910325129
 20
-3.83710068458278
 30
0.0
 10
-45.14370617697005
 20
-3.950105291325779
 30
0.0
 10
-45.98631145984843
 20
-4.038754329609997
 30
0.0
 10
-46.82896921007672
 20
-4.102473324005019
 30
0.0
 10
-47.67165866675014
 20
-4.14085210794412
 30
0.0
 10
-48.23358798987948
 20
-4.149410293566552
 30
0.0
 10
-48.51436565967856
 20
-4.149410269820023
 30
0.0
  0
LINE
  5
2FBE
330
1F
100
AcDbEntity
  8
AM_11
 48
0.5
100
AcDbLine
 10
-70.0781456336136
 20
4.150757665924138
 30
0.0
 11
-66.24120923107515
 21
4.150459524614354
 31
0.0
  0
POLYLINE
  5
2FBF
330
1F
100
AcDbEntity
  8
AM_0
100
AcDb2dPolyline
 66
     1
 10
0.0
 20
0.0
 30
0.0
 70
     2
  0
VERTEX
  5
2FC0
330
2FBF
100
AcDbEntity
  8
AM_0
100
AcDbVertex
100
AcDb2dVertex
 10
-69.19996185303329
 20
-2.878687200866147
 30
0.0
 42
0.0351157762658453
  0
VERTEX
  5
2FC1
330
2FBF
100
AcDbEntity
  8
AM_0
100
AcDbVertex
100
AcDb2dVertex
 10
-69.36661158095422
 20
-2.845830013058619
 30
0.0
 42
0.044786481860755
 70
     1
  0
VERTEX
  5
2FC2
330
2FBF
100
AcDbEntity
  8
AM_0
100
AcDbVertex
100
AcDb2dVertex
 10
-69.49996185303328
 20
-2.840447170497715
 30
0.0
 42
0.0378244354854128
  0
VERTEX
  5
2FC3
330
2FBF
100
AcDbEntity
  8
AM_0
100
AcDbVertex
100
AcDb2dVertex
 10
-69.7744770875369
 20
-2.873287480216349
 30
0.0
 42
0.0785304530199817
 70
     1
  0
VERTEX
  5
2FC4
330
2FBF
100
AcDbEntity
  8
AM_0
100
AcDbVertex
100
AcDb2dVertex
 10
-69.89996185303329
 20
-2.918275916209162
 30
0.0
 42
0.0914341172496281
  0
VERTEX
  5
2FC5
330
2FBF
100
AcDbEntity
  8
AM_0
100
AcDbVertex
100
AcDb2dVertex
 10
-69.98058015419961
 20
-2.98311946032954
 30
0.0
 42
0.1734786634335468
 70
     1
  0
VERTEX
  5
2FC6
330
2FBF
100
AcDbEntity
  8
AM_0
100
AcDbVertex
100
AcDb2dVertex
 10
-69.99996185303328
 20
-3.034344692289042
 30
0.0
 42
0.1707159826348874
  0
VERTEX
  5
2FC7
330
2FBF
100
AcDbEntity
  8
AM_0
100
AcDbVertex
100
AcDb2dVertex
 10
-69.98134133135517
 20
-3.086539840200173
 30
0.0
 42
0.0878858945849485
 70
     1
  0
VERTEX
  5
2FC8
330
2FBF
100
AcDbEntity
  8
AM_0
100
AcDbVertex
100
AcDb2dVertex
 10
-69.89996185303329
 20
-3.15622308767081
 30
0.0
 42
0.0737173247185441
  0
VERTEX
  5
2FC9
330
2FBF
100
AcDbEntity
  8
AM_0
100
AcDbVertex
100
AcDb2dVertex
 10
-69.77167479637069
 20
-3.209040862021311
 30
0.0
 42
0.037064748993984
 70
     1
  0
VERTEX
  5
2FCA
330
2FBF
100
AcDbEntity
  8
AM_0
100
AcDbVertex
100
AcDb2dVertex
 10
-69.49996185303328
 20
-3.257290310589804
 30
0.0
 42
0.0449345368811406
  0
VERTEX
  5
2FCB
330
2FBF
100
AcDbEntity
  8
AM_0
100
AcDbVertex
100
AcDb2dVertex
 10
-69.36895573240554
 20
-3.259573251705726
 30
0.0
 42
0.0344667769950814
 70
     1
  0
VERTEX
  5
2FCC
330
2FBF
100
AcDbEntity
  8
AM_0
100
AcDbVertex
100
AcDb2dVertex
 10
-69.19996185303329
 20
-3.236479138127029
 30
0.0
  0
SEQEND
  5
2FCD
330
2FBF
100
AcDbEntity
  8
AM_0
  0
POLYLINE
  5
2FCE
330
1F
100
AcDbEntity
  8
AM_0
100
AcDb2dPolyline
 66
     1
 10
0.0
 20
0.0
 30
0.0
 70
     2
  0
VERTEX
  5
2FCF
330
2FCE
100
AcDbEntity
  8
AM_0
100
AcDbVertex
100
AcDb2dVertex
 10
-68.49996185303318
 20
4.065593952083534
 30
0.0
 42
0.0276737331564208
  0
VERTEX
  5
2FD0
330
2FCE
100
AcDbEntity
  8
AM_0
100
AcDbVertex
100
AcDb2dVertex
 10
-68.84235679135612
 20
3.994431748589372
 30
0.0
 42
0.0414024687830266
 70
     1
  0
VERTEX
  5
2FD1
330
2FCE
100
AcDbEntity
  8
AM_0
100
AcDbVertex
100
AcDb2dVertex
 10
-69.06246185303318
 20
3.916841573455672
 30
0.0
 42
0.0280074108471844
  0
VERTEX
  5
2FD2
330
2FCE
100
AcDbEntity
  8
AM_0
100
AcDbVertex
100
AcDb2dVertex
 10
-69.56430950741455
 20
3.659147318415311
 30
0.0
 42
0.0512701366748525
 70
     1
  0
VERTEX
  5
2FD3
330
2FCE
100
AcDbEntity
  8
AM_0
100
AcDbVertex
100
AcDb2dVertex
 10
-69.81246185303326
 20
3.478058682959931
 30
0.0
 42
0.0658714570033076
  0
VERTEX
  5
2FD4
330
2FCE
100
AcDbEntity
  8
AM_0
100
AcDbVertex
100
AcDb2dVertex
 10
-69.96820509726228
 20
3.295709752432472
 30
0.0
 42
0.1411961588081283
 70
     1
  0
VERTEX
  5
2FD5
330
2FCE
100
AcDbEntity
  8
AM_0
100
AcDbVertex
100
AcDb2dVertex
 10
-69.99996185303328
 20
3.188028171092049
 30
0.0
 42
0.1226739033459629
  0
VERTEX
  5
2FD6
330
2FCE
100
AcDbEntity
  8
AM_0
100
AcDbVertex
100
AcDb2dVertex
 10
-69.96898108799836
 20
3.069633412095405
 30
0.0
 42
0.0555312784770531
 70
     1
  0
VERTEX
  5
2FD7
330
2FCE
100
AcDbEntity
  8
AM_0
100
AcDbVertex
100
AcDb2dVertex
 10
-69.81246185303328
 20
2.8499871395242
 30
0.0
 42
0.0351528005485752
  0
VERTEX
  5
2FD8
330
2FCE
100
AcDbEntity
  8
AM_0
100
AcDbVertex
100
AcDb2dVertex
 10
-69.55950470542257
 20
2.605011138504853
 30
0.0
 42
0.0197318127063559
 70
     1
  0
VERTEX
  5
2FD9
330
2FCE
100
AcDbEntity
  8
AM_0
100
AcDbVertex
100
AcDb2dVertex
 10
-69.06246185303328
 20
2.219162170228585
 30
0.0
 42
0.0358460074876439
  0
VERTEX
  5
2FDA
330
2FCE
100
AcDbEntity
  8
AM_0
100
AcDbVertex
100
AcDb2dVertex
 10
-68.85859988186004
 20
2.09408515085251
 30
0.0
 42
0.021710998496176
 70
     1
  0
VERTEX
  5
2FDB
330
2FCE
100
AcDbEntity
  8
AM_0
100
AcDbVertex
100
AcDb2dVertex
 10
-68.49996185303329
 20
1.926378232500821
 30
0.0
  0
SEQEND
  5
2FDC
330
2FCE
100
AcDbEntity
  8
AM_0
  0
SPLINE
  5
2FDD
330
1F
100
AcDbEntity
  8
AM_0
100
AcDbSpline
210
0.0
220
0.0
230
1.0
 70
     8
 71
     3
 72
    13
 73
     9
 74
     0
 42
0.0000000001
 43
0.0000000001
 40
26.13201924531566
 40
26.13201924531566
 40
26.13201924531566
 40
26.13201924531566
 40
26.99048218457928
 40
28.09348763352352
 40
29.20111863782268
 40
30.31232390128032
 40
31.42594612798585
 40
32.5407912310448
 40
32.5407912310486
 40
32.5407912310486
 40
32.5407912310486
 10
-68.49996185397071
 20
1.926378232851077
 30
0.0
 10
-68.2825155802831
 20
1.845131422766223
 30
0.0
 10
-67.78687823658049
 20
1.657287749735227
 30
0.0
 10
-67.01513420836075
 20
1.356601158088625
 30
0.0
 10
-66.18358865142366
 20
1.024612777705292
 30
0.0
 10
-65.35225148784194
 20
0.6866722263841406
 30
0.0
 10
-64.52105502330296
 20
0.3447377781089988
 30
0.0
 10
-63.96707288633059
 20
0.1154894273229067
 30
0.0
 10
-63.68993074349832
 20
0.0008008100947246
 30
0.0
  0
ELLIPSE
  5
2FDE
330
1F
100
AcDbEntity
  8
AM_0
100
AcDbEllipse
 10
-68.89587612988828
 20
-4.267638872437665
 30
0.0
 11
1.110906177816422
 21
0.0009414911884612
 31
0.0
210
0.0
220
0.0
230
1.0
 40
0.965089935226126
 41
1.847244884936653
 42
3.030214726345232
  0
SPLINE
  5
2FDF
330
1F
100
AcDbEntity
  8
AM_0
100
AcDbSpline
210
0.0
220
0.0
230
1.0
 70
     8
 71
     3
 72
     9
 73
     5
 74
     0
 42
0.0000000001
 43
0.0000000001
 40
1.580019955310467
 40
1.580019955310467
 40
1.580019955310467
 40
1.580019955310467
 40
2.030549285115227
 40
2.43907978603305
 40
2.43907978603305
 40
2.43907978603305
 40
2.43907978603305
 10
-68.51539061115488
 20
-3.062822055984413
 30
0.0
 10
-68.63461710603738
 20
-3.094366580276442
 30
0.0
 10
-68.86234418309062
 20
-3.153486812001659
 30
0.0
 10
-69.09102329503953
 20
-3.210087453567015
 30
0.0
 10
-69.19996185303327
 20
-3.236479138127001
 30
0.0
  0
ELLIPSE
  5
2FE0
330
1F
100
AcDbEntity
  8
AM_0
100
AcDbEllipse
 10
-68.6554704470274
 20
15.04436425222733
 30
0.0
 11
-11.37665620356037
 21
0.000000000000122
 31
0.0
210
0.0
220
0.0
230
1.0
 40
0.9651162790697737
 41
1.445415944841816
 42
1.584465847457579
  0
LINE
  5
2FE1
330
1F
100
AcDbEntity
  8
AM_11
100
AcDbLine
 10
-70.00000000000003
 20
-4.149410269816611
 30
0.0
 11
-59.82341580391163
 21
-4.149410269816735
 31
0.0
  0
SPLINE
  5
2FE2
330
1F
100
AcDbEntity
  8
AM_0
100
AcDbSpline
210
0.0
220
0.0
230
1.0
 70
     8
 71
     3
 72
    15
 73
    11
 74
     0
 42
0.0000000001
 43
0.0000000001
 40
5.241236682593577
 40
5.241236682593577
 40
5.241236682593577
 40
5.241236682593577
 40
5.954688180526682
 40
6.824620803463244
 40
7.701151815239697
 40
8.58445704656667
 40
9.47458238407075
 40
10.37139106676736
 40
11.27458944007584
 40
12.17321262433756
 40
12.17321262433756
 40
12.17321262433756
 40
12.17321262433756
 10
-63.41943130396844
 20
-0.1038817479845168
 30
0.0
 10
-63.6518303372541
 20
-0.1462863282685896
 30
0.0
 10
-64.16616337663248
 20
-0.2459488657698446
 30
0.0
 10
-64.95997809566474
 20
-0.4187846617046239
 30
0.0
 10
-65.80219995207507
 20
-0.6231179434412605
 30
0.0
 10
-66.64433976188937
 20
-0.8471235342181
 30
0.0
 10
-67.48639526000754
 20
-1.089420136907462
 30
0.0
 10
-68.32837997450173
 20
-1.348502642540732
 30
0.0
 10
-69.16702845811032
 20
-1.621713199179198
 30
0.0
 10
-69.72332513896439
 20
-1.81182310178181
 30
0.0
 10
-70.0
 20
-1.908261062103119
 30
0.0
  0
SPLINE
  5
2FE3
330
1F
100
AcDbEntity
  8
AM_0
100
AcDbSpline
210
0.0
220
0.0
230
1.0
 70
     8
 71
     3
 72
    20
 73
    16
 74
     0
 42
0.0000000001
 43
0.0000000001
 40
1.604714676203542
 40
1.604714676203542
 40
1.604714676203542
 40
1.604714676203542
 40
1.685415058684573
 40
2.531036209541122
 40
3.379897699130124
 40
4.232934581347659
 40
5.09097061220244
 40
5.954688180526682
 40
6.824620803463244
 40
7.701151815239697
 40
8.58445704656667
 40
9.47458238407075
 40
10.37139106676736
 40
11.27458944007584
 40
12.17321262433756
 40
12.17321262433756
 40
12.17321262433756
 40
12.17321262433756
 10
-59.82341580391163
 20
-4.149410269816735
 30
0.0
 10
-59.85025462711
 20
-4.147954627553783
 30
0.0
 10
-60.15828520632449
 20
-4.130670004080301
 30
0.0
 10
-60.74767401771386
 20
-4.084238671106106
 30
0.0
 10
-61.59028442192322
 20
-3.995103993296969
 30
0.0
 10
-62.43282280300169
 20
-3.880670207930826
 30
0.0
 10
-63.27528694141475
 20
-3.742458982500623
 30
0.0
 10
-64.11767250925885
 20
-3.581131084408923
 30
0.0
 10
-64.95997809566474
 20
-3.397737462501441
 30
0.0
 10
-65.80219995207507
 20
-3.193404180764785
 30
0.0
 10
-66.64433976188937
 20
-2.969398589987926
 30
0.0
 10
-67.48639526000754
 20
-2.727101987298544
 30
0.0
 10
-68.32837997450173
 20
-2.468019481665254
 30
0.0
 10
-69.16702845811032
 20
-2.194808925026767
 30
0.0
 10
-69.72332513896439
 20
-2.004699022424143
 30
0.0
 10
-70.0
 20
-1.908261062102827
 30
0.0
  0
SPLINE
  5
2FE4
330
1F
100
AcDbEntity
  8
AM_0
100
AcDbSpline
210
0.0
220
0.0
230
1.0
 70
     8
 71
     3
 72
    50
 73
    46
 74
     0
 42
0.0000000001
 43
0.0000000001
 40
0.0
 40
0.0
 40
0.0
 40
0.0
 40
1.010743684496582
 40
2.022833576467832
 40
3.037578957496688
 40
4.056212745003489
 40
5.079857003664532
 40
6.109500240690281
 40
7.145961322679372
 40
8.189895241603872
 40
9.241717795325891
 40
10.30168407291828
 40
11.36983447792315
 40
12.44600489715814
 40
13.52984294512926
 40
14.62081576220742
 40
15.7182257034828
 40
16.82123173843959
 40
17.92886860250316
 40
19.0400688939571
 40
20.15368796660465
 40
21.26852814259644
 40
22.38336992938901
 40
23.49698739941135
 40
24.6081876908653
 40
25.71582455492886
 40
26.81883757994213
 40
27.91624752121713
 40
29.00722033829659
 40
30.09105838626677
 40
31.16722880550176
 40
32.23537921050758
 40
33.29534548809967
 40
34.347168041821
 40
35.39108718934584
 40
36.42754827133493
 40
37.45720575381954
 40
38.48085062012849
 40
39.49948440763516
 40
40.51422944315121
 40
41.52631975251916
 40
42.53706336719636
 40
43.54780698187354
 40
44.55989729124051
 40
45.14939243453665
 40
45.14939243453665
 40
45.14939243453665
 40
45.14939243453665
 10
-32.64026592823364
 20
-4.149410269820391
 30
0.0
 10
-32.92104360173702
 20
-4.146941120360279
 30
0.0
 10
-33.48297291596077
 20
-4.141999532784886
 30
0.0
 10
-34.32566239050811
 20
-4.102164789298901
 30
0.0
 10
-35.1683158938191
 20
-4.038837953152144
 30
0.0
 10
-36.01091724515116
 20
-3.950082983791546
 30
0.0
 10
-36.85345803666921
 20
-3.837102681218198
 30
0.0
 10
-37.69592164692721
 20
-3.700399450833006
 30
0.0
 10
-38.53831089392859
 20
-3.540894174321
 30
0.0
 10
-39.38061830738317
 20
-3.359563585678131
 30
0.0
 10
-40.22283814964234
 20
-3.157521043718421
 30
0.0
 10
-41.06497461870643
 20
-2.936034748592357
 30
0.0
 10
-41.90702996998481
 20
-2.696460211610208
 30
0.0
 10
-42.74901472428465
 20
-2.440288845120775
 30
0.0
 10
-43.59093273652575
 20
-2.169094877057465
 30
0.0
 10
-44.43279181359319
 20
-1.88455078744293
 30
0.0
 10
-45.27460129181796
 20
-1.588411986077394
 30
0.0
 10
-46.11636855936964
 20
-1.282499586475687
 30
0.0
 10
-46.95810178569543
 20
-0.968695068898225
 30
0.0
 10
-47.79980997769849
 20
-0.648929862868854
 30
0.0
 10
-48.64150051796094
 20
-0.3251697534622599
 30
0.0
 10
-49.48318529245695
 20
0.0005888834292445
 30
0.0
 10
-50.32486628849255
 20
0.3263533841792285
 30
0.0
 10
-51.16655964991824
 20
0.6501084517845537
 30
0.0
 10
-52.00826680282126
 20
0.9698746257249981
 30
0.0
 10
-52.85000152994808
 20
1.283680338757805
 30
0.0
 10
-53.69177228955417
 20
1.589590127649374
 30
0.0
 10
-54.5335830963767
 20
1.885730430850676
 30
0.0
 10
-55.37544229498059
 20
2.17027428972929
 30
0.0
 10
-56.217360276587
 20
2.441468314823668
 30
0.0
 10
-57.05934503304281
 20
2.697639681687834
 30
0.0
 10
-57.90140040576902
 20
2.937214161384099
 30
0.0
 10
-58.74353678791542
 20
3.158700682668047
 30
0.0
 10
-59.58575301062309
 20
3.360741440594697
 30
0.0
 10
-60.4280552153792
 20
3.542074404215871
 30
0.0
 10
-61.27044414989788
 20
3.701582888178325
 30
0.0
 10
-62.11291377562843
 20
3.838270505156966
 30
0.0
 10
-62.95545735066316
 20
3.951285777522326
 30
0.0
 10
-63.79805895177996
 20
4.039935539322587
 30
0.0
 10
-64.64071304059213
 20
4.103646936276351
 30
0.0
 10
-65.48340180063921
 20
4.142037762542977
 30
0.0
 10
-66.32610907826076
 20
4.154862867282653
 30
0.0
 10
-67.16881635464236
 20
4.142037762522907
 30
0.0
 10
-67.89353178809601
 20
4.109021510946468
 30
0.0
 10
-68.33692150531186
 20
4.078299043050417
 30
0.0
 10
-68.49996185303317
 20
4.065593952083535
 30
0.0
  0
ELLIPSE
  5
2FE5
330
1F
100
AcDbEntity
  8
AM_11
 48
0.5
100
AcDbEllipse
 10
-59.8989571481945
 20
-18.33038676632961
 30
0.0
 11
-24.41816012064585
 21
0.0000000000005166
 31
0.0
210
0.0
220
0.0
230
1.0
 40
0.8299999999999968
 41
4.271664206181684
 42
5.153113667164991
  0
ELLIPSE
  5
2FE6
330
1F
100
AcDbEntity
  8
AM_11
 48
0.5
100
AcDbEllipse
 10
-59.89895714819362
 20
18.33043203300698
 30
0.0
 11
-24.4181601206458
 21
0.0000000000004624
 31
0.0
210
0.0
220
0.0
230
1.0
 40
0.8299999999999984
 41
1.130070686340299
 42
2.011520147323587
  0
SPLINE
  5
2FE7
330
1F
100
AcDbEntity
  8
AM_0
100
AcDbSpline
210
0.0
220
0.0
230
1.0
 70
     8
 71
     3
 72
    22
 73
    18
 74
     0
 42
0.0000000001
 43
0.0000000001
 40
17.17441611292
 40
17.17441611292
 40
17.17441611292
 40
17.17441611292
 40
17.38177636558528
 40
18.41823744757437
 40
19.46215659509824
 40
20.51397914882054
 40
21.57394542641293
 40
22.64209583141747
 40
23.71826625065247
 40
24.80210429862395
 40
25.8930771157021
 40
26.99048705697709
 40
28.09349309193389
 40
29.20112995599786
 40
30.31233024745139
 40
31.42594771747373
 40
32.5407895042663
 40
32.54078950426994
 40
32.54078950426994
 40
32.54078950426994
 10
-51.73072470424052
 20
-3.726140306063547
 30
0.0
 10
-51.78715239159268
 20
-3.71653346310289
 30
0.0
 10
-52.12540556031396
 20
-3.658017132575714
 30
0.0
 10
-52.74506630492116
 20
-3.540684273798741
 30
0.0
 10
-53.58736838923292
 20
-3.359350789206528
 30
0.0
 10
-54.42958464473036
 20
-3.157310172738232
 30
0.0
 10
-55.27172101741307
 20
-2.935823612018437
 30
0.0
 10
-56.11377639487743
 20
-2.69624914713635
 30
0.0
 10
-56.95576114184873
 20
-2.440077760693
 30
0.0
 10
-57.79767915695302
 20
-2.168883799606148
 30
0.0
 10
-58.63953822993396
 20
-1.884339702174097
 30
0.0
 10
-59.48134772173063
 20
-1.588200925244771
 30
0.0
 10
-60.32311493874167
 20
-1.282288435112967
 30
0.0
 10
-61.16484835471496
 20
-0.9684842571109747
 30
0.0
 10
-62.00655543088465
 20
-0.6487179317276032
 30
0.0
 10
-62.84824863640903
 20
-0.324962590026723
 30
0.0
 10
-63.40926729722757
 20
-0.107826749887278
 30
0.0
 10
-63.68993074350206
 20
0.0008008100962156
 30
0.0
  0
SPLINE
  5
2FE8
330
1F
100
AcDbEntity
  8
AM_0
100
AcDbSpline
210
0.0
220
0.0
230
1.0
 70
     8
 71
     3
 72
    46
 73
    42
 74
     0
 42
0.0000000001
 43
0.0000000001
 40
0.0
 40
0.0
 40
0.0
 40
0.0
 40
1.685415058684573
 40
2.531036209541122
 40
3.379897699130124
 40
4.232934581347659
 40
5.09097061220244
 40
5.954688180526682
 40
6.824620803463244
 40
7.701151815239691
 40
8.584457046566678
 40
9.474582384070743
 40
10.37139106676737
 40
11.27458944007584
 40
12.18373345430765
 40
13.09824173870457
 40
14.01741343450111
 40
14.9404441545541
 40
15.86644439743314
 40
16.79446029130534
 40
17.7234937712985
 40
18.65252725129241
 40
19.58054314516461
 40
20.5065433880429
 40
21.42957410809587
 40
22.34874580389318
 40
23.26325408828902
 40
24.17239810252112
 40
25.07560240389442
 40
25.97241108659103
 40
26.8625364240951
 40
27.74584165542184
 40
28.62236045019042
 40
29.49229307312698
 40
30.35601064145123
 40
31.2140460633447
 40
32.06708345193549
 40
32.9159575565769
 40
33.76157841950695
 40
34.60498701064691
 40
35.44727335621126
 40
35.44727335621126
 40
35.44727335621126
 40
35.44727335621126
 10
-30.28130800180115
 20
-4.149410269820443
 30
0.0
 10
-30.84326477099567
 20
-4.139956249021636
 30
0.0
 10
-31.68717139429248
 20
-4.125758874408044
 30
0.0
 10
-32.80935083257021
 20
-4.038348247108707
 30
0.0
 10
-33.65196123677957
 20
-3.950215082533384
 30
0.0
 10
-34.49449961785805
 20
-3.837067070036515
 30
0.0
 10
-35.3369637562711
 20
-3.700408779723506
 30
0.0
 10
-36.1793493241152
 20
-3.540893554644069
 30
0.0
 10
-37.02165491052113
 20
-3.359560535229928
 30
0.0
 10
-37.86387676693149
 20
-3.15752313306334
 30
0.0
 10
-38.70601657674577
 20
-2.936034459036792
 30
0.0
 10
-39.54807207486398
 20
-2.696460290085479
 30
0.0
 10
-40.39005678935817
 20
-2.440288823841336
 30
0.0
 10
-41.23197481244239
 20
-2.16909488290588
 30
0.0
 10
-42.07383388633809
 20
-1.884550785526671
 30
0.0
 10
-42.91564336631433
 20
-1.588411987854991
 30
0.0
 10
-43.75741063003224
 20
-1.28249958126106
 30
0.0
 10
-44.59914387001099
 20
-0.9686950880778473
 30
0.0
 10
-45.44085201102254
 20
-0.6489297910841647
 30
0.0
 10
-46.2825427421257
 20
-0.3251700220812394
 30
0.0
 10
-47.12422639782795
 20
0.0005897301140304
 30
0.0
 10
-47.96591005334528
 20
0.3263494827051582
 30
0.0
 10
-48.80760078500308
 20
0.6501092505210747
 30
0.0
 10
-49.64930892398737
 20
0.9698745518527562
 30
0.0
 10
-50.49104217148328
 20
1.283679028947899
 30
0.0
 10
-51.33280940732826
 20
1.589591495194776
 30
0.0
 10
-52.17461899052747
 20
1.885730071950594
 30
0.0
 10
-53.01647951276867
 20
2.170275605086365
 30
0.0
 10
-53.85840080714017
 20
2.441467082087396
 30
0.0
 10
-54.70038702360605
 20
2.697639861891088
 30
0.0
 10
-55.5424425021188
 20
2.937214102128463
 30
0.0
 10
-56.38457885251844
 20
3.15870074086338
 30
0.0
 10
-57.22679509737775
 20
3.360741268377438
 30
0.0
 10
-58.06909724554874
 20
3.542075028556805
 30
0.0
 10
-58.91148232586437
 20
3.701579817312772
 30
0.0
 10
-59.75394708192053
 20
3.838277743915146
 30
0.0
 10
-60.59649084014401
 20
3.951264179599302
 30
0.0
 10
-61.43909690259555
 20
4.040017785234773
 30
0.0
 10
-62.28175509667415
 20
4.103338809435187
 30
0.0
 10
-63.12444387861835
 20
4.143184302366255
 30
0.0
 10
-63.68637342817223
 20
4.148122350071698
 30
0.0
 10
-63.96715115162182
 20
4.150589730180327
 30
0.0
  0
SPLINE
  5
2FE9
330
1F
100
AcDbEntity
  8
AM_0
100
AcDbSpline
210
0.0
220
0.0
230
1.0
 70
     8
 71
     3
 72
    18
 73
    14
 74
     0
 42
0.0000000001
 43
0.0000000001
 40
0.0
 40
0.0
 40
0.0
 40
0.0
 40
1.010743684496582
 40
2.022833576467832
 40
3.037578957496688
 40
4.056212745003489
 40
5.079857003664532
 40
6.109500240690281
 40
7.145961322679372
 40
8.189895241603872
 40
9.241717795325891
 40
10.30168407291828
 40
10.55450228288433
 40
10.55450228288433
 40
10.55450228288433
 40
10.55450228288433
 10
-60.57858911337731
 20
-4.149410269819833
 30
0.0
 10
-60.85936678688068
 20
-4.14694112035972
 30
0.0
 10
-61.42129610110443
 20
-4.141999532784327
 30
0.0
 10
-62.26398557565177
 20
-4.102164789298345
 30
0.0
 10
-63.10663907896276
 20
-4.038837953151586
 30
0.0
 10
-63.94924043029482
 20
-3.950082983790988
 30
0.0
 10
-64.79178122181295
 20
-3.83710268121764
 30
0.0
 10
-65.63424483207096
 20
-3.700399450832446
 30
0.0
 10
-66.47663407907227
 20
-3.540894174320443
 30
0.0
 10
-67.31894149252679
 20
-3.359563585677569
 30
0.0
 10
-68.16116133478593
 20
-3.157521043717864
 30
0.0
 10
-68.78737513212027
 20
-2.9928235403755
 30
0.0
 10
-69.13338691028164
 20
-2.897243766215285
 30
0.0
 10
-69.19996185303299
 20
-2.878687200865141
 30
0.0
  0
LINE
  5
2FEA
330
1F
100
AcDbEntity
  8
AM_0
 48
0.5
100
AcDbLine
 10
-66.32610272022507
 20
4.150589730180381
 30
0.0
 11
-48.51436565967846
 21
4.150589730179979
 31
0.0
  0
VIEWPORT
  5
110
330
101
100
AcDbEntity
 67
     1
  8
0
100
AcDbViewport
 10
420.5
 20
297.0
 30
0.0
 40
948.9782706766916
 41
628.452
 68
     1
 69
     1
1001
ACAD
1000
MVIEW
1002
{
1070
    16
1010
0.0
1020
0.0
1030
0.0
1010
0.0
1020
0.0
1030
1.0
1040
0.0
1040
628.452
1040
420.5
1040
297.0
1040
50.0
1040
0.0
1040
0.0
1070
     0
1070
   100
1070
     1
1070
     1
1070
     0
1070
     0
1070
     0
1070
     0
1040
0.0
1040
0.0
1040
0.0
1040
10.0
1040
10.0
1040
10.0
1040
10.0
1070
     0
1002
{
1002
}
1002
}
  0
ENDSEC
  0
SECTION
  2
OBJECTS
  0
DICTIONARY
  5
C
330
0
100
AcDbDictionary
  3
ACAD_GROUP
350
D
  3
ACAD_LAYOUT
350
1A
  3
ACAD_MLINESTYLE
350
17
  3
ACAD_PLOTSETTINGS
350
19
  3
ACAD_PLOTSTYLENAME
350
E
  3
ACDBVARIABLEDICTIONARY
350
34
  3
ACMDICTIONARY
350
43
  3
AMG
350
2B
  3
AMGSNAPSETTINGS
350
6E
  3
DWGPROPS
350
3038
  3
ACDBHEADERROUNDTRIPXREC
350
3044
  0
DICTIONARY
  5
74
330
1F
100
AcDbDictionary
280
     1
  3
ACAD_INDEX
360
303A
  3
ACAD_LAYOUTSELFREF
360
3067
  0
DICTIONARY
  5
306C
330
101
100
AcDbDictionary
280
     1
  3
ACAD_LAYOUTSELFREF
360
306D
  0
DICTIONARY
  5
D
102
{ACAD_REACTORS
330
C
102
}
330
C
100
AcDbDictionary
  0
DICTIONARY
  5
1A
102
{ACAD_REACTORS
330
C
102
}
330
C
100
AcDbDictionary
  0
DICTIONARY
  5
17
102
{ACAD_REACTORS
330
C
102
}
330
C
100
AcDbDictionary
  3
STANDARD
350
18
  0
DICTIONARY
  5
19
102
{ACAD_REACTORS
330
C
102
}
330
C
100
AcDbDictionary
  0
ACDBDICTIONARYWDFLT
  5
E
102
{ACAD_REACTORS
330
C
102
}
330
C
100
AcDbDictionary
281
     1
  3
Normal
350
F
100
AcDbDictionaryWithDefault
340
F
  0
DICTIONARY
  5
34
102
{ACAD_REACTORS
330
C
102
}
330
C
100
AcDbDictionary
  3
INDEXCTL
350
35
  3
SORTENTS
350
B5E
  0
DICTIONARY
  5
43
102
{ACAD_REACTORS
330
C
102
}
330
C
100
AcDbDictionary
  3
ACMSTDDICTIONARY
350
260
  0
DICTIONARY
  5
2B
102
{ACAD_REACTORS
330
C
102
}
330
C
100
AcDbDictionary
  3
ACMGSETTINGS
350
2C
  0
DICTIONARY
  5
6E
102
{ACAD_REACTORS
330
C
102
}
330
C
100
AcDbDictionary
  0
XRECORD
  5
3038
102
{ACAD_REACTORS
330
C
102
}
330
C
100
AcDbXrecord
  1
DWGPROPS COOKIE
  2

  3

  4

  6

  7

  8

  9

300
AmdtFileType=82
301
=
302
=
303
=
304
=
305
=
306
=
307
=
308
=
309
=
 40
0.1218250810185185
 41
2452800.443498622
 42
2452948.69045265
  1

 90
        1
  0
DICTIONARY
  5
3044
102
{ACAD_REACTORS
330
C
102
}
330
C
100
AcDbDictionary
  3
TSTACKALIGN
350
3045
  3
TSTACKSIZE
350
3046
  3
HYPERLINKBASE
350
3047
  3
STYLESHEET
350
3048
  3
LAYOUTDICT
350
3049
  3
PLOTSETDICT
350
304A
  3
PLOTSTYLNAMDICT
350
304B
  3
LWETCUNION
350
304C
  3
INSUNITS
350
304D
  3
CEPSNTYPE
350
304E
  3
FINGERPRINTGUID
350
304F
  3
VERSIONGUID
350
3050
  3
PSVPSCALE
350
3051
  3
DIMSTYLEDATA
350
3052
  3
PUCSORTHOREF
350
3053
  3
PUCSORTHOVIEW
350
3054
  3
PUCSBASE
350
3055
  3
PUCSORGTOP
350
3056
  3
PUCSORGBOTTOM
350
3057
  3
PUCSORGLEFT
350
3058
  3
PUCSORGRIGHT
350
3059
  3
PUCSORGFRONT
350
305A
  3
PUCSORGBACK
350
305B
  3
UCSORTHOREF
350
305C
  3
UCSORTHOVIEW
350
305D
  3
UCSBASE
350
305E
  3
UCSORGTOP
350
305F
  3
UCSORGBOTTOM
350
3060
  3
UCSORGLEFT
350
3061
  3
UCSORGRIGHT
350
3062
  3
UCSORGFRONT
350
3063
  3
UCSORGBACK
350
3064
  0
DICTIONARY
  5
303A
102
{ACAD_REACTORS
330
74
102
}
330
74
100
AcDbDictionary
  3
*A1
350
303B
  0
XRECORD
  5
3067
102
{ACAD_REACTORS
330
74
102
}
330
74
100
AcDbXrecord
340
1F
  0
XRECORD
  5
306D
102
{ACAD_REACTORS
330
306C
102
}
330
306C
100
AcDbXrecord
340
101
  0
MLINESTYLE
  5
18
102
{ACAD_REACTORS
330
17
102
}
330
17
100
AcDbMlineStyle
  2
STANDARD
 70
     0
  3

 62
   256
 51
90.0
 52
90.0
 71
     2
 49
0.5
 62
   256
  6
BYLAYER
 49
-0.5
 62
   256
  6
BYLAYER
  0
ACDBPLACEHOLDER
  5
F
102
{ACAD_REACTORS
330
E
102
}
330
E
100
AcDbPlaceHolder
280
     0
  0
DICTIONARYVAR
  5
35
102
{ACAD_REACTORS
330
34
102
}
330
34
100
DictionaryVariables
280
     0
  1
1
  0
DICTIONARYVAR
  5
B5E
102
{ACAD_REACTORS
330
34
102
}
330
34
100
DictionaryVariables
280
     0
  1
96
  0
DICTIONARY
  5
260
102
{ACAD_REACTORS
330
43
102
}
330
43
100
AcDbDictionary
  0
DICTIONARY
  5
2C
102
{ACAD_REACTORS
330
2B
102
}
330
2B
100
AcDbDictionary
  3
DWGSETTINGS
350
2D
  0
XRECORD
  5
3045
102
{ACAD_REACTORS
330
3044
102
}
330
3044
100
AcDbXrecord
 90
        1
  0
XRECORD
  5
3046
102
{ACAD_REACTORS
330
3044
102
}
330
3044
100
AcDbXrecord
 90
       70
  0
XRECORD
  5
3047
102
{ACAD_REACTORS
330
3044
102
}
330
3044
100
AcDbXrecord
  1

  0
XRECORD
  5
3048
102
{ACAD_REACTORS
330
3044
102
}
330
3044
100
AcDbXrecord
  1
ASAMI.ctb
  0
XRECORD
  5
3049
102
{ACAD_REACTORS
330
3044
102
}
330
3044
100
AcDbXrecord
340
1A
  0
XRECORD
  5
304A
102
{ACAD_REACTORS
330
3044
102
}
330
3044
100
AcDbXrecord
340
19
  0
XRECORD
  5
304B
102
{ACAD_REACTORS
330
3044
102
}
330
3044
100
AcDbXrecord
340
E
  0
XRECORD
  5
304C
102
{ACAD_REACTORS
330
3044
102
}
330
3044
100
AcDbXrecord
 90
    10781
  0
XRECORD
  5
304D
102
{ACAD_REACTORS
330
3044
102
}
330
3044
100
AcDbXrecord
 90
        4
  0
XRECORD
  5
304E
102
{ACAD_REACTORS
330
3044
102
}
330
3044
100
AcDbXrecord
 90
        0
  0
XRECORD
  5
304F
102
{ACAD_REACTORS
330
3044
102
}
330
3044
100
AcDbXrecord
  1
{AFB28963-8C59-40AE-9337-C84526B81ACE}
  0
XRECORD
  5
3050
102
{ACAD_REACTORS
330
3044
102
}
330
3044
100
AcDbXrecord
  1
{4C1DCE24-A0FA-4B45-A602-33FFBCAF96E5}
  0
XRECORD
  5
3051
102
{ACAD_REACTORS
330
3044
102
}
330
3044
100
AcDbXrecord
 40
0.0
  0
XRECORD
  5
3052
102
{ACAD_REACTORS
330
3044
102
}
330
3044
100
AcDbXrecord
1000
DSTYLE
1002
{
1070
    79
 70
     2
1070
   341
340
59
1070
   342
340
59
1070
   371
 70
    -1
1070
   372
 70
    -1
1002
}
  0
XRECORD
  5
3053
102
{ACAD_REACTORS
330
3044
102
}
330
3044
100
AcDbXrecord
340
0
  0
XRECORD
  5
3054
102
{ACAD_REACTORS
330
3044
102
}
330
3044
100
AcDbXrecord
 70
     0
  0
XRECORD
  5
3055
102
{ACAD_REACTORS
330
3044
102
}
330
3044
100
AcDbXrecord
340
0
  0
XRECORD
  5
3056
102
{ACAD_REACTORS
330
3044
102
}
330
3044
100
AcDbXrecord
 10
0.0
 20
0.0
 30
0.0
  0
XRECORD
  5
3057
102
{ACAD_REACTORS
330
3044
102
}
330
3044
100
AcDbXrecord
 10
0.0
 20
0.0
 30
0.0
  0
XRECORD
  5
3058
102
{ACAD_REACTORS
330
3044
102
}
330
3044
100
AcDbXrecord
 10
0.0
 20
0.0
 30
0.0
  0
XRECORD
  5
3059
102
{ACAD_REACTORS
330
3044
102
}
330
3044
100
AcDbXrecord
 10
0.0
 20
0.0
 30
0.0
  0
XRECORD
  5
305A
102
{ACAD_REACTORS
330
3044
102
}
330
3044
100
AcDbXrecord
 10
0.0
 20
0.0
 30
0.0
  0
XRECORD
  5
305B
102
{ACAD_REACTORS
330
3044
102
}
330
3044
100
AcDbXrecord
 10
0.0
 20
0.0
 30
0.0
  0
XRECORD
  5
305C
102
{ACAD_REACTORS
330
3044
102
}
330
3044
100
AcDbXrecord
340
0
  0
XRECORD
  5
305D
102
{ACAD_REACTORS
330
3044
102
}
330
3044
100
AcDbXrecord
 70
     0
  0
XRECORD
  5
305E
102
{ACAD_REACTORS
330
3044
102
}
330
3044
100
AcDbXrecord
340
0
  0
XRECORD
  5
305F
102
{ACAD_REACTORS
330
3044
102
}
330
3044
100
AcDbXrecord
 10
0.0
 20
0.0
 30
0.0
  0
XRECORD
  5
3060
102
{ACAD_REACTORS
330
3044
102
}
330
3044
100
AcDbXrecord
 10
0.0
 20
0.0
 30
0.0
  0
XRECORD
  5
3061
102
{ACAD_REACTORS
330
3044
102
}
330
3044
100
AcDbXrecord
 10
0.0
 20
0.0
 30
0.0
  0
XRECORD
  5
3062
102
{ACAD_REACTORS
330
3044
102
}
330
3044
100
AcDbXrecord
 10
0.0
 20
0.0
 30
0.0
  0
XRECORD
  5
3063
102
{ACAD_REACTORS
330
3044
102
}
330
3044
100
AcDbXrecord
 10
0.0
 20
0.0
 30
0.0
  0
XRECORD
  5
3064
102
{ACAD_REACTORS
330
3044
102
}
330
3044
100
AcDbXrecord
 10
0.0
 20
0.0
 30
0.0
  0
LAYER_INDEX
  5
303B
102
{ACAD_REACTORS
330
303A
102
}
330
303A
100
AcDbIndex
 40
2453151.679453657
100
AcDbLayerIndex
  8
0
360
303C
 90
        0
  8
AM_0
360
303D
 90
       56
  8
AM_7
360
303E
 90
        1
  8
AM_11
360
303F
 90
       19
  8
AM_5
360
3040
 90
        5
  8
Defpoints
360
3041
 90
        0
  8
AM_6
360
3042
 90
        1
  0
XRECORD
  5
2D
102
{ACAD_REACTORS
330
2C
102
}
330
2C
100
AcDbXrecord
  1
VERSION
140
15.0
  1
PRODUCT
  2
AutoCAD Mechanical 2000
  0
IDBUFFER
  5
303C
330
0
100
AcDbIdBuffer
  0
IDBUFFER
  5
303D
330
0
100
AcDbIdBuffer
330
2FE0
330
2FE2
330
2FE3
330
2FE4
330
2FE7
330
2FE8
330
2FE9
330
2FEA
330
1C24
330
1C25
330
1C26
330
1C27
330
1C28
330
1C2B
330
1C2C
330
1C2D
330
1EDD
330
1EDF
330
1FEC
330
2969
330
2B83
330
2B84
330
2B85
330
2B87
330
2B88
330
2B89
330
2F9C
330
2F9D
330
2F9E
330
2F9F
330
2FA0
330
2FA1
330
2FA3
330
2FA5
330
2FA8
330
2FA9
330
2FAA
330
2FAB
330
2FAC
330
2FAD
330
2FAE
330
2FAF
330
2FB0
330
2FB6
330
2FB7
330
2FB8
330
2FB9
330
2FBA
330
2FBB
330
2FBC
330
2FBD
330
2FBF
330
2FCE
330
2FDD
330
2FDE
330
2FDF
  0
IDBUFFER
  5
303E
330
0
100
AcDbIdBuffer
330
C9F
  0
IDBUFFER
  5
303F
330
0
100
AcDbIdBuffer
330
2FE1
330
2FE5
330
2FE6
330
29BD
330
29BE
330
29BF
330
29C0
330
29C1
330
29C2
330
2FA2
330
2FA4
330
2FA6
330
2FA7
330
2FB1
330
2FB2
330
2FB3
330
2FB4
330
2FB5
330
2FBE
  0
IDBUFFER
  5
3040
330
0
100
AcDbIdBuffer
330
CC6
330
DF5
330
1EEB
330
2A8C
330
2CA7
  0
IDBUFFER
  5
3041
330
0
100
AcDbIdBuffer
  0
IDBUFFER
  5
3042
330
0
100
AcDbIdBuffer
330
19BD
  0
ENDSEC
  0
EOF
