  0
SECTION
  2
HEADER
  9
$ACADVER
  1
AC1014
  9
$ACADMAINTVER
 70
     9
  9
$DWGCODEPAGE
  3
ANSI_932
  9
$INSBASE
 10
0.0
 20
0.0
 30
0.0
  9
$EXTMIN
 10
-141.1499755686908
 20
-27.75003143075874
 30
-0.00000001
  9
$EXTMAX
 10
13.96806287202249
 20
13.64550037054431
 30
0.00000001
  9
$LIMMIN
 10
-144.2947427153176
 20
-45.0190390766545
  9
$LIMMAX
 10
17.32561424894453
 20
28.94485128504129
  9
$ORTHOMODE
 70
     0
  9
$REGENMODE
 70
     1
  9
$FILLMODE
 70
     1
  9
$QTEXTMODE
 70
     0
  9
$MIRRTEXT
 70
     0
  9
$DRAGMODE
 70
     2
  9
$LTSCALE
 40
1.0
  9
$OSMODE
 70
    55
  9
$ATTMODE
 70
     1
  9
$TEXTSIZE
 40
2.5
  9
$TRACEWID
 40
1.0
  9
$TEXTSTYLE
  7
STANDARD
  9
$CLAYER
  8
AM_0
  9
$CELTYPE
  6
BYLAYER
  9
$CECOLOR
 62
   256
  9
$CELTSCALE
 40
1.0
  9
$DELOBJ
 70
     1
  9
$DISPSILH
 70
     0
  9
$DIMSCALE
 40
0.5
  9
$DIMASZ
 40
2.5
  9
$DIMEXO
 40
1.0
  9
$DIMDLI
 40
12.0
  9
$DIMRND
 40
0.0
  9
$DIMDLE
 40
0.0
  9
$DIMEXE
 40
1.0
  9
$DIMTP
 40
0.1
  9
$DIMTM
 40
0.1
  9
$DIMTXT
 40
3.2
  9
$DIMCEN
 40
0.0
  9
$DIMTSZ
 40
0.0
  9
$DIMTOL
 70
     0
  9
$DIMLIM
 70
     0
  9
$DIMTIH
 70
     0
  9
$DIMTOH
 70
     0
  9
$DIMSE1
 70
     0
  9
$DIMSE2
 70
     0
  9
$DIMTAD
 70
     3
  9
$DIMZIN
 70
     8
  9
$DIMBLK
  1
OPEN30
  9
$DIMASO
 70
     1
  9
$DIMSHO
 70
     1
  9
$DIMPOST
  1

  9
$DIMAPOST
  1
"
  9
$DIMALT
 70
     0
  9
$DIMALTD
 70
     2
  9
$DIMALTF
 40
0.0393701
  9
$DIMLFAC
 40
1.0
  9
$DIMTOFL
 70
     1
  9
$DIMTVP
 40
0.0
  9
$DIMTIX
 70
     0
  9
$DIMSOXD
 70
     0
  9
$DIMSAH
 70
     0
  9
$DIMBLK1
  1

  9
$DIMBLK2
  1

  9
$DIMSTYLE
  2
AM_JIS
  9
$DIMCLRD
 70
   256
  9
$DIMCLRE
 70
   256
  9
$DIMCLRT
 70
     2
  9
$DIMTFAC
 40
0.71
  9
$DIMGAP
 40
1.5
  9
$DIMJUST
 70
     0
  9
$DIMSD1
 70
     0
  9
$DIMSD2
 70
     0
  9
$DIMTOLJ
 70
     0
  9
$DIMTZIN
 70
     0
  9
$DIMALTZ
 70
     0
  9
$DIMALTTZ
 70
     0
  9
$DIMFIT
 70
     3
  9
$DIMUPT
 70
     0
  9
$DIMUNIT
 70
     2
  9
$DIMDEC
 70
     3
  9
$DIMTDEC
 70
     3
  9
$DIMALTU
 70
     2
  9
$DIMALTTD
 70
     2
  9
$DIMTXSTY
  7
ASAMI
  9
$DIMAUNIT
 70
     0
  9
$LUNITS
 70
     2
  9
$LUPREC
 70
     2
  9
$SKETCHINC
 40
1.0
  9
$FILLETRAD
 40
2.5
  9
$AUNITS
 70
     0
  9
$AUPREC
 70
     0
  9
$MENU
  1
.
  9
$ELEVATION
 40
0.0
  9
$PELEVATION
 40
0.0
  9
$THICKNESS
 40
0.0
  9
$LIMCHECK
 70
     0
  9
$BLIPMODE
 70
     0
  9
$CHAMFERA
 40
2.5
  9
$CHAMFERB
 40
2.5
  9
$CHAMFERC
 40
20.0
  9
$CHAMFERD
 40
0.0
  9
$SKPOLY
 70
     0
  9
$TDCREATE
 40
2452800.443498622
  9
$TDUPDATE
 40
2453151.679646608
  9
$TDINDWG
 40
0.1225876968
  9
$TDUSRTIMER
 40
0.1225876968
  9
$USRTIMER
 70
     1
  9
$ANGBASE
 50
0.0
  9
$ANGDIR
 70
     0
  9
$PDMODE
 70
     3
  9
$PDSIZE
 40
0.0
  9
$PLINEWID
 40
0.0
  9
$COORDS
 70
     1
  9
$SPLFRAME
 70
     0
  9
$SPLINETYPE
 70
     6
  9
$SPLINESEGS
 70
     8
  9
$ATTDIA
 70
     1
  9
$ATTREQ
 70
     1
  9
$HANDLING
 70
 12289
  9
$HANDSEED
  5
3140
  9
$SURFTAB1
 70
     6
  9
$SURFTAB2
 70
     6
  9
$SURFTYPE
 70
     6
  9
$SURFU
 70
     6
  9
$SURFV
 70
     6
  9
$UCSNAME
  2

  9
$UCSORG
 10
-0.0000000000001487
 20
-0.0000000000002312
 30
0.0
  9
$UCSXDIR
 10
1.0
 20
0.000000000000002
 30
0.0
  9
$UCSYDIR
 10
-0.000000000000002
 20
1.0
 30
0.0
  9
$PUCSNAME
  2

  9
$PUCSORG
 10
0.0
 20
0.0
 30
0.0
  9
$PUCSXDIR
 10
1.0
 20
0.0
 30
0.0
  9
$PUCSYDIR
 10
0.0
 20
1.0
 30
0.0
  9
$USERI1
 70
     0
  9
$USERI2
 70
     0
  9
$USERI3
 70
     0
  9
$USERI4
 70
     0
  9
$USERI5
 70
     0
  9
$USERR1
 40
0.0
  9
$USERR2
 40
0.0
  9
$USERR3
 40
0.0
  9
$USERR4
 40
0.0
  9
$USERR5
 40
0.0
  9
$WORLDVIEW
 70
     1
  9
$SHADEDGE
 70
     3
  9
$SHADEDIF
 70
    70
  9
$TILEMODE
 70
     1
  9
$MAXACTVP
 70
    64
  9
$PINSBASE
 10
0.0
 20
0.0
 30
0.0
  9
$PLIMCHECK
 70
     0
  9
$PEXTMIN
 10
1.000000000000000E+20
 20
1.000000000000000E+20
 30
1.000000000000000E+20
  9
$PEXTMAX
 10
-1.000000000000000E+20
 20
-1.000000000000000E+20
 30
-1.000000000000000E+20
  9
$PLIMMIN
 10
0.0
 20
0.0
  9
$PLIMMAX
 10
841.0
 20
594.0
  9
$UNITMODE
 70
     0
  9
$VISRETAIN
 70
     1
  9
$PLINEGEN
 70
     0
  9
$PSLTSCALE
 70
     0
  9
$TREEDEPTH
 70
  3020
  9
$PICKSTYLE
 70
     0
  9
$CMLSTYLE
  2
STANDARD
  9
$CMLJUST
 70
     0
  9
$CMLSCALE
 40
20.0
  9
$PROXYGRAPHICS
 70
     1
  9
$MEASUREMENT
 70
     1
  0
ENDSEC
  0
SECTION
  2
CLASSES
  0
CLASS
  1
ACDBDICTIONARYWDFLT
  2
AcDbDictionaryWithDefault
  3
AutoCAD 2000
 90
        0
280
     0
281
     0
  0
CLASS
  1
ACDBPLACEHOLDER
  2
AcDbPlaceHolder
  3
AutoCAD 2000
 90
        0
280
     0
281
     0
  0
CLASS
  1
LAYOUT
  2
AcDbLayout
  3
AutoCAD 2000
 90
        0
280
     0
281
     0
  0
CLASS
  1
AMGSETTINGSOBJ
  2
AmgSettingsObj
  3
"AcadM|Product Description: AutoCAD Mechanical 2000|Company: Autodesk"
 90
        0
280
     0
281
     0
  0
CLASS
  1
ACME_DOCUMENT
  2
AcMeDbDoc
  3
AcMeServices
 90
        0
280
     0
281
     0
  0
CLASS
  1
ACMESCOPE
  2
AcMeScope
  3
AcMeServices
 90
        0
280
     0
281
     0
  0
CLASS
  1
ACMECOMMANDHISTORY
  2
AcMeCommandHistory
  3
AcMeServices
 90
        0
280
     0
281
     0
  0
CLASS
  1
DICTIONARYVAR
  2
AcDbDictionaryVar
  3
AutoCAD 2000
 90
        0
280
     0
281
     0
  0
CLASS
  1
ACIMSYSVARMAN
  2
AcImSysVarManager
  3
AcMeServices
 90
        0
280
     0
281
     0
  0
CLASS
  1
ACIMREALSYSVAR
  2
AcImRealSysVar
  3
AcMeServices
 90
        0
280
     0
281
     0
  0
CLASS
  1
ACIMINTSYSVAR
  2
AcImIntSysVar
  3
AcMeServices
 90
        0
280
     0
281
     0
  0
CLASS
  1
ACMEDRAWINGMAN
  2
AcMeDrawingMan
  3
AcMeServices
 90
        0
280
     0
281
     0
  0
CLASS
  1
ACMEVIEW
  2
AcMeView
  3
AcMeServices
 90
        0
280
     0
281
     0
  0
CLASS
  1
ACDBENTITYCACHE
  2
AcMeEntityCache
  3
AcMeServices
 90
        0
280
     0
281
     0
  0
CLASS
  1
GSMANAGER
  2
AcMeGSManager
  3
AcMeServices
 90
        0
280
     0
281
     0
  0
CLASS
  1
AmdtInternalReactor
  2
AmdtInternalReactor
  3
AcMeServices
 90
        0
280
     0
281
     0
  0
CLASS
  1
ACMESTATEMGR
  2
AcMeStateMgr
  3
AcMeServices
 90
        0
280
     0
281
     0
  0
CLASS
  1
ACME_DATABASE
  2
AcMeDbDatabase
  3
AcMeServices
 90
        0
280
     0
281
     0
  0
CLASS
  1
ACRFINSADJUSTERMGR
  2
AcRfInsAdjusterMgr
  3
AcMeServices
 90
        0
280
     0
281
     0
  0
CLASS
  1
ACMDATADICTIONARY
  2
AcmDataDictionary
  3
"AcmSymBB|Product Description: AutoCAD Mechanical 2000|Company: Autodesk"
 90
        0
280
     0
281
     0
  0
CLASS
  1
ACMDATAENTRYBLOCK
  2
AcmDataEntryBlock
  3
"AcmSymBB|Product Description: AutoCAD Mechanical 2000|Company: Autodesk"
 90
        0
280
     0
281
     0
  0
CLASS
  1
AMGOBJPROPCFG
  2
AmgObjPropCfg
  3
"AmgLay|Product Description: AutoCAD Mechanical 2000|Company: Autodesk"
 90
        1
280
     0
281
     0
  0
CLASS
  1
ACAMGFILTERDAT
  2
AcAmgFilterDat
  3
"AcadM|Product Description: AutoCAD Mechanical 2000|Company: Autodesk"
 90
        0
280
     0
281
     0
  0
CLASS
  1
LAYER_INDEX
  2
AcDbLayerIndex
  3
AutoCAD 2000
 90
        0
280
     0
281
     0
  0
CLASS
  1
IDBUFFER
  2
AcDbIdBuffer
  3
AutoCAD 2000
 90
        0
280
     0
281
     0
  0
CLASS
  1
ACIMSTRSYSVAR
  2
AcImStrSysVar
  3
AcMeServices
 90
        0
280
     0
281
     0
  0
CLASS
  1
ACMSTANDARDJIS
  2
AcmStandardJIS
  3
"AcmSymBB|Product Description: AutoCAD Mechanical 2000|Company: Autodesk"
 90
        0
280
     0
281
     0
  0
CLASS
  1
ACMSURFSTANDARDJIS
  2
AcmSurfTextStdJIS
  3
"AcmSymBB|Product Description: AutoCAD Mechanical 2000|Company: Autodesk"
 90
        0
280
     0
281
     0
  0
CLASS
  1
ACMFCFSTANDARDJIS
  2
AcmFCFStdJIS
  3
"AcmSymBB|Product Description: AutoCAD Mechanical 2000|Company: Autodesk"
 90
        0
280
     0
281
     0
  0
CLASS
  1
ACMWELDSTANDARDJIS
  2
AcmWeldingStdJIS
  3
"AcmSymBB|Product Description: AutoCAD Mechanical 2000|Company: Autodesk"
 90
        0
280
     0
281
     0
  0
CLASS
  1
ACMIDSTANDARDJIS
  2
AcmIdStdJIS
  3
"AcmSymBB|Product Description: AutoCAD Mechanical 2000|Company: Autodesk"
 90
        0
280
     0
281
     0
  0
CLASS
  1
ACMDATUMSTANDARDJIS
  2
AcmDatumStdJIS
  3
"AcmSymBB|Product Description: AutoCAD Mechanical 2000|Company: Autodesk"
 90
        0
280
     0
281
     0
  0
CLASS
  1
ACMBOMSTANDARDJIS
  2
AcmBOMStdJIS
  3
"AcmSymBB|Product Description: AutoCAD Mechanical 2000|Company: Autodesk"
 90
        0
280
     0
281
     0
  0
CLASS
  1
ACMSTANDARDANSI
  2
AcmStandardANSI
  3
"AcmSymBB|Product Description: AutoCAD Mechanical 2000|Company: Autodesk"
 90
        0
280
     0
281
     0
  0
CLASS
  1
ACMSURFSTANDARDANSI
  2
AcmSurfTextStdANSI
  3
"AcmSymBB|Product Description: AutoCAD Mechanical 2000|Company: Autodesk"
 90
        0
280
     0
281
     0
  0
CLASS
  1
ACMFCFSTANDARDANSI
  2
AcmFCFStdANSI
  3
"AcmSymBB|Product Description: AutoCAD Mechanical 2000|Company: Autodesk"
 90
        0
280
     0
281
     0
  0
CLASS
  1
ACMWELDSTANDARDANSI
  2
AcmWeldingStdANSI
  3
"AcmSymBB|Product Description: AutoCAD Mechanical 2000|Company: Autodesk"
 90
        0
280
     0
281
     0
  0
CLASS
  1
ACMIDSTANDARDANSI
  2
AcmIdStdANSI
  3
"AcmSymBB|Product Description: AutoCAD Mechanical 2000|Company: Autodesk"
 90
        0
280
     0
281
     0
  0
CLASS
  1
ACMDATUMSTANDARDANSI
  2
AcmDatumStdANSI
  3
"AcmSymBB|Product Description: AutoCAD Mechanical 2000|Company: Autodesk"
 90
        0
280
     0
281
     0
  0
CLASS
  1
ACMBOMSTANDARDANSI
  2
AcmBOMStdANSI
  3
"AcmSymBB|Product Description: AutoCAD Mechanical 2000|Company: Autodesk"
 90
        0
280
     0
281
     0
  0
CLASS
  1
ACMSTANDARDBSI
  2
AcmStandardBSI
  3
"AcmSymBB|Product Description: AutoCAD Mechanical 2000|Company: Autodesk"
 90
        0
280
     0
281
     0
  0
CLASS
  1
ACMSURFSTANDARDBSI
  2
AcmSurfTextStdBSI
  3
"AcmSymBB|Product Description: AutoCAD Mechanical 2000|Company: Autodesk"
 90
        0
280
     0
281
     0
  0
CLASS
  1
ACMFCFSTANDARDBSI
  2
AcmFCFStdBSI
  3
"AcmSymBB|Product Description: AutoCAD Mechanical 2000|Company: Autodesk"
 90
        0
280
     0
281
     0
  0
CLASS
  1
ACMWELDSTANDARDBSI
  2
AcmWeldingStdBSI
  3
"AcmSymBB|Product Description: AutoCAD Mechanical 2000|Company: Autodesk"
 90
        0
280
     0
281
     0
  0
CLASS
  1
ACMIDSTANDARDBSI
  2
AcmIdStdBSI
  3
"AcmSymBB|Product Description: AutoCAD Mechanical 2000|Company: Autodesk"
 90
        0
280
     0
281
     0
  0
CLASS
  1
ACMDATUMSTANDARDBSI
  2
AcmDatumStdBSI
  3
"AcmSymBB|Product Description: AutoCAD Mechanical 2000|Company: Autodesk"
 90
        0
280
     0
281
     0
  0
CLASS
  1
ACMBOMSTANDARDBSI
  2
AcmBOMStdBSI
  3
"AcmSymBB|Product Description: AutoCAD Mechanical 2000|Company: Autodesk"
 90
        0
280
     0
281
     0
  0
CLASS
  1
LONG_TRANSACTION
  2
AcDbLongTransaction
  3
AutoCAD 2000
 90
        0
280
     0
281
     0
  0
CLASS
  1
LWPOLYLINE
  2
AcDbPolyline
  3
AutoCAD 2000
 90
        0
280
     0
281
     1
  0
CLASS
  1
HATCH
  2
AcDbHatch
  3
AutoCAD 2000
 90
        0
280
     0
281
     1
  0
CLASS
  1
XRECORD
  2
AcDbXrecord
  3
AutoCAD 2000
 90
        0
280
     0
281
     0
  0
ENDSEC
  0
SECTION
  2
TABLES
  0
TABLE
  2
VPORT
  5
8
330
0
100
AcDbSymbolTable
 70
     3
  0
VPORT
  5
3115
330
8
100
AcDbSymbolTableRecord
100
AcDbViewportTableRecord
  2
*ACTIVE
 70
     0
 10
0.0
 20
0.0
 11
1.0
 21
1.0
 12
-60.68926847006145
 22
-7.052390744840707
 13
0.0
 23
0.0
 14
2.5
 24
2.5
 15
10.0
 25
10.0
 16
0.0
 26
0.0
 36
1.0
 17
0.0
 27
0.0
 37
0.0
 40
103.2784241739081
 41
1.56570841889117
 42
50.0
 43
0.0
 44
0.0
 50
0.0
 51
0.0
 71
     0
 72
   100
 73
     1
 74
     1
 75
     0
 76
     0
 77
     0
 78
     0
  0
ENDTAB
  0
TABLE
  2
LTYPE
  5
5
330
0
100
AcDbSymbolTable
 70
    10
  0
LTYPE
  5
14
330
5
100
AcDbSymbolTableRecord
100
AcDbLinetypeTableRecord
  2
BYBLOCK
 70
     0
  3

 72
    65
 73
     0
 40
0.0
  0
LTYPE
  5
15
330
5
100
AcDbSymbolTableRecord
100
AcDbLinetypeTableRecord
  2
BYLAYER
 70
     0
  3

 72
    65
 73
     0
 40
0.0
  0
LTYPE
  5
16
330
5
100
AcDbSymbolTableRecord
100
AcDbLinetypeTableRecord
  2
CONTINUOUS
 70
     0
  3
Solid line
 72
    65
 73
     0
 40
0.0
  0
LTYPE
  5
4B
330
5
100
AcDbSymbolTableRecord
100
AcDbLinetypeTableRecord
  2
AM_ISO02W050
 70
     0
  3
__ __ __ __ __ __ __ __ __ __ __ __ __ __ __
 72
    65
 73
     2
 40
7.5
 49
6.0
 74
     0
 49
-1.5
 74
     0
  0
LTYPE
  5
4C
330
5
100
AcDbSymbolTableRecord
100
AcDbLinetypeTableRecord
  2
AM_ISO08W050
 70
     0
  3
____ . ____ . ____ . ____ . ____ . ____ . ____
 72
    65
 73
     4
 40
18.0
 49
12.0
 74
     0
 49
-1.5
 74
     0
 49
3.0
 74
     0
 49
-1.5
 74
     0
  0
LTYPE
  5
4D
330
5
100
AcDbSymbolTableRecord
100
AcDbLinetypeTableRecord
  2
AM_ISO09W050
 70
     0
  3
_____ . . _____ . . _____ . . ____ .. ____
 72
    65
 73
     6
 40
22.5
 49
12.0
 74
     0
 49
-1.5
 74
     0
 49
3.0
 74
     0
 49
-1.5
 74
     0
 49
3.0
 74
     0
 49
-1.5
 74
     0
  0
LTYPE
  5
4E
330
5
100
AcDbSymbolTableRecord
100
AcDbLinetypeTableRecord
  2
AMCONSTR
 70
     0
  3
_______________________
 72
    65
 73
     2
 40
9999.0
 49
9999.0
 74
     0
 49
0.0
 74
     0
  0
LTYPE
  5
4F
330
5
100
AcDbSymbolTableRecord
100
AcDbLinetypeTableRecord
  2
AM_ISO02W050X2
 70
     0
  3
 _ _ _ _ _ _ _ _ _ _ _ _
 72
    65
 73
     2
 40
3.75
 49
3.0
 74
     0
 49
-0.75
 74
     0
  0
LTYPE
  5
50
330
5
100
AcDbSymbolTableRecord
100
AcDbLinetypeTableRecord
  2
AM_ISO08W050X2
 70
     0
  3
__ . __ . __ . __ . __ . __
 72
    65
 73
     4
 40
9.0
 49
6.0
 74
     0
 49
-0.75
 74
     0
 49
1.5
 74
     0
 49
-0.75
 74
     0
  0
LTYPE
  5
53
330
5
100
AcDbSymbolTableRecord
100
AcDbLinetypeTableRecord
  2
AMZIGZAG
 70
     0
  3
/\/-/\/-/\/-/\/-/\/-/\/
 72
    65
 73
     2
 40
11.00009999999999
 49
0.0001
 74
     4
 75
   135
340
52
 46
0.04
 50
0.0
 44
0.0
 45
0.0
 49
-11.0
 74
     0
  0
LTYPE
  5
166
330
5
100
AcDbSymbolTableRecord
100
AcDbLinetypeTableRecord
  2
ACJISTGL
 70
     0
  3
_ _ _ _ _
 72
    65
 73
     2
 40
3.0
 49
2.0
 74
     0
 49
-1.0
 74
     0
  0
LTYPE
  5
26A
330
5
100
AcDbSymbolTableRecord
100
AcDbLinetypeTableRecord
  2
ACJISTGB
 70
     0
  3
__ . . __ . .
 72
    65
 73
     6
 40
9.0
 49
4.0
 74
     0
 49
-1.0
 74
     0
 49
1.0
 74
     0
 49
-1.0
 74
     0
 49
1.0
 74
     0
 49
-1.0
 74
     0
  0
ENDTAB
  0
TABLE
  2
LAYER
  5
2
330
0
100
AcDbSymbolTable
 70
     7
  0
LAYER
  5
10
330
2
100
AcDbSymbolTableRecord
100
AcDbLayerTableRecord
  2
0
 70
     0
 62
     7
  6
CONTINUOUS
  0
LAYER
  5
3F9
330
2
100
AcDbSymbolTableRecord
100
AcDbLayerTableRecord
  2
AM_0
 70
     0
 62
     7
  6
CONTINUOUS
  0
LAYER
  5
C7C
330
2
100
AcDbSymbolTableRecord
100
AcDbLayerTableRecord
  2
AM_7
 70
     0
 62
     4
  6
AM_ISO08W050
  0
LAYER
  5
C97
330
2
100
AcDbSymbolTableRecord
100
AcDbLayerTableRecord
  2
AM_11
 70
     0
 62
     3
  6
AM_ISO09W050
  0
LAYER
  5
CC5
330
2
100
AcDbSymbolTableRecord
100
AcDbLayerTableRecord
  2
AM_5
 70
     0
 62
     3
  6
CONTINUOUS
  0
LAYER
  5
CC7
330
2
100
AcDbSymbolTableRecord
100
AcDbLayerTableRecord
  2
DEFPOINTS
 70
     0
 62
     7
  6
CONTINUOUS
  0
LAYER
  5
19BC
330
2
100
AcDbSymbolTableRecord
100
AcDbLayerTableRecord
  2
AM_6
 70
     0
 62
     2
  6
CONTINUOUS
  0
ENDTAB
  0
TABLE
  2
STYLE
  5
3
330
0
100
AcDbSymbolTable
 70
     5
  0
STYLE
  5
11
330
3
100
AcDbSymbolTableRecord
100
AcDbTextStyleTableRecord
  2
STANDARD
 70
     0
 40
0.0
 41
1.0
 50
0.0
 71
     0
 42
2.5
  3
simplex.shx
  4
EXTFONT.SHX
  0
STYLE
  5
52
330
3
100
AcDbSymbolTableRecord
100
AcDbTextStyleTableRecord
  2

 70
     1
 40
0.0
 41
1.0
 50
0.0
 71
     0
 42
2.5
  3
ltypeshp.shx
  4

  0
STYLE
  5
6B
330
3
100
AcDbSymbolTableRecord
100
AcDbTextStyleTableRecord
  2
ASAMI
 70
     0
 40
0.0
 41
1.0
 50
0.0
 71
     0
 42
2.5
  3
simplex.shx
  4
EXTFONT.SHX
  0
STYLE
  5
262
330
3
100
AcDbSymbolTableRecord
100
AcDbTextStyleTableRecord
  2
ACJISTS
 70
     0
 40
1.0
 41
1.0
 50
0.0
 71
     0
 42
2.5
  3
simplex.shx
  4
bigfont.shx
  0
STYLE
  5
269
330
3
100
AcDbSymbolTableRecord
100
AcDbTextStyleTableRecord
  2
ACJISGDT
 70
     0
 40
0.0
 41
1.0
 50
0.0
 71
     0
 42
2.5
  3
amgdtans.shx
  4

  0
ENDTAB
  0
TABLE
  2
VIEW
  5
6
330
0
100
AcDbSymbolTable
 70
     0
  0
ENDTAB
  0
TABLE
  2
UCS
  5
7
330
0
100
AcDbSymbolTable
 70
     0
  0
ENDTAB
  0
TABLE
  2
APPID
  5
9
330
0
100
AcDbSymbolTable
 70
    14
  0
APPID
  5
12
330
9
100
AcDbSymbolTableRecord
100
AcDbRegAppTableRecord
  2
ACAD
 70
     0
  0
APPID
  5
30
330
9
100
AcDbSymbolTableRecord
100
AcDbRegAppTableRecord
  2
MCAD_NO_VIS
 70
     0
  0
APPID
  5
31
330
9
100
AcDbSymbolTableRecord
100
AcDbRegAppTableRecord
  2
ACAD_TEMP_GRAPHIC
 70
     0
  0
APPID
  5
2C2
330
9
100
AcDbSymbolTableRecord
100
AcDbRegAppTableRecord
  2
GENIUS_GENDTOL_13
 70
     0
  0
APPID
  5
339
330
9
100
AcDbSymbolTableRecord
100
AcDbRegAppTableRecord
  2
GENIUS_GENODEF_13
 70
     0
  0
APPID
  5
33A
330
9
100
AcDbSymbolTableRecord
100
AcDbRegAppTableRecord
  2
GENIUS_GENOBJ-N-RSBK_13
 70
     0
  0
APPID
  5
33B
330
9
100
AcDbSymbolTableRecord
100
AcDbRegAppTableRecord
  2
GENIUS_GENOBJ-N-LIB_13
 70
     0
  0
APPID
  5
33C
330
9
100
AcDbSymbolTableRecord
100
AcDbRegAppTableRecord
  2
GENIUS_GENSCALE_13
 70
     0
  0
APPID
  5
378
330
9
100
AcDbSymbolTableRecord
100
AcDbRegAppTableRecord
  2
GENIUS_GENDIMSH_14
 70
     0
  0
APPID
  5
C82
330
9
100
AcDbSymbolTableRecord
100
AcDbRegAppTableRecord
  2
GENIUS_GENOBJ-N-CRS_13
 70
     0
  0
APPID
  5
C83
330
9
100
AcDbSymbolTableRecord
100
AcDbRegAppTableRecord
  2
GENIUS_GENOENT_13
 70
     0
  0
APPID
  5
C84
330
9
100
AcDbSymbolTableRecord
100
AcDbRegAppTableRecord
  2
GENIUS_GENOREF_13
 70
     0
  0
APPID
  5
C85
330
9
100
AcDbSymbolTableRecord
100
AcDbRegAppTableRecord
  2
GENIUS_GENOLIS_13
 70
     0
  0
APPID
  5
CA0
330
9
100
AcDbSymbolTableRecord
100
AcDbRegAppTableRecord
  2
GENIUS_GENOBJ-N-CEN_13
 70
     0
  0
ENDTAB
  0
TABLE
  2
DIMSTYLE
  5
A
330
0
100
AcDbSymbolTable
 70
     9
  0
DIMSTYLE
105
58
330
A
100
AcDbSymbolTableRecord
100
AcDbDimStyleTableRecord
  2
AM_JIS
 70
     0
  3

  4
"
  5
OPEN30
  6

  7

 40
0.5
 41
2.5
 42
1.0
 43
12.0
 44
1.0
 45
0.0
 46
0.0
 47
0.1
 48
0.1
140
3.2
141
0.0
142
0.0
143
0.0393701
144
1.0
145
0.0
146
0.71
147
1.5
 71
     0
 72
     0
 73
     0
 74
     0
 75
     0
 76
     0
 77
     3
 78
     8
170
     0
171
     2
172
     1
173
     0
174
     0
175
     0
176
   256
177
   256
178
     2
270
     2
271
     3
272
     3
273
     2
274
     2
340
6B
275
     0
280
     0
281
     0
282
     0
283
     0
284
     0
285
     0
286
     0
287
     3
288
     0
  0
DIMSTYLE
105
5F
330
A
100
AcDbSymbolTableRecord
100
AcDbDimStyleTableRecord
  2
AM_JIS$3
 70
     0
  3

  4
"
  5
OPEN30
  6

  7

 40
0.5
 41
2.5
 42
1.0
 43
10.0
 44
1.0
 45
0.0
 46
0.0
 47
0.1
 48
0.1
140
3.2
141
0.0
142
0.0
143
0.0393701
144
1.0
145
0.0
146
0.71
147
1.5
 71
     0
 72
     0
 73
     0
 74
     1
 75
     0
 76
     0
 77
     3
 78
     8
170
     0
171
     2
172
     0
173
     0
174
     0
175
     0
176
   256
177
   256
178
     2
270
     2
271
     2
272
     3
273
     2
274
     2
340
6B
275
     0
280
     0
281
     0
282
     0
283
     0
284
     0
285
     0
286
     0
287
     0
288
     1
  0
DIMSTYLE
105
60
330
A
100
AcDbSymbolTableRecord
100
AcDbDimStyleTableRecord
  2
AM_JIS$4
 70
     0
  3

  4
"
  5
OPEN30
  6

  7

 40
0.5
 41
2.5
 42
1.0
 43
10.0
 44
1.0
 45
0.0
 46
0.0
 47
0.1
 48
0.1
140
3.2
141
0.0
142
0.0
143
0.0393701
144
1.0
145
0.0
146
0.71
147
1.5
 71
     0
 72
     0
 73
     0
 74
     1
 75
     0
 76
     0
 77
     3
 78
     8
170
     0
171
     2
172
     0
173
     0
174
     0
175
     0
176
   256
177
   256
178
     2
270
     2
271
     2
272
     3
273
     2
274
     2
340
6B
275
     0
280
     0
281
     0
282
     0
283
     0
284
     0
285
     0
286
     0
287
     0
288
     1
  0
DIMSTYLE
105
61
330
A
100
AcDbSymbolTableRecord
100
AcDbDimStyleTableRecord
  2
AM_JIS$6
 70
     0
  3

  4
"
  5
OPEN30
  6

  7

 40
0.5
 41
2.5
 42
1.0
 43
10.0
 44
1.0
 45
0.0
 46
0.0
 47
0.1
 48
0.1
140
3.2
141
0.0
142
0.0
143
0.0393701
144
1.0
145
0.0
146
0.71
147
1.5
 71
     0
 72
     0
 73
     0
 74
     0
 75
     0
 76
     0
 77
     0
 78
     8
170
     0
171
     2
172
     1
173
     0
174
     0
175
     0
176
   256
177
   256
178
     2
270
     2
271
     2
272
     2
273
     2
274
     2
340
6B
275
     0
280
     0
281
     0
282
     0
283
     0
284
     0
285
     0
286
     0
287
     3
288
     0
  0
DIMSTYLE
105
62
330
A
100
AcDbSymbolTableRecord
100
AcDbDimStyleTableRecord
  2
AM_JIS$7
 70
     0
  3

  4
"
  5
OPEN30
  6

  7

 40
0.5
 41
2.5
 42
1.0
 43
10.0
 44
1.0
 45
0.0
 46
0.0
 47
0.1
 48
0.1
140
3.2
141
0.0
142
0.0
143
0.0393701
144
1.0
145
0.0
146
0.71
147
1.5
 71
     0
 72
     0
 73
     0
 74
     0
 75
     0
 76
     0
 77
     3
 78
     8
170
     0
171
     2
172
     1
173
     0
174
     0
175
     0
176
   256
177
   256
178
     2
270
     2
271
     2
272
     3
273
     2
274
     2
340
6B
275
     0
280
     0
281
     0
282
     0
283
     0
284
     0
285
     0
286
     0
287
     3
288
     0
  0
DIMSTYLE
105
63
330
A
100
AcDbSymbolTableRecord
100
AcDbDimStyleTableRecord
  2
AM_JIS$SF
 70
     0
  3

  4
"
  5
OPEN30
  6

  7

 40
0.5
 41
2.5
 42
1.0
 43
10.0
 44
1.0
 45
0.0
 46
0.0
 47
0.1
 48
0.1
140
3.2
141
0.0
142
0.0
143
0.0393701
144
1.0
145
0.0
146
0.71
147
1.5
 71
     0
 72
     0
 73
     0
 74
     0
 75
     1
 76
     1
 77
     3
 78
     8
170
     0
171
     2
172
     1
173
     0
174
     0
175
     0
176
   256
177
   256
178
     2
270
     2
271
     2
272
     2
273
     2
274
     2
340
6B
275
     0
280
     0
281
     0
282
     0
283
     0
284
     0
285
     0
286
     0
287
     3
288
     0
  0
DIMSTYLE
105
68
330
A
100
AcDbSymbolTableRecord
100
AcDbDimStyleTableRecord
  2
AM_JIS$SH
 70
     0
  3

  4
"
  5

  6
GENAXEH
  7
OPEN30
 40
0.5
 41
2.5
 42
1.0
 43
10.0
 44
1.0
 45
0.0
 46
0.0
 47
0.1
 48
0.1
140
3.2
141
0.0
142
0.0
143
0.0393701
144
2.0
145
0.0
146
0.71
147
1.5
 71
     0
 72
     0
 73
     0
 74
     0
 75
     1
 76
     1
 77
     3
 78
     8
170
     0
171
     2
172
     1
173
     1
174
     0
175
     0
176
   256
177
   256
178
     2
270
     2
271
     2
272
     2
273
     2
274
     2
340
6B
275
     0
280
     0
281
     0
282
     0
283
     0
284
     0
285
     0
286
     0
287
     3
288
     0
  0
DIMSTYLE
105
B34
102
{ACAD_REACTORS
330
2CA7
102
}
330
A
100
AcDbSymbolTableRecord
100
AcDbDimStyleTableRecord
  2
AM_JIS$2
 70
     0
  3

  4
"
  5
OPEN30
  6

  7

 40
0.5
 41
2.5
 42
1.0
 43
12.0
 44
1.0
 45
0.0
 46
0.0
 47
0.1
 48
0.1
140
3.2
141
0.0
142
0.0
143
0.0393701
144
1.0
145
0.0
146
0.71
147
1.5
 71
     0
 72
     0
 73
     0
 74
     0
 75
     0
 76
     0
 77
     3
 78
     8
170
     0
171
     2
172
     1
173
     0
174
     0
175
     0
176
   256
177
   256
178
     2
270
     2
271
     3
272
     3
273
     2
274
     2
340
6B
275
     0
280
     0
281
     0
282
     0
283
     0
284
     0
285
     0
286
     0
287
     3
288
     0
  0
DIMSTYLE
105
BA5
102
{ACAD_REACTORS
330
CC6
330
DF5
330
1EEB
330
2A8C
102
}
330
A
100
AcDbSymbolTableRecord
100
AcDbDimStyleTableRecord
  2
AM_JIS$0
 70
     0
  3

  4
"
  5
OPEN30
  6

  7

 40
0.5
 41
2.5
 42
0.0
 43
10.0
 44
1.0
 45
0.0
 46
0.0
 47
0.1
 48
0.1000000001
140
3.799999999999999
141
0.0
142
0.0
143
0.0393701
144
1.0
145
0.0
146
0.71
147
1.5
 71
     0
 72
     0
 73
     0
 74
     0
 75
     0
 76
     0
 77
     3
 78
     1
170
     0
171
     2
172
     1
173
     0
174
     0
175
     0
176
     3
177
     3
178
     2
270
     2
271
     2
272
     2
273
     2
274
     2
340
11
275
     1
280
     0
281
     0
282
     0
283
     0
284
     8
285
     0
286
     0
287
     0
288
     0
  0
ENDTAB
  0
TABLE
  2
BLOCK_RECORD
  5
1
330
0
100
AcDbSymbolTable
 70
    10
  0
BLOCK_RECORD
  5
1F
102
{ACAD_XDICTIONARY
360
74
102
}
330
1
100
AcDbSymbolTableRecord
100
AcDbBlockTableRecord
  2
*MODEL_SPACE
  0
BLOCK_RECORD
  5
101
102
{ACAD_XDICTIONARY
360
313E
102
}
330
1
100
AcDbSymbolTableRecord
100
AcDbBlockTableRecord
  2
*PAPER_SPACE
  0
BLOCK_RECORD
  5
59
330
1
100
AcDbSymbolTableRecord
100
AcDbBlockTableRecord
  2
_OPEN30
  0
BLOCK_RECORD
  5
64
330
1
100
AcDbSymbolTableRecord
100
AcDbBlockTableRecord
  2
GENAXEH
  0
BLOCK_RECORD
  5
CC8
330
1
100
AcDbSymbolTableRecord
100
AcDbBlockTableRecord
  2
*D5
  0
BLOCK_RECORD
  5
DF6
330
1
100
AcDbSymbolTableRecord
100
AcDbBlockTableRecord
  2
*D6
  0
BLOCK_RECORD
  5
1EEC
330
1
100
AcDbSymbolTableRecord
100
AcDbBlockTableRecord
  2
*D7
  0
BLOCK_RECORD
  5
2A8D
330
1
100
AcDbSymbolTableRecord
100
AcDbBlockTableRecord
  2
*D8
  0
BLOCK_RECORD
  5
2CA8
330
1
100
AcDbSymbolTableRecord
100
AcDbBlockTableRecord
  2
*D9
  0
ENDTAB
  0
ENDSEC
  0
SECTION
  2
BLOCKS
  0
BLOCK
  5
20
330
1F
100
AcDbEntity
  8
0
100
AcDbBlockBegin
  2
*MODEL_SPACE
 70
     0
 10
0.0
 20
0.0
 30
0.0
  3
*MODEL_SPACE
  1

  0
ENDBLK
  5
21
330
1F
100
AcDbEntity
  8
0
100
AcDbBlockEnd
  0
BLOCK
  5
103
330
101
100
AcDbEntity
 67
     1
  8
0
100
AcDbBlockBegin
  2
*PAPER_SPACE
 70
     0
 10
0.0
 20
0.0
 30
0.0
  3
*PAPER_SPACE
  1

  0
ENDBLK
  5
104
330
101
100
AcDbEntity
 67
     1
  8
0
100
AcDbBlockEnd
  0
BLOCK
  5
5D
330
59
100
AcDbEntity
  8
0
100
AcDbBlockBegin
  2
_OPEN30
 70
     0
 10
0.0
 20
0.0
 30
0.0
  3
_OPEN30
  1

  0
LINE
  5
5A
330
59
100
AcDbEntity
  8
0
 62
     0
100
AcDbLine
 10
-1.0
 20
0.26794919
 30
0.0
 11
0.0
 21
0.0
 31
0.0
  0
LINE
  5
5B
330
59
100
AcDbEntity
  8
0
 62
     0
100
AcDbLine
 10
0.0
 20
0.0
 30
0.0
 11
-1.0
 21
-0.26794919
 31
0.0
  0
LINE
  5
5C
330
59
100
AcDbEntity
  8
0
 62
     0
100
AcDbLine
 10
0.0
 20
0.0
 30
0.0
 11
-1.0
 21
0.0
 31
0.0
  0
ENDBLK
  5
5E
330
59
100
AcDbEntity
  8
0
100
AcDbBlockEnd
  0
BLOCK
  5
66
330
64
100
AcDbEntity
  8
0
100
AcDbBlockBegin
  2
GENAXEH
 70
     0
 10
0.0
 20
0.0
 30
0.0
  3
GENAXEH
  1

  0
LINE
  5
65
330
64
100
AcDbEntity
  8
0
100
AcDbLine
 10
-1.0
 20
0.0
 30
0.0
 11
1.0
 21
0.0
 31
0.0
  0
ENDBLK
  5
67
330
64
100
AcDbEntity
  8
0
100
AcDbBlockEnd
  0
BLOCK
  5
CD2
330
CC8
100
AcDbEntity
  8
0
100
AcDbBlockBegin
  2
*D5
 70
     1
 10
0.0
 20
0.0
 30
0.0
  3
*D5
  1

  0
LINE
  5
30CF
330
CC8
100
AcDbEntity
  8
AM_5
 62
     3
100
AcDbLine
 10
-129.0
 20
-4.234865101779198
 30
0.0
 11
-129.0
 21
-17.00003143075871
 31
0.0
  0
LINE
  5
30D0
330
CC8
100
AcDbEntity
  8
AM_5
 62
     3
100
AcDbLine
 10
-2.000000000000006
 20
-4.199999850860315
 30
0.0
 11
-2.000000000000007
 21
-17.00003143075871
 31
0.0
  0
LINE
  5
30D1
330
CC8
100
AcDbEntity
  8
AM_5
 62
     3
100
AcDbLine
 10
-127.75
 20
-16.50003143075871
 30
0.0
 11
-3.250000000000007
 21
-16.50003143075871
 31
0.0
  0
INSERT
  5
30D2
330
CC8
100
AcDbEntity
  8
AM_5
 62
     3
100
AcDbBlockReference
  2
_OPEN30
 10
-129.0
 20
-16.50003143075871
 30
0.0
 41
1.25
 42
1.25
 43
1.25
 50
180.0
  0
INSERT
  5
30D3
330
CC8
100
AcDbEntity
  8
AM_5
 62
     3
100
AcDbBlockReference
  2
_OPEN30
 10
-2.000000000000007
 20
-16.50003143075871
 30
0.0
 41
1.25
 42
1.25
 43
1.25
  0
MTEXT
  5
30D4
330
CC8
100
AcDbEntity
  8
AM_5
 62
     2
100
AcDbMText
 10
-65.5
 20
-14.80003143075871
 30
0.0
 40
1.9
 41
0.0
 71
     5
 72
     1
  1
127
1001
ACAD
1000
MTEXTBEGIN
1070
    73
1070
     1
1070
    44
1040
1.0
1070
    74
1070
     0
1000
MTEXTEND
  0
POINT
  5
30D5
330
CC8
100
AcDbEntity
  8
DEFPOINTS
 62
     0
100
AcDbPoint
 10
-129.0
 20
-4.234865101779198
 30
0.0
  0
POINT
  5
30D6
330
CC8
100
AcDbEntity
  8
DEFPOINTS
 62
     0
100
AcDbPoint
 10
-2.000000000000006
 20
-4.199999850860315
 30
0.0
  0
POINT
  5
30D7
330
CC8
100
AcDbEntity
  8
DEFPOINTS
 62
     0
100
AcDbPoint
 10
-2.000000000000007
 20
-16.50003143075871
 30
0.0
  0
ENDBLK
  5
CD3
330
CC8
100
AcDbEntity
  8
0
100
AcDbBlockEnd
  0
BLOCK
  5
E00
330
DF6
100
AcDbEntity
  8
0
100
AcDbBlockBegin
  2
*D6
 70
     1
 10
0.0
 20
0.0
 30
0.0
  3
*D6
  1

  0
LINE
  5
30C6
330
DF6
100
AcDbEntity
  8
AM_5
 62
     3
100
AcDbLine
 10
-73.99999999847472
 20
-4.500000388439782
 30
0.0
 11
-73.99999999847472
 21
-12.00003143075863
 31
0.0
  0
LINE
  5
30C7
330
DF6
100
AcDbEntity
  8
AM_5
 62
     3
100
AcDbLine
 10
-2.000000000000006
 20
-4.199999850860315
 30
0.0
 11
-2.000000000000007
 21
-12.00003143075863
 31
0.0
  0
LINE
  5
30C8
330
DF6
100
AcDbEntity
  8
AM_5
 62
     3
100
AcDbLine
 10
-72.74999999847472
 20
-11.50003143075863
 30
0.0
 11
-3.250000000000007
 21
-11.50003143075863
 31
0.0
  0
INSERT
  5
30C9
330
DF6
100
AcDbEntity
  8
AM_5
 62
     3
100
AcDbBlockReference
  2
_OPEN30
 10
-73.99999999847472
 20
-11.50003143075863
 30
0.0
 41
1.25
 42
1.25
 43
1.25
 50
180.0
  0
INSERT
  5
30CA
330
DF6
100
AcDbEntity
  8
AM_5
 62
     3
100
AcDbBlockReference
  2
_OPEN30
 10
-2.000000000000007
 20
-11.50003143075863
 30
0.0
 41
1.25
 42
1.25
 43
1.25
  0
MTEXT
  5
30CB
330
DF6
100
AcDbEntity
  8
AM_5
 62
     2
100
AcDbMText
 10
-37.99999999923736
 20
-9.800031430758631
 30
0.0
 40
1.9
 41
0.0
 71
     5
 72
     1
  1
72
1001
ACAD
1000
MTEXTBEGIN
1070
    73
1070
     1
1070
    44
1040
1.0
1070
    74
1070
     0
1000
MTEXTEND
  0
POINT
  5
30CC
330
DF6
100
AcDbEntity
  8
DEFPOINTS
 62
     0
100
AcDbPoint
 10
-73.99999999847472
 20
-4.500000388439782
 30
0.0
  0
POINT
  5
30CD
330
DF6
100
AcDbEntity
  8
DEFPOINTS
 62
     0
100
AcDbPoint
 10
-2.000000000000006
 20
-4.199999850860315
 30
0.0
  0
POINT
  5
30CE
330
DF6
100
AcDbEntity
  8
DEFPOINTS
 62
     0
100
AcDbPoint
 10
-2.000000000000007
 20
-11.50003143075863
 30
0.0
  0
ENDBLK
  5
E01
330
DF6
100
AcDbEntity
  8
0
100
AcDbBlockEnd
  0
BLOCK
  5
1EF6
330
1EEC
100
AcDbEntity
  8
0
100
AcDbBlockBegin
  2
*D7
 70
     1
 10
0.0
 20
0.0
 30
0.0
  3
*D7
  1

  0
LINE
  5
2D91
330
1EEC
100
AcDbEntity
  8
AM_5
 62
     3
100
AcDbLine
 10
-128.7053273518916
 20
-4.500007542575746
 30
0.0
 11
-138.9999755686908
 21
-4.500007542575765
 31
0.0
  0
LINE
  5
2D92
330
1EEC
100
AcDbEntity
  8
AM_5
 62
     3
100
AcDbLine
 10
-128.7053273518916
 20
4.499981016489259
 30
0.0
 11
-138.9999755686908
 21
4.49998101648924
 31
0.0
  0
LINE
  5
2D93
330
1EEC
100
AcDbEntity
  8
AM_5
 62
     3
100
AcDbLine
 10
-138.4999755686908
 20
-3.250007542575764
 30
0.0
 11
-138.4999755686908
 21
3.249981016489241
 31
0.0
  0
INSERT
  5
2D94
330
1EEC
100
AcDbEntity
  8
AM_5
 62
     3
100
AcDbBlockReference
  2
_OPEN30
 10
-138.4999755686908
 20
-4.500007542575764
 30
0.0
 41
1.25
 42
1.25
 43
1.25
 50
270.0000000000001
  0
INSERT
  5
2D95
330
1EEC
100
AcDbEntity
  8
AM_5
 62
     3
100
AcDbBlockReference
  2
_OPEN30
 10
-138.4999755686908
 20
4.499981016489241
 30
0.0
 41
1.25
 42
1.25
 43
1.25
 50
90.0000000000001
  0
MTEXT
  5
2D96
330
1EEC
100
AcDbEntity
  8
AM_5
 62
     2
100
AcDbMText
 10
-140.1999755686908
 20
-0.0000132630432595
 30
0.0
 40
1.9
 41
0.0
 71
     5
 72
     1
  1
%%c9
 11
-0.000000000000002
 21
1.0
 31
0.0
1001
ACAD
1000
MTEXTBEGIN
1070
    73
1070
     1
1070
    44
1040
1.0
1070
    74
1070
     0
1000
MTEXTEND
  0
POINT
  5
2D97
330
1EEC
100
AcDbEntity
  8
DEFPOINTS
 62
     0
100
AcDbPoint
 10
-128.7053273518916
 20
-4.50000754257546
 30
0.0
  0
POINT
  5
2D98
330
1EEC
100
AcDbEntity
  8
DEFPOINTS
 62
     0
100
AcDbPoint
 10
-128.7053273518916
 20
4.499981016489545
 30
0.0
  0
POINT
  5
2D99
330
1EEC
100
AcDbEntity
  8
DEFPOINTS
 62
     0
100
AcDbPoint
 10
-138.4999755686908
 20
4.499981016489549
 30
0.0
  0
ENDBLK
  5
1EF7
330
1EEC
100
AcDbEntity
  8
0
100
AcDbBlockEnd
  0
BLOCK
  5
2A97
330
2A8D
100
AcDbEntity
  8
0
100
AcDbBlockBegin
  2
*D8
 70
     1
 10
0.0
 20
0.0
 30
0.0
  3
*D8
  1

  0
LINE
  5
30D8
330
2A8D
100
AcDbEntity
  8
AM_5
 62
     3
100
AcDbLine
 10
-1.999999999999985
 20
4.200000149139695
 30
0.0
 11
9.819888315414946
 21
4.200000149139717
 31
0.0
  0
LINE
  5
30D9
330
2A8D
100
AcDbEntity
  8
AM_5
 62
     3
100
AcDbLine
 10
-1.999999999999995
 20
-4.199999850860317
 30
0.0
 11
9.819888315414964
 21
-4.199999850860294
 31
0.0
  0
LINE
  5
30DA
330
2A8D
100
AcDbEntity
  8
AM_5
 62
     3
100
AcDbLine
 10
9.319888315414949
 20
2.950000149139716
 30
0.0
 11
9.31988831541496
 21
-2.949999850860295
 31
0.0
  0
INSERT
  5
30DB
330
2A8D
100
AcDbEntity
  8
AM_5
 62
     3
100
AcDbBlockReference
  2
_OPEN30
 10
9.319888315414946
 20
4.200000149139716
 30
0.0
 41
1.25
 42
1.25
 43
1.25
 50
90.0000000000001
  0
INSERT
  5
30DC
330
2A8D
100
AcDbEntity
  8
AM_5
 62
     3
100
AcDbBlockReference
  2
_OPEN30
 10
9.319888315414964
 20
-4.199999850860295
 30
0.0
 41
1.25
 42
1.25
 43
1.25
 50
270.0000000000001
  0
MTEXT
  5
30DD
330
2A8D
100
AcDbEntity
  8
AM_5
 62
     2
100
AcDbMText
 10
7.619888315414955
 20
0.0000001491397072
 30
0.0
 40
1.9
 41
0.0
 71
     5
 72
     1
  1
%%c8.4
 11
-0.000000000000002
 21
1.0
 31
0.0
1001
ACAD
1000
MTEXTBEGIN
1070
    73
1070
     1
1070
    44
1040
1.0
1070
    74
1070
     0
1000
MTEXTEND
  0
POINT
  5
30DE
330
2A8D
100
AcDbEntity
  8
DEFPOINTS
 62
     0
100
AcDbPoint
 10
-1.999999999999975
 20
4.200000149139698
 30
0.0
  0
POINT
  5
30DF
330
2A8D
100
AcDbEntity
  8
DEFPOINTS
 62
     0
100
AcDbPoint
 10
-2.000000000000004
 20
-4.199999850860312
 30
0.0
  0
POINT
  5
30E0
330
2A8D
100
AcDbEntity
  8
DEFPOINTS
 62
     0
100
AcDbPoint
 10
9.319888315414953
 20
-4.199999850860315
 30
0.0
  0
ENDBLK
  5
2A98
330
2A8D
100
AcDbEntity
  8
0
100
AcDbBlockEnd
  0
BLOCK
  5
2CB8
330
2CA8
100
AcDbEntity
  8
0
100
AcDbBlockBegin
  2
*D9
 70
     1
 10
0.0
 20
0.0
 30
0.0
  3
*D9
  1

  0
LINE
  5
2D9A
330
2CA8
100
AcDbEntity
  8
AM_5
100
AcDbLine
 10
0.171010071662763
 20
-0.4698463103929555
 30
0.0
 11
4.966555966546227
 21
-13.64550037054423
 31
0.0
  0
LINE
  5
2D9B
330
2CA8
100
AcDbEntity
  8
AM_5
100
AcDbLine
 10
0.1710100716627556
 20
0.4698463103929611
 30
0.0
 11
4.966555966546014
 21
13.64550037054431
 31
0.0
  0
ARC
  5
2D9C
330
2CA8
100
AcDbEntity
  8
AM_5
100
AcDbCircle
 10
-0.0000000000000639
 20
0.0000000000000015
 30
0.0
 40
14.02123818864491
100
AcDbArc
 50
295.1096388312757
 51
64.89036116872518
  0
INSERT
  5
2D9D
330
2CA8
100
AcDbEntity
  8
AM_5
100
AcDbBlockReference
  2
_OPEN30
 10
4.7955458948834
 20
-13.17565406015127
 30
0.0
 41
1.25
 42
1.25
 43
1.25
 50
202.5548194156373
  0
INSERT
  5
2D9E
330
2CA8
100
AcDbEntity
  8
AM_5
100
AcDbBlockReference
  2
_OPEN30
 10
4.795545894883194
 20
13.17565406015135
 30
0.0
 41
1.25
 42
1.25
 43
1.25
 50
157.4451805843634
  0
MTEXT
  5
2D9F
330
2CA8
100
AcDbEntity
  8
AM_5
 62
     2
100
AcDbMText
 10
12.47123818864485
 20
0.0000000000001107
 30
0.0
 40
1.6
 41
0.0
 71
     5
 72
     1
  1
140°
  7
ASAMI
 11
-0.000000000000002
 21
1.0
 31
0.0
1001
ACAD
1000
MTEXTBEGIN
1070
    73
1070
     1
1070
    44
1040
1.0
1070
    74
1070
     0
1000
MTEXTEND
  0
POINT
  5
2DA0
330
2CA8
100
AcDbEntity
  8
DEFPOINTS
 62
     0
100
AcDbPoint
 10
12.87452674321848
 20
-5.553528741337792
 30
0.0
  0
POINT
  5
2DA1
330
2CA8
100
AcDbEntity
  8
DEFPOINTS
 62
     0
100
AcDbPoint
 10
-0.0000000000000639
 20
0.0000000000000015
 30
0.0
  0
POINT
  5
2DA2
330
2CA8
100
AcDbEntity
  8
DEFPOINTS
 62
     0
100
AcDbPoint
 10
-0.4058444933443237
 20
1.115048581273418
 30
0.0
  0
POINT
  5
2DA3
330
2CA8
100
AcDbEntity
  8
DEFPOINTS
 62
     0
100
AcDbPoint
 10
-0.0000000000000639
 20
0.0000000000000015
 30
0.0
  0
POINT
  5
2DA4
330
2CA8
100
AcDbEntity
  8
DEFPOINTS
 62
     0
100
AcDbPoint
 10
-0.4058444933443095
 20
-1.115048581273416
 30
0.0
  0
ENDBLK
  5
2CB9
330
2CA8
100
AcDbEntity
  8
0
100
AcDbBlockEnd
  0
ENDSEC
  0
SECTION
  2
ENTITIES
  0
LINE
  5
C9F
330
1F
100
AcDbEntity
  8
AM_7
100
AcDbLine
 10
-131.4999745686908
 20
-0.0000000000000533
 30
0.0
 11
2.319887315415111
 21
0.0000000000000009
 31
0.0
1001
GENIUS_GENODEF_13
1002
{
1000
HIER
1070
     0
1002
}
1002
{
1000
MANEDIT
1070
     0
1002
}
1002
{
1000
NOSEL
1070
     0
1002
}
1002
{
1000
BEHIND
1070
     0
1002
}
1002
{
1000
REACTOR
1002
}
1001
GENIUS_GENOBJ-N-CEN_13
1002
{
1000
OWNER
1000
GEN
1002
}
  0
DIMENSION
  5
CC6
330
1F
100
AcDbEntity
  8
AM_5
100
AcDbDimension
  2
*D5
 10
-2.000000000000007
 20
-16.50003143075871
 30
0.0
 11
-65.5
 21
-14.80003143075871
 31
0.0
 70
    32
  1
<>
  3
AM_JIS$0
100
AcDbAlignedDimension
 13
-129.0
 23
-4.234865101779198
 33
0.0
 14
-2.000000000000006
 24
-4.199999850860315
 34
0.0
 50
0.0000000000001132
100
AcDbRotatedDimension
1001
GENIUS_GENDTOL_13
1000

1000
h7
1000

1040
0.0
1001
ACAD
1000
DSTYLE
1002
{
1070
   271
1070
     0
1002
}
  0
DIMENSION
  5
DF5
330
1F
100
AcDbEntity
  8
AM_5
100
AcDbDimension
  2
*D6
 10
-2.000000000000007
 20
-11.50003143075863
 30
0.0
 11
-37.99999999923736
 21
-9.800031430758631
 31
0.0
 70
    32
  1
<>
  3
AM_JIS$0
100
AcDbAlignedDimension
 13
-73.99999999847472
 23
-4.500000388439782
 33
0.0
 14
-2.000000000000006
 24
-4.199999850860315
 34
0.0
 50
0.0000000000001527
100
AcDbRotatedDimension
1001
GENIUS_GENDTOL_13
1000

1000
h7
1000

1040
0.0
1001
ACAD
1000
DSTYLE
1002
{
1070
   271
1070
     0
1002
}
  0
TEXT
  5
19BD
330
1F
100
AcDbEntity
  8
AM_6
100
AcDbText
 10
-76.33331425984994
 20
-27.75003143075874
 30
0.0
 40
2.5
  1
MDW084LHK
 50
0.0000000000001527
 72
     4
 11
-65.49998092651661
 21
-26.50003143075871
 31
0.0
100
AcDbText
  0
LINE
  5
1C24
330
1F
100
AcDbEntity
  8
AM_0
 48
0.5
100
AcDbLine
 10
-128.9999618530333
 20
4.234815687510544
 30
0.0
 11
-128.7053273518916
 21
4.499981016489545
 31
0.0
  0
LINE
  5
1C25
330
1F
100
AcDbEntity
  8
AM_0
 48
0.5
100
AcDbLine
 10
-128.9999618530333
 20
-4.234842213595711
 30
0.0
 11
-128.7053273518916
 21
-4.50000754257546
 31
0.0
  0
LINE
  5
1C26
330
1F
100
AcDbEntity
  8
AM_0
 48
0.5
100
AcDbLine
 10
-128.705378214525
 20
-4.500030430758968
 30
0.0
 11
-128.705378214525
 21
4.500029653880044
 31
0.0
  0
LINE
  5
1C27
330
1F
100
AcDbEntity
  8
AM_0
 48
0.5
100
AcDbLine
 10
-129.0
 20
-4.234865101779198
 30
0.0
 11
-129.0
 21
4.234864324900297
 31
0.0
  0
LINE
  5
1C28
330
1F
100
AcDbEntity
  8
AM_0
100
AcDbLine
 10
-80.26791127523409
 20
4.499999611560396
 30
0.0
 11
-128.705378214525
 21
4.500015348764787
 31
0.0
  0
LINE
  5
1C2B
330
1F
100
AcDbEntity
  8
AM_0
 48
0.5
100
AcDbLine
 10
-73.99999999847472
 20
-4.500000388439782
 30
0.0
 11
-128.705378214525
 21
-4.500018986667214
 31
0.0
  0
LINE
  5
1C2C
330
1F
100
AcDbEntity
  8
AM_0
 48
0.5
100
AcDbLine
 10
-73.99999999999998
 20
4.501278224012891
 30
0.0
 11
-128.705378214525
 21
4.500015348764787
 31
0.0
  0
LINE
  5
1C2D
330
1F
100
AcDbEntity
  8
AM_0
 48
0.5
100
AcDbLine
 10
-73.99999999999998
 20
4.501278224012891
 30
0.0
 11
-128.705378214525
 21
4.500015348764787
 31
0.0
  0
LINE
  5
1EDD
330
1F
100
AcDbEntity
  8
AM_0
100
AcDbLine
 10
-74.0
 20
-4.500000389320357
 30
0.0
 11
-74.0
 21
4.501278224012891
 31
0.0
  0
LINE
  5
1EDF
330
1F
100
AcDbEntity
  8
AM_0
100
AcDbLine
 10
-73.99999999999991
 20
-4.500000389320357
 30
0.0
 11
-73.47935033422804
 21
-4.199403164633492
 31
0.0
  0
DIMENSION
  5
1EEB
330
1F
100
AcDbEntity
  8
AM_5
100
AcDbDimension
  2
*D7
 10
-138.4999755686908
 20
4.499981016489549
 30
0.0
 11
-140.1999755686908
 21
-0.0000132630429761
 31
0.0
 70
    32
  1
%%c<>
 51
359.9999999999998
  3
AM_JIS$0
100
AcDbAlignedDimension
 13
-128.7053273518916
 23
-4.50000754257546
 33
0.0
 14
-128.7053273518916
 24
4.499981016489545
 34
0.0
 50
270.0000000000002
100
AcDbRotatedDimension
1001
ACAD
1000
DSTYLE
1002
{
1070
   271
1070
     0
1002
}
1001
GENIUS_GENDTOL_13
1000

1000
h7
1000

1040
0.0
  0
LINE
  5
1FEC
330
1F
100
AcDbEntity
  8
AM_0
100
AcDbLine
 10
-74.0
 20
4.501278224012891
 30
0.0
 11
-73.47949893570633
 21
4.200766794429447
 31
0.0
  0
LINE
  5
2969
330
1F
100
AcDbEntity
  8
AM_0
100
AcDbLine
 10
-73.47937413166333
 20
-4.19941690408916
 30
0.0
 11
-73.47949893570635
 21
4.200766794429448
 31
0.0
  0
ELLIPSE
  5
29BD
330
1F
100
AcDbEntity
  8
AM_11
 48
0.5
100
AcDbEllipse
 10
-80.73167806602924
 20
17.88873487558483
 30
0.0
 11
-24.41816012064583
 21
0.0000000000003539
 31
0.0
210
0.0
220
0.0
230
1.0
 40
0.809999999999998
 41
1.130070686340299
 42
2.011520147323587
  0
ELLIPSE
  5
29BE
330
1F
100
AcDbEntity
  8
AM_11
 48
0.5
100
AcDbEllipse
 10
-80.73167806602999
 20
-17.88869069967136
 30
0.0
 11
-24.41816012064589
 21
0.0000000000003702
 31
0.0
210
0.0
220
0.0
230
0.9999999999999998
 40
0.8099999999999958
 41
4.271664206181682
 42
5.15311366716499
  0
ELLIPSE
  5
29BF
330
1F
100
AcDbEntity
  8
AM_11
 48
0.5
100
AcDbEllipse
 10
-101.5643989838648
 20
17.88873487558477
 30
0.0
 11
-24.41816012064583
 21
0.0000000000003539
 31
0.0
210
0.0
220
0.0
230
1.0
 40
0.809999999999998
 41
1.130070686340299
 42
2.011520147323587
  0
ELLIPSE
  5
29C0
330
1F
100
AcDbEntity
  8
AM_11
 48
0.5
100
AcDbEllipse
 10
-101.5643989838655
 20
-17.88869069967141
 30
0.0
 11
-24.41816012064589
 21
0.0000000000003702
 31
0.0
210
0.0
220
0.0
230
0.9999999999999998
 40
0.8099999999999958
 41
4.271664206181682
 42
5.15311366716499
  0
ELLIPSE
  5
29C1
330
1F
100
AcDbEntity
  8
AM_11
 48
0.5
100
AcDbEllipse
 10
-122.3977316674052
 20
17.88852152858116
 30
0.0
 11
-24.41816012064583
 21
0.0000000000003539
 31
0.0
210
0.0
220
0.0
230
1.0
 40
0.809999999999998
 41
1.297004949327763
 42
2.011520147323587
  0
ELLIPSE
  5
29C2
330
1F
100
AcDbEntity
  8
AM_11
 48
0.5
100
AcDbEllipse
 10
-122.397731667406
 20
-17.88890404667502
 30
0.0
 11
-24.41816012064589
 21
0.0000000000003702
 31
0.0
210
0.0
220
0.0
230
0.9999999999999998
 40
0.8099999999999958
 41
4.271664206181682
 42
4.986180357851814
  0
DIMENSION
  5
2A8C
330
1F
100
AcDbEntity
  8
AM_5
100
AcDbDimension
  2
*D8
 10
9.319888315414953
 20
-4.199999850860315
 30
0.0
 11
7.619888315414955
 21
0.0000001491396918
 31
0.0
 70
    32
  1
%%c<>
 51
359.9999999999998
  3
AM_JIS$0
100
AcDbAlignedDimension
 13
-1.999999999999975
 23
4.200000149139698
 33
0.0
 14
-2.000000000000004
 24
-4.199999850860312
 34
0.0
 50
89.99999999999896
100
AcDbRotatedDimension
1001
ACAD
1000
DSTYLE
1002
{
1070
   271
1070
     1
1002
}
1001
GENIUS_GENDTOL_13
1000

1000
h7
1000

1040
0.0
  0
ELLIPSE
  5
2B83
330
1F
100
AcDbEntity
  8
AM_0
 48
0.5
100
AcDbEllipse
 10
7.55885405733725
 20
-7.03999238840452
 30
0.0
 11
-7.019308446023166
 21
-7.019308446027135
 31
0.0
210
0.0
220
0.0
230
-1.0
 40
0.9999999999999978
 41
1.171329590070667
 42
1.424984195904709
  0
ELLIPSE
  5
2B84
330
1F
100
AcDbEntity
  8
AM_0
 48
0.5
100
AcDbEllipse
 10
7.558854057335247
 20
7.039992388406203
 30
0.0
 11
-7.019308446025163
 21
7.019308446025134
 31
0.0
210
0.0
220
0.0
230
0.9999999999999998
 40
0.999999999999998
 41
1.171329590070667
 42
1.424984195904709
  0
LINE
  5
2B85
330
1F
100
AcDbEntity
  8
AM_0
 48
0.5
100
AcDbLine
 10
-1.637813295996544
 20
-3.303323857078343
 30
0.0
 11
-2.000000000000004
 21
-4.199999850860312
 31
0.0
  0
LINE
  5
2B87
330
1F
100
AcDbEntity
  8
AM_0
 48
0.5
100
AcDbLine
 10
-1.637813295997512
 20
3.303323857077387
 30
0.0
 11
-1.999999999999975
 21
4.200000149139698
 31
0.0
  0
LINE
  5
2B88
330
1F
100
AcDbEntity
  8
AM_0
100
AcDbLine
 10
-0.0000000000000639
 20
0.0000000000000015
 30
0.0
 11
-0.4058444933443095
 21
-1.115048581273416
 31
0.0
  0
LINE
  5
2B89
330
1F
100
AcDbEntity
  8
AM_0
100
AcDbLine
 10
-0.4058444933443237
 20
1.115048581273418
 30
0.0
 11
-0.0000000000000639
 21
0.0000000000000015
 31
0.0
  0
DIMENSION
  5
2CA7
330
1F
100
AcDbEntity
  8
AM_5
100
AcDbDimension
  2
*D9
 10
-0.4058444933443095
 20
-1.115048581273416
 30
0.0
 11
12.47123818864485
 21
0.0000000000000835
 31
0.0
 70
    34
  1
<>
 51
359.9999999999998
  3
AM_JIS$2
100
AcDb2LineAngularDimension
 13
-0.4058444933443237
 23
1.115048581273418
 33
0.0
 14
-0.0000000000000639
 24
0.0000000000000015
 34
0.0
 15
-0.0000000000000639
 25
0.0000000000000015
 35
0.0
 16
12.87452674321848
 26
-5.553528741337792
 36
0.0
1001
ACAD
1000
DSTYLE
1002
{
1070
   179
1070
     3
1002
}
1001
GENIUS_GENDTOL_13
1000

1000
h7
1000

1040
0.0
  0
ELLIPSE
  5
306E
330
1F
100
AcDbEntity
  8
AM_0
 48
0.5
100
AcDbEllipse
 10
-6.75658653827817
 20
7.988862794978838
 30
0.0
 11
-5.427909955819367
 21
9.27540547793518
 31
0.0
210
0.0
220
0.0
230
1.0
 40
0.5907152423591741
 41
3.144544770635364
 42
3.428507308575047
  0
ELLIPSE
  5
306F
330
1F
100
AcDbEntity
  8
AM_0
 48
0.5
100
AcDbEllipse
 10
-1.593501803090358
 20
-1.492965517763792
 30
0.0
 11
-0.5434769792541169
 21
0.366573985223375
 31
0.0
210
0.0
220
0.0
230
1.0
 40
0.5204286943912419
 41
4.540392703085779
 42
7.68383304441529
  0
ELLIPSE
  5
3070
330
1F
100
AcDbEntity
  8
AM_0
 48
0.5
100
AcDbEllipse
 10
-1.593501803090358
 20
-1.492965517763792
 30
0.0
 11
-0.105233774614451
 21
0.6903532095313222
 31
0.0
210
0.0
220
0.0
230
0.9999999999999998
 40
0.4586133648580139
 41
1.82400163414823
 42
4.959343523860206
  0
LINE
  5
3071
330
1F
100
AcDbEntity
  8
AM_0
 48
0.5
100
AcDbLine
 10
-0.0000000000000142
 20
-0.0000000000000174
 30
0.0
 11
-1.766759044651613
 21
1.590274729321153
 31
0.0
  0
LINE
  5
3072
330
1F
100
AcDbEntity
  8
AM_0
100
AcDbLine
 10
-70.00000000000004
 20
-4.199403164633535
 30
0.0
 11
-73.47935033422804
 21
-4.199403164633491
 31
0.0
  0
LINE
  5
3073
330
1F
100
AcDbEntity
  8
AM_0
100
AcDbLine
 10
-70.07814563361359
 20
4.200766794429391
 30
0.0
 11
-73.47949893570635
 21
4.200766794429448
 31
0.0
  0
LINE
  5
3074
330
1F
100
AcDbEntity
  8
AM_0
 48
0.5
100
AcDbLine
 10
-4.698300679530692
 20
4.200000149139768
 30
0.0
 11
-1.999999999999975
 21
4.200000149139698
 31
0.0
  0
LINE
  5
3075
330
1F
100
AcDbEntity
  8
AM_0
 48
0.5
100
AcDbLine
 10
-4.698300679530913
 20
-4.199999850860233
 30
0.0
 11
-2.000000000000023
 21
-4.199999850860299
 31
0.0
  0
LINE
  5
3076
330
1F
100
AcDbEntity
  8
AM_0
 48
0.5
100
AcDbLine
 10
-34.69787979242298
 20
-4.199999850859563
 30
0.0
 11
-20.57240041097588
 21
-4.199999850859835
 31
0.0
  0
LINE
  5
3077
330
1F
100
AcDbEntity
  8
AM_11
 48
0.5
100
AcDbLine
 10
-48.51436565967845
 20
4.20059683536297
 30
0.0
 11
-38.38412379925365
 21
4.200000149140615
 31
0.0
  0
LINE
  5
3078
330
1F
100
AcDbEntity
  8
AM_0
 48
0.5
100
AcDbLine
 10
-60.57858911337731
 20
-4.199403164636815
 30
0.0
 11
-48.51436565967864
 21
-4.199403164637031
 31
0.0
  0
LINE
  5
3079
330
1F
100
AcDbEntity
  8
AM_11
 48
0.5
100
AcDbLine
 10
-48.51436565967857
 20
-4.199999850859209
 30
0.0
 11
-34.69787979242298
 21
-4.200596537081647
 31
0.0
  0
LINE
  5
307A
330
1F
100
AcDbEntity
  8
AM_0
 48
0.5
100
AcDbLine
 10
-38.38413747152237
 20
4.200000149140615
 30
0.0
 11
-15.51931663513625
 21
4.200000540629652
 31
0.0
  0
LINE
  5
307B
330
1F
100
AcDbEntity
  8
AM_11
 48
0.5
100
AcDbLine
 10
-15.51931663513625
 20
4.200000540629652
 30
0.0
 11
-4.698300679530692
 21
4.200000149139768
 31
0.0
  0
LINE
  5
307C
330
1F
100
AcDbEntity
  8
AM_11
 48
0.5
100
AcDbLine
 10
-20.57240041097588
 20
-4.199999850859835
 30
0.0
 11
-4.698300679530913
 21
-4.199999850860233
 31
0.0
  0
SPLINE
  5
307D
330
1F
100
AcDbEntity
  8
AM_0
 48
0.5
100
AcDbSpline
210
0.0
220
0.0
230
1.0
 70
     8
 71
     3
 72
    15
 73
    11
 74
     0
 42
0.0000000001
 43
0.0000000001
 40
0.0
 40
0.0
 40
0.0
 40
0.0
 40
1.010743614677189
 40
2.022833924044153
 40
3.037578959561199
 40
4.056212747067873
 40
5.079857613375832
 40
6.109500119648989
 40
7.14596120163808
 40
7.429850053969086
 40
7.429850053969086
 40
7.429850053969086
 40
7.429850053969086
 10
-4.698300679530692
 20
4.200000149139768
 30
0.0
 10
-4.979078404132247
 20
4.197503051718586
 30
0.0
 10
-5.541007955991336
 20
4.192505529793313
 30
0.0
 10
-6.383696720611506
 20
4.152179817912229
 30
0.0
 10
-7.226350792224381
 20
4.088096791245567
 30
0.0
 10
-8.068952457925234
 20
3.998272308619812
 30
0.0
 10
-8.911491682572352
 20
3.883924596198823
 30
0.0
 10
-9.753958175381969
 20
3.745583810900763
 30
0.0
 10
-10.39047538573882
 20
3.62359474685816
 30
0.0
 10
-10.74648339040856
 20
3.549472923737857
 30
0.0
 10
-10.8229526124702
 20
3.533282305104948
 30
0.0
  0
ELLIPSE
  5
307E
330
1F
100
AcDbEntity
  8
AM_0
 48
0.5
100
AcDbEllipse
 10
4.221711747704357
 20
-2.041045132326045
 30
0.0
 11
6.665362506087314
 21
0.7088650798688933
 31
0.0
210
0.0
220
0.0
230
0.9999999999999998
 40
0.7662497507723768
 41
3.010076967027938
 42
3.435696812109675
  0
ELLIPSE
  5
307F
330
1F
100
AcDbEntity
  8
AM_0
 48
0.5
100
AcDbEllipse
 10
-6.519358108524772
 20
7.049123160258
 30
0.0
 11
7.91860437798364
 21
8.548187498041928
 31
0.0
210
0.0
220
0.0
230
1.0
 40
0.8369085994624823
 41
4.368157273889227
 42
4.428087793087115
  0
ELLIPSE
  5
3080
330
1F
100
AcDbEntity
  8
AM_0
 48
0.5
100
AcDbEllipse
 10
3.619291857739114
 20
4.142728692482631
 30
0.0
 11
-0.000000000000192
 21
9.108219659123959
 31
0.0
210
0.0
220
0.0
230
1.0
 40
0.9128571428571387
 41
1.951257656000316
 42
2.322034022628302
  0
SPLINE
  5
3081
330
1F
100
AcDbEntity
  8
AM_0
 48
0.5
100
AcDbSpline
210
0.0
220
0.0
230
1.0
 70
     8
 71
     3
 72
    25
 73
    21
 74
     0
 42
0.0000000001
 43
0.0000000001
 40
6.846175049578289
 40
6.846175049578289
 40
6.846175049578289
 40
6.846175049578289
 40
7.604337694224321
 40
8.711974558287883
 40
9.814980593243754
 40
10.91239053451967
 40
12.0033633515982
 40
13.08720139956839
 40
14.16337181880432
 40
15.23152222380919
 40
16.29148850140128
 40
17.34331105512262
 40
18.38723020264746
 40
19.42369128463655
 40
20.45333379090873
 40
21.47697865721768
 40
22.49561244472435
 40
23.5103574802404
 40
24.52244778960836
 40
25.53320666051913
 40
25.53320666051913
 40
25.53320666051913
 40
25.53320666051913
 10
-4.100658820522157
 20
0.7602280374028738
 30
0.0
 10
-4.247447499737608
 20
0.8339725677303823
 30
0.0
 10
-4.608995858473553
 20
1.014716143999257
 30
0.0
 10
-5.185841196039269
 20
1.298548623310237
 30
0.0
 10
-5.83130826276797
 20
1.608146893578026
 30
0.0
 10
-6.476807790454653
 20
1.907853584283282
 30
0.0
 10
-7.12234532514329
 20
2.19582593014715
 30
0.0
 10
-7.767928059715058
 20
2.470287286296957
 30
0.0
 10
-8.41356196378245
 20
2.729545076964366
 30
0.0
 10
-9.059250026290397
 20
2.972005975372348
 30
0.0
 10
-9.705000200459412
 20
3.196161069916949
 30
0.0
 10
-10.35081161186666
 20
3.400635833136614
 30
0.0
 10
-10.99668889924002
 20
3.584154344649723
 30
0.0
 10
-11.64262978324882
 20
3.745580837001245
 30
0.0
 10
-12.28863174052153
 20
3.883925881288316
 30
0.0
 10
-12.93469117636086
 20
3.998272462387801
 30
0.0
 10
-13.58079803834143
 20
4.088097246567971
 30
0.0
 10
-14.22694520570987
 20
4.152180190399954
 30
0.0
 10
-14.87312218955061
 20
4.192506136243157
 30
0.0
 10
-15.30401302399478
 20
4.197503502255545
 30
0.0
 10
-15.51931663513624
 20
4.200000540629652
 30
0.0
  0
SPLINE
  5
3082
330
1F
100
AcDbEntity
  8
AM_0
 48
0.5
100
AcDbSpline
210
0.0
220
0.0
230
1.0
 70
     8
 71
     3
 72
    10
 73
     6
 74
     0
 42
0.0000000001
 43
0.0000000001
 40
0.0
 40
0.0
 40
0.0
 40
0.0
 40
2.69986029516136
 40
4.147722969032201
 40
6.285750005020438
 40
6.285750005020438
 40
6.285750005020438
 40
6.285750005020438
 10
-4.100555511479376
 20
0.760178152933962
 30
0.0
 10
-3.640660224011017
 20
0.369969129625874
 30
0.0
 10
-2.934135426931415
 20
-0.2294985286078474
 30
0.0
 10
-1.26329919102234
 20
0.06071426653046
 30
0.0
 10
-1.577966253512261
 20
1.03818936142497
 30
0.0
 10
-1.785878143503099
 20
1.633990537185805
 30
0.0
  0
ELLIPSE
  5
3083
330
1F
100
AcDbEntity
  8
AM_11
 48
0.5
100
AcDbEllipse
 10
2.601084391270662
 20
18.55126415379883
 30
0.0
 11
-24.41816012064569
 21
0.0000000000003756
 31
0.0
210
0.0
220
0.0
230
1.0
 40
0.8400000000000025
 41
1.130070686340292
 42
1.291800737380985
  0
ELLIPSE
  5
3084
330
1F
100
AcDbEntity
  8
AM_11
 48
0.5
100
AcDbEllipse
 10
-18.23224894206367
 20
-18.55125125757743
 30
0.0
 11
-24.41816012064577
 21
0.0000000000005762
 31
0.0
210
0.0
220
0.0
230
1.0
 40
0.8399999999999989
 41
4.271664206181683
 42
5.153113667164991
  0
ELLIPSE
  5
3085
330
1F
100
AcDbEntity
  8
AM_11
 48
0.5
100
AcDbEllipse
 10
-18.23224894206269
 20
18.55126415379936
 30
0.0
 11
-24.41816012064585
 21
0.0000000000006738
 31
0.0
210
0.0
220
0.0
230
1.0
 40
0.8399999999999973
 41
1.130070686340308
 42
2.011520147323594
  0
ELLIPSE
  5
3086
330
1F
100
AcDbEntity
  8
AM_11
 48
0.5
100
AcDbEllipse
 10
-39.06558227539603
 20
18.55126415379991
 30
0.0
 11
-24.4181601206458
 21
0.0000000000004732
 31
0.0
210
0.0
220
0.0
230
1.0
 40
0.8399999999999987
 41
1.130070686340298
 42
2.011520147323588
  0
ELLIPSE
  5
3087
330
1F
100
AcDbEntity
  8
AM_11
 48
0.5
100
AcDbEllipse
 10
-39.06558227539699
 20
-18.55125125757689
 30
0.0
 11
-24.41816012064577
 21
0.000000000000663
 31
0.0
210
0.0
220
0.0
230
1.0
 40
0.84
 41
4.271664206181687
 42
5.153113667164993
  0
SPLINE
  5
3088
330
1F
100
AcDbEntity
  8
AM_0
100
AcDbSpline
210
0.0
220
0.0
230
1.0
 70
     8
 71
     3
 72
    17
 73
    13
 74
     0
 42
0.0000000001
 43
0.0000000001
 40
1.580019955310467
 40
1.580019955310467
 40
1.580019955310467
 40
1.580019955310467
 40
2.030549285115227
 40
3.082371838836284
 40
4.126290986361125
 40
5.162752068350215
 40
6.192395305374981
 40
7.216039564037012
 40
8.234688489606833
 40
9.249433870634691
 40
10.26152376260694
 40
11.27226744710342
 40
11.27226744710342
 40
11.27226744710342
 40
11.27226744710352
 10
-12.63473130137892
 20
-3.099723526539547
 30
0.0
 10
-12.75395779626142
 20
-3.131648105341115
 30
0.0
 10
-13.152214344764
 20
-3.236285176500287
 30
0.0
 10
-13.83213703654881
 20
-3.400412166592821
 30
0.0
 10
-14.67432187433759
 20
-3.584212622561875
 30
0.0
 10
-15.51673856482373
 20
-3.745565019413763
 30
0.0
 10
-16.35919385454854
 20
-3.883927499535396
 30
0.0
 10
-17.20174092826731
 20
-3.998293607564454
 30
0.0
 10
-18.04434621114568
 20
-4.08801070655089
 30
0.0
 10
-18.88700396137397
 20
-4.152497399673562
 30
0.0
 10
-19.72969341804739
 20
-4.191338578599886
 30
0.0
 10
-20.29162274117673
 20
-4.19999987489246
 30
0.0
 10
-20.57240041097581
 20
-4.199999850859835
 30
0.0
  0
SPLINE
  5
3089
330
1F
100
AcDbEntity
  8
AM_0
100
AcDbSpline
210
0.0
220
0.0
230
1.0
 70
     8
 71
     3
 72
    22
 73
    18
 74
     0
 42
0.0000000001
 43
0.0000000001
 40
17.17441611292
 40
17.17441611292
 40
17.17441611292
 40
17.17441611292
 40
17.38177636558528
 40
18.41823744757437
 40
19.46215659509824
 40
20.51397914882054
 40
21.57394542641293
 40
22.64209583141747
 40
23.71826625065247
 40
24.80210429862395
 40
25.8930771157021
 40
26.99048705697709
 40
28.09349309193389
 40
29.20112995599786
 40
30.31233024745139
 40
31.42594771747373
 40
32.5407895042663
 40
32.54078950426994
 40
32.54078950426994
 40
32.54078950426994
 10
-23.78875945553777
 20
-3.771630248985798
 30
0.0
 10
-23.84518714288993
 20
-3.761907660929231
 30
0.0
 10
-24.18344031161121
 20
-3.702686314371606
 30
0.0
 10
-24.80310105621841
 20
-3.583939806693702
 30
0.0
 10
-25.64540314053016
 20
-3.400421581323272
 30
0.0
 10
-26.48761939602761
 20
-3.195946740560173
 30
0.0
 10
-27.32975576871031
 20
-2.971791667060618
 30
0.0
 10
-28.17181114617466
 20
-2.729330762842602
 30
0.0
 10
-29.01379589314593
 20
-2.470072974152948
 30
0.0
 10
-29.85571390825022
 20
-2.195611615944562
 30
0.0
 10
-30.69757298123116
 20
-1.907639276374774
 30
0.0
 10
-31.53938247302791
 20
-1.607932562374011
 30
0.0
 10
-32.3811496900389
 20
-1.298334379590016
 30
0.0
 10
-33.2228831060122
 20
-0.9807494283590811
 30
0.0
 10
-34.06459018218188
 20
-0.6571304966457871
 30
0.0
 10
-34.90628338770626
 20
-0.3294744881774249
 30
0.0
 10
-35.4673020485248
 20
-0.1097225535784674
 30
0.0
 10
-35.74796549479929
 20
0.0002137721879605
 30
0.0
  0
SPLINE
  5
308A
330
1F
100
AcDbEntity
  8
AM_0
100
AcDbSpline
210
0.0
220
0.0
230
1.0
 70
     8
 71
     3
 72
    11
 73
     7
 74
     0
 42
0.0000000001
 43
0.0000000001
 40
11.27226913003534
 40
11.27226913003534
 40
11.27226913003534
 40
11.2722691300354
 40
12.28301561507924
 40
13.29510212255852
 40
14.30984805882082
 40
15.18258238371378
 40
15.18258238371378
 40
15.18258238371378
 40
15.18258238371378
 10
-20.57240041097585
 20
-4.199999850859835
 30
0.0
 10
-20.85211042584445
 20
-4.179443830347798
 30
0.0
 10
-21.41100286930485
 20
-4.1296785993227
 30
0.0
 10
-22.24645551810998
 20
-4.029289818944377
 30
0.0
 10
-23.0393148131502
 20
-3.909386427982954
 30
0.0
 10
-23.55208966527529
 20
-3.817213122797078
 30
0.0
 10
-23.78839091838508
 20
-3.771682055953682
 30
0.0
  0
SPLINE
  5
308B
330
1F
100
AcDbEntity
  8
AM_0
100
AcDbSpline
210
0.0
220
0.0
230
1.0
 70
     8
 71
     3
 72
    55
 73
    51
 74
     0
 42
0.0000000001
 43
0.0000000001
 40
0.0
 40
0.0
 40
0.0
 40
0.0
 40
1.010743684496582
 40
2.022833576467832
 40
3.037578957496688
 40
4.056212745003489
 40
5.079857003664532
 40
6.109500240690281
 40
7.145961322679372
 40
8.189895241603872
 40
9.241717795325891
 40
10.30168407291828
 40
11.36983447792315
 40
12.44600489715814
 40
13.52984294512926
 40
14.62081576220742
 40
15.7182257034828
 40
16.82123173843959
 40
17.92886860250316
 40
19.0400688939571
 40
20.15368796660465
 40
21.26852814259644
 40
22.38336992938901
 40
23.49698739941135
 40
24.6081876908653
 40
25.71582455492886
 40
26.81883757994213
 40
27.91624752121713
 40
29.00722033829659
 40
30.09105838626677
 40
31.16722880550176
 40
32.23537921050758
 40
33.29534548809967
 40
34.347168041821
 40
35.39108718934584
 40
36.42754827133493
 40
37.45720575381954
 40
38.48085062012849
 40
39.49948440763516
 40
40.51422944315121
 40
41.52631975251916
 40
42.53706336719636
 40
43.54780698187354
 40
44.55989729124051
 40
45.57464232675757
 40
46.59327611426424
 40
47.6169209805722
 40
48.64656348684535
 40
49.68302456883444
 40
50.58557219878025
 40
50.58557219878025
 40
50.58557219878025
 40
50.58557219878025
 10
-4.698300679530913
 20
-4.199999850860233
 30
0.0
 10
-4.979078353034285
 20
-4.197500952611441
 30
0.0
 10
-5.541007667258039
 20
-4.192499827836345
 30
0.0
 10
-6.383697141805373
 20
-4.152185147681852
 30
0.0
 10
-7.226350645116363
 20
-4.088095337605618
 30
0.0
 10
-8.068951996448422
 20
-3.998271031264768
 30
0.0
 10
-8.911492787966466
 20
-3.883929520226681
 30
0.0
 10
-9.753956398224461
 20
-3.745579262969375
 30
0.0
 10
-10.59634564522583
 20
-3.584152236137948
 30
0.0
 10
-11.43865305868041
 20
-3.400636941607809
 30
0.0
 10
-12.28087290093958
 20
-3.196160152154608
 30
0.0
 10
-13.12300937000365
 20
-2.972005347448712
 30
0.0
 10
-13.96506472128204
 20
-2.729544370261961
 30
0.0
 10
-14.80704947558186
 20
-2.470286601766624
 30
0.0
 10
-15.64896748782296
 20
-2.19582523649773
 30
0.0
 10
-16.49082656489039
 20
-1.907852904839647
 30
0.0
 10
-17.33263604311524
 20
-1.608146166108258
 30
0.0
 10
-18.17440331066693
 20
-1.298548074945085
 30
0.0
 10
-19.01613653699271
 20
-0.9809627800474094
 30
0.0
 10
-19.85784472899573
 20
-0.6573449811743104
 30
0.0
 10
-20.69953526925819
 20
-0.3296841475579968
 30
0.0
 10
-21.54122004375418
 20
-0.000000707812376
 30
0.0
 10
-22.3829010397898
 20
0.3296886664406213
 30
0.0
 10
-23.22459440121547
 20
0.6573443975110731
 30
0.0
 10
-24.06630155411846
 20
0.9809631759568263
 30
0.0
 10
-24.90803628124526
 20
1.29854968071292
 30
0.0
 10
-25.74980704085136
 20
1.608145129711618
 30
0.0
 10
-26.59161784767398
 20
1.907853388373179
 30
0.0
 10
-27.43347704627787
 20
2.19582548651539
 30
0.0
 10
-28.27539502788427
 20
2.470286909502477
 30
0.0
 10
-29.11737978434006
 20
2.729544678377057
 30
0.0
 10
-29.95943515706625
 20
2.972005597587731
 30
0.0
 10
-30.80157153921265
 20
3.196160631176307
 30
0.0
 10
-31.64378776192033
 20
3.400635615102078
 30
0.0
 10
-32.48608996667643
 20
3.584153313224715
 30
0.0
 10
-33.32847890119511
 20
3.745583586150569
 30
0.0
 10
-34.17094852692566
 20
3.883918041887991
 30
0.0
 10
-35.01349210196039
 20
3.998294944040885
 30
0.0
 10
-35.85609370307719
 20
4.088012775260425
 30
0.0
 10
-36.69874779188944
 20
4.152491779406413
 30
0.0
 10
-37.54143655193653
 20
4.191345145748545
 30
0.0
 10
-38.38414382955807
 20
4.204324769822431
 30
0.0
 10
-39.22685110593967
 20
4.191345145728234
 30
0.0
 10
-40.06953986971375
 20
4.152491779488132
 30
0.0
 10
-40.91219394480425
 20
4.088012774952859
 30
0.0
 10
-41.75479559736722
 20
3.998294945197203
 30
0.0
 10
-42.5973348714358
 20
3.883918595146462
 30
0.0
 10
-43.43980117815667
 20
3.745585000545829
 30
0.0
 10
-44.24388851595189
 20
3.591481225594499
 30
0.0
 10
-44.76558953792033
 20
3.478783678125809
 30
0.0
 10
-45.00762840517893
 20
3.423860665526873
 30
0.0
  0
SPLINE
  5
308C
330
1F
100
AcDbEntity
  8
AM_0
100
AcDbSpline
210
0.0
220
0.0
230
1.0
 70
     8
 71
     3
 72
    46
 73
    42
 74
     0
 42
0.0000000001
 43
0.0000000001
 40
0.0
 40
0.0
 40
0.0
 40
0.0
 40
1.685415058684571
 40
2.531036209541119
 40
3.379897699130121
 40
4.232934581347656
 40
5.090970612202441
 40
5.954688180526683
 40
6.824620803463245
 40
7.70115181523969
 40
8.584457046566678
 40
9.474582384070743
 40
10.37139106676737
 40
11.27458944007584
 40
12.18373345430765
 40
13.09824173870457
 40
14.01741343450111
 40
14.9404441545541
 40
15.86644439743314
 40
16.79446029130534
 40
17.7234937712985
 40
18.65252725129241
 40
19.58054314516461
 40
20.5065433880429
 40
21.42957410809586
 40
22.34874580389318
 40
23.26325408828901
 40
24.17239810252112
 40
25.07560240389442
 40
25.97241108659103
 40
26.8625364240951
 40
27.74584165542183
 40
28.62236045019041
 40
29.49229307312697
 40
30.35601064145122
 40
31.21404606334469
 40
32.06708345193548
 40
32.9159575565769
 40
33.76157841950694
 40
34.6049870106469
 40
35.44727335621125
 40
35.44727335621125
 40
35.44727335621125
 40
35.44727335621125
 10
-2.339342753098408
 20
-4.199999850860289
 30
0.0
 10
-2.901299522292929
 20
-4.190431926196438
 30
0.0
 10
-3.745206145589728
 20
-4.176063498876653
 30
0.0
 10
-4.867385583867478
 20
-4.087599731489378
 30
0.0
 10
-5.709995988076823
 20
-3.998404721557717
 30
0.0
 10
-6.552534369155307
 20
-3.883893479994622
 30
0.0
 10
-7.394998507568356
 20
-3.745588704256148
 30
0.0
 10
-8.237384075412466
 20
-3.584151608995031
 30
0.0
 10
-9.079689661818385
 20
-3.400633854407228
 30
0.0
 10
-9.92191151822873
 20
-3.196162266672366
 30
0.0
 10
-10.764051328043
 20
-2.972005054404529
 30
0.0
 10
-11.6061068261612
 20
-2.729544449682715
 30
0.0
 10
-12.44809154065539
 20
-2.470286580230812
 30
0.0
 10
-13.29000956373961
 20
-2.195825242416616
 30
0.0
 10
-14.13186863763529
 20
-1.907852902900306
 30
0.0
 10
-14.97367811761162
 20
-1.608146167907275
 30
0.0
 10
-15.8154453813295
 20
-1.298548069667638
 30
0.0
 10
-16.65717862130829
 20
-0.9809627994581147
 30
0.0
 10
-17.49888676231978
 20
-0.6573449085247516
 30
0.0
 10
-18.34057749342294
 20
-0.3296844194133534
 30
0.0
 10
-19.18226114912519
 20
0.000000149073425
 30
0.0
 10
-20.02394480464251
 20
0.3296847179608362
 30
0.0
 10
-20.86563553630031
 20
0.6573452058709214
 30
0.0
 10
-21.70734367528454
 20
0.9809631011945521
 30
0.0
 10
-22.54907692278048
 20
1.298548355122169
 30
0.0
 10
-23.39084415862543
 20
1.608146513733467
 30
0.0
 10
-24.23265374182474
 20
1.907853025148996
 30
0.0
 10
-25.07451426406595
 20
2.195826817720139
 30
0.0
 10
-25.91643555843745
 20
2.470285661913951
 30
0.0
 10
-26.75842177490331
 20
2.729544860751425
 30
0.0
 10
-27.60047725341604
 20
2.972005537618171
 30
0.0
 10
-28.44261360381567
 20
3.196160690072787
 30
0.0
 10
-29.28482984867497
 20
3.400635440809904
 30
0.0
 10
-30.12713199684599
 20
3.58415394508782
 30
0.0
 10
-30.96951707716157
 20
3.745580478286635
 30
0.0
 10
-31.81198183321777
 20
3.883925367860122
 30
0.0
 10
-32.65452559144123
 20
3.998273085901919
 30
0.0
 10
-33.49713165389278
 20
4.088096012087223
 30
0.0
 10
-34.33978984797136
 20
4.152179940193661
 30
0.0
 10
-35.18247862991558
 20
4.192505499304627
 30
0.0
 10
-35.74440817946946
 20
4.197503041560739
 30
0.0
 10
-36.02518590291905
 20
4.200000149140557
 30
0.0
  0
SPLINE
  5
308D
330
1F
100
AcDbEntity
  8
AM_0
100
AcDbSpline
210
0.0
220
0.0
230
1.0
 70
     8
 71
     3
 72
    23
 73
    19
 74
     0
 42
0.0000000001
 43
0.0000000001
 40
16.03460024169435
 40
16.03460024169435
 40
16.03460024169435
 40
16.03460024169435
 40
16.35212704903564
 40
17.38177054169784
 40
18.41822485651776
 40
19.46214173629503
 40
20.51396345435107
 40
21.57393551351153
 40
22.64208202342361
 40
23.7182574881101
 40
24.80209208578934
 40
25.89306333925047
 40
26.99048218457928
 40
28.09348763352352
 40
29.20111863782268
 40
30.31232390128032
 40
31.42594612798585
 40
32.5407912310448
 40
32.5407912310486
 40
32.5407912310486
 40
32.5407912310486
 10
-48.51436565967845
 20
4.20059683536297
 30
0.0
 10
-48.42778967241501
 20
4.186418374981347
 30
0.0
 10
-48.06084259553408
 20
4.12467517063445
 30
0.0
 10
-47.41446136785909
 20
4.003698784917633
 30
0.0
 10
-46.57739598589251
 20
3.823808222341591
 30
0.0
 10
-45.74110810962557
 20
3.621821105289773
 30
0.0
 10
-44.90554832214074
 20
3.398906432171501
 30
0.0
 10
-44.07068696794042
 20
3.156306957279811
 30
0.0
 10
-43.23647579403923
 20
2.895409481520577
 30
0.0
 10
-42.40285670914167
 20
2.617732362760289
 30
0.0
 10
-41.56978234401734
 20
2.324848070332889
 30
0.0
 10
-40.73718590807358
 20
2.018460829692441
 30
0.0
 10
-39.90499992867992
 20
1.700351495855648
 30
0.0
 10
-39.07316895965799
 20
1.372349064132092
 30
0.0
 10
-38.2416234027209
 20
1.03636082374414
 30
0.0
 10
-37.41028623913918
 20
0.6943486995155017
 30
0.0
 10
-36.5790897746002
 20
0.3482945590924653
 30
0.0
 10
-36.02510763762784
 20
0.1162841799836485
 30
0.0
 10
-35.74796549479556
 20
0.0002137721864515
 30
0.0
  0
SPLINE
  5
308E
330
1F
100
AcDbEntity
  8
AM_0
100
AcDbSpline
210
0.0
220
0.0
230
1.0
 70
     8
 71
     3
 72
    11
 73
     7
 74
     0
 42
0.0000000001
 43
0.0000000001
 40
11.27226913003534
 40
11.27226913003534
 40
11.27226913003534
 40
11.2722691300354
 40
12.28301561507924
 40
13.29510212255852
 40
14.30984805882082
 40
15.18258238371378
 40
15.18258238371378
 40
15.18258238371378
 40
15.18258238371378
 10
-48.51436565967861
 20
-4.199403164637032
 30
0.0
 10
-48.79407567454721
 20
-4.178847144124999
 30
0.0
 10
-49.35296811800761
 20
-4.129081913099905
 30
0.0
 10
-50.18842076681274
 20
-4.028693132721582
 30
0.0
 10
-50.98128006185296
 20
-3.908789741760157
 30
0.0
 10
-51.49405491397805
 20
-3.816616436574281
 30
0.0
 10
-51.73035616708785
 20
-3.771085369730885
 30
0.0
  0
SPLINE
  5
308F
330
1F
100
AcDbEntity
  8
AM_0
100
AcDbSpline
210
0.0
220
0.0
230
1.0
 70
     8
 71
     3
 72
    17
 73
    13
 74
     0
 42
0.0000000001
 43
0.0000000001
 40
1.580019955310467
 40
1.580019955310467
 40
1.580019955310467
 40
1.580019955310467
 40
2.030549285115227
 40
3.082371838836284
 40
4.126290986361125
 40
5.162752068350215
 40
6.192395305374981
 40
7.216039564037012
 40
8.234688489606833
 40
9.249433870634691
 40
10.26152376260694
 40
11.27226744710342
 40
11.27226744710342
 40
11.27226744710342
 40
11.27226744710352
 10
-40.57669655008169
 20
-3.099126840316745
 30
0.0
 10
-40.6959230449642
 20
-3.131051419118319
 30
0.0
 10
-41.09417959346677
 20
-3.235688490277491
 30
0.0
 10
-41.77410228525157
 20
-3.399815480370024
 30
0.0
 10
-42.61628712304036
 20
-3.583615936339074
 30
0.0
 10
-43.45870381352649
 20
-3.744968333190964
 30
0.0
 10
-44.3011591032513
 20
-3.883330813312602
 30
0.0
 10
-45.14370617697006
 20
-3.997696921341658
 30
0.0
 10
-45.98631145984844
 20
-4.087414020328094
 30
0.0
 10
-46.82896921007673
 20
-4.151900713450767
 30
0.0
 10
-47.67165866675015
 20
-4.190741892377083
 30
0.0
 10
-48.23358798987949
 20
-4.199403188669664
 30
0.0
 10
-48.51436565967857
 20
-4.199403164637032
 30
0.0
  0
LINE
  5
3090
330
1F
100
AcDbEntity
  8
AM_11
 48
0.5
100
AcDbLine
 10
-70.07814563361359
 20
4.200766794429391
 30
0.0
 11
-66.24120923107513
 21
4.200465061055625
 31
0.0
  0
POLYLINE
  5
3091
330
1F
100
AcDbEntity
  8
AM_0
100
AcDb2dPolyline
 66
     1
 10
0.0
 20
0.0
 30
0.0
 70
     2
  0
VERTEX
  5
3092
330
3091
100
AcDbEntity
  8
AM_0
100
AcDbVertex
100
AcDb2dVertex
 10
-69.19996185303329
 20
-2.913370179189694
 30
0.0
 42
0.0351157762658453
  0
VERTEX
  5
3093
330
3091
100
AcDbEntity
  8
AM_0
100
AcDbVertex
100
AcDb2dVertex
 10
-69.36661158095422
 20
-2.880117121649545
 30
0.0
 42
0.044786481860755
 70
     1
  0
VERTEX
  5
3094
330
3091
100
AcDbEntity
  8
AM_0
100
AcDbVertex
100
AcDb2dVertex
 10
-69.49996185303328
 20
-2.874669425563811
 30
0.0
 42
0.0378244354854128
  0
VERTEX
  5
3095
330
3091
100
AcDbEntity
  8
AM_0
100
AcDbVertex
100
AcDb2dVertex
 10
-69.7744770875369
 20
-2.907905401664596
 30
0.0
 42
0.0785304530199817
 70
     1
  0
VERTEX
  5
3096
330
3091
100
AcDbEntity
  8
AM_0
100
AcDbVertex
100
AcDb2dVertex
 10
-69.89996185303329
 20
-2.95343586700672
 30
0.0
 42
0.0914341172496281
  0
VERTEX
  5
3097
330
3091
100
AcDbEntity
  8
AM_0
100
AcDbVertex
100
AcDb2dVertex
 10
-69.98058015419961
 20
-3.019060658646621
 30
0.0
 42
0.1734786634335468
 70
     1
  0
VERTEX
  5
3098
330
3091
100
AcDbEntity
  8
AM_0
100
AcDbVertex
100
AcDb2dVertex
 10
-69.99996185303328
 20
-3.070903062075514
 30
0.0
 42
0.1707159826348874
  0
VERTEX
  5
3099
330
3091
100
AcDbEntity
  8
AM_0
100
AcDbVertex
100
AcDb2dVertex
 10
-69.98134133135517
 20
-3.123727067190393
 30
0.0
 42
0.0878858945849485
 70
     1
  0
VERTEX
  5
309A
330
3091
100
AcDbEntity
  8
AM_0
100
AcDbVertex
100
AcDb2dVertex
 10
-69.89996185303329
 20
-3.194249871859473
 30
0.0
 42
0.0737173247185441
  0
VERTEX
  5
309B
330
3091
100
AcDbEntity
  8
AM_0
100
AcDbVertex
100
AcDb2dVertex
 10
-69.77167479637069
 20
-3.247704004937088
 30
0.0
 42
0.037064748993984
 70
     1
  0
VERTEX
  5
309C
330
3091
100
AcDbEntity
  8
AM_0
100
AcDbVertex
100
AcDb2dVertex
 10
-69.49996185303328
 20
-3.296534772163033
 30
0.0
 42
0.0449345368811406
  0
VERTEX
  5
309D
330
3091
100
AcDbEntity
  8
AM_0
100
AcDbVertex
100
AcDb2dVertex
 10
-69.36895573240554
 20
-3.298845218593605
 30
0.0
 42
0.0344667769950814
 70
     1
  0
VERTEX
  5
309E
330
3091
100
AcDbEntity
  8
AM_0
100
AcDbVertex
100
AcDb2dVertex
 10
-69.19996185303329
 20
-3.275472862682635
 30
0.0
  0
SEQEND
  5
309F
330
3091
100
AcDbEntity
  8
AM_0
  0
POLYLINE
  5
30A0
330
1F
100
AcDbEntity
  8
AM_0
100
AcDb2dPolyline
 66
     1
 10
0.0
 20
0.0
 30
0.0
 70
     2
  0
VERTEX
  5
30A1
330
30A0
100
AcDbEntity
  8
AM_0
100
AcDbVertex
100
AcDb2dVertex
 10
-68.49996185303317
 20
4.11457701174733
 30
0.0
 42
0.0276737331564208
  0
VERTEX
  5
30A2
330
30A0
100
AcDbEntity
  8
AM_0
100
AcDbVertex
100
AcDb2dVertex
 10
-68.84235679135611
 20
4.042557432307456
 30
0.0
 42
0.0414024687830266
 70
     1
  0
VERTEX
  5
30A3
330
30A0
100
AcDbEntity
  8
AM_0
100
AcDbVertex
100
AcDb2dVertex
 10
-69.06246185303317
 20
3.964032435786604
 30
0.0
 42
0.0280074108471844
  0
VERTEX
  5
30A4
330
30A0
100
AcDbEntity
  8
AM_0
100
AcDbVertex
100
AcDb2dVertex
 10
-69.56430950741453
 20
3.703233430685516
 30
0.0
 42
0.0512701366748525
 70
     1
  0
VERTEX
  5
30A5
330
30A0
100
AcDbEntity
  8
AM_0
100
AcDbVertex
100
AcDb2dVertex
 10
-69.81246185303326
 20
3.519963004441518
 30
0.0
 42
0.0658714570033076
  0
VERTEX
  5
30A6
330
30A0
100
AcDbEntity
  8
AM_0
100
AcDbVertex
100
AcDb2dVertex
 10
-69.96820509726228
 20
3.335417098847464
 30
0.0
 42
0.1411961588081283
 70
     1
  0
VERTEX
  5
30A7
330
30A0
100
AcDbEntity
  8
AM_0
100
AcDbVertex
100
AcDb2dVertex
 10
-69.99996185303328
 20
3.226438149057155
 30
0.0
 42
0.1226739033459629
  0
VERTEX
  5
30A8
330
30A0
100
AcDbEntity
  8
AM_0
100
AcDbVertex
100
AcDb2dVertex
 10
-69.96898108799836
 20
3.106616947181034
 30
0.0
 42
0.0555312784770531
 70
     1
  0
VERTEX
  5
30A9
330
30A0
100
AcDbEntity
  8
AM_0
100
AcDbVertex
100
AcDb2dVertex
 10
-69.81246185303328
 20
2.884324333976441
 30
0.0
 42
0.0351528005485752
  0
VERTEX
  5
30AA
330
30A0
100
AcDbEntity
  8
AM_0
100
AcDbVertex
100
AcDb2dVertex
 10
-69.55950470542257
 20
2.636396814872523
 30
0.0
 42
0.0197318127063559
 70
     1
  0
VERTEX
  5
30AB
330
30A0
100
AcDbEntity
  8
AM_0
100
AcDbVertex
100
AcDb2dVertex
 10
-69.06246185303328
 20
2.245899063845937
 30
0.0
 42
0.0358460074876439
  0
VERTEX
  5
30AC
330
30A0
100
AcDbEntity
  8
AM_0
100
AcDbVertex
100
AcDb2dVertex
 10
-68.85859988186004
 20
2.119315092429186
 30
0.0
 42
0.021710998496176
 70
     1
  0
VERTEX
  5
30AD
330
30A0
100
AcDbEntity
  8
AM_0
100
AcDbVertex
100
AcDb2dVertex
 10
-68.49996185303329
 20
1.949587608796151
 30
0.0
  0
SEQEND
  5
30AE
330
30A0
100
AcDbEntity
  8
AM_0
  0
SPLINE
  5
30AF
330
1F
100
AcDbEntity
  8
AM_0
100
AcDbSpline
210
0.0
220
0.0
230
1.0
 70
     8
 71
     3
 72
    13
 73
     9
 74
     0
 42
0.0000000001
 43
0.0000000001
 40
26.13201924531566
 40
26.13201924531566
 40
26.13201924531566
 40
26.13201924531566
 40
26.99048218457928
 40
28.09348763352352
 40
29.20111863782268
 40
30.31232390128032
 40
31.42594612798585
 40
32.5407912310448
 40
32.5407912310486
 40
32.5407912310486
 40
32.5407912310486
 10
-68.49996185397071
 20
1.949587609150627
 30
0.0
 10
-68.2825155802831
 20
1.867361921835835
 30
0.0
 10
-67.78687823658049
 20
1.677255072021332
 30
0.0
 10
-67.01513420836075
 20
1.37294575035489
 30
0.0
 10
-66.18358865142366
 20
1.036957509966937
 30
0.0
 10
-65.35225148784194
 20
0.6949453857382998
 30
0.0
 10
-64.52105502330296
 20
0.348891245315263
 30
0.0
 10
-63.96707288633059
 20
0.1168808662064459
 30
0.0
 10
-63.68993074349832
 20
0.000810458409249
 30
0.0
  0
ELLIPSE
  5
30B0
330
1F
100
AcDbEntity
  8
AM_0
100
AcDbEllipse
 10
-68.8958761298883
 20
-4.319056208250027
 30
0.0
 11
1.110905683272515
 21
0.0014202882817964
 31
0.0
210
0.0
220
0.0
230
1.0
 40
0.9767174994578688
 41
1.846814068313507
 42
3.029783909722107
  0
SPLINE
  5
30B1
330
1F
100
AcDbEntity
  8
AM_0
100
AcDbSpline
210
0.0
220
0.0
230
1.0
 70
     8
 71
     3
 72
     9
 73
     5
 74
     0
 42
0.0000000001
 43
0.0000000001
 40
1.580019955310467
 40
1.580019955310467
 40
1.580019955310467
 40
1.580019955310467
 40
2.030549285115227
 40
2.43907978603305
 40
2.43907978603305
 40
2.43907978603305
 40
2.43907978603305
 10
-68.51539061115488
 20
-3.099723526538302
 30
0.0
 10
-68.63461710603738
 20
-3.131648105339873
 30
0.0
 10
-68.86234418309062
 20
-3.191480629013586
 30
0.0
 10
-69.09102329503953
 20
-3.248763206019488
 30
0.0
 10
-69.19996185303327
 20
-3.275472862682606
 30
0.0
  0
ELLIPSE
  5
30B2
330
1F
100
AcDbEntity
  8
AM_0
100
AcDbEllipse
 10
-68.65547044702736
 20
15.22562165285671
 30
0.0
 11
-11.37665620356102
 21
0.0000000000017235
 31
0.0
210
0.0
220
0.0
230
1.0
 40
0.9767441860464623
 41
1.445415944841958
 42
1.584465847457714
  0
LINE
  5
30B3
330
1F
100
AcDbEntity
  8
AM_11
100
AcDbLine
 10
-70.00000000000004
 20
-4.199403164633535
 30
0.0
 11
-59.82341580391164
 21
-4.199403164633682
 31
0.0
  0
SPLINE
  5
30B4
330
1F
100
AcDbEntity
  8
AM_0
100
AcDbSpline
210
0.0
220
0.0
230
1.0
 70
     8
 71
     3
 72
    15
 73
    11
 74
     0
 42
0.0000000001
 43
0.0000000001
 40
5.241236682593577
 40
5.241236682593577
 40
5.241236682593577
 40
5.241236682593577
 40
5.954688180526682
 40
6.824620803463244
 40
7.701151815239697
 40
8.58445704656667
 40
9.47458238407075
 40
10.37139106676736
 40
11.27458944007584
 40
12.17321262433756
 40
12.17321262433756
 40
12.17321262433756
 40
12.17321262433756
 10
-63.41943130396844
 20
-0.1051333353095019
 30
0.0
 10
-63.6518303372541
 20
-0.1480488141512136
 30
0.0
 10
-64.16616337663248
 20
-0.2489121051163381
 30
0.0
 10
-64.95997809566474
 20
-0.4238302600382819
 30
0.0
 10
-65.80219995207507
 20
-0.630625388542828
 30
0.0
 10
-66.64433976188937
 20
-0.8573298418591457
 30
0.0
 10
-67.48639526000754
 20
-1.102545680725486
 30
0.0
 10
-68.32837997450173
 20
-1.364749662330239
 30
0.0
 10
-69.16702845811032
 20
-1.64125191242218
 30
0.0
 10
-69.72332513896439
 20
-1.833652295779039
 30
0.0
 10
-70.0
 20
-1.931252159236749
 30
0.0
  0
SPLINE
  5
30B5
330
1F
100
AcDbEntity
  8
AM_0
100
AcDbSpline
210
0.0
220
0.0
230
1.0
 70
     8
 71
     3
 72
    20
 73
    16
 74
     0
 42
0.0000000001
 43
0.0000000001
 40
1.604714676203542
 40
1.604714676203542
 40
1.604714676203542
 40
1.604714676203542
 40
1.685415058684573
 40
2.531036209541122
 40
3.379897699130124
 40
4.232934581347659
 40
5.09097061220244
 40
5.954688180526682
 40
6.824620803463244
 40
7.701151815239697
 40
8.58445704656667
 40
9.47458238407075
 40
10.37139106676736
 40
11.27458944007584
 40
12.17321262433756
 40
12.17321262433756
 40
12.17321262433756
 40
12.17321262433756
 10
-59.82341580391164
 20
-4.199403164633682
 30
0.0
 10
-59.85025462711001
 20
-4.19792998451214
 30
0.0
 10
-60.1582852063245
 20
-4.180437112563073
 30
0.0
 10
-60.74767401771387
 20
-4.133446365938586
 30
0.0
 10
-61.59028442192322
 20
-4.043237776348614
 30
0.0
 10
-62.4328228030017
 20
-3.927425270676852
 30
0.0
 10
-63.27528694141476
 20
-3.787548849759537
 30
0.0
 10
-64.11767250925885
 20
-3.624277242052273
 30
0.0
 10
-64.95997809566474
 20
-3.438674058435061
 30
0.0
 10
-65.80219995207507
 20
-3.231878929930491
 30
0.0
 10
-66.64433976188937
 20
-3.00517447661415
 30
0.0
 10
-67.48639526000754
 20
-2.759958637747787
 30
0.0
 10
-68.32837997450173
 20
-2.497754656143009
 30
0.0
 10
-69.16702845811032
 20
-2.221252406051044
 30
0.0
 10
-69.72332513896439
 20
-2.028852022694171
 30
0.0
 10
-70.0
 20
-1.931252159236453
 30
0.0
  0
SPLINE
  5
30B6
330
1F
100
AcDbEntity
  8
AM_0
100
AcDbSpline
210
0.0
220
0.0
230
1.0
 70
     8
 71
     3
 72
    50
 73
    46
 74
     0
 42
0.0000000001
 43
0.0000000001
 40
0.0
 40
0.0
 40
0.0
 40
0.0
 40
1.010743684496582
 40
2.022833576467832
 40
3.037578957496688
 40
4.056212745003489
 40
5.079857003664532
 40
6.109500240690281
 40
7.145961322679372
 40
8.189895241603872
 40
9.241717795325891
 40
10.30168407291828
 40
11.36983447792315
 40
12.44600489715814
 40
13.52984294512926
 40
14.62081576220742
 40
15.7182257034828
 40
16.82123173843959
 40
17.92886860250316
 40
19.0400688939571
 40
20.15368796660465
 40
21.26852814259644
 40
22.38336992938901
 40
23.49698739941135
 40
24.6081876908653
 40
25.71582455492886
 40
26.81883757994213
 40
27.91624752121713
 40
29.00722033829659
 40
30.09105838626677
 40
31.16722880550176
 40
32.23537921050758
 40
33.29534548809967
 40
34.347168041821
 40
35.39108718934584
 40
36.42754827133493
 40
37.45720575381954
 40
38.48085062012849
 40
39.49948440763516
 40
40.51422944315121
 40
41.52631975251916
 40
42.53706336719636
 40
43.54780698187354
 40
44.55989729124051
 40
45.14939243453665
 40
45.14939243453665
 40
45.14939243453665
 40
45.14939243453665
 10
-32.64026592823365
 20
-4.199403164637435
 30
0.0
 10
-32.92104360173703
 20
-4.196904266388647
 30
0.0
 10
-33.48297291596078
 20
-4.191903141613551
 30
0.0
 10
-34.32566239050812
 20
-4.151588461459057
 30
0.0
 10
-35.1683158938191
 20
-4.08749865138282
 30
0.0
 10
-36.01091724515117
 20
-3.997674345041972
 30
0.0
 10
-36.85345803666921
 20
-3.883332834003882
 30
0.0
 10
-37.69592164692722
 20
-3.744982576746578
 30
0.0
 10
-38.5383108939286
 20
-3.583555549915149
 30
0.0
 10
-39.38061830738318
 20
-3.400040255385015
 30
0.0
 10
-40.22283814964235
 20
-3.195563465931812
 30
0.0
 10
-41.06497461870644
 20
-2.971408661225914
 30
0.0
 10
-41.90702996998482
 20
-2.728947684039161
 30
0.0
 10
-42.74901472428465
 20
-2.469689915543828
 30
0.0
 10
-43.59093273652576
 20
-2.195228550274935
 30
0.0
 10
-44.4327918135932
 20
-1.90725621861685
 30
0.0
 10
-45.27460129181796
 20
-1.607549479885462
 30
0.0
 10
-46.11636855936964
 20
-1.297951388722287
 30
0.0
 10
-46.95810178569543
 20
-0.9803660938246128
 30
0.0
 10
-47.79980997769849
 20
-0.6567482949515128
 30
0.0
 10
-48.64150051796094
 20
-0.3290874613351991
 30
0.0
 10
-49.48318529245695
 20
0.0005959784104215
 30
0.0
 10
-50.32486628849255
 20
0.3302853526634189
 30
0.0
 10
-51.16655964991824
 20
0.6579410837338702
 30
0.0
 10
-52.00826680282126
 20
0.9815598621796228
 30
0.0
 10
-52.85000152994808
 20
1.299146366935718
 30
0.0
 10
-53.69177228955417
 20
1.608741815934416
 30
0.0
 10
-54.53358309637669
 20
1.908450074595977
 30
0.0
 10
-55.37544229498058
 20
2.19642217273819
 30
0.0
 10
-56.21736027658699
 20
2.470883595725273
 30
0.0
 10
-57.0593450330428
 20
2.730141364599853
 30
0.0
 10
-57.90140040576901
 20
2.972602283810532
 30
0.0
 10
-58.74353678791541
 20
3.196757317399107
 30
0.0
 10
-59.58575301062309
 20
3.401232301324875
 30
0.0
 10
-60.42805521537919
 20
3.584749999447511
 30
0.0
 10
-61.27044414989788
 20
3.746180272373369
 30
0.0
 10
-62.11291377562842
 20
3.88451472811079
 30
0.0
 10
-62.95545735066315
 20
3.998891630263688
 30
0.0
 10
-63.79805895177995
 20
4.08860946148323
 30
0.0
 10
-64.64071304059212
 20
4.153088465629211
 30
0.0
 10
-65.4834018006392
 20
4.191941831971339
 30
0.0
 10
-66.32610907826074
 20
4.20492145604523
 30
0.0
 10
-67.16881635464234
 20
4.19194183195103
 30
0.0
 10
-67.893531788096
 20
4.158527794211021
 30
0.0
 10
-68.33692150531184
 20
4.127435176099357
 30
0.0
 10
-68.49996185303315
 20
4.114577011747331
 30
0.0
  0
ELLIPSE
  5
30B7
330
1F
100
AcDbEntity
  8
AM_11
 48
0.5
100
AcDbEllipse
 10
-59.89895714819454
 20
-18.55123479965876
 30
0.0
 11
-24.41816012064584
 21
0.0000000000005925
 31
0.0
210
0.0
220
0.0
230
1.0
 40
0.839999999999997
 41
4.271664206181685
 42
5.153113667164992
  0
ELLIPSE
  5
30B8
330
1F
100
AcDbEntity
  8
AM_11
 48
0.5
100
AcDbEllipse
 10
-59.89895714819359
 20
18.55128061171803
 30
0.0
 11
-24.41816012064579
 21
0.0000000000005491
 31
0.0
210
0.0
220
0.0
230
1.0
 40
0.8399999999999989
 41
1.1300706863403
 42
2.011520147323588
  0
SPLINE
  5
30B9
330
1F
100
AcDbEntity
  8
AM_0
100
AcDbSpline
210
0.0
220
0.0
230
1.0
 70
     8
 71
     3
 72
    22
 73
    18
 74
     0
 42
0.0000000001
 43
0.0000000001
 40
17.17441611292
 40
17.17441611292
 40
17.17441611292
 40
17.17441611292
 40
17.38177636558528
 40
18.41823744757437
 40
19.46215659509824
 40
20.51397914882054
 40
21.57394542641293
 40
22.64209583141747
 40
23.71826625065247
 40
24.80210429862395
 40
25.8930771157021
 40
26.99048705697709
 40
28.09349309193389
 40
29.20112995599786
 40
30.31233024745139
 40
31.42594771747373
 40
32.5407895042663
 40
32.54078950426994
 40
32.54078950426994
 40
32.54078950426994
 10
-51.73072470424053
 20
-3.771033562763001
 30
0.0
 10
-51.78715239159269
 20
-3.761310974706433
 30
0.0
 10
-52.12540556031397
 20
-3.702089628148808
 30
0.0
 10
-52.74506630492117
 20
-3.583343120470906
 30
0.0
 10
-53.58736838923292
 20
-3.399824895100473
 30
0.0
 10
-54.42958464473037
 20
-3.195350054337376
 30
0.0
 10
-55.27172101741308
 20
-2.971194980837823
 30
0.0
 10
-56.11377639487744
 20
-2.728734076619806
 30
0.0
 10
-56.95576114184874
 20
-2.469476287930148
 30
0.0
 10
-57.79767915695303
 20
-2.195014929721766
 30
0.0
 10
-58.63953822993397
 20
-1.907042590151978
 30
0.0
 10
-59.48134772173063
 20
-1.607335876151212
 30
0.0
 10
-60.32311493874167
 20
-1.297737693367217
 30
0.0
 10
-61.16484835471496
 20
-0.9801527421362832
 30
0.0
 10
-62.00655543088465
 20
-0.6565338104229898
 30
0.0
 10
-62.84824863640903
 20
-0.3288778019546274
 30
0.0
 10
-63.40926729722757
 20
-0.1091258673556699
 30
0.0
 10
-63.68993074350206
 20
0.000810458410758
 30
0.0
  0
SPLINE
  5
30BA
330
1F
100
AcDbEntity
  8
AM_0
100
AcDbSpline
210
0.0
220
0.0
230
1.0
 70
     8
 71
     3
 72
    46
 73
    42
 74
     0
 42
0.0000000001
 43
0.0000000001
 40
0.0
 40
0.0
 40
0.0
 40
0.0
 40
1.685415058684573
 40
2.531036209541122
 40
3.379897699130124
 40
4.232934581347659
 40
5.09097061220244
 40
5.954688180526682
 40
6.824620803463244
 40
7.701151815239691
 40
8.584457046566678
 40
9.474582384070743
 40
10.37139106676737
 40
11.27458944007584
 40
12.18373345430765
 40
13.09824173870457
 40
14.01741343450111
 40
14.9404441545541
 40
15.86644439743314
 40
16.79446029130534
 40
17.7234937712985
 40
18.65252725129241
 40
19.58054314516461
 40
20.5065433880429
 40
21.42957410809587
 40
22.34874580389318
 40
23.26325408828902
 40
24.17239810252112
 40
25.07560240389442
 40
25.97241108659103
 40
26.8625364240951
 40
27.74584165542184
 40
28.62236045019042
 40
29.49229307312698
 40
30.35601064145123
 40
31.2140460633447
 40
32.06708345193549
 40
32.9159575565769
 40
33.76157841950695
 40
34.60498701064691
 40
35.44727335621126
 40
35.44727335621126
 40
35.44727335621126
 40
35.44727335621126
 10
-30.28130800180115
 20
-4.199403164637494
 30
0.0
 10
-30.84326477099567
 20
-4.189835239973639
 30
0.0
 10
-31.68717139429249
 20
-4.175466812653858
 30
0.0
 10
-32.80935083257022
 20
-4.087003045266575
 30
0.0
 10
-33.65196123677957
 20
-3.99780803533492
 30
0.0
 10
-34.49449961785806
 20
-3.883296793771823
 30
0.0
 10
-35.33696375627111
 20
-3.744992018033354
 30
0.0
 10
-36.17934932411521
 20
-3.583554922772235
 30
0.0
 10
-37.02165491052113
 20
-3.400037168184429
 30
0.0
 10
-37.86387676693149
 20
-3.195565580449566
 30
0.0
 10
-38.70601657674578
 20
-2.971408368181733
 30
0.0
 10
-39.54807207486398
 20
-2.728947763459921
 30
0.0
 10
-40.39005678935818
 20
-2.469689894008015
 30
0.0
 10
-41.2319748124424
 20
-2.195228556193817
 30
0.0
 10
-42.0738338863381
 20
-1.907256216677507
 30
0.0
 10
-42.91564336631433
 20
-1.60754948168448
 30
0.0
 10
-43.75741063003224
 20
-1.297951383444838
 30
0.0
 10
-44.59914387001099
 20
-0.9803661132353196
 30
0.0
 10
-45.44085201102254
 20
-0.6567482223019524
 30
0.0
 10
-46.2825427421257
 20
-0.3290877331905565
 30
0.0
 10
-47.12422639782795
 20
0.0005968352962242
 30
0.0
 10
-47.96591005334528
 20
0.3302814041836322
 30
0.0
 10
-48.80760078500308
 20
0.6579418920937181
 30
0.0
 10
-49.64930892398737
 20
0.9815597874173493
 30
0.0
 10
-50.49104217148328
 20
1.299145041344966
 30
0.0
 10
-51.33280940732826
 20
1.608743199956265
 30
0.0
 10
-52.17461899052746
 20
1.908449711371793
 30
0.0
 10
-53.01647951276866
 20
2.196423503942936
 30
0.0
 10
-53.85840080714016
 20
2.470882348136752
 30
0.0
 10
-54.70038702360604
 20
2.730141546974225
 30
0.0
 10
-55.5424425021188
 20
2.972602223840967
 30
0.0
 10
-56.38457885251844
 20
3.196757376295585
 30
0.0
 10
-57.22679509737774
 20
3.401232127032705
 30
0.0
 10
-58.06909724554873
 20
3.58475063131062
 30
0.0
 10
-58.91148232586436
 20
3.746177164509432
 30
0.0
 10
-59.75394708192052
 20
3.884522054082921
 30
0.0
 10
-60.59649084014401
 20
3.998869772124718
 30
0.0
 10
-61.43909690259554
 20
4.088692698310016
 30
0.0
 10
-62.28175509667414
 20
4.152776626416461
 30
0.0
 10
-63.12444387861834
 20
4.193102185527423
 30
0.0
 10
-63.68637342817223
 20
4.198099727783535
 30
0.0
 10
-63.96715115162181
 20
4.200596835363353
 30
0.0
  0
SPLINE
  5
30BB
330
1F
100
AcDbEntity
  8
AM_0
100
AcDbSpline
210
0.0
220
0.0
230
1.0
 70
     8
 71
     3
 72
    18
 73
    14
 74
     0
 42
0.0000000001
 43
0.0000000001
 40
0.0
 40
0.0
 40
0.0
 40
0.0
 40
1.010743684496582
 40
2.022833576467832
 40
3.037578957496688
 40
4.056212745003489
 40
5.079857003664532
 40
6.109500240690281
 40
7.145961322679372
 40
8.189895241603872
 40
9.241717795325891
 40
10.30168407291828
 40
10.55450228288433
 40
10.55450228288433
 40
10.55450228288433
 40
10.55450228288433
 10
-60.57858911337731
 20
-4.199403164636815
 30
0.0
 10
-60.85936678688069
 20
-4.196904266388026
 30
0.0
 10
-61.42129610110444
 20
-4.191903141612927
 30
0.0
 10
-62.26398557565178
 20
-4.151588461458438
 30
0.0
 10
-63.10663907896277
 20
-4.087498651382198
 30
0.0
 10
-63.94924043029483
 20
-3.997674345041351
 30
0.0
 10
-64.79178122181297
 20
-3.883332834003263
 30
0.0
 10
-65.63424483207097
 20
-3.744982576745956
 30
0.0
 10
-66.47663407907227
 20
-3.583555549914529
 30
0.0
 10
-67.31894149252679
 20
-3.40004025538439
 30
0.0
 10
-68.16116133478593
 20
-3.195563465931193
 30
0.0
 10
-68.78737513212027
 20
-3.028881655319642
 30
0.0
 10
-69.13338691028164
 20
-2.932150317615328
 30
0.0
 10
-69.19996185303299
 20
-2.913370179188676
 30
0.0
  0
LINE
  5
30BC
330
1F
100
AcDbEntity
  8
AM_0
 48
0.5
100
AcDbLine
 10
-66.32610272022505
 20
4.200596835363413
 30
0.0
 11
-48.51436565967845
 21
4.20059683536297
 31
0.0
  0
VIEWPORT
  5
110
330
101
100
AcDbEntity
 67
     1
  8
0
100
AcDbViewport
 10
420.5
 20
297.0
 30
0.0
 40
948.9782706766916
 41
628.452
 68
     1
 69
     1
1001
ACAD
1000
MVIEW
1002
{
1070
    16
1010
0.0
1020
0.0
1030
0.0
1010
0.0
1020
0.0
1030
1.0
1040
0.0
1040
628.452
1040
420.5
1040
297.0
1040
50.0
1040
0.0
1040
0.0
1070
     0
1070
   100
1070
     1
1070
     1
1070
     0
1070
     0
1070
     0
1070
     0
1040
0.0
1040
0.0
1040
0.0
1040
10.0
1040
10.0
1040
10.0
1040
10.0
1070
     0
1002
{
1002
}
1002
}
  0
ENDSEC
  0
SECTION
  2
OBJECTS
  0
DICTIONARY
  5
C
330
0
100
AcDbDictionary
  3
ACAD_GROUP
350
D
  3
ACAD_LAYOUT
350
1A
  3
ACAD_MLINESTYLE
350
17
  3
ACAD_PLOTSETTINGS
350
19
  3
ACAD_PLOTSTYLENAME
350
E
  3
ACDBVARIABLEDICTIONARY
350
34
  3
ACMDICTIONARY
350
43
  3
AMG
350
2B
  3
AMGSNAPSETTINGS
350
6E
  3
DWGPROPS
350
310A
  3
ACDBHEADERROUNDTRIPXREC
350
3116
  0
DICTIONARY
  5
74
330
1F
100
AcDbDictionary
280
     1
  3
ACAD_INDEX
360
310C
  3
ACAD_LAYOUTSELFREF
360
3139
  0
DICTIONARY
  5
313E
330
101
100
AcDbDictionary
280
     1
  3
ACAD_LAYOUTSELFREF
360
313F
  0
DICTIONARY
  5
D
102
{ACAD_REACTORS
330
C
102
}
330
C
100
AcDbDictionary
  0
DICTIONARY
  5
1A
102
{ACAD_REACTORS
330
C
102
}
330
C
100
AcDbDictionary
  0
DICTIONARY
  5
17
102
{ACAD_REACTORS
330
C
102
}
330
C
100
AcDbDictionary
  3
STANDARD
350
18
  0
DICTIONARY
  5
19
102
{ACAD_REACTORS
330
C
102
}
330
C
100
AcDbDictionary
  0
ACDBDICTIONARYWDFLT
  5
E
102
{ACAD_REACTORS
330
C
102
}
330
C
100
AcDbDictionary
281
     1
  3
Normal
350
F
100
AcDbDictionaryWithDefault
340
F
  0
DICTIONARY
  5
34
102
{ACAD_REACTORS
330
C
102
}
330
C
100
AcDbDictionary
  3
INDEXCTL
350
35
  3
SORTENTS
350
B5E
  0
DICTIONARY
  5
43
102
{ACAD_REACTORS
330
C
102
}
330
C
100
AcDbDictionary
  3
ACMSTDDICTIONARY
350
260
  0
DICTIONARY
  5
2B
102
{ACAD_REACTORS
330
C
102
}
330
C
100
AcDbDictionary
  3
ACMGSETTINGS
350
2C
  0
DICTIONARY
  5
6E
102
{ACAD_REACTORS
330
C
102
}
330
C
100
AcDbDictionary
  0
XRECORD
  5
310A
102
{ACAD_REACTORS
330
C
102
}
330
C
100
AcDbXrecord
  1
DWGPROPS COOKIE
  2

  3

  4

  6

  7

  8

  9

300
AmdtFileType=82
301
=
302
=
303
=
304
=
305
=
306
=
307
=
308
=
309
=
 40
0.1224274768518518
 41
2452800.443498622
 42
2452948.690578518
  1

 90
        1
  0
DICTIONARY
  5
3116
102
{ACAD_REACTORS
330
C
102
}
330
C
100
AcDbDictionary
  3
TSTACKALIGN
350
3117
  3
TSTACKSIZE
350
3118
  3
HYPERLINKBASE
350
3119
  3
STYLESHEET
350
311A
  3
LAYOUTDICT
350
311B
  3
PLOTSETDICT
350
311C
  3
PLOTSTYLNAMDICT
350
311D
  3
LWETCUNION
350
311E
  3
INSUNITS
350
311F
  3
CEPSNTYPE
350
3120
  3
FINGERPRINTGUID
350
3121
  3
VERSIONGUID
350
3122
  3
PSVPSCALE
350
3123
  3
DIMSTYLEDATA
350
3124
  3
PUCSORTHOREF
350
3125
  3
PUCSORTHOVIEW
350
3126
  3
PUCSBASE
350
3127
  3
PUCSORGTOP
350
3128
  3
PUCSORGBOTTOM
350
3129
  3
PUCSORGLEFT
350
312A
  3
PUCSORGRIGHT
350
312B
  3
PUCSORGFRONT
350
312C
  3
PUCSORGBACK
350
312D
  3
UCSORTHOREF
350
312E
  3
UCSORTHOVIEW
350
312F
  3
UCSBASE
350
3130
  3
UCSORGTOP
350
3131
  3
UCSORGBOTTOM
350
3132
  3
UCSORGLEFT
350
3133
  3
UCSORGRIGHT
350
3134
  3
UCSORGFRONT
350
3135
  3
UCSORGBACK
350
3136
  0
DICTIONARY
  5
310C
102
{ACAD_REACTORS
330
74
102
}
330
74
100
AcDbDictionary
  3
*A1
350
310D
  0
XRECORD
  5
3139
102
{ACAD_REACTORS
330
74
102
}
330
74
100
AcDbXrecord
340
1F
  0
XRECORD
  5
313F
102
{ACAD_REACTORS
330
313E
102
}
330
313E
100
AcDbXrecord
340
101
  0
MLINESTYLE
  5
18
102
{ACAD_REACTORS
330
17
102
}
330
17
100
AcDbMlineStyle
  2
STANDARD
 70
     0
  3

 62
   256
 51
90.0
 52
90.0
 71
     2
 49
0.5
 62
   256
  6
BYLAYER
 49
-0.5
 62
   256
  6
BYLAYER
  0
ACDBPLACEHOLDER
  5
F
102
{ACAD_REACTORS
330
E
102
}
330
E
100
AcDbPlaceHolder
280
     0
  0
DICTIONARYVAR
  5
35
102
{ACAD_REACTORS
330
34
102
}
330
34
100
DictionaryVariables
280
     0
  1
1
  0
DICTIONARYVAR
  5
B5E
102
{ACAD_REACTORS
330
34
102
}
330
34
100
DictionaryVariables
280
     0
  1
96
  0
DICTIONARY
  5
260
102
{ACAD_REACTORS
330
43
102
}
330
43
100
AcDbDictionary
  0
DICTIONARY
  5
2C
102
{ACAD_REACTORS
330
2B
102
}
330
2B
100
AcDbDictionary
  3
DWGSETTINGS
350
2D
  0
XRECORD
  5
3117
102
{ACAD_REACTORS
330
3116
102
}
330
3116
100
AcDbXrecord
 90
        1
  0
XRECORD
  5
3118
102
{ACAD_REACTORS
330
3116
102
}
330
3116
100
AcDbXrecord
 90
       70
  0
XRECORD
  5
3119
102
{ACAD_REACTORS
330
3116
102
}
330
3116
100
AcDbXrecord
  1

  0
XRECORD
  5
311A
102
{ACAD_REACTORS
330
3116
102
}
330
3116
100
AcDbXrecord
  1
ASAMI.ctb
  0
XRECORD
  5
311B
102
{ACAD_REACTORS
330
3116
102
}
330
3116
100
AcDbXrecord
340
1A
  0
XRECORD
  5
311C
102
{ACAD_REACTORS
330
3116
102
}
330
3116
100
AcDbXrecord
340
19
  0
XRECORD
  5
311D
102
{ACAD_REACTORS
330
3116
102
}
330
3116
100
AcDbXrecord
340
E
  0
XRECORD
  5
311E
102
{ACAD_REACTORS
330
3116
102
}
330
3116
100
AcDbXrecord
 90
    10781
  0
XRECORD
  5
311F
102
{ACAD_REACTORS
330
3116
102
}
330
3116
100
AcDbXrecord
 90
        4
  0
XRECORD
  5
3120
102
{ACAD_REACTORS
330
3116
102
}
330
3116
100
AcDbXrecord
 90
        0
  0
XRECORD
  5
3121
102
{ACAD_REACTORS
330
3116
102
}
330
3116
100
AcDbXrecord
  1
{AFB28963-8C59-40AE-9337-C84526B81ACE}
  0
XRECORD
  5
3122
102
{ACAD_REACTORS
330
3116
102
}
330
3116
100
AcDbXrecord
  1
{3CDF4448-4041-4127-A507-F729B849CB13}
  0
XRECORD
  5
3123
102
{ACAD_REACTORS
330
3116
102
}
330
3116
100
AcDbXrecord
 40
0.0
  0
XRECORD
  5
3124
102
{ACAD_REACTORS
330
3116
102
}
330
3116
100
AcDbXrecord
1000
DSTYLE
1002
{
1070
    79
 70
     2
1070
   341
340
59
1070
   342
340
59
1070
   371
 70
    -1
1070
   372
 70
    -1
1002
}
  0
XRECORD
  5
3125
102
{ACAD_REACTORS
330
3116
102
}
330
3116
100
AcDbXrecord
340
0
  0
XRECORD
  5
3126
102
{ACAD_REACTORS
330
3116
102
}
330
3116
100
AcDbXrecord
 70
     0
  0
XRECORD
  5
3127
102
{ACAD_REACTORS
330
3116
102
}
330
3116
100
AcDbXrecord
340
0
  0
XRECORD
  5
3128
102
{ACAD_REACTORS
330
3116
102
}
330
3116
100
AcDbXrecord
 10
0.0
 20
0.0
 30
0.0
  0
XRECORD
  5
3129
102
{ACAD_REACTORS
330
3116
102
}
330
3116
100
AcDbXrecord
 10
0.0
 20
0.0
 30
0.0
  0
XRECORD
  5
312A
102
{ACAD_REACTORS
330
3116
102
}
330
3116
100
AcDbXrecord
 10
0.0
 20
0.0
 30
0.0
  0
XRECORD
  5
312B
102
{ACAD_REACTORS
330
3116
102
}
330
3116
100
AcDbXrecord
 10
0.0
 20
0.0
 30
0.0
  0
XRECORD
  5
312C
102
{ACAD_REACTORS
330
3116
102
}
330
3116
100
AcDbXrecord
 10
0.0
 20
0.0
 30
0.0
  0
XRECORD
  5
312D
102
{ACAD_REACTORS
330
3116
102
}
330
3116
100
AcDbXrecord
 10
0.0
 20
0.0
 30
0.0
  0
XRECORD
  5
312E
102
{ACAD_REACTORS
330
3116
102
}
330
3116
100
AcDbXrecord
340
0
  0
XRECORD
  5
312F
102
{ACAD_REACTORS
330
3116
102
}
330
3116
100
AcDbXrecord
 70
     0
  0
XRECORD
  5
3130
102
{ACAD_REACTORS
330
3116
102
}
330
3116
100
AcDbXrecord
340
0
  0
XRECORD
  5
3131
102
{ACAD_REACTORS
330
3116
102
}
330
3116
100
AcDbXrecord
 10
0.0
 20
0.0
 30
0.0
  0
XRECORD
  5
3132
102
{ACAD_REACTORS
330
3116
102
}
330
3116
100
AcDbXrecord
 10
0.0
 20
0.0
 30
0.0
  0
XRECORD
  5
3133
102
{ACAD_REACTORS
330
3116
102
}
330
3116
100
AcDbXrecord
 10
0.0
 20
0.0
 30
0.0
  0
XRECORD
  5
3134
102
{ACAD_REACTORS
330
3116
102
}
330
3116
100
AcDbXrecord
 10
0.0
 20
0.0
 30
0.0
  0
XRECORD
  5
3135
102
{ACAD_REACTORS
330
3116
102
}
330
3116
100
AcDbXrecord
 10
0.0
 20
0.0
 30
0.0
  0
XRECORD
  5
3136
102
{ACAD_REACTORS
330
3116
102
}
330
3116
100
AcDbXrecord
 10
0.0
 20
0.0
 30
0.0
  0
LAYER_INDEX
  5
310D
102
{ACAD_REACTORS
330
310C
102
}
330
310C
100
AcDbIndex
 40
2453151.679646608
100
AcDbLayerIndex
  8
0
360
310E
 90
        0
  8
AM_0
360
310F
 90
       56
  8
AM_7
360
3110
 90
        1
  8
AM_11
360
3111
 90
       19
  8
AM_5
360
3112
 90
        5
  8
Defpoints
360
3113
 90
        0
  8
AM_6
360
3114
 90
        1
  0
XRECORD
  5
2D
102
{ACAD_REACTORS
330
2C
102
}
330
2C
100
AcDbXrecord
  1
VERSION
140
15.0
  1
PRODUCT
  2
AutoCAD Mechanical 2000
  0
IDBUFFER
  5
310E
330
0
100
AcDbIdBuffer
  0
IDBUFFER
  5
310F
330
0
100
AcDbIdBuffer
330
30B2
330
30B4
330
30B5
330
30B6
330
30B9
330
30BA
330
30BB
330
30BC
330
1C24
330
1C25
330
1C26
330
1C27
330
1C28
330
1C2B
330
1C2C
330
1C2D
330
1EDD
330
1EDF
330
1FEC
330
2969
330
2B83
330
2B84
330
2B85
330
2B87
330
2B88
330
2B89
330
306E
330
306F
330
3070
330
3071
330
3072
330
3073
330
3074
330
3075
330
3076
330
3078
330
307A
330
307D
330
307E
330
307F
330
3080
330
3081
330
3082
330
3088
330
3089
330
308A
330
308B
330
308C
330
308D
330
308E
330
308F
330
3091
330
30A0
330
30AF
330
30B0
330
30B1
  0
IDBUFFER
  5
3110
330
0
100
AcDbIdBuffer
330
C9F
  0
IDBUFFER
  5
3111
330
0
100
AcDbIdBuffer
330
30B3
330
30B7
330
30B8
330
29BD
330
29BE
330
29BF
330
29C0
330
29C1
330
29C2
330
3077
330
3079
330
307B
330
307C
330
3083
330
3084
330
3085
330
3086
330
3087
330
3090
  0
IDBUFFER
  5
3112
330
0
100
AcDbIdBuffer
330
CC6
330
DF5
330
1EEB
330
2A8C
330
2CA7
  0
IDBUFFER
  5
3113
330
0
100
AcDbIdBuffer
  0
IDBUFFER
  5
3114
330
0
100
AcDbIdBuffer
330
19BD
  0
ENDSEC
  0
EOF
