  0
SECTION
  2
HEADER
  9
$ACADVER
  1
AC1014
  9
$ACADMAINTVER
 70
     9
  9
$DWGCODEPAGE
  3
ANSI_932
  9
$INSBASE
 10
0.0
 20
0.0
 30
0.0
  9
$EXTMIN
 10
-141.1499755686908
 20
-27.75003143075874
 30
-0.00000001
  9
$EXTMAX
 10
13.96806287202249
 20
13.64550037054431
 30
0.00000001
  9
$LIMMIN
 10
-144.2947427153176
 20
-45.0190390766545
  9
$LIMMAX
 10
17.32561424894453
 20
28.94485128504129
  9
$ORTHOMODE
 70
     0
  9
$REGENMODE
 70
     1
  9
$FILLMODE
 70
     1
  9
$QTEXTMODE
 70
     0
  9
$MIRRTEXT
 70
     0
  9
$DRAGMODE
 70
     2
  9
$LTSCALE
 40
1.0
  9
$OSMODE
 70
    55
  9
$ATTMODE
 70
     1
  9
$TEXTSIZE
 40
2.5
  9
$TRACEWID
 40
1.0
  9
$TEXTSTYLE
  7
STANDARD
  9
$CLAYER
  8
AM_0
  9
$CELTYPE
  6
BYLAYER
  9
$CECOLOR
 62
   256
  9
$CELTSCALE
 40
1.0
  9
$DELOBJ
 70
     1
  9
$DISPSILH
 70
     0
  9
$DIMSCALE
 40
0.5
  9
$DIMASZ
 40
2.5
  9
$DIMEXO
 40
1.0
  9
$DIMDLI
 40
12.0
  9
$DIMRND
 40
0.0
  9
$DIMDLE
 40
0.0
  9
$DIMEXE
 40
1.0
  9
$DIMTP
 40
0.1
  9
$DIMTM
 40
0.1
  9
$DIMTXT
 40
3.2
  9
$DIMCEN
 40
0.0
  9
$DIMTSZ
 40
0.0
  9
$DIMTOL
 70
     0
  9
$DIMLIM
 70
     0
  9
$DIMTIH
 70
     0
  9
$DIMTOH
 70
     0
  9
$DIMSE1
 70
     0
  9
$DIMSE2
 70
     0
  9
$DIMTAD
 70
     3
  9
$DIMZIN
 70
     8
  9
$DIMBLK
  1
OPEN30
  9
$DIMASO
 70
     1
  9
$DIMSHO
 70
     1
  9
$DIMPOST
  1

  9
$DIMAPOST
  1
"
  9
$DIMALT
 70
     0
  9
$DIMALTD
 70
     2
  9
$DIMALTF
 40
0.0393701
  9
$DIMLFAC
 40
1.0
  9
$DIMTOFL
 70
     1
  9
$DIMTVP
 40
0.0
  9
$DIMTIX
 70
     0
  9
$DIMSOXD
 70
     0
  9
$DIMSAH
 70
     0
  9
$DIMBLK1
  1

  9
$DIMBLK2
  1

  9
$DIMSTYLE
  2
AM_JIS
  9
$DIMCLRD
 70
   256
  9
$DIMCLRE
 70
   256
  9
$DIMCLRT
 70
     2
  9
$DIMTFAC
 40
0.71
  9
$DIMGAP
 40
1.5
  9
$DIMJUST
 70
     0
  9
$DIMSD1
 70
     0
  9
$DIMSD2
 70
     0
  9
$DIMTOLJ
 70
     0
  9
$DIMTZIN
 70
     0
  9
$DIMALTZ
 70
     0
  9
$DIMALTTZ
 70
     0
  9
$DIMFIT
 70
     3
  9
$DIMUPT
 70
     0
  9
$DIMUNIT
 70
     2
  9
$DIMDEC
 70
     3
  9
$DIMTDEC
 70
     3
  9
$DIMALTU
 70
     2
  9
$DIMALTTD
 70
     2
  9
$DIMTXSTY
  7
ASAMI
  9
$DIMAUNIT
 70
     0
  9
$LUNITS
 70
     2
  9
$LUPREC
 70
     2
  9
$SKETCHINC
 40
1.0
  9
$FILLETRAD
 40
2.5
  9
$AUNITS
 70
     0
  9
$AUPREC
 70
     0
  9
$MENU
  1
.
  9
$ELEVATION
 40
0.0
  9
$PELEVATION
 40
0.0
  9
$THICKNESS
 40
0.0
  9
$LIMCHECK
 70
     0
  9
$BLIPMODE
 70
     0
  9
$CHAMFERA
 40
2.5
  9
$CHAMFERB
 40
2.5
  9
$CHAMFERC
 40
20.0
  9
$CHAMFERD
 40
0.0
  9
$SKPOLY
 70
     0
  9
$TDCREATE
 40
2452800.443498622
  9
$TDUPDATE
 40
2453151.679835960
  9
$TDINDWG
 40
0.1233865046
  9
$TDUSRTIMER
 40
0.1233865046
  9
$USRTIMER
 70
     1
  9
$ANGBASE
 50
0.0
  9
$ANGDIR
 70
     0
  9
$PDMODE
 70
     3
  9
$PDSIZE
 40
0.0
  9
$PLINEWID
 40
0.0
  9
$COORDS
 70
     1
  9
$SPLFRAME
 70
     0
  9
$SPLINETYPE
 70
     6
  9
$SPLINESEGS
 70
     8
  9
$ATTDIA
 70
     1
  9
$ATTREQ
 70
     1
  9
$HANDLING
 70
 12289
  9
$HANDSEED
  5
3220
  9
$SURFTAB1
 70
     6
  9
$SURFTAB2
 70
     6
  9
$SURFTYPE
 70
     6
  9
$SURFU
 70
     6
  9
$SURFV
 70
     6
  9
$UCSNAME
  2

  9
$UCSORG
 10
-0.0000000000001542
 20
-0.0000000000002465
 30
0.0
  9
$UCSXDIR
 10
1.0
 20
0.000000000000002
 30
0.0
  9
$UCSYDIR
 10
-0.000000000000002
 20
1.0
 30
0.0
  9
$PUCSNAME
  2

  9
$PUCSORG
 10
0.0
 20
0.0
 30
0.0
  9
$PUCSXDIR
 10
1.0
 20
0.0
 30
0.0
  9
$PUCSYDIR
 10
0.0
 20
1.0
 30
0.0
  9
$USERI1
 70
     0
  9
$USERI2
 70
     0
  9
$USERI3
 70
     0
  9
$USERI4
 70
     0
  9
$USERI5
 70
     0
  9
$USERR1
 40
0.0
  9
$USERR2
 40
0.0
  9
$USERR3
 40
0.0
  9
$USERR4
 40
0.0
  9
$USERR5
 40
0.0
  9
$WORLDVIEW
 70
     1
  9
$SHADEDGE
 70
     3
  9
$SHADEDIF
 70
    70
  9
$TILEMODE
 70
     1
  9
$MAXACTVP
 70
    64
  9
$PINSBASE
 10
0.0
 20
0.0
 30
0.0
  9
$PLIMCHECK
 70
     0
  9
$PEXTMIN
 10
1.000000000000000E+20
 20
1.000000000000000E+20
 30
1.000000000000000E+20
  9
$PEXTMAX
 10
-1.000000000000000E+20
 20
-1.000000000000000E+20
 30
-1.000000000000000E+20
  9
$PLIMMIN
 10
0.0
 20
0.0
  9
$PLIMMAX
 10
841.0
 20
594.0
  9
$UNITMODE
 70
     0
  9
$VISRETAIN
 70
     1
  9
$PLINEGEN
 70
     0
  9
$PSLTSCALE
 70
     0
  9
$TREEDEPTH
 70
  3020
  9
$PICKSTYLE
 70
     0
  9
$CMLSTYLE
  2
STANDARD
  9
$CMLJUST
 70
     0
  9
$CMLSCALE
 40
20.0
  9
$PROXYGRAPHICS
 70
     1
  9
$MEASUREMENT
 70
     1
  0
ENDSEC
  0
SECTION
  2
CLASSES
  0
CLASS
  1
ACDBDICTIONARYWDFLT
  2
AcDbDictionaryWithDefault
  3
AutoCAD 2000
 90
        0
280
     0
281
     0
  0
CLASS
  1
ACDBPLACEHOLDER
  2
AcDbPlaceHolder
  3
AutoCAD 2000
 90
        0
280
     0
281
     0
  0
CLASS
  1
LAYOUT
  2
AcDbLayout
  3
AutoCAD 2000
 90
        0
280
     0
281
     0
  0
CLASS
  1
AMGSETTINGSOBJ
  2
AmgSettingsObj
  3
"AcadM|Product Description: AutoCAD Mechanical 2000|Company: Autodesk"
 90
        0
280
     0
281
     0
  0
CLASS
  1
ACME_DOCUMENT
  2
AcMeDbDoc
  3
AcMeServices
 90
        0
280
     0
281
     0
  0
CLASS
  1
ACMESCOPE
  2
AcMeScope
  3
AcMeServices
 90
        0
280
     0
281
     0
  0
CLASS
  1
ACMECOMMANDHISTORY
  2
AcMeCommandHistory
  3
AcMeServices
 90
        0
280
     0
281
     0
  0
CLASS
  1
DICTIONARYVAR
  2
AcDbDictionaryVar
  3
AutoCAD 2000
 90
        0
280
     0
281
     0
  0
CLASS
  1
ACIMSYSVARMAN
  2
AcImSysVarManager
  3
AcMeServices
 90
        0
280
     0
281
     0
  0
CLASS
  1
ACIMREALSYSVAR
  2
AcImRealSysVar
  3
AcMeServices
 90
        0
280
     0
281
     0
  0
CLASS
  1
ACIMINTSYSVAR
  2
AcImIntSysVar
  3
AcMeServices
 90
        0
280
     0
281
     0
  0
CLASS
  1
ACMEDRAWINGMAN
  2
AcMeDrawingMan
  3
AcMeServices
 90
        0
280
     0
281
     0
  0
CLASS
  1
ACMEVIEW
  2
AcMeView
  3
AcMeServices
 90
        0
280
     0
281
     0
  0
CLASS
  1
ACDBENTITYCACHE
  2
AcMeEntityCache
  3
AcMeServices
 90
        0
280
     0
281
     0
  0
CLASS
  1
GSMANAGER
  2
AcMeGSManager
  3
AcMeServices
 90
        0
280
     0
281
     0
  0
CLASS
  1
AmdtInternalReactor
  2
AmdtInternalReactor
  3
AcMeServices
 90
        0
280
     0
281
     0
  0
CLASS
  1
ACMESTATEMGR
  2
AcMeStateMgr
  3
AcMeServices
 90
        0
280
     0
281
     0
  0
CLASS
  1
ACME_DATABASE
  2
AcMeDbDatabase
  3
AcMeServices
 90
        0
280
     0
281
     0
  0
CLASS
  1
ACRFINSADJUSTERMGR
  2
AcRfInsAdjusterMgr
  3
AcMeServices
 90
        0
280
     0
281
     0
  0
CLASS
  1
ACMDATADICTIONARY
  2
AcmDataDictionary
  3
"AcmSymBB|Product Description: AutoCAD Mechanical 2000|Company: Autodesk"
 90
        0
280
     0
281
     0
  0
CLASS
  1
ACMDATAENTRYBLOCK
  2
AcmDataEntryBlock
  3
"AcmSymBB|Product Description: AutoCAD Mechanical 2000|Company: Autodesk"
 90
        0
280
     0
281
     0
  0
CLASS
  1
AMGOBJPROPCFG
  2
AmgObjPropCfg
  3
"AmgLay|Product Description: AutoCAD Mechanical 2000|Company: Autodesk"
 90
        1
280
     0
281
     0
  0
CLASS
  1
ACAMGFILTERDAT
  2
AcAmgFilterDat
  3
"AcadM|Product Description: AutoCAD Mechanical 2000|Company: Autodesk"
 90
        0
280
     0
281
     0
  0
CLASS
  1
LAYER_INDEX
  2
AcDbLayerIndex
  3
AutoCAD 2000
 90
        0
280
     0
281
     0
  0
CLASS
  1
IDBUFFER
  2
AcDbIdBuffer
  3
AutoCAD 2000
 90
        0
280
     0
281
     0
  0
CLASS
  1
ACIMSTRSYSVAR
  2
AcImStrSysVar
  3
AcMeServices
 90
        0
280
     0
281
     0
  0
CLASS
  1
ACMSTANDARDJIS
  2
AcmStandardJIS
  3
"AcmSymBB|Product Description: AutoCAD Mechanical 2000|Company: Autodesk"
 90
        0
280
     0
281
     0
  0
CLASS
  1
ACMSURFSTANDARDJIS
  2
AcmSurfTextStdJIS
  3
"AcmSymBB|Product Description: AutoCAD Mechanical 2000|Company: Autodesk"
 90
        0
280
     0
281
     0
  0
CLASS
  1
ACMFCFSTANDARDJIS
  2
AcmFCFStdJIS
  3
"AcmSymBB|Product Description: AutoCAD Mechanical 2000|Company: Autodesk"
 90
        0
280
     0
281
     0
  0
CLASS
  1
ACMWELDSTANDARDJIS
  2
AcmWeldingStdJIS
  3
"AcmSymBB|Product Description: AutoCAD Mechanical 2000|Company: Autodesk"
 90
        0
280
     0
281
     0
  0
CLASS
  1
ACMIDSTANDARDJIS
  2
AcmIdStdJIS
  3
"AcmSymBB|Product Description: AutoCAD Mechanical 2000|Company: Autodesk"
 90
        0
280
     0
281
     0
  0
CLASS
  1
ACMDATUMSTANDARDJIS
  2
AcmDatumStdJIS
  3
"AcmSymBB|Product Description: AutoCAD Mechanical 2000|Company: Autodesk"
 90
        0
280
     0
281
     0
  0
CLASS
  1
ACMBOMSTANDARDJIS
  2
AcmBOMStdJIS
  3
"AcmSymBB|Product Description: AutoCAD Mechanical 2000|Company: Autodesk"
 90
        0
280
     0
281
     0
  0
CLASS
  1
ACMSTANDARDANSI
  2
AcmStandardANSI
  3
"AcmSymBB|Product Description: AutoCAD Mechanical 2000|Company: Autodesk"
 90
        0
280
     0
281
     0
  0
CLASS
  1
ACMSURFSTANDARDANSI
  2
AcmSurfTextStdANSI
  3
"AcmSymBB|Product Description: AutoCAD Mechanical 2000|Company: Autodesk"
 90
        0
280
     0
281
     0
  0
CLASS
  1
ACMFCFSTANDARDANSI
  2
AcmFCFStdANSI
  3
"AcmSymBB|Product Description: AutoCAD Mechanical 2000|Company: Autodesk"
 90
        0
280
     0
281
     0
  0
CLASS
  1
ACMWELDSTANDARDANSI
  2
AcmWeldingStdANSI
  3
"AcmSymBB|Product Description: AutoCAD Mechanical 2000|Company: Autodesk"
 90
        0
280
     0
281
     0
  0
CLASS
  1
ACMIDSTANDARDANSI
  2
AcmIdStdANSI
  3
"AcmSymBB|Product Description: AutoCAD Mechanical 2000|Company: Autodesk"
 90
        0
280
     0
281
     0
  0
CLASS
  1
ACMDATUMSTANDARDANSI
  2
AcmDatumStdANSI
  3
"AcmSymBB|Product Description: AutoCAD Mechanical 2000|Company: Autodesk"
 90
        0
280
     0
281
     0
  0
CLASS
  1
ACMBOMSTANDARDANSI
  2
AcmBOMStdANSI
  3
"AcmSymBB|Product Description: AutoCAD Mechanical 2000|Company: Autodesk"
 90
        0
280
     0
281
     0
  0
CLASS
  1
ACMSTANDARDBSI
  2
AcmStandardBSI
  3
"AcmSymBB|Product Description: AutoCAD Mechanical 2000|Company: Autodesk"
 90
        0
280
     0
281
     0
  0
CLASS
  1
ACMSURFSTANDARDBSI
  2
AcmSurfTextStdBSI
  3
"AcmSymBB|Product Description: AutoCAD Mechanical 2000|Company: Autodesk"
 90
        0
280
     0
281
     0
  0
CLASS
  1
ACMFCFSTANDARDBSI
  2
AcmFCFStdBSI
  3
"AcmSymBB|Product Description: AutoCAD Mechanical 2000|Company: Autodesk"
 90
        0
280
     0
281
     0
  0
CLASS
  1
ACMWELDSTANDARDBSI
  2
AcmWeldingStdBSI
  3
"AcmSymBB|Product Description: AutoCAD Mechanical 2000|Company: Autodesk"
 90
        0
280
     0
281
     0
  0
CLASS
  1
ACMIDSTANDARDBSI
  2
AcmIdStdBSI
  3
"AcmSymBB|Product Description: AutoCAD Mechanical 2000|Company: Autodesk"
 90
        0
280
     0
281
     0
  0
CLASS
  1
ACMDATUMSTANDARDBSI
  2
AcmDatumStdBSI
  3
"AcmSymBB|Product Description: AutoCAD Mechanical 2000|Company: Autodesk"
 90
        0
280
     0
281
     0
  0
CLASS
  1
ACMBOMSTANDARDBSI
  2
AcmBOMStdBSI
  3
"AcmSymBB|Product Description: AutoCAD Mechanical 2000|Company: Autodesk"
 90
        0
280
     0
281
     0
  0
CLASS
  1
LONG_TRANSACTION
  2
AcDbLongTransaction
  3
AutoCAD 2000
 90
        0
280
     0
281
     0
  0
CLASS
  1
LWPOLYLINE
  2
AcDbPolyline
  3
AutoCAD 2000
 90
        0
280
     0
281
     1
  0
CLASS
  1
HATCH
  2
AcDbHatch
  3
AutoCAD 2000
 90
        0
280
     0
281
     1
  0
CLASS
  1
XRECORD
  2
AcDbXrecord
  3
AutoCAD 2000
 90
        0
280
     0
281
     0
  0
ENDSEC
  0
SECTION
  2
TABLES
  0
TABLE
  2
VPORT
  5
8
330
0
100
AcDbSymbolTable
 70
     3
  0
VPORT
  5
31F5
330
8
100
AcDbSymbolTableRecord
100
AcDbViewportTableRecord
  2
*ACTIVE
 70
     0
 10
0.0
 20
0.0
 11
1.0
 21
1.0
 12
-60.68926847006145
 22
-7.052390744840707
 13
0.0
 23
0.0
 14
2.5
 24
2.5
 15
10.0
 25
10.0
 16
0.0
 26
0.0
 36
1.0
 17
0.0
 27
0.0
 37
0.0
 40
103.2784241739081
 41
1.56570841889117
 42
50.0
 43
0.0
 44
0.0
 50
0.0
 51
0.0
 71
     0
 72
   100
 73
     1
 74
     1
 75
     0
 76
     0
 77
     0
 78
     0
  0
ENDTAB
  0
TABLE
  2
LTYPE
  5
5
330
0
100
AcDbSymbolTable
 70
    10
  0
LTYPE
  5
14
330
5
100
AcDbSymbolTableRecord
100
AcDbLinetypeTableRecord
  2
BYBLOCK
 70
     0
  3

 72
    65
 73
     0
 40
0.0
  0
LTYPE
  5
15
330
5
100
AcDbSymbolTableRecord
100
AcDbLinetypeTableRecord
  2
BYLAYER
 70
     0
  3

 72
    65
 73
     0
 40
0.0
  0
LTYPE
  5
16
330
5
100
AcDbSymbolTableRecord
100
AcDbLinetypeTableRecord
  2
CONTINUOUS
 70
     0
  3
Solid line
 72
    65
 73
     0
 40
0.0
  0
LTYPE
  5
4B
330
5
100
AcDbSymbolTableRecord
100
AcDbLinetypeTableRecord
  2
AM_ISO02W050
 70
     0
  3
__ __ __ __ __ __ __ __ __ __ __ __ __ __ __
 72
    65
 73
     2
 40
7.5
 49
6.0
 74
     0
 49
-1.5
 74
     0
  0
LTYPE
  5
4C
330
5
100
AcDbSymbolTableRecord
100
AcDbLinetypeTableRecord
  2
AM_ISO08W050
 70
     0
  3
____ . ____ . ____ . ____ . ____ . ____ . ____
 72
    65
 73
     4
 40
18.0
 49
12.0
 74
     0
 49
-1.5
 74
     0
 49
3.0
 74
     0
 49
-1.5
 74
     0
  0
LTYPE
  5
4D
330
5
100
AcDbSymbolTableRecord
100
AcDbLinetypeTableRecord
  2
AM_ISO09W050
 70
     0
  3
_____ . . _____ . . _____ . . ____ .. ____
 72
    65
 73
     6
 40
22.5
 49
12.0
 74
     0
 49
-1.5
 74
     0
 49
3.0
 74
     0
 49
-1.5
 74
     0
 49
3.0
 74
     0
 49
-1.5
 74
     0
  0
LTYPE
  5
4E
330
5
100
AcDbSymbolTableRecord
100
AcDbLinetypeTableRecord
  2
AMCONSTR
 70
     0
  3
_______________________
 72
    65
 73
     2
 40
9999.0
 49
9999.0
 74
     0
 49
0.0
 74
     0
  0
LTYPE
  5
4F
330
5
100
AcDbSymbolTableRecord
100
AcDbLinetypeTableRecord
  2
AM_ISO02W050X2
 70
     0
  3
 _ _ _ _ _ _ _ _ _ _ _ _
 72
    65
 73
     2
 40
3.75
 49
3.0
 74
     0
 49
-0.75
 74
     0
  0
LTYPE
  5
50
330
5
100
AcDbSymbolTableRecord
100
AcDbLinetypeTableRecord
  2
AM_ISO08W050X2
 70
     0
  3
__ . __ . __ . __ . __ . __
 72
    65
 73
     4
 40
9.0
 49
6.0
 74
     0
 49
-0.75
 74
     0
 49
1.5
 74
     0
 49
-0.75
 74
     0
  0
LTYPE
  5
53
330
5
100
AcDbSymbolTableRecord
100
AcDbLinetypeTableRecord
  2
AMZIGZAG
 70
     0
  3
/\/-/\/-/\/-/\/-/\/-/\/
 72
    65
 73
     2
 40
11.00009999999999
 49
0.0001
 74
     4
 75
   135
340
52
 46
0.04
 50
0.0
 44
0.0
 45
0.0
 49
-11.0
 74
     0
  0
LTYPE
  5
166
330
5
100
AcDbSymbolTableRecord
100
AcDbLinetypeTableRecord
  2
ACJISTGL
 70
     0
  3
_ _ _ _ _
 72
    65
 73
     2
 40
3.0
 49
2.0
 74
     0
 49
-1.0
 74
     0
  0
LTYPE
  5
26A
330
5
100
AcDbSymbolTableRecord
100
AcDbLinetypeTableRecord
  2
ACJISTGB
 70
     0
  3
__ . . __ . .
 72
    65
 73
     6
 40
9.0
 49
4.0
 74
     0
 49
-1.0
 74
     0
 49
1.0
 74
     0
 49
-1.0
 74
     0
 49
1.0
 74
     0
 49
-1.0
 74
     0
  0
ENDTAB
  0
TABLE
  2
LAYER
  5
2
330
0
100
AcDbSymbolTable
 70
     7
  0
LAYER
  5
10
330
2
100
AcDbSymbolTableRecord
100
AcDbLayerTableRecord
  2
0
 70
     0
 62
     7
  6
CONTINUOUS
  0
LAYER
  5
3F9
330
2
100
AcDbSymbolTableRecord
100
AcDbLayerTableRecord
  2
AM_0
 70
     0
 62
     7
  6
CONTINUOUS
  0
LAYER
  5
C7C
330
2
100
AcDbSymbolTableRecord
100
AcDbLayerTableRecord
  2
AM_7
 70
     0
 62
     4
  6
AM_ISO08W050
  0
LAYER
  5
C97
330
2
100
AcDbSymbolTableRecord
100
AcDbLayerTableRecord
  2
AM_11
 70
     0
 62
     3
  6
AM_ISO09W050
  0
LAYER
  5
CC5
330
2
100
AcDbSymbolTableRecord
100
AcDbLayerTableRecord
  2
AM_5
 70
     0
 62
     3
  6
CONTINUOUS
  0
LAYER
  5
CC7
330
2
100
AcDbSymbolTableRecord
100
AcDbLayerTableRecord
  2
DEFPOINTS
 70
     0
 62
     7
  6
CONTINUOUS
  0
LAYER
  5
19BC
330
2
100
AcDbSymbolTableRecord
100
AcDbLayerTableRecord
  2
AM_6
 70
     0
 62
     2
  6
CONTINUOUS
  0
ENDTAB
  0
TABLE
  2
STYLE
  5
3
330
0
100
AcDbSymbolTable
 70
     5
  0
STYLE
  5
11
330
3
100
AcDbSymbolTableRecord
100
AcDbTextStyleTableRecord
  2
STANDARD
 70
     0
 40
0.0
 41
1.0
 50
0.0
 71
     0
 42
2.5
  3
simplex.shx
  4
EXTFONT.SHX
  0
STYLE
  5
52
330
3
100
AcDbSymbolTableRecord
100
AcDbTextStyleTableRecord
  2

 70
     1
 40
0.0
 41
1.0
 50
0.0
 71
     0
 42
2.5
  3
ltypeshp.shx
  4

  0
STYLE
  5
6B
330
3
100
AcDbSymbolTableRecord
100
AcDbTextStyleTableRecord
  2
ASAMI
 70
     0
 40
0.0
 41
1.0
 50
0.0
 71
     0
 42
2.5
  3
simplex.shx
  4
EXTFONT.SHX
  0
STYLE
  5
262
330
3
100
AcDbSymbolTableRecord
100
AcDbTextStyleTableRecord
  2
ACJISTS
 70
     0
 40
1.0
 41
1.0
 50
0.0
 71
     0
 42
2.5
  3
simplex.shx
  4
bigfont.shx
  0
STYLE
  5
269
330
3
100
AcDbSymbolTableRecord
100
AcDbTextStyleTableRecord
  2
ACJISGDT
 70
     0
 40
0.0
 41
1.0
 50
0.0
 71
     0
 42
2.5
  3
amgdtans.shx
  4

  0
ENDTAB
  0
TABLE
  2
VIEW
  5
6
330
0
100
AcDbSymbolTable
 70
     0
  0
ENDTAB
  0
TABLE
  2
UCS
  5
7
330
0
100
AcDbSymbolTable
 70
     0
  0
ENDTAB
  0
TABLE
  2
APPID
  5
9
330
0
100
AcDbSymbolTable
 70
    14
  0
APPID
  5
12
330
9
100
AcDbSymbolTableRecord
100
AcDbRegAppTableRecord
  2
ACAD
 70
     0
  0
APPID
  5
30
330
9
100
AcDbSymbolTableRecord
100
AcDbRegAppTableRecord
  2
MCAD_NO_VIS
 70
     0
  0
APPID
  5
31
330
9
100
AcDbSymbolTableRecord
100
AcDbRegAppTableRecord
  2
ACAD_TEMP_GRAPHIC
 70
     0
  0
APPID
  5
2C2
330
9
100
AcDbSymbolTableRecord
100
AcDbRegAppTableRecord
  2
GENIUS_GENDTOL_13
 70
     0
  0
APPID
  5
339
330
9
100
AcDbSymbolTableRecord
100
AcDbRegAppTableRecord
  2
GENIUS_GENODEF_13
 70
     0
  0
APPID
  5
33A
330
9
100
AcDbSymbolTableRecord
100
AcDbRegAppTableRecord
  2
GENIUS_GENOBJ-N-RSBK_13
 70
     0
  0
APPID
  5
33B
330
9
100
AcDbSymbolTableRecord
100
AcDbRegAppTableRecord
  2
GENIUS_GENOBJ-N-LIB_13
 70
     0
  0
APPID
  5
33C
330
9
100
AcDbSymbolTableRecord
100
AcDbRegAppTableRecord
  2
GENIUS_GENSCALE_13
 70
     0
  0
APPID
  5
378
330
9
100
AcDbSymbolTableRecord
100
AcDbRegAppTableRecord
  2
GENIUS_GENDIMSH_14
 70
     0
  0
APPID
  5
C82
330
9
100
AcDbSymbolTableRecord
100
AcDbRegAppTableRecord
  2
GENIUS_GENOBJ-N-CRS_13
 70
     0
  0
APPID
  5
C83
330
9
100
AcDbSymbolTableRecord
100
AcDbRegAppTableRecord
  2
GENIUS_GENOENT_13
 70
     0
  0
APPID
  5
C84
330
9
100
AcDbSymbolTableRecord
100
AcDbRegAppTableRecord
  2
GENIUS_GENOREF_13
 70
     0
  0
APPID
  5
C85
330
9
100
AcDbSymbolTableRecord
100
AcDbRegAppTableRecord
  2
GENIUS_GENOLIS_13
 70
     0
  0
APPID
  5
CA0
330
9
100
AcDbSymbolTableRecord
100
AcDbRegAppTableRecord
  2
GENIUS_GENOBJ-N-CEN_13
 70
     0
  0
ENDTAB
  0
TABLE
  2
DIMSTYLE
  5
A
330
0
100
AcDbSymbolTable
 70
     9
  0
DIMSTYLE
105
58
330
A
100
AcDbSymbolTableRecord
100
AcDbDimStyleTableRecord
  2
AM_JIS
 70
     0
  3

  4
"
  5
OPEN30
  6

  7

 40
0.5
 41
2.5
 42
1.0
 43
12.0
 44
1.0
 45
0.0
 46
0.0
 47
0.1
 48
0.1
140
3.2
141
0.0
142
0.0
143
0.0393701
144
1.0
145
0.0
146
0.71
147
1.5
 71
     0
 72
     0
 73
     0
 74
     0
 75
     0
 76
     0
 77
     3
 78
     8
170
     0
171
     2
172
     1
173
     0
174
     0
175
     0
176
   256
177
   256
178
     2
270
     2
271
     3
272
     3
273
     2
274
     2
340
6B
275
     0
280
     0
281
     0
282
     0
283
     0
284
     0
285
     0
286
     0
287
     3
288
     0
  0
DIMSTYLE
105
5F
330
A
100
AcDbSymbolTableRecord
100
AcDbDimStyleTableRecord
  2
AM_JIS$3
 70
     0
  3

  4
"
  5
OPEN30
  6

  7

 40
0.5
 41
2.5
 42
1.0
 43
10.0
 44
1.0
 45
0.0
 46
0.0
 47
0.1
 48
0.1
140
3.2
141
0.0
142
0.0
143
0.0393701
144
1.0
145
0.0
146
0.71
147
1.5
 71
     0
 72
     0
 73
     0
 74
     1
 75
     0
 76
     0
 77
     3
 78
     8
170
     0
171
     2
172
     0
173
     0
174
     0
175
     0
176
   256
177
   256
178
     2
270
     2
271
     2
272
     3
273
     2
274
     2
340
6B
275
     0
280
     0
281
     0
282
     0
283
     0
284
     0
285
     0
286
     0
287
     0
288
     1
  0
DIMSTYLE
105
60
330
A
100
AcDbSymbolTableRecord
100
AcDbDimStyleTableRecord
  2
AM_JIS$4
 70
     0
  3

  4
"
  5
OPEN30
  6

  7

 40
0.5
 41
2.5
 42
1.0
 43
10.0
 44
1.0
 45
0.0
 46
0.0
 47
0.1
 48
0.1
140
3.2
141
0.0
142
0.0
143
0.0393701
144
1.0
145
0.0
146
0.71
147
1.5
 71
     0
 72
     0
 73
     0
 74
     1
 75
     0
 76
     0
 77
     3
 78
     8
170
     0
171
     2
172
     0
173
     0
174
     0
175
     0
176
   256
177
   256
178
     2
270
     2
271
     2
272
     3
273
     2
274
     2
340
6B
275
     0
280
     0
281
     0
282
     0
283
     0
284
     0
285
     0
286
     0
287
     0
288
     1
  0
DIMSTYLE
105
61
330
A
100
AcDbSymbolTableRecord
100
AcDbDimStyleTableRecord
  2
AM_JIS$6
 70
     0
  3

  4
"
  5
OPEN30
  6

  7

 40
0.5
 41
2.5
 42
1.0
 43
10.0
 44
1.0
 45
0.0
 46
0.0
 47
0.1
 48
0.1
140
3.2
141
0.0
142
0.0
143
0.0393701
144
1.0
145
0.0
146
0.71
147
1.5
 71
     0
 72
     0
 73
     0
 74
     0
 75
     0
 76
     0
 77
     0
 78
     8
170
     0
171
     2
172
     1
173
     0
174
     0
175
     0
176
   256
177
   256
178
     2
270
     2
271
     2
272
     2
273
     2
274
     2
340
6B
275
     0
280
     0
281
     0
282
     0
283
     0
284
     0
285
     0
286
     0
287
     3
288
     0
  0
DIMSTYLE
105
62
330
A
100
AcDbSymbolTableRecord
100
AcDbDimStyleTableRecord
  2
AM_JIS$7
 70
     0
  3

  4
"
  5
OPEN30
  6

  7

 40
0.5
 41
2.5
 42
1.0
 43
10.0
 44
1.0
 45
0.0
 46
0.0
 47
0.1
 48
0.1
140
3.2
141
0.0
142
0.0
143
0.0393701
144
1.0
145
0.0
146
0.71
147
1.5
 71
     0
 72
     0
 73
     0
 74
     0
 75
     0
 76
     0
 77
     3
 78
     8
170
     0
171
     2
172
     1
173
     0
174
     0
175
     0
176
   256
177
   256
178
     2
270
     2
271
     2
272
     3
273
     2
274
     2
340
6B
275
     0
280
     0
281
     0
282
     0
283
     0
284
     0
285
     0
286
     0
287
     3
288
     0
  0
DIMSTYLE
105
63
330
A
100
AcDbSymbolTableRecord
100
AcDbDimStyleTableRecord
  2
AM_JIS$SF
 70
     0
  3

  4
"
  5
OPEN30
  6

  7

 40
0.5
 41
2.5
 42
1.0
 43
10.0
 44
1.0
 45
0.0
 46
0.0
 47
0.1
 48
0.1
140
3.2
141
0.0
142
0.0
143
0.0393701
144
1.0
145
0.0
146
0.71
147
1.5
 71
     0
 72
     0
 73
     0
 74
     0
 75
     1
 76
     1
 77
     3
 78
     8
170
     0
171
     2
172
     1
173
     0
174
     0
175
     0
176
   256
177
   256
178
     2
270
     2
271
     2
272
     2
273
     2
274
     2
340
6B
275
     0
280
     0
281
     0
282
     0
283
     0
284
     0
285
     0
286
     0
287
     3
288
     0
  0
DIMSTYLE
105
68
330
A
100
AcDbSymbolTableRecord
100
AcDbDimStyleTableRecord
  2
AM_JIS$SH
 70
     0
  3

  4
"
  5

  6
GENAXEH
  7
OPEN30
 40
0.5
 41
2.5
 42
1.0
 43
10.0
 44
1.0
 45
0.0
 46
0.0
 47
0.1
 48
0.1
140
3.2
141
0.0
142
0.0
143
0.0393701
144
2.0
145
0.0
146
0.71
147
1.5
 71
     0
 72
     0
 73
     0
 74
     0
 75
     1
 76
     1
 77
     3
 78
     8
170
     0
171
     2
172
     1
173
     1
174
     0
175
     0
176
   256
177
   256
178
     2
270
     2
271
     2
272
     2
273
     2
274
     2
340
6B
275
     0
280
     0
281
     0
282
     0
283
     0
284
     0
285
     0
286
     0
287
     3
288
     0
  0
DIMSTYLE
105
B34
102
{ACAD_REACTORS
330
2CA7
102
}
330
A
100
AcDbSymbolTableRecord
100
AcDbDimStyleTableRecord
  2
AM_JIS$2
 70
     0
  3

  4
"
  5
OPEN30
  6

  7

 40
0.5
 41
2.5
 42
1.0
 43
12.0
 44
1.0
 45
0.0
 46
0.0
 47
0.1
 48
0.1
140
3.2
141
0.0
142
0.0
143
0.0393701
144
1.0
145
0.0
146
0.71
147
1.5
 71
     0
 72
     0
 73
     0
 74
     0
 75
     0
 76
     0
 77
     3
 78
     8
170
     0
171
     2
172
     1
173
     0
174
     0
175
     0
176
   256
177
   256
178
     2
270
     2
271
     3
272
     3
273
     2
274
     2
340
6B
275
     0
280
     0
281
     0
282
     0
283
     0
284
     0
285
     0
286
     0
287
     3
288
     0
  0
DIMSTYLE
105
BA5
102
{ACAD_REACTORS
330
CC6
330
DF5
330
1EEB
330
2A8C
102
}
330
A
100
AcDbSymbolTableRecord
100
AcDbDimStyleTableRecord
  2
AM_JIS$0
 70
     0
  3

  4
"
  5
OPEN30
  6

  7

 40
0.5
 41
2.5
 42
0.0
 43
10.0
 44
1.0
 45
0.0
 46
0.0
 47
0.1
 48
0.1000000001
140
3.799999999999999
141
0.0
142
0.0
143
0.0393701
144
1.0
145
0.0
146
0.71
147
1.5
 71
     0
 72
     0
 73
     0
 74
     0
 75
     0
 76
     0
 77
     3
 78
     1
170
     0
171
     2
172
     1
173
     0
174
     0
175
     0
176
     3
177
     3
178
     2
270
     2
271
     2
272
     2
273
     2
274
     2
340
11
275
     1
280
     0
281
     0
282
     0
283
     0
284
     8
285
     0
286
     0
287
     0
288
     0
  0
ENDTAB
  0
TABLE
  2
BLOCK_RECORD
  5
1
330
0
100
AcDbSymbolTable
 70
    10
  0
BLOCK_RECORD
  5
1F
102
{ACAD_XDICTIONARY
360
74
102
}
330
1
100
AcDbSymbolTableRecord
100
AcDbBlockTableRecord
  2
*MODEL_SPACE
  0
BLOCK_RECORD
  5
101
102
{ACAD_XDICTIONARY
360
321E
102
}
330
1
100
AcDbSymbolTableRecord
100
AcDbBlockTableRecord
  2
*PAPER_SPACE
  0
BLOCK_RECORD
  5
59
330
1
100
AcDbSymbolTableRecord
100
AcDbBlockTableRecord
  2
_OPEN30
  0
BLOCK_RECORD
  5
64
330
1
100
AcDbSymbolTableRecord
100
AcDbBlockTableRecord
  2
GENAXEH
  0
BLOCK_RECORD
  5
CC8
330
1
100
AcDbSymbolTableRecord
100
AcDbBlockTableRecord
  2
*D5
  0
BLOCK_RECORD
  5
DF6
330
1
100
AcDbSymbolTableRecord
100
AcDbBlockTableRecord
  2
*D6
  0
BLOCK_RECORD
  5
1EEC
330
1
100
AcDbSymbolTableRecord
100
AcDbBlockTableRecord
  2
*D7
  0
BLOCK_RECORD
  5
2A8D
330
1
100
AcDbSymbolTableRecord
100
AcDbBlockTableRecord
  2
*D8
  0
BLOCK_RECORD
  5
2CA8
330
1
100
AcDbSymbolTableRecord
100
AcDbBlockTableRecord
  2
*D9
  0
ENDTAB
  0
ENDSEC
  0
SECTION
  2
BLOCKS
  0
BLOCK
  5
20
330
1F
100
AcDbEntity
  8
0
100
AcDbBlockBegin
  2
*MODEL_SPACE
 70
     0
 10
0.0
 20
0.0
 30
0.0
  3
*MODEL_SPACE
  1

  0
ENDBLK
  5
21
330
1F
100
AcDbEntity
  8
0
100
AcDbBlockEnd
  0
BLOCK
  5
103
330
101
100
AcDbEntity
 67
     1
  8
0
100
AcDbBlockBegin
  2
*PAPER_SPACE
 70
     0
 10
0.0
 20
0.0
 30
0.0
  3
*PAPER_SPACE
  1

  0
ENDBLK
  5
104
330
101
100
AcDbEntity
 67
     1
  8
0
100
AcDbBlockEnd
  0
BLOCK
  5
5D
330
59
100
AcDbEntity
  8
0
100
AcDbBlockBegin
  2
_OPEN30
 70
     0
 10
0.0
 20
0.0
 30
0.0
  3
_OPEN30
  1

  0
LINE
  5
5A
330
59
100
AcDbEntity
  8
0
 62
     0
100
AcDbLine
 10
-1.0
 20
0.26794919
 30
0.0
 11
0.0
 21
0.0
 31
0.0
  0
LINE
  5
5B
330
59
100
AcDbEntity
  8
0
 62
     0
100
AcDbLine
 10
0.0
 20
0.0
 30
0.0
 11
-1.0
 21
-0.26794919
 31
0.0
  0
LINE
  5
5C
330
59
100
AcDbEntity
  8
0
 62
     0
100
AcDbLine
 10
0.0
 20
0.0
 30
0.0
 11
-1.0
 21
0.0
 31
0.0
  0
ENDBLK
  5
5E
330
59
100
AcDbEntity
  8
0
100
AcDbBlockEnd
  0
BLOCK
  5
66
330
64
100
AcDbEntity
  8
0
100
AcDbBlockBegin
  2
GENAXEH
 70
     0
 10
0.0
 20
0.0
 30
0.0
  3
GENAXEH
  1

  0
LINE
  5
65
330
64
100
AcDbEntity
  8
0
100
AcDbLine
 10
-1.0
 20
0.0
 30
0.0
 11
1.0
 21
0.0
 31
0.0
  0
ENDBLK
  5
67
330
64
100
AcDbEntity
  8
0
100
AcDbBlockEnd
  0
BLOCK
  5
CD2
330
CC8
100
AcDbEntity
  8
0
100
AcDbBlockBegin
  2
*D5
 70
     1
 10
0.0
 20
0.0
 30
0.0
  3
*D5
  1

  0
LINE
  5
31A1
330
CC8
100
AcDbEntity
  8
AM_5
 62
     3
100
AcDbLine
 10
-129.0
 20
-4.234865101779198
 30
0.0
 11
-129.0
 21
-17.00003143075871
 31
0.0
  0
LINE
  5
31A2
330
CC8
100
AcDbEntity
  8
AM_5
 62
     3
100
AcDbLine
 10
-2.000000000000028
 20
-4.249999849084806
 30
0.0
 11
-2.000000000000029
 21
-17.00003143075871
 31
0.0
  0
LINE
  5
31A3
330
CC8
100
AcDbEntity
  8
AM_5
 62
     3
100
AcDbLine
 10
-127.75
 20
-16.50003143075871
 30
0.0
 11
-3.250000000000029
 21
-16.50003143075871
 31
0.0
  0
INSERT
  5
31A4
330
CC8
100
AcDbEntity
  8
AM_5
 62
     3
100
AcDbBlockReference
  2
_OPEN30
 10
-129.0
 20
-16.50003143075871
 30
0.0
 41
1.25
 42
1.25
 43
1.25
 50
180.0
  0
INSERT
  5
31A5
330
CC8
100
AcDbEntity
  8
AM_5
 62
     3
100
AcDbBlockReference
  2
_OPEN30
 10
-2.000000000000029
 20
-16.50003143075871
 30
0.0
 41
1.25
 42
1.25
 43
1.25
  0
MTEXT
  5
31A6
330
CC8
100
AcDbEntity
  8
AM_5
 62
     2
100
AcDbMText
 10
-65.50000000000001
 20
-14.80003143075871
 30
0.0
 40
1.9
 41
0.0
 71
     5
 72
     1
  1
127
1001
ACAD
1000
MTEXTBEGIN
1070
    73
1070
     1
1070
    44
1040
1.0
1070
    74
1070
     0
1000
MTEXTEND
  0
POINT
  5
31A7
330
CC8
100
AcDbEntity
  8
DEFPOINTS
 62
     0
100
AcDbPoint
 10
-129.0
 20
-4.234865101779198
 30
0.0
  0
POINT
  5
31A8
330
CC8
100
AcDbEntity
  8
DEFPOINTS
 62
     0
100
AcDbPoint
 10
-2.000000000000028
 20
-4.249999849084806
 30
0.0
  0
POINT
  5
31A9
330
CC8
100
AcDbEntity
  8
DEFPOINTS
 62
     0
100
AcDbPoint
 10
-2.000000000000029
 20
-16.50003143075871
 30
0.0
  0
ENDBLK
  5
CD3
330
CC8
100
AcDbEntity
  8
0
100
AcDbBlockEnd
  0
BLOCK
  5
E00
330
DF6
100
AcDbEntity
  8
0
100
AcDbBlockBegin
  2
*D6
 70
     1
 10
0.0
 20
0.0
 30
0.0
  3
*D6
  1

  0
LINE
  5
3198
330
DF6
100
AcDbEntity
  8
AM_5
 62
     3
100
AcDbLine
 10
-73.99999999847472
 20
-4.500000388439782
 30
0.0
 11
-73.99999999847472
 21
-12.00003143075863
 31
0.0
  0
LINE
  5
3199
330
DF6
100
AcDbEntity
  8
AM_5
 62
     3
100
AcDbLine
 10
-2.000000000000028
 20
-4.249999849084806
 30
0.0
 11
-2.000000000000029
 21
-12.00003143075863
 31
0.0
  0
LINE
  5
319A
330
DF6
100
AcDbEntity
  8
AM_5
 62
     3
100
AcDbLine
 10
-72.74999999847472
 20
-11.50003143075863
 30
0.0
 11
-3.250000000000029
 21
-11.50003143075863
 31
0.0
  0
INSERT
  5
319B
330
DF6
100
AcDbEntity
  8
AM_5
 62
     3
100
AcDbBlockReference
  2
_OPEN30
 10
-73.99999999847472
 20
-11.50003143075863
 30
0.0
 41
1.25
 42
1.25
 43
1.25
 50
180.0
  0
INSERT
  5
319C
330
DF6
100
AcDbEntity
  8
AM_5
 62
     3
100
AcDbBlockReference
  2
_OPEN30
 10
-2.000000000000029
 20
-11.50003143075863
 30
0.0
 41
1.25
 42
1.25
 43
1.25
  0
MTEXT
  5
319D
330
DF6
100
AcDbEntity
  8
AM_5
 62
     2
100
AcDbMText
 10
-37.99999999923737
 20
-9.800031430758631
 30
0.0
 40
1.9
 41
0.0
 71
     5
 72
     1
  1
72
1001
ACAD
1000
MTEXTBEGIN
1070
    73
1070
     1
1070
    44
1040
1.0
1070
    74
1070
     0
1000
MTEXTEND
  0
POINT
  5
319E
330
DF6
100
AcDbEntity
  8
DEFPOINTS
 62
     0
100
AcDbPoint
 10
-73.99999999847472
 20
-4.500000388439782
 30
0.0
  0
POINT
  5
319F
330
DF6
100
AcDbEntity
  8
DEFPOINTS
 62
     0
100
AcDbPoint
 10
-2.000000000000028
 20
-4.249999849084806
 30
0.0
  0
POINT
  5
31A0
330
DF6
100
AcDbEntity
  8
DEFPOINTS
 62
     0
100
AcDbPoint
 10
-2.000000000000029
 20
-11.50003143075863
 30
0.0
  0
ENDBLK
  5
E01
330
DF6
100
AcDbEntity
  8
0
100
AcDbBlockEnd
  0
BLOCK
  5
1EF6
330
1EEC
100
AcDbEntity
  8
0
100
AcDbBlockBegin
  2
*D7
 70
     1
 10
0.0
 20
0.0
 30
0.0
  3
*D7
  1

  0
LINE
  5
2D91
330
1EEC
100
AcDbEntity
  8
AM_5
 62
     3
100
AcDbLine
 10
-128.7053273518916
 20
-4.500007542575746
 30
0.0
 11
-138.9999755686908
 21
-4.500007542575765
 31
0.0
  0
LINE
  5
2D92
330
1EEC
100
AcDbEntity
  8
AM_5
 62
     3
100
AcDbLine
 10
-128.7053273518916
 20
4.499981016489259
 30
0.0
 11
-138.9999755686908
 21
4.49998101648924
 31
0.0
  0
LINE
  5
2D93
330
1EEC
100
AcDbEntity
  8
AM_5
 62
     3
100
AcDbLine
 10
-138.4999755686908
 20
-3.250007542575764
 30
0.0
 11
-138.4999755686908
 21
3.249981016489241
 31
0.0
  0
INSERT
  5
2D94
330
1EEC
100
AcDbEntity
  8
AM_5
 62
     3
100
AcDbBlockReference
  2
_OPEN30
 10
-138.4999755686908
 20
-4.500007542575764
 30
0.0
 41
1.25
 42
1.25
 43
1.25
 50
270.0000000000001
  0
INSERT
  5
2D95
330
1EEC
100
AcDbEntity
  8
AM_5
 62
     3
100
AcDbBlockReference
  2
_OPEN30
 10
-138.4999755686908
 20
4.499981016489241
 30
0.0
 41
1.25
 42
1.25
 43
1.25
 50
90.0000000000001
  0
MTEXT
  5
2D96
330
1EEC
100
AcDbEntity
  8
AM_5
 62
     2
100
AcDbMText
 10
-140.1999755686908
 20
-0.0000132630432595
 30
0.0
 40
1.9
 41
0.0
 71
     5
 72
     1
  1
%%c9
 11
-0.000000000000002
 21
1.0
 31
0.0
1001
ACAD
1000
MTEXTBEGIN
1070
    73
1070
     1
1070
    44
1040
1.0
1070
    74
1070
     0
1000
MTEXTEND
  0
POINT
  5
2D97
330
1EEC
100
AcDbEntity
  8
DEFPOINTS
 62
     0
100
AcDbPoint
 10
-128.7053273518916
 20
-4.50000754257546
 30
0.0
  0
POINT
  5
2D98
330
1EEC
100
AcDbEntity
  8
DEFPOINTS
 62
     0
100
AcDbPoint
 10
-128.7053273518916
 20
4.499981016489545
 30
0.0
  0
POINT
  5
2D99
330
1EEC
100
AcDbEntity
  8
DEFPOINTS
 62
     0
100
AcDbPoint
 10
-138.4999755686908
 20
4.499981016489549
 30
0.0
  0
ENDBLK
  5
1EF7
330
1EEC
100
AcDbEntity
  8
0
100
AcDbBlockEnd
  0
BLOCK
  5
2A97
330
2A8D
100
AcDbEntity
  8
0
100
AcDbBlockBegin
  2
*D8
 70
     1
 10
0.0
 20
0.0
 30
0.0
  3
*D8
  1

  0
LINE
  5
31AA
330
2A8D
100
AcDbEntity
  8
AM_5
 62
     3
100
AcDbLine
 10
-1.999999999999976
 20
4.250000150915174
 30
0.0
 11
9.819888315414946
 21
4.250000150915196
 31
0.0
  0
LINE
  5
31AB
330
2A8D
100
AcDbEntity
  8
AM_5
 62
     3
100
AcDbLine
 10
-2.000000000000017
 20
-4.249999849084808
 30
0.0
 11
9.819888315414964
 21
-4.249999849084785
 31
0.0
  0
LINE
  5
31AC
330
2A8D
100
AcDbEntity
  8
AM_5
 62
     3
100
AcDbLine
 10
9.319888315414949
 20
3.000000150915195
 30
0.0
 11
9.31988831541496
 21
-2.999999849084786
 31
0.0
  0
INSERT
  5
31AD
330
2A8D
100
AcDbEntity
  8
AM_5
 62
     3
100
AcDbBlockReference
  2
_OPEN30
 10
9.319888315414946
 20
4.250000150915195
 30
0.0
 41
1.25
 42
1.25
 43
1.25
 50
90.0000000000001
  0
INSERT
  5
31AE
330
2A8D
100
AcDbEntity
  8
AM_5
 62
     3
100
AcDbBlockReference
  2
_OPEN30
 10
9.319888315414964
 20
-4.249999849084786
 30
0.0
 41
1.25
 42
1.25
 43
1.25
 50
270.0000000000001
  0
MTEXT
  5
31AF
330
2A8D
100
AcDbEntity
  8
AM_5
 62
     2
100
AcDbMText
 10
7.619888315414955
 20
0.0000001509152012
 30
0.0
 40
1.9
 41
0.0
 71
     5
 72
     1
  1
%%c8.5
 11
-0.000000000000002
 21
1.0
 31
0.0
1001
ACAD
1000
MTEXTBEGIN
1070
    73
1070
     1
1070
    44
1040
1.0
1070
    74
1070
     0
1000
MTEXTEND
  0
POINT
  5
31B0
330
2A8D
100
AcDbEntity
  8
DEFPOINTS
 62
     0
100
AcDbPoint
 10
-1.999999999999967
 20
4.250000150915178
 30
0.0
  0
POINT
  5
31B1
330
2A8D
100
AcDbEntity
  8
DEFPOINTS
 62
     0
100
AcDbPoint
 10
-2.000000000000027
 20
-4.249999849084803
 30
0.0
  0
POINT
  5
31B2
330
2A8D
100
AcDbEntity
  8
DEFPOINTS
 62
     0
100
AcDbPoint
 10
9.319888315414953
 20
-4.249999849084806
 30
0.0
  0
ENDBLK
  5
2A98
330
2A8D
100
AcDbEntity
  8
0
100
AcDbBlockEnd
  0
BLOCK
  5
2CB8
330
2CA8
100
AcDbEntity
  8
0
100
AcDbBlockBegin
  2
*D9
 70
     1
 10
0.0
 20
0.0
 30
0.0
  3
*D9
  1

  0
LINE
  5
2D9A
330
2CA8
100
AcDbEntity
  8
AM_5
100
AcDbLine
 10
0.171010071662763
 20
-0.4698463103929555
 30
0.0
 11
4.966555966546227
 21
-13.64550037054423
 31
0.0
  0
LINE
  5
2D9B
330
2CA8
100
AcDbEntity
  8
AM_5
100
AcDbLine
 10
0.1710100716627556
 20
0.4698463103929611
 30
0.0
 11
4.966555966546014
 21
13.64550037054431
 31
0.0
  0
ARC
  5
2D9C
330
2CA8
100
AcDbEntity
  8
AM_5
100
AcDbCircle
 10
-0.0000000000000639
 20
0.0000000000000015
 30
0.0
 40
14.02123818864491
100
AcDbArc
 50
295.1096388312757
 51
64.89036116872518
  0
INSERT
  5
2D9D
330
2CA8
100
AcDbEntity
  8
AM_5
100
AcDbBlockReference
  2
_OPEN30
 10
4.7955458948834
 20
-13.17565406015127
 30
0.0
 41
1.25
 42
1.25
 43
1.25
 50
202.5548194156373
  0
INSERT
  5
2D9E
330
2CA8
100
AcDbEntity
  8
AM_5
100
AcDbBlockReference
  2
_OPEN30
 10
4.795545894883194
 20
13.17565406015135
 30
0.0
 41
1.25
 42
1.25
 43
1.25
 50
157.4451805843634
  0
MTEXT
  5
2D9F
330
2CA8
100
AcDbEntity
  8
AM_5
 62
     2
100
AcDbMText
 10
12.47123818864485
 20
0.0000000000001107
 30
0.0
 40
1.6
 41
0.0
 71
     5
 72
     1
  1
140°
  7
ASAMI
 11
-0.000000000000002
 21
1.0
 31
0.0
1001
ACAD
1000
MTEXTBEGIN
1070
    73
1070
     1
1070
    44
1040
1.0
1070
    74
1070
     0
1000
MTEXTEND
  0
POINT
  5
2DA0
330
2CA8
100
AcDbEntity
  8
DEFPOINTS
 62
     0
100
AcDbPoint
 10
12.87452674321848
 20
-5.553528741337792
 30
0.0
  0
POINT
  5
2DA1
330
2CA8
100
AcDbEntity
  8
DEFPOINTS
 62
     0
100
AcDbPoint
 10
-0.0000000000000639
 20
0.0000000000000015
 30
0.0
  0
POINT
  5
2DA2
330
2CA8
100
AcDbEntity
  8
DEFPOINTS
 62
     0
100
AcDbPoint
 10
-0.4058444933443237
 20
1.115048581273418
 30
0.0
  0
POINT
  5
2DA3
330
2CA8
100
AcDbEntity
  8
DEFPOINTS
 62
     0
100
AcDbPoint
 10
-0.0000000000000639
 20
0.0000000000000015
 30
0.0
  0
POINT
  5
2DA4
330
2CA8
100
AcDbEntity
  8
DEFPOINTS
 62
     0
100
AcDbPoint
 10
-0.4058444933443095
 20
-1.115048581273416
 30
0.0
  0
ENDBLK
  5
2CB9
330
2CA8
100
AcDbEntity
  8
0
100
AcDbBlockEnd
  0
ENDSEC
  0
SECTION
  2
ENTITIES
  0
LINE
  5
C9F
330
1F
100
AcDbEntity
  8
AM_7
100
AcDbLine
 10
-131.4999745686908
 20
-0.0000000000000533
 30
0.0
 11
2.319887315415111
 21
0.0000000000000009
 31
0.0
1001
GENIUS_GENODEF_13
1002
{
1000
HIER
1070
     0
1002
}
1002
{
1000
MANEDIT
1070
     0
1002
}
1002
{
1000
NOSEL
1070
     0
1002
}
1002
{
1000
BEHIND
1070
     0
1002
}
1002
{
1000
REACTOR
1002
}
1001
GENIUS_GENOBJ-N-CEN_13
1002
{
1000
OWNER
1000
GEN
1002
}
  0
DIMENSION
  5
CC6
330
1F
100
AcDbEntity
  8
AM_5
100
AcDbDimension
  2
*D5
 10
-2.000000000000029
 20
-16.50003143075871
 30
0.0
 11
-65.50000000000001
 21
-14.80003143075871
 31
0.0
 70
    32
  1
<>
  3
AM_JIS$0
100
AcDbAlignedDimension
 13
-129.0
 23
-4.234865101779198
 33
0.0
 14
-2.000000000000028
 24
-4.249999849084806
 34
0.0
 50
0.0000000000001132
100
AcDbRotatedDimension
1001
GENIUS_GENDTOL_13
1000

1000
h7
1000

1040
0.0
1001
ACAD
1000
DSTYLE
1002
{
1070
   271
1070
     0
1002
}
  0
DIMENSION
  5
DF5
330
1F
100
AcDbEntity
  8
AM_5
100
AcDbDimension
  2
*D6
 10
-2.000000000000029
 20
-11.50003143075863
 30
0.0
 11
-37.99999999923737
 21
-9.800031430758631
 31
0.0
 70
    32
  1
<>
  3
AM_JIS$0
100
AcDbAlignedDimension
 13
-73.99999999847472
 23
-4.500000388439782
 33
0.0
 14
-2.000000000000028
 24
-4.249999849084806
 34
0.0
 50
0.0000000000001527
100
AcDbRotatedDimension
1001
GENIUS_GENDTOL_13
1000

1000
h7
1000

1040
0.0
1001
ACAD
1000
DSTYLE
1002
{
1070
   271
1070
     0
1002
}
  0
TEXT
  5
19BD
330
1F
100
AcDbEntity
  8
AM_6
100
AcDbText
 10
-76.33331425984994
 20
-27.75003143075874
 30
0.0
 40
2.5
  1
MDW085LHK
 50
0.0000000000001527
 72
     4
 11
-65.49998092651661
 21
-26.50003143075871
 31
0.0
100
AcDbText
  0
LINE
  5
1C24
330
1F
100
AcDbEntity
  8
AM_0
 48
0.5
100
AcDbLine
 10
-128.9999618530333
 20
4.234815687510544
 30
0.0
 11
-128.7053273518916
 21
4.499981016489545
 31
0.0
  0
LINE
  5
1C25
330
1F
100
AcDbEntity
  8
AM_0
 48
0.5
100
AcDbLine
 10
-128.9999618530333
 20
-4.234842213595711
 30
0.0
 11
-128.7053273518916
 21
-4.50000754257546
 31
0.0
  0
LINE
  5
1C26
330
1F
100
AcDbEntity
  8
AM_0
 48
0.5
100
AcDbLine
 10
-128.705378214525
 20
-4.500030430758968
 30
0.0
 11
-128.705378214525
 21
4.500029653880044
 31
0.0
  0
LINE
  5
1C27
330
1F
100
AcDbEntity
  8
AM_0
 48
0.5
100
AcDbLine
 10
-129.0
 20
-4.234865101779198
 30
0.0
 11
-129.0
 21
4.234864324900297
 31
0.0
  0
LINE
  5
1C28
330
1F
100
AcDbEntity
  8
AM_0
100
AcDbLine
 10
-80.26791127523409
 20
4.499999611560396
 30
0.0
 11
-128.705378214525
 21
4.500015348764787
 31
0.0
  0
LINE
  5
1C2B
330
1F
100
AcDbEntity
  8
AM_0
 48
0.5
100
AcDbLine
 10
-73.99999999847472
 20
-4.500000388439782
 30
0.0
 11
-128.705378214525
 21
-4.500018986667214
 31
0.0
  0
LINE
  5
1C2C
330
1F
100
AcDbEntity
  8
AM_0
 48
0.5
100
AcDbLine
 10
-73.99999999999998
 20
4.501278224012891
 30
0.0
 11
-128.705378214525
 21
4.500015348764787
 31
0.0
  0
LINE
  5
1C2D
330
1F
100
AcDbEntity
  8
AM_0
 48
0.5
100
AcDbLine
 10
-73.99999999999998
 20
4.501278224012891
 30
0.0
 11
-128.705378214525
 21
4.500015348764787
 31
0.0
  0
LINE
  5
1EDD
330
1F
100
AcDbEntity
  8
AM_0
100
AcDbLine
 10
-74.0
 20
-4.500000389320357
 30
0.0
 11
-74.0
 21
4.501278224012891
 31
0.0
  0
LINE
  5
1EDF
330
1F
100
AcDbEntity
  8
AM_0
100
AcDbLine
 10
-73.99999999999991
 20
-4.500000389320357
 30
0.0
 11
-73.56594056806838
 21
-4.249396059450406
 31
0.0
  0
DIMENSION
  5
1EEB
330
1F
100
AcDbEntity
  8
AM_5
100
AcDbDimension
  2
*D7
 10
-138.4999755686908
 20
4.499981016489549
 30
0.0
 11
-140.1999755686908
 21
-0.0000132630429761
 31
0.0
 70
    32
  1
%%c<>
 51
359.9999999999998
  3
AM_JIS$0
100
AcDbAlignedDimension
 13
-128.7053273518916
 23
-4.50000754257546
 33
0.0
 14
-128.7053273518916
 24
4.499981016489545
 34
0.0
 50
270.0000000000002
100
AcDbRotatedDimension
1001
ACAD
1000
DSTYLE
1002
{
1070
   271
1070
     0
1002
}
1001
GENIUS_GENDTOL_13
1000

1000
h7
1000

1040
0.0
  0
LINE
  5
1FEC
330
1F
100
AcDbEntity
  8
AM_0
100
AcDbLine
 10
-74.0
 20
4.501278224012891
 30
0.0
 11
-73.56611728711969
 21
4.25077592293471
 31
0.0
  0
LINE
  5
2969
330
1F
100
AcDbEntity
  8
AM_0
100
AcDbLine
 10
-73.56599099708823
 20
-4.24942517465858
 30
0.0
 11
-73.56611728711968
 21
4.25077592293471
 31
0.0
  0
ELLIPSE
  5
29BD
330
1F
100
AcDbEntity
  8
AM_11
 48
0.5
100
AcDbEllipse
 10
-80.73167806602924
 20
17.88873487558483
 30
0.0
 11
-24.41816012064583
 21
0.0000000000003539
 31
0.0
210
0.0
220
0.0
230
1.0
 40
0.809999999999998
 41
1.130070686340299
 42
2.011520147323587
  0
ELLIPSE
  5
29BE
330
1F
100
AcDbEntity
  8
AM_11
 48
0.5
100
AcDbEllipse
 10
-80.73167806602999
 20
-17.88869069967136
 30
0.0
 11
-24.41816012064589
 21
0.0000000000003702
 31
0.0
210
0.0
220
0.0
230
0.9999999999999998
 40
0.8099999999999958
 41
4.271664206181682
 42
5.15311366716499
  0
ELLIPSE
  5
29BF
330
1F
100
AcDbEntity
  8
AM_11
 48
0.5
100
AcDbEllipse
 10
-101.5643989838648
 20
17.88873487558477
 30
0.0
 11
-24.41816012064583
 21
0.0000000000003539
 31
0.0
210
0.0
220
0.0
230
1.0
 40
0.809999999999998
 41
1.130070686340299
 42
2.011520147323587
  0
ELLIPSE
  5
29C0
330
1F
100
AcDbEntity
  8
AM_11
 48
0.5
100
AcDbEllipse
 10
-101.5643989838655
 20
-17.88869069967141
 30
0.0
 11
-24.41816012064589
 21
0.0000000000003702
 31
0.0
210
0.0
220
0.0
230
0.9999999999999998
 40
0.8099999999999958
 41
4.271664206181682
 42
5.15311366716499
  0
ELLIPSE
  5
29C1
330
1F
100
AcDbEntity
  8
AM_11
 48
0.5
100
AcDbEllipse
 10
-122.3977316674052
 20
17.88852152858116
 30
0.0
 11
-24.41816012064583
 21
0.0000000000003539
 31
0.0
210
0.0
220
0.0
230
1.0
 40
0.809999999999998
 41
1.297004949327763
 42
2.011520147323587
  0
ELLIPSE
  5
29C2
330
1F
100
AcDbEntity
  8
AM_11
 48
0.5
100
AcDbEllipse
 10
-122.397731667406
 20
-17.88890404667502
 30
0.0
 11
-24.41816012064589
 21
0.0000000000003702
 31
0.0
210
0.0
220
0.0
230
0.9999999999999998
 40
0.8099999999999958
 41
4.271664206181682
 42
4.986180357851814
  0
DIMENSION
  5
2A8C
330
1F
100
AcDbEntity
  8
AM_5
100
AcDbDimension
  2
*D8
 10
9.319888315414953
 20
-4.249999849084806
 30
0.0
 11
7.619888315414955
 21
0.0000001509151858
 31
0.0
 70
    32
  1
%%c<>
 51
359.9999999999998
  3
AM_JIS$0
100
AcDbAlignedDimension
 13
-1.999999999999967
 23
4.250000150915178
 33
0.0
 14
-2.000000000000027
 24
-4.249999849084803
 34
0.0
 50
89.99999999999896
100
AcDbRotatedDimension
1001
ACAD
1000
DSTYLE
1002
{
1070
   271
1070
     1
1002
}
1001
GENIUS_GENDTOL_13
1000

1000
h7
1000

1040
0.0
  0
ELLIPSE
  5
2B83
330
1F
100
AcDbEntity
  8
AM_0
 48
0.5
100
AcDbEllipse
 10
7.55885405733725
 20
-7.03999238840452
 30
0.0
 11
-7.019308446023166
 21
-7.019308446027135
 31
0.0
210
0.0
220
0.0
230
-1.0
 40
0.9999999999999978
 41
1.171329590070667
 42
1.424984195904709
  0
ELLIPSE
  5
2B84
330
1F
100
AcDbEntity
  8
AM_0
 48
0.5
100
AcDbEllipse
 10
7.558854057335247
 20
7.039992388406203
 30
0.0
 11
-7.019308446025163
 21
7.019308446025134
 31
0.0
210
0.0
220
0.0
230
0.9999999999999998
 40
0.999999999999998
 41
1.171329590070667
 42
1.424984195904709
  0
LINE
  5
2B85
330
1F
100
AcDbEntity
  8
AM_0
 48
0.5
100
AcDbLine
 10
-1.637813295996544
 20
-3.303323857078343
 30
0.0
 11
-2.000000000000027
 21
-4.249999849084803
 31
0.0
  0
LINE
  5
2B87
330
1F
100
AcDbEntity
  8
AM_0
 48
0.5
100
AcDbLine
 10
-1.637813295997512
 20
3.303323857077387
 30
0.0
 11
-1.999999999999967
 21
4.250000150915178
 31
0.0
  0
LINE
  5
2B88
330
1F
100
AcDbEntity
  8
AM_0
100
AcDbLine
 10
-0.0000000000000639
 20
0.0000000000000015
 30
0.0
 11
-0.4058444933443095
 21
-1.115048581273416
 31
0.0
  0
LINE
  5
2B89
330
1F
100
AcDbEntity
  8
AM_0
100
AcDbLine
 10
-0.4058444933443237
 20
1.115048581273418
 30
0.0
 11
-0.0000000000000639
 21
0.0000000000000015
 31
0.0
  0
DIMENSION
  5
2CA7
330
1F
100
AcDbEntity
  8
AM_5
100
AcDbDimension
  2
*D9
 10
-0.4058444933443095
 20
-1.115048581273416
 30
0.0
 11
12.47123818864485
 21
0.0000000000000835
 31
0.0
 70
    34
  1
<>
 51
359.9999999999998
  3
AM_JIS$2
100
AcDb2LineAngularDimension
 13
-0.4058444933443237
 23
1.115048581273418
 33
0.0
 14
-0.0000000000000639
 24
0.0000000000000015
 34
0.0
 15
-0.0000000000000639
 25
0.0000000000000015
 35
0.0
 16
12.87452674321848
 26
-5.553528741337792
 36
0.0
1001
ACAD
1000
DSTYLE
1002
{
1070
   179
1070
     3
1002
}
1001
GENIUS_GENDTOL_13
1000

1000
h7
1000

1040
0.0
  0
LINE
  5
3140
330
1F
100
AcDbEntity
  8
AM_0
100
AcDbLine
 10
-70.00000000000006
 20
-4.249396059450457
 30
0.0
 11
-73.56594056806838
 21
-4.249396059450406
 31
0.0
  0
LINE
  5
3141
330
1F
100
AcDbEntity
  8
AM_0
100
AcDbLine
 10
-70.07814563361357
 20
4.250775922934646
 30
0.0
 11
-73.56611728711971
 21
4.25077592293471
 31
0.0
  0
LINE
  5
3142
330
1F
100
AcDbEntity
  8
AM_0
 48
0.5
100
AcDbLine
 10
-4.698300679530684
 20
4.250000150915253
 30
0.0
 11
-1.999999999999967
 21
4.250000150915178
 31
0.0
  0
LINE
  5
3143
330
1F
100
AcDbEntity
  8
AM_0
 48
0.5
100
AcDbLine
 10
-4.698300679530921
 20
-4.249999849084748
 30
0.0
 11
-2.000000000000032
 21
-4.24999984908482
 31
0.0
  0
LINE
  5
3144
330
1F
100
AcDbEntity
  8
AM_0
 48
0.5
100
AcDbLine
 10
-0.0000000000000142
 20
-0.0000000000000147
 30
0.0
 11
-1.76675904465161
 21
1.609206571336887
 31
0.0
  0
LINE
  5
3145
330
1F
100
AcDbEntity
  8
AM_0
 48
0.5
100
AcDbLine
 10
-34.69787979242298
 20
-4.249999849084009
 30
0.0
 11
-20.57240041097589
 21
-4.249999849084312
 31
0.0
  0
LINE
  5
3146
330
1F
100
AcDbEntity
  8
AM_11
 48
0.5
100
AcDbLine
 10
-48.51436565967844
 20
4.250603940545962
 30
0.0
 11
-38.38412379925364
 21
4.250000150916178
 31
0.0
  0
LINE
  5
3147
330
1F
100
AcDbEntity
  8
AM_0
 48
0.5
100
AcDbLine
 10
-60.57858911337731
 20
-4.249396059453795
 30
0.0
 11
-48.51436565967865
 21
-4.249396059454038
 31
0.0
  0
LINE
  5
3148
330
1F
100
AcDbEntity
  8
AM_11
 48
0.5
100
AcDbLine
 10
-48.51436565967857
 20
-4.249999849083623
 30
0.0
 11
-34.69787979242299
 21
-4.250603638713499
 31
0.0
  0
LINE
  5
3149
330
1F
100
AcDbEntity
  8
AM_0
 48
0.5
100
AcDbLine
 10
-38.38413747152237
 20
4.250000150916178
 30
0.0
 11
-15.51931663513624
 21
4.250000547065753
 31
0.0
  0
LINE
  5
314A
330
1F
100
AcDbEntity
  8
AM_11
 48
0.5
100
AcDbLine
 10
-15.51931663513624
 20
4.250000547065753
 30
0.0
 11
-4.698300679530684
 21
4.250000150915253
 31
0.0
  0
LINE
  5
314B
330
1F
100
AcDbEntity
  8
AM_11
 48
0.5
100
AcDbLine
 10
-20.57240041097589
 20
-4.249999849084312
 30
0.0
 11
-4.698300679530921
 21
-4.249999849084748
 31
0.0
  0
ELLIPSE
  5
314C
330
1F
100
AcDbEntity
  8
AM_0
 48
0.5
100
AcDbEllipse
 10
-6.756586538278154
 20
8.083968304442889
 30
0.0
 11
-5.377003250873785
 21
9.415433007018979
 31
0.0
210
0.0
220
0.0
230
0.9999999999999998
 40
0.5872369277719513
 41
3.153793563415282
 42
3.437756101354965
  0
ELLIPSE
  5
314D
330
1F
100
AcDbEntity
  8
AM_0
 48
0.5
100
AcDbEllipse
 10
-1.593501803090361
 20
-1.510738916784784
 30
0.0
 11
-0.5419545437814471
 21
0.3731850322996522
 31
0.0
210
0.0
220
0.0
230
1.0
 40
0.5226858805480259
 41
4.548284319219733
 42
7.691724660549244
  0
ELLIPSE
  5
314E
330
1F
100
AcDbEntity
  8
AM_0
 48
0.5
100
AcDbEllipse
 10
-1.593501803090361
 20
-1.510738916784784
 30
0.0
 11
-0.1045962887163451
 21
0.6986685839171397
 31
0.0
210
0.0
220
0.0
230
1.0
 40
0.4534573216539381
 41
1.826014466327523
 42
4.9613563560395
  0
SPLINE
  5
314F
330
1F
100
AcDbEntity
  8
AM_0
 48
0.5
100
AcDbSpline
210
0.0
220
0.0
230
1.0
 70
     8
 71
     3
 72
    15
 73
    11
 74
     0
 42
0.0000000001
 43
0.0000000001
 40
0.0
 40
0.0
 40
0.0
 40
0.0
 40
1.010743614677189
 40
2.022833924044153
 40
3.037578959561199
 40
4.056212747067873
 40
5.079857613375832
 40
6.109500119648989
 40
7.14596120163808
 40
7.429850053969086
 40
7.429850053969086
 40
7.429850053969086
 40
7.429850053969086
 10
-4.698300679530684
 20
4.250000150915253
 30
0.0
 10
-4.979078404132239
 20
4.24747332614382
 30
0.0
 10
-5.541007955991328
 20
4.242416309909914
 30
0.0
 10
-6.383696720611498
 20
4.201610530030247
 30
0.0
 10
-7.226350792224373
 20
4.136764610188985
 30
0.0
 10
-8.068952457925227
 20
4.045870788484352
 30
0.0
 10
-8.911491682572345
 20
3.930161793772639
 30
0.0
 10
-9.753958175381962
 20
3.790174094363889
 30
0.0
 10
-10.39047538573882
 20
3.666732779558876
 30
0.0
 10
-10.74648339040855
 20
3.59172855378238
 30
0.0
 10
-10.8229526124702
 20
3.575345189689555
 30
0.0
  0
ELLIPSE
  5
3150
330
1F
100
AcDbEntity
  8
AM_0
 48
0.5
100
AcDbEllipse
 10
4.221711747704353
 20
-2.065343288663266
 30
0.0
 11
6.662658856855558
 21
0.7422792219394651
 31
0.0
210
0.0
220
0.0
230
1.0
 40
0.7751568985244913
 41
3.00524277519672
 42
3.430862620278456
  0
ELLIPSE
  5
3151
330
1F
100
AcDbEntity
  8
AM_0
 48
0.5
100
AcDbEllipse
 10
-6.519358108524758
 20
7.13304129311823
 30
0.0
 11
7.680125384649998
 21
8.864879092135911
 31
0.0
210
0.0
220
0.0
230
1.0
 40
0.8358243761330362
 41
4.335410045535479
 42
4.395340564733358
  0
ELLIPSE
  5
3152
330
1F
100
AcDbEntity
  8
AM_0
 48
0.5
100
AcDbEllipse
 10
3.619291857739122
 20
4.192046891202657
 30
0.0
 11
-0.0000000000002077
 21
9.216650845542107
 31
0.0
210
0.0
220
0.0
230
1.0
 40
0.9021176470588192
 41
1.951257656000312
 42
2.322034022628298
  0
SPLINE
  5
3153
330
1F
100
AcDbEntity
  8
AM_0
 48
0.5
100
AcDbSpline
210
0.0
220
0.0
230
1.0
 70
     8
 71
     3
 72
    25
 73
    21
 74
     0
 42
0.0000000001
 43
0.0000000001
 40
6.846175049578289
 40
6.846175049578289
 40
6.846175049578289
 40
6.846175049578289
 40
7.604337694224321
 40
8.711974558287883
 40
9.814980593243754
 40
10.91239053451967
 40
12.0033633515982
 40
13.08720139956839
 40
14.16337181880432
 40
15.23152222380919
 40
16.29148850140128
 40
17.34331105512262
 40
18.38723020264746
 40
19.42369128463655
 40
20.45333379090873
 40
21.47697865721768
 40
22.49561244472435
 40
23.5103574802404
 40
24.52244778960836
 40
25.53320666051913
 40
25.53320666051913
 40
25.53320666051913
 40
25.53320666051913
 10
-4.100658820522156
 20
0.7692783711814905
 30
0.0
 10
-4.247447499737607
 20
0.8439008125843269
 30
0.0
 10
-4.608995858473551
 20
1.026796098094499
 30
0.0
 10
-5.185841196039266
 20
1.314007535492515
 30
0.0
 10
-5.831308262767967
 20
1.627291499453969
 30
0.0
 10
-6.47680779045465
 20
1.930566126953337
 30
0.0
 10
-7.122345325143285
 20
2.221966715029872
 30
0.0
 10
-7.767928059715053
 20
2.499695468276701
 30
0.0
 10
-8.413561963782445
 20
2.762039661213961
 30
0.0
 10
-9.059250026290392
 20
3.007386998888707
 30
0.0
 10
-9.705000200459405
 20
3.234210606463602
 30
0.0
 10
-10.35081161186665
 20
3.44111959305493
 30
0.0
 10
-10.99668889924001
 20
3.62682284875272
 30
0.0
 10
-11.64262978324881
 20
3.79017108506081
 30
0.0
 10
-12.28863174052152
 20
3.930163094160823
 30
0.0
 10
-12.93469117636086
 20
4.045870944082922
 30
0.0
 10
-13.58079803834143
 20
4.136765070931906
 30
0.0
 10
-14.22694520570986
 20
4.201610906952367
 30
0.0
 10
-14.8731221895506
 20
4.242416923579418
 30
0.0
 10
-15.30401302399477
 20
4.247473782044335
 30
0.0
 10
-15.51931663513624
 20
4.250000547065753
 30
0.0
  0
SPLINE
  5
3154
330
1F
100
AcDbEntity
  8
AM_0
 48
0.5
100
AcDbSpline
210
0.0
220
0.0
230
1.0
 70
     8
 71
     3
 72
    10
 73
     6
 74
     0
 42
0.0000000001
 43
0.0000000001
 40
0.0
 40
0.0
 40
0.0
 40
0.0
 40
2.69986029516136
 40
4.147722969032201
 40
6.285750005020438
 40
6.285750005020438
 40
6.285750005020438
 40
6.285750005020438
 10
-4.100555511479374
 20
0.7692278928498536
 30
0.0
 10
-3.640660224011016
 20
0.3743735240261922
 30
0.0
 10
-2.934135426931415
 20
-0.2322306539484082
 30
0.0
 10
-1.26329919102234
 20
0.0614370554177328
 30
0.0
 10
-1.577966253512259
 20
1.050548758584797
 30
0.0
 10
-1.785878143503095
 20
1.653442805485642
 30
0.0
  0
ELLIPSE
  5
3155
330
1F
100
AcDbEntity
  8
AM_11
 48
0.5
100
AcDbEllipse
 10
2.601084391270699
 20
18.77211253658215
 30
0.0
 11
24.41816012064546
 21
0.0000000000002401
 31
0.0
210
0.0
220
0.0
230
1.0
 40
0.8500000000000087
 41
4.271663339930057
 42
4.433393390970752
  0
ELLIPSE
  5
3156
330
1F
100
AcDbEntity
  8
AM_11
 48
0.5
100
AcDbEllipse
 10
-18.2322489420637
 20
-18.77209948683427
 30
0.0
 11
-24.41816012064576
 21
0.0000000000006847
 31
0.0
210
0.0
220
0.0
230
1.0
 40
0.8499999999999992
 41
4.271664206181685
 42
5.153113667164992
  0
ELLIPSE
  5
3157
330
1F
100
AcDbEntity
  8
AM_11
 48
0.5
100
AcDbEllipse
 10
-18.23224894206266
 20
18.77211253658272
 30
0.0
 11
-24.41816012064583
 21
0.0000000000007823
 31
0.0
210
0.0
220
0.0
230
1.0
 40
0.8499999999999978
 41
1.130070686340309
 42
2.011520147323596
  0
ELLIPSE
  5
3158
330
1F
100
AcDbEntity
  8
AM_11
 48
0.5
100
AcDbEllipse
 10
-39.065582275396
 20
18.77211253658332
 30
0.0
 11
-24.41816012064579
 21
0.0000000000005708
 31
0.0
210
0.0
220
0.0
230
1.0
 40
0.8499999999999987
 41
1.1300706863403
 42
2.01152014732359
  0
ELLIPSE
  5
3159
330
1F
100
AcDbEntity
  8
AM_11
 48
0.5
100
AcDbEllipse
 10
-39.06558227539703
 20
-18.77209948683368
 30
0.0
 11
-24.41816012064577
 21
0.0000000000007606
 31
0.0
210
0.0
220
0.0
230
1.0
 40
0.8499999999999994
 41
4.271664206181688
 42
5.153113667164995
  0
SPLINE
  5
315A
330
1F
100
AcDbEntity
  8
AM_0
100
AcDbSpline
210
0.0
220
0.0
230
1.0
 70
     8
 71
     3
 72
    17
 73
    13
 74
     0
 42
0.0000000001
 43
0.0000000001
 40
1.580019955310467
 40
1.580019955310467
 40
1.580019955310467
 40
1.580019955310467
 40
2.030549285115227
 40
3.082371838836284
 40
4.126290986361125
 40
5.162752068350215
 40
6.192395305374981
 40
7.216039564037012
 40
8.234688489606833
 40
9.249433870634691
 40
10.26152376260694
 40
11.27226744710342
 40
11.27226744710342
 40
11.27226744710342
 40
11.27226744710352
 10
-12.63473130137892
 20
-3.136624997093561
 30
0.0
 10
-12.75395779626143
 20
-3.168929630404671
 30
0.0
 10
-13.15221434476401
 20
-3.274812380982404
 30
0.0
 10
-13.83213703654881
 20
-3.440893263814133
 30
0.0
 10
-14.6743218743376
 20
-3.626881820449484
 30
0.0
 10
-15.51673856482374
 20
-3.790155079168654
 30
0.0
 10
-16.35919385454855
 20
-3.930164731672687
 30
0.0
 10
-17.20174092826731
 20
-4.045892340987803
 30
0.0
 10
-18.04434621114569
 20
-4.136677500676457
 30
0.0
 10
-18.88700396137397
 20
-4.201931892526777
 30
0.0
 10
-19.7296934180474
 20
-4.241235466440318
 30
0.0
 10
-20.29162274117674
 20
-4.249999873403041
 30
0.0
 10
-20.57240041097581
 20
-4.249999849084312
 30
0.0
  0
SPLINE
  5
315B
330
1F
100
AcDbEntity
  8
AM_0
100
AcDbSpline
210
0.0
220
0.0
230
1.0
 70
     8
 71
     3
 72
    22
 73
    18
 74
     0
 42
0.0000000001
 43
0.0000000001
 40
17.17441611292
 40
17.17441611292
 40
17.17441611292
 40
17.17441611292
 40
17.38177636558528
 40
18.41823744757437
 40
19.46215659509824
 40
20.51397914882054
 40
21.57394542641293
 40
22.64209583141747
 40
23.71826625065247
 40
24.80210429862395
 40
25.8930771157021
 40
26.99048705697709
 40
28.09349309193389
 40
29.20112995599786
 40
30.31233024745139
 40
31.42594771747373
 40
32.5407895042663
 40
32.54078950426994
 40
32.54078950426994
 40
32.54078950426994
 10
-23.78875945553777
 20
-3.816530609092721
 30
0.0
 10
-23.84518714288994
 20
-3.806692275940243
 30
0.0
 10
-24.18344031161121
 20
-3.746765913352168
 30
0.0
 10
-24.80310105621841
 20
-3.626605756773337
 30
0.0
 10
-25.64540314053017
 20
-3.440902790624685
 30
0.0
 10
-26.48761939602762
 20
-3.233993725566786
 30
0.0
 10
-27.32975576871032
 20
-3.007170139287473
 30
0.0
 10
-28.17181114617467
 20
-2.761822795733526
 30
0.0
 10
-29.01379589314594
 20
-2.499478604797565
 30
0.0
 10
-29.85571390825022
 20
-2.221749849467649
 30
0.0
 10
-30.69757298123116
 20
-1.930349267760124
 30
0.0
 10
-31.53938247302792
 20
-1.627074616687921
 30
0.0
 10
-32.3811496900389
 20
-1.313790741251734
 30
0.0
 10
-33.2228831060122
 20
-0.9924250167918579
 30
0.0
 10
-34.06459018218188
 20
-0.6649534787486421
 30
0.0
 10
-34.90628338770626
 20
-0.3333968035127977
 30
0.0
 10
-35.4673020485248
 20
-0.1110287744543277
 30
0.0
 10
-35.74796549479929
 20
0.0002163170950345
 30
0.0
  0
SPLINE
  5
315C
330
1F
100
AcDbEntity
  8
AM_0
100
AcDbSpline
210
0.0
220
0.0
230
1.0
 70
     8
 71
     3
 72
    11
 73
     7
 74
     0
 42
0.0000000001
 43
0.0000000001
 40
11.27226913003534
 40
11.27226913003534
 40
11.27226913003534
 40
11.2722691300354
 40
12.28301561507924
 40
13.29510212255852
 40
14.30984805882082
 40
15.18258238371378
 40
15.18258238371378
 40
15.18258238371378
 40
15.18258238371378
 10
-20.57240041097586
 20
-4.249999849084312
 30
0.0
 10
-20.85211042584445
 20
-4.22919911404237
 30
0.0
 10
-21.41100286930486
 20
-4.178841439790781
 30
0.0
 10
-22.24645551810999
 20
-4.077257554884144
 30
0.0
 10
-23.03931481315021
 20
-3.95592674260175
 30
0.0
 10
-23.5520896652753
 20
-3.862656136163659
 30
0.0
 10
-23.78839091838509
 20
-3.816583032810223
 30
0.0
  0
SPLINE
  5
315D
330
1F
100
AcDbEntity
  8
AM_0
100
AcDbSpline
210
0.0
220
0.0
230
1.0
 70
     8
 71
     3
 72
    55
 73
    51
 74
     0
 42
0.0000000001
 43
0.0000000001
 40
0.0
 40
0.0
 40
0.0
 40
0.0
 40
1.010743684496582
 40
2.022833576467832
 40
3.037578957496688
 40
4.056212745003489
 40
5.079857003664532
 40
6.109500240690281
 40
7.145961322679372
 40
8.189895241603872
 40
9.241717795325891
 40
10.30168407291828
 40
11.36983447792315
 40
12.44600489715814
 40
13.52984294512926
 40
14.62081576220742
 40
15.7182257034828
 40
16.82123173843959
 40
17.92886860250316
 40
19.0400688939571
 40
20.15368796660465
 40
21.26852814259644
 40
22.38336992938901
 40
23.49698739941135
 40
24.6081876908653
 40
25.71582455492886
 40
26.81883757994213
 40
27.91624752121713
 40
29.00722033829659
 40
30.09105838626677
 40
31.16722880550176
 40
32.23537921050758
 40
33.29534548809967
 40
34.347168041821
 40
35.39108718934584
 40
36.42754827133493
 40
37.45720575381954
 40
38.48085062012849
 40
39.49948440763516
 40
40.51422944315121
 40
41.52631975251916
 40
42.53706336719636
 40
43.54780698187354
 40
44.55989729124051
 40
45.57464232675757
 40
46.59327611426424
 40
47.6169209805722
 40
48.64656348684535
 40
49.68302456883444
 40
50.58557219878025
 40
50.58557219878025
 40
50.58557219878025
 40
50.58557219878025
 10
-4.698300679530921
 20
-4.249999849084748
 30
0.0
 10
-4.979078353034293
 20
-4.247471202047279
 30
0.0
 10
-5.541007667258047
 20
-4.242410540072477
 30
0.0
 10
-6.383697141805381
 20
-4.201615923249478
 30
0.0
 10
-7.226350645116371
 20
-4.136763139243762
 30
0.0
 10
-8.068951996448429
 20
-4.045869495922664
 30
0.0
 10
-8.911492787966473
 20
-3.930166776419835
 30
0.0
 10
-9.753956398224469
 20
-3.790169492290417
 30
0.0
 10
-10.59634564522584
 20
-3.626820715139566
 30
0.0
 10
-11.43865305868042
 20
-3.441120714722162
 30
0.0
 10
-12.28087290093959
 20
-3.234209677775469
 30
0.0
 10
-13.12300937000365
 20
-3.007386363489739
 30
0.0
 10
-13.96506472128204
 20
-2.762038946098382
 30
0.0
 10
-14.80704947558187
 20
-2.499694775597147
 30
0.0
 10
-15.64896748782296
 20
-2.221966013122669
 30
0.0
 10
-16.49082656489039
 20
-1.930565439421036
 30
0.0
 10
-17.33263604311524
 20
-1.627290763323795
 30
0.0
 10
-18.17440331066693
 20
-1.314006980599154
 30
0.0
 10
-19.01613653699271
 20
-0.9926409083812661
 30
0.0
 10
-19.85784472899573
 20
-0.6651705166644382
 30
0.0
 10
-20.69953526925819
 20
-0.3336089588384048
 30
0.0
 10
-21.54122004375418
 20
-0.0000007162386678
 30
0.0
 10
-22.3829010397898
 20
0.333613531517343
 30
0.0
 10
-23.22459440121547
 20
0.665169926052921
 30
0.0
 10
-24.06630155411846
 20
0.9926413090039824
 30
0.0
 10
-24.90803628124526
 20
1.314008605483365
 30
0.0
 10
-25.74980704085136
 20
1.627289714589191
 30
0.0
 10
-26.59161784767398
 20
1.930565928711011
 30
0.0
 10
-27.43347704627786
 20
2.221966266116822
 30
0.0
 10
-28.27539502788427
 20
2.499695086996614
 30
0.0
 10
-29.11737978434005
 20
2.762039257881607
 30
0.0
 10
-29.95943515706624
 20
3.007386616606695
 30
0.0
 10
-30.80157153921264
 20
3.234210162499899
 30
0.0
 10
-31.64378776192032
 20
3.441119372424788
 30
0.0
 10
-32.48608996667643
 20
3.626821805048886
 30
0.0
 10
-33.32847890119511
 20
3.790173866938145
 30
0.0
 10
-34.17094852692565
 20
3.930155161434348
 30
0.0
 10
-35.01349210196039
 20
4.045893693374778
 30
0.0
 10
-35.85609370307718
 20
4.1366795940136
 30
0.0
 10
-36.69874779188944
 20
4.201926205351804
 30
0.0
 10
-37.54143655193652
 20
4.241242111769439
 30
0.0
 10
-38.38414382955806
 20
4.254376255177539
 30
0.0
 10
-39.22685110593966
 20
4.241242111748888
 30
0.0
 10
-40.06953986971374
 20
4.201926205434502
 30
0.0
 10
-40.91219394480424
 20
4.136679593702382
 30
0.0
 10
-41.75479559736721
 20
4.045893694544874
 30
0.0
 10
-42.5973348714358
 20
3.930155721279246
 30
0.0
 10
-43.43980117815666
 20
3.790175298171464
 30
0.0
 10
-44.24388851595188
 20
3.634236954470716
 30
0.0
 10
-44.76558953792032
 20
3.520197769532161
 30
0.0
 10
-45.00762840517892
 20
3.464620911545143
 30
0.0
  0
SPLINE
  5
315E
330
1F
100
AcDbEntity
  8
AM_0
100
AcDbSpline
210
0.0
220
0.0
230
1.0
 70
     8
 71
     3
 72
    46
 73
    42
 74
     0
 42
0.0000000001
 43
0.0000000001
 40
0.0
 40
0.0
 40
0.0
 40
0.0
 40
1.685415058684571
 40
2.531036209541119
 40
3.379897699130121
 40
4.232934581347656
 40
5.090970612202441
 40
5.954688180526683
 40
6.824620803463245
 40
7.70115181523969
 40
8.584457046566678
 40
9.474582384070743
 40
10.37139106676737
 40
11.27458944007584
 40
12.18373345430765
 40
13.09824173870457
 40
14.01741343450111
 40
14.9404441545541
 40
15.86644439743314
 40
16.79446029130534
 40
17.7234937712985
 40
18.65252725129241
 40
19.58054314516461
 40
20.5065433880429
 40
21.42957410809586
 40
22.34874580389318
 40
23.26325408828901
 40
24.17239810252112
 40
25.07560240389442
 40
25.97241108659103
 40
26.8625364240951
 40
27.74584165542183
 40
28.62236045019041
 40
29.49229307312697
 40
30.35601064145122
 40
31.21404606334469
 40
32.06708345193548
 40
32.9159575565769
 40
33.76157841950694
 40
34.6049870106469
 40
35.44727335621125
 40
35.44727335621125
 40
35.44727335621125
 40
35.44727335621125
 10
-2.339342753098416
 20
-4.249999849084809
 30
0.0
 10
-2.901299522292937
 20
-4.240318020555911
 30
0.0
 10
-3.745206145589736
 20
-4.225778540529937
 30
0.0
 10
-4.867385583867486
 20
-4.136261633054715
 30
0.0
 10
-5.709995988076831
 20
-4.046004777766723
 30
0.0
 10
-6.552534369155315
 20
-3.930130307137399
 30
0.0
 10
-7.394998507568363
 20
-3.790179045973465
 30
0.0
 10
-8.237384075412473
 20
-3.626820080530666
 30
0.0
 10
-9.079689661818392
 20
-3.441117590769197
 30
0.0
 10
-9.921911518228737
 20
-3.234211817466062
 30
0.0
 10
-10.76405132804301
 20
-3.007386066956939
 30
0.0
 10
-11.6061068261612
 20
-2.762039026464625
 30
0.0
 10
-12.4480915406554
 20
-2.49969475380496
 30
0.0
 10
-13.29000956373961
 20
-2.221966019112023
 30
0.0
 10
-14.13186863763529
 20
-1.930565437458612
 30
0.0
 10
-14.97367811761162
 20
-1.627290765144233
 30
0.0
 10
-15.8154453813295
 20
-1.314006975258884
 30
0.0
 10
-16.65717862130829
 20
-0.992640928023056
 30
0.0
 10
-17.49888676231978
 20
-0.6651704431500085
 30
0.0
 10
-18.34057749342294
 20
-0.3336092339301394
 30
0.0
 10
-19.18226114912519
 20
0.0000001508481499
 30
0.0
 10
-20.02394480464251
 20
0.3336095360318414
 30
0.0
 10
-20.86563553630031
 20
0.6651707440360959
 30
0.0
 10
-21.70734367528454
 20
0.9926412333516763
 30
0.0
 10
-22.54907692278048
 20
1.314007264111767
 30
0.0
 10
-23.39084415862543
 20
1.627291115087487
 30
0.0
 10
-24.23265374182474
 20
1.930565561162725
 30
0.0
 10
-25.07451426406595
 20
2.221967613169241
 30
0.0
 10
-25.91643555843744
 20
2.499693824555838
 30
0.0
 10
-26.75842177490331
 20
2.762039442427094
 30
0.0
 10
-27.60047725341603
 20
3.007386555923207
 30
0.0
 10
-28.44261360381567
 20
3.234210222097523
 30
0.0
 10
-29.28482984867496
 20
3.441119196057702
 30
0.0
 10
-30.12713199684599
 20
3.626822444434166
 30
0.0
 10
-30.96951707716157
 20
3.790170722075826
 30
0.0
 10
-31.81198183321777
 20
3.930162574620429
 30
0.0
 10
-32.65452559144122
 20
4.045871575019866
 30
0.0
 10
-33.49713165389278
 20
4.136763821754999
 30
0.0
 10
-34.33978984797136
 20
4.201610653767467
 30
0.0
 10
-35.18247862991557
 20
4.242416279058327
 30
0.0
 10
-35.74440817946945
 20
4.247473315865109
 30
0.0
 10
-36.02518590291905
 20
4.250000150916115
 30
0.0
  0
SPLINE
  5
315F
330
1F
100
AcDbEntity
  8
AM_0
100
AcDbSpline
210
0.0
220
0.0
230
1.0
 70
     8
 71
     3
 72
    23
 73
    19
 74
     0
 42
0.0000000001
 43
0.0000000001
 40
16.03460024169435
 40
16.03460024169435
 40
16.03460024169435
 40
16.03460024169435
 40
16.35212704903564
 40
17.38177054169784
 40
18.41822485651776
 40
19.46214173629503
 40
20.51396345435107
 40
21.57393551351153
 40
22.64208202342361
 40
23.7182574881101
 40
24.80209208578934
 40
25.89306333925047
 40
26.99048218457928
 40
28.09348763352352
 40
29.20111863782268
 40
30.31232390128032
 40
31.42594612798585
 40
32.5407912310448
 40
32.5407912310486
 40
32.5407912310486
 40
32.5407912310486
 10
-48.51436565967844
 20
4.250603940545962
 30
0.0
 10
-48.427789672415
 20
4.236256688969319
 30
0.0
 10
-48.06084259553407
 20
4.173778446475435
 30
0.0
 10
-47.41446136785909
 20
4.05136186569056
 30
0.0
 10
-46.57739598589251
 20
3.869329748798134
 30
0.0
 10
-45.74110810962557
 20
3.664938023209983
 30
0.0
 10
-44.90554832214073
 20
3.439369603983159
 30
0.0
 10
-44.07068696794041
 20
3.193882040104662
 30
0.0
 10
-43.23647579403922
 20
2.929878642014959
 30
0.0
 10
-42.40285670914167
 20
2.648895843269428
 30
0.0
 10
-41.56978234401734
 20
2.352524833075034
 30
0.0
 10
-40.73718590807357
 20
2.042490125284102
 30
0.0
 10
-39.90499992867992
 20
1.720593775568297
 30
0.0
 10
-39.07316895965799
 20
1.388686552990888
 30
0.0
 10
-38.2416234027209
 20
1.048698452598316
 30
0.0
 10
-37.41028623913918
 20
0.7026147554621926
 30
0.0
 10
-36.5790897746002
 20
0.3524409228912612
 30
0.0
 10
-36.02510763762784
 20
0.1176685154597193
 30
0.0
 10
-35.74796549479556
 20
0.0002163170935075
 30
0.0
  0
SPLINE
  5
3160
330
1F
100
AcDbEntity
  8
AM_0
100
AcDbSpline
210
0.0
220
0.0
230
1.0
 70
     8
 71
     3
 72
    11
 73
     7
 74
     0
 42
0.0000000001
 43
0.0000000001
 40
11.27226913003534
 40
11.27226913003534
 40
11.27226913003534
 40
11.2722691300354
 40
12.28301561507924
 40
13.29510212255852
 40
14.30984805882082
 40
15.18258238371378
 40
15.18258238371378
 40
15.18258238371378
 40
15.18258238371378
 10
-48.51436565967862
 20
-4.249396059454039
 30
0.0
 10
-48.79407567454721
 20
-4.2285953244121
 30
0.0
 10
-49.35296811800762
 20
-4.178237650160516
 30
0.0
 10
-50.18842076681275
 20
-4.076653765253878
 30
0.0
 10
-50.98128006185297
 20
-3.955322952971483
 30
0.0
 10
-51.49405491397806
 20
-3.862052346533392
 30
0.0
 10
-51.73035616708786
 20
-3.815979243179956
 30
0.0
  0
SPLINE
  5
3161
330
1F
100
AcDbEntity
  8
AM_0
100
AcDbSpline
210
0.0
220
0.0
230
1.0
 70
     8
 71
     3
 72
    17
 73
    13
 74
     0
 42
0.0000000001
 43
0.0000000001
 40
1.580019955310467
 40
1.580019955310467
 40
1.580019955310467
 40
1.580019955310467
 40
2.030549285115227
 40
3.082371838836284
 40
4.126290986361125
 40
5.162752068350215
 40
6.192395305374981
 40
7.216039564037012
 40
8.234688489606833
 40
9.249433870634691
 40
10.26152376260694
 40
11.27226744710342
 40
11.27226744710342
 40
11.27226744710342
 40
11.27226744710352
 10
-40.5766965500817
 20
-3.136021207463289
 30
0.0
 10
-40.6959230449642
 20
-3.168325840774405
 30
0.0
 10
-41.09417959346678
 20
-3.274208591352137
 30
0.0
 10
-41.77410228525157
 20
-3.440289474183867
 30
0.0
 10
-42.61628712304037
 20
-3.626278030819213
 30
0.0
 10
-43.45870381352649
 20
-3.789551289538386
 30
0.0
 10
-44.3011591032513
 20
-3.929560942042422
 30
0.0
 10
-45.14370617697006
 20
-4.045288551357537
 30
0.0
 10
-45.98631145984845
 20
-4.136073711046191
 30
0.0
 10
-46.82896921007674
 20
-4.201328102896512
 30
0.0
 10
-47.67165866675016
 20
-4.240631676810045
 30
0.0
 10
-48.2335879898795
 20
-4.249396083772776
 30
0.0
 10
-48.51436565967857
 20
-4.249396059454039
 30
0.0
  0
LINE
  5
3162
330
1F
100
AcDbEntity
  8
AM_11
 48
0.5
100
AcDbLine
 10
-70.07814563361357
 20
4.250775922934646
 30
0.0
 11
-66.24120923107511
 21
4.250470597496899
 31
0.0
  0
POLYLINE
  5
3163
330
1F
100
AcDbEntity
  8
AM_0
100
AcDb2dPolyline
 66
     1
 10
0.0
 20
0.0
 30
0.0
 70
     2
  0
VERTEX
  5
3164
330
3163
100
AcDbEntity
  8
AM_0
100
AcDbVertex
100
AcDb2dVertex
 10
-69.19996185303329
 20
-2.948053157513239
 30
0.0
 42
0.0351157762658453
  0
VERTEX
  5
3165
330
3163
100
AcDbEntity
  8
AM_0
100
AcDbVertex
100
AcDb2dVertex
 10
-69.36661158095422
 20
-2.914404230240469
 30
0.0
 42
0.044786481860755
 70
     1
  0
VERTEX
  5
3166
330
3163
100
AcDbEntity
  8
AM_0
100
AcDbVertex
100
AcDb2dVertex
 10
-69.49996185303328
 20
-2.908891680629904
 30
0.0
 42
0.0378244354854128
  0
VERTEX
  5
3167
330
3163
100
AcDbEntity
  8
AM_0
100
AcDbVertex
100
AcDb2dVertex
 10
-69.7744770875369
 20
-2.942523323112842
 30
0.0
 42
0.0785304530199817
 70
     1
  0
VERTEX
  5
3168
330
3163
100
AcDbEntity
  8
AM_0
100
AcDbVertex
100
AcDb2dVertex
 10
-69.89996185303329
 20
-2.988595817804276
 30
0.0
 42
0.0914341172496281
  0
VERTEX
  5
3169
330
3163
100
AcDbEntity
  8
AM_0
100
AcDbVertex
100
AcDb2dVertex
 10
-69.98058015419961
 20
-3.0550018569637
 30
0.0
 42
0.1734786634335468
 70
     1
  0
VERTEX
  5
316A
330
3163
100
AcDbEntity
  8
AM_0
100
AcDbVertex
100
AcDb2dVertex
 10
-69.99996185303328
 20
-3.107461431861985
 30
0.0
 42
0.1707159826348874
  0
VERTEX
  5
316B
330
3163
100
AcDbEntity
  8
AM_0
100
AcDbVertex
100
AcDb2dVertex
 10
-69.98134133135517
 20
-3.160914294180612
 30
0.0
 42
0.0878858945849485
 70
     1
  0
VERTEX
  5
316C
330
3163
100
AcDbEntity
  8
AM_0
100
AcDbVertex
100
AcDb2dVertex
 10
-69.89996185303329
 20
-3.232276656048133
 30
0.0
 42
0.0737173247185441
  0
VERTEX
  5
316D
330
3163
100
AcDbEntity
  8
AM_0
100
AcDbVertex
100
AcDb2dVertex
 10
-69.77167479637069
 20
-3.286367147852863
 30
0.0
 42
0.037064748993984
 70
     1
  0
VERTEX
  5
316E
330
3163
100
AcDbEntity
  8
AM_0
100
AcDbVertex
100
AcDb2dVertex
 10
-69.49996185303328
 20
-3.335779233736261
 30
0.0
 42
0.0449345368811406
  0
VERTEX
  5
316F
330
3163
100
AcDbEntity
  8
AM_0
100
AcDbVertex
100
AcDb2dVertex
 10
-69.36895573240554
 20
-3.338117185481482
 30
0.0
 42
0.0344667769950814
 70
     1
  0
VERTEX
  5
3170
330
3163
100
AcDbEntity
  8
AM_0
100
AcDbVertex
100
AcDb2dVertex
 10
-69.19996185303329
 20
-3.314466587238239
 30
0.0
  0
SEQEND
  5
3171
330
3163
100
AcDbEntity
  8
AM_0
  0
POLYLINE
  5
3172
330
1F
100
AcDbEntity
  8
AM_0
100
AcDb2dPolyline
 66
     1
 10
0.0
 20
0.0
 30
0.0
 70
     2
  0
VERTEX
  5
3173
330
3172
100
AcDbEntity
  8
AM_0
100
AcDbVertex
100
AcDb2dVertex
 10
-68.49996185303315
 20
4.163560071411128
 30
0.0
 42
0.0276737331564208
  0
VERTEX
  5
3174
330
3172
100
AcDbEntity
  8
AM_0
100
AcDbVertex
100
AcDb2dVertex
 10
-68.8423567913561
 20
4.090683116025543
 30
0.0
 42
0.0414024687830266
 70
     1
  0
VERTEX
  5
3175
330
3172
100
AcDbEntity
  8
AM_0
100
AcDbVertex
100
AcDb2dVertex
 10
-69.06246185303316
 20
4.011223298117537
 30
0.0
 42
0.0280074108471844
  0
VERTEX
  5
3176
330
3172
100
AcDbEntity
  8
AM_0
100
AcDbVertex
100
AcDb2dVertex
 10
-69.56430950741452
 20
3.747319542955724
 30
0.0
 42
0.0512701366748525
 70
     1
  0
VERTEX
  5
3177
330
3172
100
AcDbEntity
  8
AM_0
100
AcDbVertex
100
AcDb2dVertex
 10
-69.81246185303326
 20
3.561867325923107
 30
0.0
 42
0.0658714570033076
  0
VERTEX
  5
3178
330
3172
100
AcDbEntity
  8
AM_0
100
AcDbVertex
100
AcDb2dVertex
 10
-69.96820509726228
 20
3.375124445262457
 30
0.0
 42
0.1411961588081283
 70
     1
  0
VERTEX
  5
3179
330
3172
100
AcDbEntity
  8
AM_0
100
AcDbVertex
100
AcDb2dVertex
 10
-69.99996185303328
 20
3.264848127022264
 30
0.0
 42
0.1226739033459629
  0
VERTEX
  5
317A
330
3172
100
AcDbEntity
  8
AM_0
100
AcDbVertex
100
AcDb2dVertex
 10
-69.96898108799836
 20
3.143600482266665
 30
0.0
 42
0.0555312784770531
 70
     1
  0
VERTEX
  5
317B
330
3172
100
AcDbEntity
  8
AM_0
100
AcDbVertex
100
AcDb2dVertex
 10
-69.81246185303328
 20
2.918661528428684
 30
0.0
 42
0.0351528005485752
  0
VERTEX
  5
317C
330
3172
100
AcDbEntity
  8
AM_0
100
AcDbVertex
100
AcDb2dVertex
 10
-69.55950470542257
 20
2.667782491240195
 30
0.0
 42
0.0197318127063559
 70
     1
  0
VERTEX
  5
317D
330
3172
100
AcDbEntity
  8
AM_0
100
AcDbVertex
100
AcDb2dVertex
 10
-69.06246185303328
 20
2.272635957463292
 30
0.0
 42
0.0358460074876439
  0
VERTEX
  5
317E
330
3172
100
AcDbEntity
  8
AM_0
100
AcDbVertex
100
AcDb2dVertex
 10
-68.85859988186004
 20
2.144545034005865
 30
0.0
 42
0.021710998496176
 70
     1
  0
VERTEX
  5
317F
330
3172
100
AcDbEntity
  8
AM_0
100
AcDbVertex
100
AcDb2dVertex
 10
-68.49996185303329
 20
1.972796985091483
 30
0.0
  0
SEQEND
  5
3180
330
3172
100
AcDbEntity
  8
AM_0
  0
SPLINE
  5
3181
330
1F
100
AcDbEntity
  8
AM_0
100
AcDbSpline
210
0.0
220
0.0
230
1.0
 70
     8
 71
     3
 72
    13
 73
     9
 74
     0
 42
0.0000000001
 43
0.0000000001
 40
26.13201924531566
 40
26.13201924531566
 40
26.13201924531566
 40
26.13201924531566
 40
26.99048218457928
 40
28.09348763352352
 40
29.20111863782268
 40
30.31232390128032
 40
31.42594612798585
 40
32.5407912310448
 40
32.5407912310486
 40
32.5407912310486
 40
32.5407912310486
 10
-68.49996185397071
 20
1.972796985450179
 30
0.0
 10
-68.2825155802831
 20
1.889592420905448
 30
0.0
 10
-67.78687823658049
 20
1.697222394307438
 30
0.0
 10
-67.01513420836075
 20
1.389290342621156
 30
0.0
 10
-66.18358865142366
 20
1.049302242228583
 30
0.0
 10
-65.35225148784194
 20
0.7032185450924608
 30
0.0
 10
-64.52105502330296
 20
0.353044712521529
 30
0.0
 10
-63.96707288633059
 20
0.1182723050899868
 30
0.0
 10
-63.68993074349832
 20
0.0008201067237751
 30
0.0
  0
ELLIPSE
  5
3182
330
1F
100
AcDbEntity
  8
AM_0
100
AcDbEllipse
 10
-68.8958761298883
 20
-4.370473544062387
 30
0.0
 11
1.110902967729677
 21
0.0028542226947272
 31
0.0
210
0.0
220
0.0
230
1.0
 40
0.9883450118937064
 41
1.845523465592696
 42
3.028493307001303
  0
SPLINE
  5
3183
330
1F
100
AcDbEntity
  8
AM_0
100
AcDbSpline
210
0.0
220
0.0
230
1.0
 70
     8
 71
     3
 72
     9
 73
     5
 74
     0
 42
0.0000000001
 43
0.0000000001
 40
1.580019955310467
 40
1.580019955310467
 40
1.580019955310467
 40
1.580019955310467
 40
2.030549285115227
 40
2.43907978603305
 40
2.43907978603305
 40
2.43907978603305
 40
2.43907978603305
 10
-68.51539061115488
 20
-3.136624997092189
 30
0.0
 10
-68.63461710603738
 20
-3.168929630403303
 30
0.0
 10
-68.86234418309062
 20
-3.229474446025512
 30
0.0
 10
-69.09102329503953
 20
-3.28743895847196
 30
0.0
 10
-69.19996185303327
 20
-3.31446658723821
 30
0.0
  0
ELLIPSE
  5
3184
330
1F
100
AcDbEntity
  8
AM_0
100
AcDbEllipse
 10
-68.65547044702734
 20
15.40687905348609
 30
0.0
 11
-11.3766562035607
 21
0.0000000000023323
 31
0.0
210
0.0
220
0.0
230
1.0
 40
0.9883720930232337
 41
1.445415944842007
 42
1.584465847457766
  0
LINE
  5
3185
330
1F
100
AcDbEntity
  8
AM_11
100
AcDbLine
 10
-70.00000000000006
 20
-4.249396059450457
 30
0.0
 11
-59.82341580391164
 21
-4.249396059450626
 31
0.0
  0
SPLINE
  5
3186
330
1F
100
AcDbEntity
  8
AM_0
100
AcDbSpline
210
0.0
220
0.0
230
1.0
 70
     8
 71
     3
 72
    15
 73
    11
 74
     0
 42
0.0000000001
 43
0.0000000001
 40
5.241236682593577
 40
5.241236682593577
 40
5.241236682593577
 40
5.241236682593577
 40
5.954688180526682
 40
6.824620803463244
 40
7.701151815239697
 40
8.58445704656667
 40
9.47458238407075
 40
10.37139106676736
 40
11.27458944007584
 40
12.17321262433756
 40
12.17321262433756
 40
12.17321262433756
 40
12.17321262433756
 10
-63.41943130396844
 20
-0.1063849226344853
 30
0.0
 10
-63.6518303372541
 20
-0.149811300033836
 30
0.0
 10
-64.16616337663248
 20
-0.25187534446283
 30
0.0
 10
-64.95997809566474
 20
-0.428875858371938
 30
0.0
 10
-65.80219995207507
 20
-0.638132833644394
 30
0.0
 10
-66.64433976188937
 20
-0.8675361495001899
 30
0.0
 10
-67.48639526000754
 20
-1.115671224543509
 30
0.0
 10
-68.32837997450173
 20
-1.380996682119746
 30
0.0
 10
-69.16702845811032
 20
-1.66079062566516
 30
0.0
 10
-69.72332513896439
 20
-1.855481489776266
 30
0.0
 10
-70.0
 20
-1.954243256370376
 30
0.0
  0
SPLINE
  5
3187
330
1F
100
AcDbEntity
  8
AM_0
100
AcDbSpline
210
0.0
220
0.0
230
1.0
 70
     8
 71
     3
 72
    20
 73
    16
 74
     0
 42
0.0000000001
 43
0.0000000001
 40
1.604714676203542
 40
1.604714676203542
 40
1.604714676203542
 40
1.604714676203542
 40
1.685415058684573
 40
2.531036209541122
 40
3.379897699130124
 40
4.232934581347659
 40
5.09097061220244
 40
5.954688180526682
 40
6.824620803463244
 40
7.701151815239697
 40
8.58445704656667
 40
9.47458238407075
 40
10.37139106676736
 40
11.27458944007584
 40
12.17321262433756
 40
12.17321262433756
 40
12.17321262433756
 40
12.17321262433756
 10
-59.82341580391164
 20
-4.249396059450626
 30
0.0
 10
-59.85025462711002
 20
-4.247905341470495
 30
0.0
 10
-60.15828520632451
 20
-4.230204221045843
 30
0.0
 10
-60.74767401771388
 20
-4.182654060771064
 30
0.0
 10
-61.59028442192323
 20
-4.091371559400257
 30
0.0
 10
-62.43282280300171
 20
-3.974180333422877
 30
0.0
 10
-63.27528694141477
 20
-3.83263871701845
 30
0.0
 10
-64.11767250925887
 20
-3.667423399695622
 30
0.0
 10
-64.95997809566474
 20
-3.479610654368678
 30
0.0
 10
-65.80219995207507
 20
-3.270353679096196
 30
0.0
 10
-66.64433976188937
 20
-3.040950363240373
 30
0.0
 10
-67.48639526000754
 20
-2.792815288197027
 30
0.0
 10
-68.32837997450173
 20
-2.527489830620762
 30
0.0
 10
-69.16702845811032
 20
-2.24769588707532
 30
0.0
 10
-69.72332513896439
 20
-2.053005022964197
 30
0.0
 10
-70.0
 20
-1.954243256370078
 30
0.0
  0
SPLINE
  5
3188
330
1F
100
AcDbEntity
  8
AM_0
100
AcDbSpline
210
0.0
220
0.0
230
1.0
 70
     8
 71
     3
 72
    50
 73
    46
 74
     0
 42
0.0000000001
 43
0.0000000001
 40
0.0
 40
0.0
 40
0.0
 40
0.0
 40
1.010743684496582
 40
2.022833576467832
 40
3.037578957496688
 40
4.056212745003489
 40
5.079857003664532
 40
6.109500240690281
 40
7.145961322679372
 40
8.189895241603872
 40
9.241717795325891
 40
10.30168407291828
 40
11.36983447792315
 40
12.44600489715814
 40
13.52984294512926
 40
14.62081576220742
 40
15.7182257034828
 40
16.82123173843959
 40
17.92886860250316
 40
19.0400688939571
 40
20.15368796660465
 40
21.26852814259644
 40
22.38336992938901
 40
23.49698739941135
 40
24.6081876908653
 40
25.71582455492886
 40
26.81883757994213
 40
27.91624752121713
 40
29.00722033829659
 40
30.09105838626677
 40
31.16722880550176
 40
32.23537921050758
 40
33.29534548809967
 40
34.347168041821
 40
35.39108718934584
 40
36.42754827133493
 40
37.45720575381954
 40
38.48085062012849
 40
39.49948440763516
 40
40.51422944315121
 40
41.52631975251916
 40
42.53706336719636
 40
43.54780698187354
 40
44.55989729124051
 40
45.14939243453665
 40
45.14939243453665
 40
45.14939243453665
 40
45.14939243453665
 10
-32.64026592823366
 20
-4.249396059454478
 30
0.0
 10
-32.92104360173704
 20
-4.246867412417014
 30
0.0
 10
-33.48297291596078
 20
-4.241806750442214
 30
0.0
 10
-34.32566239050812
 20
-4.201012133619212
 30
0.0
 10
-35.16831589381911
 20
-4.136159349613495
 30
0.0
 10
-36.01091724515117
 20
-4.045265706292397
 30
0.0
 10
-36.85345803666922
 20
-3.929562986789566
 30
0.0
 10
-37.69592164692723
 20
-3.789565702660149
 30
0.0
 10
-38.53831089392861
 20
-3.626216925509297
 30
0.0
 10
-39.38061830738318
 20
-3.440516925091897
 30
0.0
 10
-40.22283814964235
 20
-3.233605888145203
 30
0.0
 10
-41.06497461870644
 20
-3.006782573859471
 30
0.0
 10
-41.90702996998483
 20
-2.761435156468111
 30
0.0
 10
-42.74901472428466
 20
-2.499090985966881
 30
0.0
 10
-43.59093273652577
 20
-2.221362223492403
 30
0.0
 10
-44.43279181359321
 20
-1.929961649790768
 30
0.0
 10
-45.27460129181796
 20
-1.626686973693528
 30
0.0
 10
-46.11636855936964
 20
-1.313403190968886
 30
0.0
 10
-46.95810178569543
 20
-0.9920371187509994
 30
0.0
 10
-47.79980997769849
 20
-0.6645667270341704
 30
0.0
 10
-48.64150051796094
 20
-0.333005169208137
 30
0.0
 10
-49.48318529245695
 20
0.0006030733915998
 30
0.0
 10
-50.32486628849255
 20
0.3342173211476108
 30
0.0
 10
-51.16655964991824
 20
0.665773715683188
 30
0.0
 10
-52.00826680282126
 20
0.9932450986342489
 30
0.0
 10
-52.85000152994808
 20
1.314612395113633
 30
0.0
 10
-53.69177228955417
 20
1.62789350421946
 30
0.0
 10
-54.53358309637668
 20
1.931169718341279
 30
0.0
 10
-55.37544229498057
 20
2.222570055747091
 30
0.0
 10
-56.21736027658698
 20
2.500298876626879
 30
0.0
 10
-57.0593450330428
 20
2.762643047511873
 30
0.0
 10
-57.90140040576901
 20
3.007990406236967
 30
0.0
 10
-58.7435367879154
 20
3.234813952130169
 30
0.0
 10
-59.58575301062308
 20
3.441723162055055
 30
0.0
 10
-60.42805521537919
 20
3.627425594679153
 30
0.0
 10
-61.27044414989787
 20
3.790777656568416
 30
0.0
 10
-62.11291377562841
 20
3.930758951064617
 30
0.0
 10
-62.95545735066315
 20
4.04649748300505
 30
0.0
 10
-63.79805895177995
 20
4.137283383643874
 30
0.0
 10
-64.6407130405921
 20
4.202529994982072
 30
0.0
 10
-65.48340180063918
 20
4.241845901399703
 30
0.0
 10
-66.32610907826073
 20
4.254980044807809
 30
0.0
 10
-67.16881635464233
 20
4.241845901379155
 30
0.0
 10
-67.89353178809598
 20
4.208034077475576
 30
0.0
 10
-68.33692150531184
 20
4.176571309148298
 30
0.0
 10
-68.49996185303314
 20
4.163560071411129
 30
0.0
  0
ELLIPSE
  5
3189
330
1F
100
AcDbEntity
  8
AM_11
 48
0.5
100
AcDbEllipse
 10
-59.89895714819457
 20
-18.77208283298791
 30
0.0
 11
-24.41816012064585
 21
0.0000000000007063
 31
0.0
210
0.0
220
0.0
230
1.0
 40
0.8499999999999962
 41
4.271664206181688
 42
5.153113667164995
  0
ELLIPSE
  5
318A
330
1F
100
AcDbEntity
  8
AM_11
 48
0.5
100
AcDbEllipse
 10
-59.89895714819355
 20
18.77212919042908
 30
0.0
 11
-24.41816012064577
 21
0.0000000000006467
 31
0.0
210
0.0
220
0.0
230
1.0
 40
0.8499999999999994
 41
1.130070686340301
 42
2.011520147323591
  0
SPLINE
  5
318B
330
1F
100
AcDbEntity
  8
AM_0
100
AcDbSpline
210
0.0
220
0.0
230
1.0
 70
     8
 71
     3
 72
    22
 73
    18
 74
     0
 42
0.0000000001
 43
0.0000000001
 40
17.17441611292
 40
17.17441611292
 40
17.17441611292
 40
17.17441611292
 40
17.38177636558528
 40
18.41823744757437
 40
19.46215659509824
 40
20.51397914882054
 40
21.57394542641293
 40
22.64209583141747
 40
23.71826625065247
 40
24.80210429862395
 40
25.8930771157021
 40
26.99048705697709
 40
28.09349309193389
 40
29.20112995599786
 40
30.31233024745139
 40
31.42594771747373
 40
32.5407895042663
 40
32.54078950426994
 40
32.54078950426994
 40
32.54078950426994
 10
-51.73072470424054
 20
-3.815926819462454
 30
0.0
 10
-51.7871523915927
 20
-3.806088486309974
 30
0.0
 10
-52.12540556031398
 20
-3.7461621237219
 30
0.0
 10
-52.74506630492118
 20
-3.62600196714307
 30
0.0
 10
-53.58736838923293
 20
-3.440299000994416
 30
0.0
 10
-54.42958464473038
 20
-3.233389935936519
 30
0.0
 10
-55.27172101741308
 20
-3.006566349657207
 30
0.0
 10
-56.11377639487745
 20
-2.76121900610326
 30
0.0
 10
-56.95576114184875
 20
-2.498874815167295
 30
0.0
 10
-57.79767915695304
 20
-2.221146059837383
 30
0.0
 10
-58.63953822993398
 20
-1.929745478129857
 30
0.0
 10
-59.48134772173063
 20
-1.626470827057653
 30
0.0
 10
-60.32311493874167
 20
-1.313186951621465
 30
0.0
 10
-61.16484835471496
 20
-0.99182122716159
 30
0.0
 10
-62.00655543088465
 20
-0.6643496891183747
 30
0.0
 10
-62.84824863640903
 20
-0.3327930138825301
 30
0.0
 10
-63.40926729722757
 20
-0.1104249848240601
 30
0.0
 10
-63.68993074350206
 20
0.000820106725302
 30
0.0
  0
SPLINE
  5
318C
330
1F
100
AcDbEntity
  8
AM_0
100
AcDbSpline
210
0.0
220
0.0
230
1.0
 70
     8
 71
     3
 72
    46
 73
    42
 74
     0
 42
0.0000000001
 43
0.0000000001
 40
0.0
 40
0.0
 40
0.0
 40
0.0
 40
1.685415058684573
 40
2.531036209541122
 40
3.379897699130124
 40
4.232934581347659
 40
5.09097061220244
 40
5.954688180526682
 40
6.824620803463244
 40
7.701151815239691
 40
8.584457046566678
 40
9.474582384070743
 40
10.37139106676737
 40
11.27458944007584
 40
12.18373345430765
 40
13.09824173870457
 40
14.01741343450111
 40
14.9404441545541
 40
15.86644439743314
 40
16.79446029130534
 40
17.7234937712985
 40
18.65252725129241
 40
19.58054314516461
 40
20.5065433880429
 40
21.42957410809587
 40
22.34874580389318
 40
23.26325408828902
 40
24.17239810252112
 40
25.07560240389442
 40
25.97241108659103
 40
26.8625364240951
 40
27.74584165542184
 40
28.62236045019042
 40
29.49229307312698
 40
30.35601064145123
 40
31.2140460633447
 40
32.06708345193549
 40
32.9159575565769
 40
33.76157841950695
 40
34.60498701064691
 40
35.44727335621126
 40
35.44727335621126
 40
35.44727335621126
 40
35.44727335621126
 10
-30.28130800180116
 20
-4.249396059454543
 30
0.0
 10
-30.84326477099568
 20
-4.239714230925641
 30
0.0
 10
-31.68717139429249
 20
-4.225174750899672
 30
0.0
 10
-32.80935083257022
 20
-4.135657843424442
 30
0.0
 10
-33.65196123677958
 20
-4.045400988136456
 30
0.0
 10
-34.49449961785806
 20
-3.92952651750713
 30
0.0
 10
-35.33696375627112
 20
-3.789575256343201
 30
0.0
 10
-36.17934932411522
 20
-3.626216290900401
 30
0.0
 10
-37.02165491052114
 20
-3.440513801138928
 30
0.0
 10
-37.8638767669315
 20
-3.233608027835792
 30
0.0
 10
-38.70601657674578
 20
-3.006782277326673
 30
0.0
 10
-39.54807207486399
 20
-2.761435236834361
 30
0.0
 10
-40.39005678935818
 20
-2.499090964174693
 30
0.0
 10
-41.23197481244241
 20
-2.221362229481754
 30
0.0
 10
-42.0738338863381
 20
-1.929961647828343
 30
0.0
 10
-42.91564336631433
 20
-1.626686975513969
 30
0.0
 10
-43.75741063003224
 20
-1.313403185628615
 30
0.0
 10
-44.59914387001099
 20
-0.9920371383927907
 30
0.0
 10
-45.44085201102254
 20
-0.664566653519739
 30
0.0
 10
-46.2825427421257
 20
-0.3330054442998724
 30
0.0
 10
-47.12422639782795
 20
0.0006039404784192
 30
0.0
 10
-47.96591005334528
 20
0.3342133256621076
 30
0.0
 10
-48.80760078500308
 20
0.6657745336663627
 30
0.0
 10
-49.64930892398737
 20
0.9932450229819435
 30
0.0
 10
-50.49104217148328
 20
1.314611053742033
 30
0.0
 10
-51.33280940732826
 20
1.627894904717754
 30
0.0
 10
-52.17461899052745
 20
1.931169350792993
 30
0.0
 10
-53.01647951276866
 20
2.222571402799508
 30
0.0
 10
-53.85840080714015
 20
2.50029761418611
 30
0.0
 10
-54.70038702360604
 20
2.762643232057363
 30
0.0
 10
-55.54244250211879
 20
3.007990345553474
 30
0.0
 10
-56.38457885251843
 20
3.234814011727791
 30
0.0
 10
-57.22679509737774
 20
3.441722985687973
 30
0.0
 10
-58.06909724554873
 20
3.627426234064437
 30
0.0
 10
-58.91148232586435
 20
3.790774511706093
 30
0.0
 10
-59.75394708192052
 20
3.930766364250697
 30
0.0
 10
-60.596490840144
 20
4.046475364650136
 30
0.0
 10
-61.43909690259553
 20
4.137367611385261
 30
0.0
 10
-62.28175509667413
 20
4.202214443397736
 30
0.0
 10
-63.12444387861834
 20
4.243020068688593
 30
0.0
 10
-63.68637342817222
 20
4.248077105495374
 30
0.0
 10
-63.9671511516218
 20
4.250603940546381
 30
0.0
  0
SPLINE
  5
318D
330
1F
100
AcDbEntity
  8
AM_0
100
AcDbSpline
210
0.0
220
0.0
230
1.0
 70
     8
 71
     3
 72
    18
 73
    14
 74
     0
 42
0.0000000001
 43
0.0000000001
 40
0.0
 40
0.0
 40
0.0
 40
0.0
 40
1.010743684496582
 40
2.022833576467832
 40
3.037578957496688
 40
4.056212745003489
 40
5.079857003664532
 40
6.109500240690281
 40
7.145961322679372
 40
8.189895241603872
 40
9.241717795325891
 40
10.30168407291828
 40
10.55450228288433
 40
10.55450228288433
 40
10.55450228288433
 40
10.55450228288433
 10
-60.57858911337731
 20
-4.249396059453795
 30
0.0
 10
-60.8593667868807
 20
-4.24686741241633
 30
0.0
 10
-61.42129610110444
 20
-4.241806750441526
 30
0.0
 10
-62.26398557565179
 20
-4.20101213361853
 30
0.0
 10
-63.10663907896277
 20
-4.13615934961281
 30
0.0
 10
-63.94924043029483
 20
-4.045265706291713
 30
0.0
 10
-64.79178122181298
 20
-3.929562986788883
 30
0.0
 10
-65.63424483207099
 20
-3.789565702659464
 30
0.0
 10
-66.47663407907227
 20
-3.626216925508614
 30
0.0
 10
-67.31894149252679
 20
-3.44051692509121
 30
0.0
 10
-68.16116133478593
 20
-3.23360588814452
 30
0.0
 10
-68.78737513212027
 20
-3.064939770263783
 30
0.0
 10
-69.13338691028164
 20
-2.967056869015369
 30
0.0
 10
-69.19996185303299
 20
-2.94805315751221
 30
0.0
  0
LINE
  5
318E
330
1F
100
AcDbEntity
  8
AM_0
 48
0.5
100
AcDbLine
 10
-66.32610272022503
 20
4.250603940546446
 30
0.0
 11
-48.51436565967844
 21
4.250603940545962
 31
0.0
  0
VIEWPORT
  5
110
330
101
100
AcDbEntity
 67
     1
  8
0
100
AcDbViewport
 10
420.5
 20
297.0
 30
0.0
 40
948.9782706766916
 41
628.452
 68
     1
 69
     1
1001
ACAD
1000
MVIEW
1002
{
1070
    16
1010
0.0
1020
0.0
1030
0.0
1010
0.0
1020
0.0
1030
1.0
1040
0.0
1040
628.452
1040
420.5
1040
297.0
1040
50.0
1040
0.0
1040
0.0
1070
     0
1070
   100
1070
     1
1070
     1
1070
     0
1070
     0
1070
     0
1070
     0
1040
0.0
1040
0.0
1040
0.0
1040
10.0
1040
10.0
1040
10.0
1040
10.0
1070
     0
1002
{
1002
}
1002
}
  0
ENDSEC
  0
SECTION
  2
OBJECTS
  0
DICTIONARY
  5
C
330
0
100
AcDbDictionary
  3
ACAD_GROUP
350
D
  3
ACAD_LAYOUT
350
1A
  3
ACAD_MLINESTYLE
350
17
  3
ACAD_PLOTSETTINGS
350
19
  3
ACAD_PLOTSTYLENAME
350
E
  3
ACDBVARIABLEDICTIONARY
350
34
  3
ACMDICTIONARY
350
43
  3
AMG
350
2B
  3
AMGSNAPSETTINGS
350
6E
  3
DWGPROPS
350
31EA
  3
ACDBHEADERROUNDTRIPXREC
350
31F6
  0
DICTIONARY
  5
74
330
1F
100
AcDbDictionary
280
     1
  3
ACAD_INDEX
360
31EC
  3
ACAD_LAYOUTSELFREF
360
3219
  0
DICTIONARY
  5
321E
330
101
100
AcDbDictionary
280
     1
  3
ACAD_LAYOUTSELFREF
360
321F
  0
DICTIONARY
  5
D
102
{ACAD_REACTORS
330
C
102
}
330
C
100
AcDbDictionary
  0
DICTIONARY
  5
1A
102
{ACAD_REACTORS
330
C
102
}
330
C
100
AcDbDictionary
  0
DICTIONARY
  5
17
102
{ACAD_REACTORS
330
C
102
}
330
C
100
AcDbDictionary
  3
STANDARD
350
18
  0
DICTIONARY
  5
19
102
{ACAD_REACTORS
330
C
102
}
330
C
100
AcDbDictionary
  0
ACDBDICTIONARYWDFLT
  5
E
102
{ACAD_REACTORS
330
C
102
}
330
C
100
AcDbDictionary
281
     1
  3
Normal
350
F
100
AcDbDictionaryWithDefault
340
F
  0
DICTIONARY
  5
34
102
{ACAD_REACTORS
330
C
102
}
330
C
100
AcDbDictionary
  3
INDEXCTL
350
35
  3
SORTENTS
350
B5E
  0
DICTIONARY
  5
43
102
{ACAD_REACTORS
330
C
102
}
330
C
100
AcDbDictionary
  3
ACMSTDDICTIONARY
350
260
  0
DICTIONARY
  5
2B
102
{ACAD_REACTORS
330
C
102
}
330
C
100
AcDbDictionary
  3
ACMGSETTINGS
350
2C
  0
DICTIONARY
  5
6E
102
{ACAD_REACTORS
330
C
102
}
330
C
100
AcDbDictionary
  0
XRECORD
  5
31EA
102
{ACAD_REACTORS
330
C
102
}
330
C
100
AcDbXrecord
  1
DWGPROPS COOKIE
  2

  3

  4

  6

  7

  8

  9

300
AmdtFileType=82
301
=
302
=
303
=
304
=
305
=
306
=
307
=
308
=
309
=
 40
0.1232311574074074
 41
2452800.443498622
 42
2452948.690707824
  1

 90
        1
  0
DICTIONARY
  5
31F6
102
{ACAD_REACTORS
330
C
102
}
330
C
100
AcDbDictionary
  3
TSTACKALIGN
350
31F7
  3
TSTACKSIZE
350
31F8
  3
HYPERLINKBASE
350
31F9
  3
STYLESHEET
350
31FA
  3
LAYOUTDICT
350
31FB
  3
PLOTSETDICT
350
31FC
  3
PLOTSTYLNAMDICT
350
31FD
  3
LWETCUNION
350
31FE
  3
INSUNITS
350
31FF
  3
CEPSNTYPE
350
3200
  3
FINGERPRINTGUID
350
3201
  3
VERSIONGUID
350
3202
  3
PSVPSCALE
350
3203
  3
DIMSTYLEDATA
350
3204
  3
PUCSORTHOREF
350
3205
  3
PUCSORTHOVIEW
350
3206
  3
PUCSBASE
350
3207
  3
PUCSORGTOP
350
3208
  3
PUCSORGBOTTOM
350
3209
  3
PUCSORGLEFT
350
320A
  3
PUCSORGRIGHT
350
320B
  3
PUCSORGFRONT
350
320C
  3
PUCSORGBACK
350
320D
  3
UCSORTHOREF
350
320E
  3
UCSORTHOVIEW
350
320F
  3
UCSBASE
350
3210
  3
UCSORGTOP
350
3211
  3
UCSORGBOTTOM
350
3212
  3
UCSORGLEFT
350
3213
  3
UCSORGRIGHT
350
3214
  3
UCSORGFRONT
350
3215
  3
UCSORGBACK
350
3216
  0
DICTIONARY
  5
31EC
102
{ACAD_REACTORS
330
74
102
}
330
74
100
AcDbDictionary
  3
*A1
350
31ED
  0
XRECORD
  5
3219
102
{ACAD_REACTORS
330
74
102
}
330
74
100
AcDbXrecord
340
1F
  0
XRECORD
  5
321F
102
{ACAD_REACTORS
330
321E
102
}
330
321E
100
AcDbXrecord
340
101
  0
MLINESTYLE
  5
18
102
{ACAD_REACTORS
330
17
102
}
330
17
100
AcDbMlineStyle
  2
STANDARD
 70
     0
  3

 62
   256
 51
90.0
 52
90.0
 71
     2
 49
0.5
 62
   256
  6
BYLAYER
 49
-0.5
 62
   256
  6
BYLAYER
  0
ACDBPLACEHOLDER
  5
F
102
{ACAD_REACTORS
330
E
102
}
330
E
100
AcDbPlaceHolder
280
     0
  0
DICTIONARYVAR
  5
35
102
{ACAD_REACTORS
330
34
102
}
330
34
100
DictionaryVariables
280
     0
  1
1
  0
DICTIONARYVAR
  5
B5E
102
{ACAD_REACTORS
330
34
102
}
330
34
100
DictionaryVariables
280
     0
  1
96
  0
DICTIONARY
  5
260
102
{ACAD_REACTORS
330
43
102
}
330
43
100
AcDbDictionary
  0
DICTIONARY
  5
2C
102
{ACAD_REACTORS
330
2B
102
}
330
2B
100
AcDbDictionary
  3
DWGSETTINGS
350
2D
  0
XRECORD
  5
31F7
102
{ACAD_REACTORS
330
31F6
102
}
330
31F6
100
AcDbXrecord
 90
        1
  0
XRECORD
  5
31F8
102
{ACAD_REACTORS
330
31F6
102
}
330
31F6
100
AcDbXrecord
 90
       70
  0
XRECORD
  5
31F9
102
{ACAD_REACTORS
330
31F6
102
}
330
31F6
100
AcDbXrecord
  1

  0
XRECORD
  5
31FA
102
{ACAD_REACTORS
330
31F6
102
}
330
31F6
100
AcDbXrecord
  1
ASAMI.ctb
  0
XRECORD
  5
31FB
102
{ACAD_REACTORS
330
31F6
102
}
330
31F6
100
AcDbXrecord
340
1A
  0
XRECORD
  5
31FC
102
{ACAD_REACTORS
330
31F6
102
}
330
31F6
100
AcDbXrecord
340
19
  0
XRECORD
  5
31FD
102
{ACAD_REACTORS
330
31F6
102
}
330
31F6
100
AcDbXrecord
340
E
  0
XRECORD
  5
31FE
102
{ACAD_REACTORS
330
31F6
102
}
330
31F6
100
AcDbXrecord
 90
    10781
  0
XRECORD
  5
31FF
102
{ACAD_REACTORS
330
31F6
102
}
330
31F6
100
AcDbXrecord
 90
        4
  0
XRECORD
  5
3200
102
{ACAD_REACTORS
330
31F6
102
}
330
31F6
100
AcDbXrecord
 90
        0
  0
XRECORD
  5
3201
102
{ACAD_REACTORS
330
31F6
102
}
330
31F6
100
AcDbXrecord
  1
{AFB28963-8C59-40AE-9337-C84526B81ACE}
  0
XRECORD
  5
3202
102
{ACAD_REACTORS
330
31F6
102
}
330
31F6
100
AcDbXrecord
  1
{B79C33FC-A48E-421C-B0D9-BEEC1CC97A87}
  0
XRECORD
  5
3203
102
{ACAD_REACTORS
330
31F6
102
}
330
31F6
100
AcDbXrecord
 40
0.0
  0
XRECORD
  5
3204
102
{ACAD_REACTORS
330
31F6
102
}
330
31F6
100
AcDbXrecord
1000
DSTYLE
1002
{
1070
    79
 70
     2
1070
   341
340
59
1070
   342
340
59
1070
   371
 70
    -1
1070
   372
 70
    -1
1002
}
  0
XRECORD
  5
3205
102
{ACAD_REACTORS
330
31F6
102
}
330
31F6
100
AcDbXrecord
340
0
  0
XRECORD
  5
3206
102
{ACAD_REACTORS
330
31F6
102
}
330
31F6
100
AcDbXrecord
 70
     0
  0
XRECORD
  5
3207
102
{ACAD_REACTORS
330
31F6
102
}
330
31F6
100
AcDbXrecord
340
0
  0
XRECORD
  5
3208
102
{ACAD_REACTORS
330
31F6
102
}
330
31F6
100
AcDbXrecord
 10
0.0
 20
0.0
 30
0.0
  0
XRECORD
  5
3209
102
{ACAD_REACTORS
330
31F6
102
}
330
31F6
100
AcDbXrecord
 10
0.0
 20
0.0
 30
0.0
  0
XRECORD
  5
320A
102
{ACAD_REACTORS
330
31F6
102
}
330
31F6
100
AcDbXrecord
 10
0.0
 20
0.0
 30
0.0
  0
XRECORD
  5
320B
102
{ACAD_REACTORS
330
31F6
102
}
330
31F6
100
AcDbXrecord
 10
0.0
 20
0.0
 30
0.0
  0
XRECORD
  5
320C
102
{ACAD_REACTORS
330
31F6
102
}
330
31F6
100
AcDbXrecord
 10
0.0
 20
0.0
 30
0.0
  0
XRECORD
  5
320D
102
{ACAD_REACTORS
330
31F6
102
}
330
31F6
100
AcDbXrecord
 10
0.0
 20
0.0
 30
0.0
  0
XRECORD
  5
320E
102
{ACAD_REACTORS
330
31F6
102
}
330
31F6
100
AcDbXrecord
340
0
  0
XRECORD
  5
320F
102
{ACAD_REACTORS
330
31F6
102
}
330
31F6
100
AcDbXrecord
 70
     0
  0
XRECORD
  5
3210
102
{ACAD_REACTORS
330
31F6
102
}
330
31F6
100
AcDbXrecord
340
0
  0
XRECORD
  5
3211
102
{ACAD_REACTORS
330
31F6
102
}
330
31F6
100
AcDbXrecord
 10
0.0
 20
0.0
 30
0.0
  0
XRECORD
  5
3212
102
{ACAD_REACTORS
330
31F6
102
}
330
31F6
100
AcDbXrecord
 10
0.0
 20
0.0
 30
0.0
  0
XRECORD
  5
3213
102
{ACAD_REACTORS
330
31F6
102
}
330
31F6
100
AcDbXrecord
 10
0.0
 20
0.0
 30
0.0
  0
XRECORD
  5
3214
102
{ACAD_REACTORS
330
31F6
102
}
330
31F6
100
AcDbXrecord
 10
0.0
 20
0.0
 30
0.0
  0
XRECORD
  5
3215
102
{ACAD_REACTORS
330
31F6
102
}
330
31F6
100
AcDbXrecord
 10
0.0
 20
0.0
 30
0.0
  0
XRECORD
  5
3216
102
{ACAD_REACTORS
330
31F6
102
}
330
31F6
100
AcDbXrecord
 10
0.0
 20
0.0
 30
0.0
  0
LAYER_INDEX
  5
31ED
102
{ACAD_REACTORS
330
31EC
102
}
330
31EC
100
AcDbIndex
 40
2453151.67983596
100
AcDbLayerIndex
  8
0
360
31EE
 90
        0
  8
AM_0
360
31EF
 90
       56
  8
AM_7
360
31F0
 90
        1
  8
AM_11
360
31F1
 90
       19
  8
AM_5
360
31F2
 90
        5
  8
Defpoints
360
31F3
 90
        0
  8
AM_6
360
31F4
 90
        1
  0
XRECORD
  5
2D
102
{ACAD_REACTORS
330
2C
102
}
330
2C
100
AcDbXrecord
  1
VERSION
140
15.0
  1
PRODUCT
  2
AutoCAD Mechanical 2000
  0
IDBUFFER
  5
31EE
330
0
100
AcDbIdBuffer
  0
IDBUFFER
  5
31EF
330
0
100
AcDbIdBuffer
330
3184
330
3186
330
3187
330
3188
330
318B
330
318C
330
318D
330
318E
330
1C24
330
1C25
330
1C26
330
1C27
330
1C28
330
1C2B
330
1C2C
330
1C2D
330
1EDD
330
1EDF
330
1FEC
330
2969
330
2B83
330
2B84
330
2B85
330
2B87
330
2B88
330
2B89
330
3140
330
3141
330
3142
330
3143
330
3144
330
3145
330
3147
330
3149
330
314C
330
314D
330
314E
330
314F
330
3150
330
3151
330
3152
330
3153
330
3154
330
315A
330
315B
330
315C
330
315D
330
315E
330
315F
330
3160
330
3161
330
3163
330
3172
330
3181
330
3182
330
3183
  0
IDBUFFER
  5
31F0
330
0
100
AcDbIdBuffer
330
C9F
  0
IDBUFFER
  5
31F1
330
0
100
AcDbIdBuffer
330
3185
330
3189
330
318A
330
29BD
330
29BE
330
29BF
330
29C0
330
29C1
330
29C2
330
3146
330
3148
330
314A
330
314B
330
3155
330
3156
330
3157
330
3158
330
3159
330
3162
  0
IDBUFFER
  5
31F2
330
0
100
AcDbIdBuffer
330
CC6
330
DF5
330
1EEB
330
2A8C
330
2CA7
  0
IDBUFFER
  5
31F3
330
0
100
AcDbIdBuffer
  0
IDBUFFER
  5
31F4
330
0
100
AcDbIdBuffer
330
19BD
  0
ENDSEC
  0
EOF
