  0
SECTION
  2
HEADER
  9
$ACADVER
  1
AC1014
  9
$ACADMAINTVER
 70
     9
  9
$DWGCODEPAGE
  3
ANSI_932
  9
$INSBASE
 10
0.0
 20
0.0
 30
0.0
  9
$EXTMIN
 10
-113.6500009999999
 20
-27.75000236965382
 30
-0.00000001
  9
$EXTMAX
 10
12.90545646716395
 20
12.59699751422015
 30
0.00000001
  9
$LIMMIN
 10
-138.8290064717842
 20
-45.22474571374511
  9
$LIMMAX
 10
23.05023987897198
 20
30.30997914579825
  9
$ORTHOMODE
 70
     0
  9
$REGENMODE
 70
     1
  9
$FILLMODE
 70
     1
  9
$QTEXTMODE
 70
     0
  9
$MIRRTEXT
 70
     0
  9
$DRAGMODE
 70
     2
  9
$LTSCALE
 40
1.0
  9
$OSMODE
 70
    55
  9
$ATTMODE
 70
     1
  9
$TEXTSIZE
 40
2.5
  9
$TRACEWID
 40
1.0
  9
$TEXTSTYLE
  7
STANDARD
  9
$CLAYER
  8
AM_0
  9
$CELTYPE
  6
BYLAYER
  9
$CECOLOR
 62
   256
  9
$CELTSCALE
 40
1.0
  9
$DELOBJ
 70
     1
  9
$DISPSILH
 70
     0
  9
$DIMSCALE
 40
0.5
  9
$DIMASZ
 40
2.5
  9
$DIMEXO
 40
1.0
  9
$DIMDLI
 40
12.0
  9
$DIMRND
 40
0.0
  9
$DIMDLE
 40
0.0
  9
$DIMEXE
 40
1.0
  9
$DIMTP
 40
0.1
  9
$DIMTM
 40
0.1
  9
$DIMTXT
 40
3.2
  9
$DIMCEN
 40
0.0
  9
$DIMTSZ
 40
0.0
  9
$DIMTOL
 70
     0
  9
$DIMLIM
 70
     0
  9
$DIMTIH
 70
     0
  9
$DIMTOH
 70
     0
  9
$DIMSE1
 70
     0
  9
$DIMSE2
 70
     0
  9
$DIMTAD
 70
     3
  9
$DIMZIN
 70
     8
  9
$DIMBLK
  1
OPEN30
  9
$DIMASO
 70
     1
  9
$DIMSHO
 70
     1
  9
$DIMPOST
  1

  9
$DIMAPOST
  1
"
  9
$DIMALT
 70
     0
  9
$DIMALTD
 70
     2
  9
$DIMALTF
 40
0.0393701
  9
$DIMLFAC
 40
1.0
  9
$DIMTOFL
 70
     1
  9
$DIMTVP
 40
0.0
  9
$DIMTIX
 70
     0
  9
$DIMSOXD
 70
     0
  9
$DIMSAH
 70
     0
  9
$DIMBLK1
  1

  9
$DIMBLK2
  1

  9
$DIMSTYLE
  2
AM_JIS
  9
$DIMCLRD
 70
   256
  9
$DIMCLRE
 70
   256
  9
$DIMCLRT
 70
     2
  9
$DIMTFAC
 40
0.71
  9
$DIMGAP
 40
1.5
  9
$DIMJUST
 70
     0
  9
$DIMSD1
 70
     0
  9
$DIMSD2
 70
     0
  9
$DIMTOLJ
 70
     0
  9
$DIMTZIN
 70
     0
  9
$DIMALTZ
 70
     0
  9
$DIMALTTZ
 70
     0
  9
$DIMFIT
 70
     3
  9
$DIMUPT
 70
     0
  9
$DIMUNIT
 70
     2
  9
$DIMDEC
 70
     3
  9
$DIMTDEC
 70
     3
  9
$DIMALTU
 70
     2
  9
$DIMALTTD
 70
     2
  9
$DIMTXSTY
  7
ASAMI
  9
$DIMAUNIT
 70
     0
  9
$LUNITS
 70
     2
  9
$LUPREC
 70
     2
  9
$SKETCHINC
 40
1.0
  9
$FILLETRAD
 40
2.5
  9
$AUNITS
 70
     0
  9
$AUPREC
 70
     0
  9
$MENU
  1
.
  9
$ELEVATION
 40
0.0
  9
$PELEVATION
 40
0.0
  9
$THICKNESS
 40
0.0
  9
$LIMCHECK
 70
     0
  9
$BLIPMODE
 70
     0
  9
$CHAMFERA
 40
0.5
  9
$CHAMFERB
 40
0.5
  9
$CHAMFERC
 40
20.0
  9
$CHAMFERD
 40
0.0
  9
$SKPOLY
 70
     0
  9
$TDCREATE
 40
2452800.443498622
  9
$TDUPDATE
 40
2453151.571126470
  9
$TDINDWG
 40
0.0516713542
  9
$TDUSRTIMER
 40
0.0516713542
  9
$USRTIMER
 70
     1
  9
$ANGBASE
 50
0.0
  9
$ANGDIR
 70
     0
  9
$PDMODE
 70
     3
  9
$PDSIZE
 40
0.0
  9
$PLINEWID
 40
0.0
  9
$COORDS
 70
     1
  9
$SPLFRAME
 70
     0
  9
$SPLINETYPE
 70
     6
  9
$SPLINESEGS
 70
     8
  9
$ATTDIA
 70
     1
  9
$ATTREQ
 70
     1
  9
$HANDLING
 70
 12289
  9
$HANDSEED
  5
2FFE
  9
$SURFTAB1
 70
     6
  9
$SURFTAB2
 70
     6
  9
$SURFTYPE
 70
     6
  9
$SURFU
 70
     6
  9
$SURFV
 70
     6
  9
$UCSNAME
  2

  9
$UCSORG
 10
0.0
 20
0.0
 30
0.0
  9
$UCSXDIR
 10
1.0
 20
0.0000000000000027
 30
0.0
  9
$UCSYDIR
 10
-0.0000000000000027
 20
1.0
 30
0.0
  9
$PUCSNAME
  2

  9
$PUCSORG
 10
0.0
 20
0.0
 30
0.0
  9
$PUCSXDIR
 10
1.0
 20
0.0
 30
0.0
  9
$PUCSYDIR
 10
0.0
 20
1.0
 30
0.0
  9
$USERI1
 70
     0
  9
$USERI2
 70
     0
  9
$USERI3
 70
     0
  9
$USERI4
 70
     0
  9
$USERI5
 70
     0
  9
$USERR1
 40
0.0
  9
$USERR2
 40
0.0
  9
$USERR3
 40
0.0
  9
$USERR4
 40
0.0
  9
$USERR5
 40
0.0
  9
$WORLDVIEW
 70
     1
  9
$SHADEDGE
 70
     3
  9
$SHADEDIF
 70
    70
  9
$TILEMODE
 70
     1
  9
$MAXACTVP
 70
    64
  9
$PINSBASE
 10
0.0
 20
0.0
 30
0.0
  9
$PLIMCHECK
 70
     0
  9
$PEXTMIN
 10
1.000000000000000E+20
 20
1.000000000000000E+20
 30
1.000000000000000E+20
  9
$PEXTMAX
 10
-1.000000000000000E+20
 20
-1.000000000000000E+20
 30
-1.000000000000000E+20
  9
$PLIMMIN
 10
0.0
 20
0.0
  9
$PLIMMAX
 10
841.0
 20
594.0
  9
$UNITMODE
 70
     0
  9
$VISRETAIN
 70
     1
  9
$PLINEGEN
 70
     0
  9
$PSLTSCALE
 70
     0
  9
$TREEDEPTH
 70
  3020
  9
$PICKSTYLE
 70
     0
  9
$CMLSTYLE
  2
STANDARD
  9
$CMLJUST
 70
     0
  9
$CMLSCALE
 40
20.0
  9
$PROXYGRAPHICS
 70
     1
  9
$MEASUREMENT
 70
     1
  0
ENDSEC
  0
SECTION
  2
CLASSES
  0
CLASS
  1
ACDBDICTIONARYWDFLT
  2
AcDbDictionaryWithDefault
  3
AutoCAD 2000
 90
        0
280
     0
281
     0
  0
CLASS
  1
ACDBPLACEHOLDER
  2
AcDbPlaceHolder
  3
AutoCAD 2000
 90
        0
280
     0
281
     0
  0
CLASS
  1
LAYOUT
  2
AcDbLayout
  3
AutoCAD 2000
 90
        0
280
     0
281
     0
  0
CLASS
  1
AMGSETTINGSOBJ
  2
AmgSettingsObj
  3
"AcadM|Product Description: AutoCAD Mechanical 2000|Company: Autodesk"
 90
        0
280
     0
281
     0
  0
CLASS
  1
ACME_DOCUMENT
  2
AcMeDbDoc
  3
AcMeServices
 90
        0
280
     0
281
     0
  0
CLASS
  1
ACMESCOPE
  2
AcMeScope
  3
AcMeServices
 90
        0
280
     0
281
     0
  0
CLASS
  1
ACMECOMMANDHISTORY
  2
AcMeCommandHistory
  3
AcMeServices
 90
        0
280
     0
281
     0
  0
CLASS
  1
DICTIONARYVAR
  2
AcDbDictionaryVar
  3
AutoCAD 2000
 90
        0
280
     0
281
     0
  0
CLASS
  1
ACIMSYSVARMAN
  2
AcImSysVarManager
  3
AcMeServices
 90
        0
280
     0
281
     0
  0
CLASS
  1
ACIMREALSYSVAR
  2
AcImRealSysVar
  3
AcMeServices
 90
        0
280
     0
281
     0
  0
CLASS
  1
ACIMINTSYSVAR
  2
AcImIntSysVar
  3
AcMeServices
 90
        0
280
     0
281
     0
  0
CLASS
  1
ACMEDRAWINGMAN
  2
AcMeDrawingMan
  3
AcMeServices
 90
        0
280
     0
281
     0
  0
CLASS
  1
ACMEVIEW
  2
AcMeView
  3
AcMeServices
 90
        0
280
     0
281
     0
  0
CLASS
  1
ACDBENTITYCACHE
  2
AcMeEntityCache
  3
AcMeServices
 90
        0
280
     0
281
     0
  0
CLASS
  1
GSMANAGER
  2
AcMeGSManager
  3
AcMeServices
 90
        0
280
     0
281
     0
  0
CLASS
  1
AmdtInternalReactor
  2
AmdtInternalReactor
  3
AcMeServices
 90
        0
280
     0
281
     0
  0
CLASS
  1
ACMESTATEMGR
  2
AcMeStateMgr
  3
AcMeServices
 90
        0
280
     0
281
     0
  0
CLASS
  1
ACME_DATABASE
  2
AcMeDbDatabase
  3
AcMeServices
 90
        0
280
     0
281
     0
  0
CLASS
  1
ACRFINSADJUSTERMGR
  2
AcRfInsAdjusterMgr
  3
AcMeServices
 90
        0
280
     0
281
     0
  0
CLASS
  1
ACMDATADICTIONARY
  2
AcmDataDictionary
  3
"AcmSymBB|Product Description: AutoCAD Mechanical 2000|Company: Autodesk"
 90
        0
280
     0
281
     0
  0
CLASS
  1
ACMDATAENTRYBLOCK
  2
AcmDataEntryBlock
  3
"AcmSymBB|Product Description: AutoCAD Mechanical 2000|Company: Autodesk"
 90
        0
280
     0
281
     0
  0
CLASS
  1
AMGOBJPROPCFG
  2
AmgObjPropCfg
  3
"AmgLay|Product Description: AutoCAD Mechanical 2000|Company: Autodesk"
 90
        1
280
     0
281
     0
  0
CLASS
  1
ACAMGFILTERDAT
  2
AcAmgFilterDat
  3
"AcadM|Product Description: AutoCAD Mechanical 2000|Company: Autodesk"
 90
        0
280
     0
281
     0
  0
CLASS
  1
LAYER_INDEX
  2
AcDbLayerIndex
  3
AutoCAD 2000
 90
        0
280
     0
281
     0
  0
CLASS
  1
IDBUFFER
  2
AcDbIdBuffer
  3
AutoCAD 2000
 90
        0
280
     0
281
     0
  0
CLASS
  1
ACIMSTRSYSVAR
  2
AcImStrSysVar
  3
AcMeServices
 90
        0
280
     0
281
     0
  0
CLASS
  1
ACMSTANDARDJIS
  2
AcmStandardJIS
  3
"AcmSymBB|Product Description: AutoCAD Mechanical 2000|Company: Autodesk"
 90
        0
280
     0
281
     0
  0
CLASS
  1
ACMSURFSTANDARDJIS
  2
AcmSurfTextStdJIS
  3
"AcmSymBB|Product Description: AutoCAD Mechanical 2000|Company: Autodesk"
 90
        0
280
     0
281
     0
  0
CLASS
  1
ACMFCFSTANDARDJIS
  2
AcmFCFStdJIS
  3
"AcmSymBB|Product Description: AutoCAD Mechanical 2000|Company: Autodesk"
 90
        0
280
     0
281
     0
  0
CLASS
  1
ACMWELDSTANDARDJIS
  2
AcmWeldingStdJIS
  3
"AcmSymBB|Product Description: AutoCAD Mechanical 2000|Company: Autodesk"
 90
        0
280
     0
281
     0
  0
CLASS
  1
ACMIDSTANDARDJIS
  2
AcmIdStdJIS
  3
"AcmSymBB|Product Description: AutoCAD Mechanical 2000|Company: Autodesk"
 90
        0
280
     0
281
     0
  0
CLASS
  1
ACMDATUMSTANDARDJIS
  2
AcmDatumStdJIS
  3
"AcmSymBB|Product Description: AutoCAD Mechanical 2000|Company: Autodesk"
 90
        0
280
     0
281
     0
  0
CLASS
  1
ACMBOMSTANDARDJIS
  2
AcmBOMStdJIS
  3
"AcmSymBB|Product Description: AutoCAD Mechanical 2000|Company: Autodesk"
 90
        0
280
     0
281
     0
  0
CLASS
  1
ACMSTANDARDANSI
  2
AcmStandardANSI
  3
"AcmSymBB|Product Description: AutoCAD Mechanical 2000|Company: Autodesk"
 90
        0
280
     0
281
     0
  0
CLASS
  1
ACMSURFSTANDARDANSI
  2
AcmSurfTextStdANSI
  3
"AcmSymBB|Product Description: AutoCAD Mechanical 2000|Company: Autodesk"
 90
        0
280
     0
281
     0
  0
CLASS
  1
ACMFCFSTANDARDANSI
  2
AcmFCFStdANSI
  3
"AcmSymBB|Product Description: AutoCAD Mechanical 2000|Company: Autodesk"
 90
        0
280
     0
281
     0
  0
CLASS
  1
ACMWELDSTANDARDANSI
  2
AcmWeldingStdANSI
  3
"AcmSymBB|Product Description: AutoCAD Mechanical 2000|Company: Autodesk"
 90
        0
280
     0
281
     0
  0
CLASS
  1
ACMIDSTANDARDANSI
  2
AcmIdStdANSI
  3
"AcmSymBB|Product Description: AutoCAD Mechanical 2000|Company: Autodesk"
 90
        0
280
     0
281
     0
  0
CLASS
  1
ACMDATUMSTANDARDANSI
  2
AcmDatumStdANSI
  3
"AcmSymBB|Product Description: AutoCAD Mechanical 2000|Company: Autodesk"
 90
        0
280
     0
281
     0
  0
CLASS
  1
ACMBOMSTANDARDANSI
  2
AcmBOMStdANSI
  3
"AcmSymBB|Product Description: AutoCAD Mechanical 2000|Company: Autodesk"
 90
        0
280
     0
281
     0
  0
CLASS
  1
ACMSTANDARDBSI
  2
AcmStandardBSI
  3
"AcmSymBB|Product Description: AutoCAD Mechanical 2000|Company: Autodesk"
 90
        0
280
     0
281
     0
  0
CLASS
  1
ACMSURFSTANDARDBSI
  2
AcmSurfTextStdBSI
  3
"AcmSymBB|Product Description: AutoCAD Mechanical 2000|Company: Autodesk"
 90
        0
280
     0
281
     0
  0
CLASS
  1
ACMFCFSTANDARDBSI
  2
AcmFCFStdBSI
  3
"AcmSymBB|Product Description: AutoCAD Mechanical 2000|Company: Autodesk"
 90
        0
280
     0
281
     0
  0
CLASS
  1
ACMWELDSTANDARDBSI
  2
AcmWeldingStdBSI
  3
"AcmSymBB|Product Description: AutoCAD Mechanical 2000|Company: Autodesk"
 90
        0
280
     0
281
     0
  0
CLASS
  1
ACMIDSTANDARDBSI
  2
AcmIdStdBSI
  3
"AcmSymBB|Product Description: AutoCAD Mechanical 2000|Company: Autodesk"
 90
        0
280
     0
281
     0
  0
CLASS
  1
ACMDATUMSTANDARDBSI
  2
AcmDatumStdBSI
  3
"AcmSymBB|Product Description: AutoCAD Mechanical 2000|Company: Autodesk"
 90
        0
280
     0
281
     0
  0
CLASS
  1
ACMBOMSTANDARDBSI
  2
AcmBOMStdBSI
  3
"AcmSymBB|Product Description: AutoCAD Mechanical 2000|Company: Autodesk"
 90
        0
280
     0
281
     0
  0
CLASS
  1
LONG_TRANSACTION
  2
AcDbLongTransaction
  3
AutoCAD 2000
 90
        0
280
     0
281
     0
  0
CLASS
  1
LWPOLYLINE
  2
AcDbPolyline
  3
AutoCAD 2000
 90
        0
280
     0
281
     1
  0
CLASS
  1
HATCH
  2
AcDbHatch
  3
AutoCAD 2000
 90
        0
280
     0
281
     1
  0
CLASS
  1
XRECORD
  2
AcDbXrecord
  3
AutoCAD 2000
 90
        0
280
     0
281
     0
  0
ENDSEC
  0
SECTION
  2
TABLES
  0
TABLE
  2
VPORT
  5
8
330
0
100
AcDbSymbolTable
 70
     3
  0
VPORT
  5
2FC8
330
8
100
AcDbSymbolTableRecord
100
AcDbViewportTableRecord
  2
*ACTIVE
 70
     0
 10
0.0
 20
0.0
 11
1.0
 21
1.0
 12
-48.02275230618029
 22
-7.578402793766542
 13
0.0
 23
0.0
 14
2.5
 24
2.5
 15
10.0
 25
10.0
 16
0.0
 26
0.0
 36
1.0
 17
0.0
 27
0.0
 37
0.0
 40
84.23461820026826
 41
1.56570841889117
 42
50.0
 43
0.0
 44
0.0
 50
0.0
 51
0.0
 71
     0
 72
   100
 73
     1
 74
     1
 75
     0
 76
     0
 77
     0
 78
     0
  0
ENDTAB
  0
TABLE
  2
LTYPE
  5
5
330
0
100
AcDbSymbolTable
 70
    10
  0
LTYPE
  5
14
330
5
100
AcDbSymbolTableRecord
100
AcDbLinetypeTableRecord
  2
BYBLOCK
 70
     0
  3

 72
    65
 73
     0
 40
0.0
  0
LTYPE
  5
15
330
5
100
AcDbSymbolTableRecord
100
AcDbLinetypeTableRecord
  2
BYLAYER
 70
     0
  3

 72
    65
 73
     0
 40
0.0
  0
LTYPE
  5
16
330
5
100
AcDbSymbolTableRecord
100
AcDbLinetypeTableRecord
  2
CONTINUOUS
 70
     0
  3
Solid line
 72
    65
 73
     0
 40
0.0
  0
LTYPE
  5
4B
330
5
100
AcDbSymbolTableRecord
100
AcDbLinetypeTableRecord
  2
AM_ISO02W050
 70
     0
  3
__ __ __ __ __ __ __ __ __ __ __ __ __ __ __
 72
    65
 73
     2
 40
7.5
 49
6.0
 74
     0
 49
-1.5
 74
     0
  0
LTYPE
  5
4C
330
5
100
AcDbSymbolTableRecord
100
AcDbLinetypeTableRecord
  2
AM_ISO08W050
 70
     0
  3
____ . ____ . ____ . ____ . ____ . ____ . ____
 72
    65
 73
     4
 40
18.0
 49
12.0
 74
     0
 49
-1.5
 74
     0
 49
3.0
 74
     0
 49
-1.5
 74
     0
  0
LTYPE
  5
4D
330
5
100
AcDbSymbolTableRecord
100
AcDbLinetypeTableRecord
  2
AM_ISO09W050
 70
     0
  3
_____ . . _____ . . _____ . . ____ .. ____
 72
    65
 73
     6
 40
22.5
 49
12.0
 74
     0
 49
-1.5
 74
     0
 49
3.0
 74
     0
 49
-1.5
 74
     0
 49
3.0
 74
     0
 49
-1.5
 74
     0
  0
LTYPE
  5
4E
330
5
100
AcDbSymbolTableRecord
100
AcDbLinetypeTableRecord
  2
AMCONSTR
 70
     0
  3
_______________________
 72
    65
 73
     2
 40
9999.0
 49
9999.0
 74
     0
 49
0.0
 74
     0
  0
LTYPE
  5
4F
330
5
100
AcDbSymbolTableRecord
100
AcDbLinetypeTableRecord
  2
AM_ISO02W050X2
 70
     0
  3
 _ _ _ _ _ _ _ _ _ _ _ _
 72
    65
 73
     2
 40
3.75
 49
3.0
 74
     0
 49
-0.75
 74
     0
  0
LTYPE
  5
50
330
5
100
AcDbSymbolTableRecord
100
AcDbLinetypeTableRecord
  2
AM_ISO08W050X2
 70
     0
  3
__ . __ . __ . __ . __ . __
 72
    65
 73
     4
 40
9.0
 49
6.0
 74
     0
 49
-0.75
 74
     0
 49
1.5
 74
     0
 49
-0.75
 74
     0
  0
LTYPE
  5
53
330
5
100
AcDbSymbolTableRecord
100
AcDbLinetypeTableRecord
  2
AMZIGZAG
 70
     0
  3
/\/-/\/-/\/-/\/-/\/-/\/
 72
    65
 73
     2
 40
11.00009999999999
 49
0.0001
 74
     4
 75
   135
340
52
 46
0.04
 50
0.0
 44
0.0
 45
0.0
 49
-11.0
 74
     0
  0
LTYPE
  5
166
330
5
100
AcDbSymbolTableRecord
100
AcDbLinetypeTableRecord
  2
ACJISTGL
 70
     0
  3
_ _ _ _ _
 72
    65
 73
     2
 40
3.0
 49
2.0
 74
     0
 49
-1.0
 74
     0
  0
LTYPE
  5
26A
330
5
100
AcDbSymbolTableRecord
100
AcDbLinetypeTableRecord
  2
ACJISTGB
 70
     0
  3
__ . . __ . .
 72
    65
 73
     6
 40
9.0
 49
4.0
 74
     0
 49
-1.0
 74
     0
 49
1.0
 74
     0
 49
-1.0
 74
     0
 49
1.0
 74
     0
 49
-1.0
 74
     0
  0
ENDTAB
  0
TABLE
  2
LAYER
  5
2
330
0
100
AcDbSymbolTable
 70
     7
  0
LAYER
  5
10
330
2
100
AcDbSymbolTableRecord
100
AcDbLayerTableRecord
  2
0
 70
     0
 62
     7
  6
CONTINUOUS
  0
LAYER
  5
3F9
330
2
100
AcDbSymbolTableRecord
100
AcDbLayerTableRecord
  2
AM_0
 70
     0
 62
     7
  6
CONTINUOUS
  0
LAYER
  5
C7C
330
2
100
AcDbSymbolTableRecord
100
AcDbLayerTableRecord
  2
AM_7
 70
     0
 62
     4
  6
AM_ISO08W050
  0
LAYER
  5
C97
330
2
100
AcDbSymbolTableRecord
100
AcDbLayerTableRecord
  2
AM_11
 70
     0
 62
     3
  6
AM_ISO09W050
  0
LAYER
  5
CC5
330
2
100
AcDbSymbolTableRecord
100
AcDbLayerTableRecord
  2
AM_5
 70
     0
 62
     3
  6
CONTINUOUS
  0
LAYER
  5
CC7
330
2
100
AcDbSymbolTableRecord
100
AcDbLayerTableRecord
  2
DEFPOINTS
 70
     0
 62
     7
  6
CONTINUOUS
  0
LAYER
  5
19BC
330
2
100
AcDbSymbolTableRecord
100
AcDbLayerTableRecord
  2
AM_6
 70
     0
 62
     2
  6
CONTINUOUS
  0
ENDTAB
  0
TABLE
  2
STYLE
  5
3
330
0
100
AcDbSymbolTable
 70
     5
  0
STYLE
  5
11
330
3
100
AcDbSymbolTableRecord
100
AcDbTextStyleTableRecord
  2
STANDARD
 70
     0
 40
0.0
 41
1.0
 50
0.0
 71
     0
 42
2.5
  3
simplex.shx
  4
EXTFONT.SHX
  0
STYLE
  5
52
330
3
100
AcDbSymbolTableRecord
100
AcDbTextStyleTableRecord
  2

 70
     1
 40
0.0
 41
1.0
 50
0.0
 71
     0
 42
2.5
  3
ltypeshp.shx
  4

  0
STYLE
  5
6B
330
3
100
AcDbSymbolTableRecord
100
AcDbTextStyleTableRecord
  2
ASAMI
 70
     0
 40
0.0
 41
1.0
 50
0.0
 71
     0
 42
2.5
  3
simplex.shx
  4
EXTFONT.SHX
  0
STYLE
  5
262
330
3
100
AcDbSymbolTableRecord
100
AcDbTextStyleTableRecord
  2
ACJISTS
 70
     0
 40
1.0
 41
1.0
 50
0.0
 71
     0
 42
2.5
  3
simplex.shx
  4
bigfont.shx
  0
STYLE
  5
269
330
3
100
AcDbSymbolTableRecord
100
AcDbTextStyleTableRecord
  2
ACJISGDT
 70
     0
 40
0.0
 41
1.0
 50
0.0
 71
     0
 42
2.5
  3
amgdtans.shx
  4

  0
ENDTAB
  0
TABLE
  2
VIEW
  5
6
330
0
100
AcDbSymbolTable
 70
     0
  0
ENDTAB
  0
TABLE
  2
UCS
  5
7
330
0
100
AcDbSymbolTable
 70
     0
  0
ENDTAB
  0
TABLE
  2
APPID
  5
9
330
0
100
AcDbSymbolTable
 70
    16
  0
APPID
  5
12
330
9
100
AcDbSymbolTableRecord
100
AcDbRegAppTableRecord
  2
ACAD
 70
     0
  0
APPID
  5
30
330
9
100
AcDbSymbolTableRecord
100
AcDbRegAppTableRecord
  2
MCAD_NO_VIS
 70
     0
  0
APPID
  5
31
330
9
100
AcDbSymbolTableRecord
100
AcDbRegAppTableRecord
  2
ACAD_TEMP_GRAPHIC
 70
     0
  0
APPID
  5
2C2
330
9
100
AcDbSymbolTableRecord
100
AcDbRegAppTableRecord
  2
GENIUS_GENDTOL_13
 70
     0
  0
APPID
  5
339
330
9
100
AcDbSymbolTableRecord
100
AcDbRegAppTableRecord
  2
GENIUS_GENODEF_13
 70
     0
  0
APPID
  5
33A
330
9
100
AcDbSymbolTableRecord
100
AcDbRegAppTableRecord
  2
GENIUS_GENOBJ-N-RSBK_13
 70
     0
  0
APPID
  5
33B
330
9
100
AcDbSymbolTableRecord
100
AcDbRegAppTableRecord
  2
GENIUS_GENOBJ-N-LIB_13
 70
     0
  0
APPID
  5
33C
330
9
100
AcDbSymbolTableRecord
100
AcDbRegAppTableRecord
  2
GENIUS_GENSCALE_13
 70
     0
  0
APPID
  5
378
330
9
100
AcDbSymbolTableRecord
100
AcDbRegAppTableRecord
  2
GENIUS_GENDIMSH_14
 70
     0
  0
APPID
  5
C82
330
9
100
AcDbSymbolTableRecord
100
AcDbRegAppTableRecord
  2
GENIUS_GENOBJ-N-CRS_13
 70
     0
  0
APPID
  5
C83
330
9
100
AcDbSymbolTableRecord
100
AcDbRegAppTableRecord
  2
GENIUS_GENOENT_13
 70
     0
  0
APPID
  5
C84
330
9
100
AcDbSymbolTableRecord
100
AcDbRegAppTableRecord
  2
GENIUS_GENOREF_13
 70
     0
  0
APPID
  5
C85
330
9
100
AcDbSymbolTableRecord
100
AcDbRegAppTableRecord
  2
GENIUS_GENOLIS_13
 70
     0
  0
APPID
  5
CA0
330
9
100
AcDbSymbolTableRecord
100
AcDbRegAppTableRecord
  2
GENIUS_GENOBJ-N-CEN_13
 70
     0
  0
APPID
  5
1E1E
330
9
100
AcDbSymbolTableRecord
100
AcDbRegAppTableRecord
  2
GENIUS_GENFIL_13
 70
     0
  0
APPID
  5
1E1F
330
9
100
AcDbSymbolTableRecord
100
AcDbRegAppTableRecord
  2
GENIUS_GENOBJ-N-CHA_13
 70
     0
  0
ENDTAB
  0
TABLE
  2
DIMSTYLE
  5
A
330
0
100
AcDbSymbolTable
 70
     9
  0
DIMSTYLE
105
58
330
A
100
AcDbSymbolTableRecord
100
AcDbDimStyleTableRecord
  2
AM_JIS
 70
     0
  3

  4
"
  5
OPEN30
  6

  7

 40
0.5
 41
2.5
 42
1.0
 43
12.0
 44
1.0
 45
0.0
 46
0.0
 47
0.1
 48
0.1
140
3.2
141
0.0
142
0.0
143
0.0393701
144
1.0
145
0.0
146
0.71
147
1.5
 71
     0
 72
     0
 73
     0
 74
     0
 75
     0
 76
     0
 77
     3
 78
     8
170
     0
171
     2
172
     1
173
     0
174
     0
175
     0
176
   256
177
   256
178
     2
270
     2
271
     3
272
     3
273
     2
274
     2
340
6B
275
     0
280
     0
281
     0
282
     0
283
     0
284
     0
285
     0
286
     0
287
     3
288
     0
  0
DIMSTYLE
105
5F
330
A
100
AcDbSymbolTableRecord
100
AcDbDimStyleTableRecord
  2
AM_JIS$3
 70
     0
  3

  4
"
  5
OPEN30
  6

  7

 40
0.5
 41
2.5
 42
1.0
 43
10.0
 44
1.0
 45
0.0
 46
0.0
 47
0.1
 48
0.1
140
3.2
141
0.0
142
0.0
143
0.0393701
144
1.0
145
0.0
146
0.71
147
1.5
 71
     0
 72
     0
 73
     0
 74
     1
 75
     0
 76
     0
 77
     3
 78
     8
170
     0
171
     2
172
     0
173
     0
174
     0
175
     0
176
   256
177
   256
178
     2
270
     2
271
     2
272
     3
273
     2
274
     2
340
6B
275
     0
280
     0
281
     0
282
     0
283
     0
284
     0
285
     0
286
     0
287
     0
288
     1
  0
DIMSTYLE
105
60
330
A
100
AcDbSymbolTableRecord
100
AcDbDimStyleTableRecord
  2
AM_JIS$4
 70
     0
  3

  4
"
  5
OPEN30
  6

  7

 40
0.5
 41
2.5
 42
1.0
 43
10.0
 44
1.0
 45
0.0
 46
0.0
 47
0.1
 48
0.1
140
3.2
141
0.0
142
0.0
143
0.0393701
144
1.0
145
0.0
146
0.71
147
1.5
 71
     0
 72
     0
 73
     0
 74
     1
 75
     0
 76
     0
 77
     3
 78
     8
170
     0
171
     2
172
     0
173
     0
174
     0
175
     0
176
   256
177
   256
178
     2
270
     2
271
     2
272
     3
273
     2
274
     2
340
6B
275
     0
280
     0
281
     0
282
     0
283
     0
284
     0
285
     0
286
     0
287
     0
288
     1
  0
DIMSTYLE
105
61
330
A
100
AcDbSymbolTableRecord
100
AcDbDimStyleTableRecord
  2
AM_JIS$6
 70
     0
  3

  4
"
  5
OPEN30
  6

  7

 40
0.5
 41
2.5
 42
1.0
 43
10.0
 44
1.0
 45
0.0
 46
0.0
 47
0.1
 48
0.1
140
3.2
141
0.0
142
0.0
143
0.0393701
144
1.0
145
0.0
146
0.71
147
1.5
 71
     0
 72
     0
 73
     0
 74
     0
 75
     0
 76
     0
 77
     0
 78
     8
170
     0
171
     2
172
     1
173
     0
174
     0
175
     0
176
   256
177
   256
178
     2
270
     2
271
     2
272
     2
273
     2
274
     2
340
6B
275
     0
280
     0
281
     0
282
     0
283
     0
284
     0
285
     0
286
     0
287
     3
288
     0
  0
DIMSTYLE
105
62
330
A
100
AcDbSymbolTableRecord
100
AcDbDimStyleTableRecord
  2
AM_JIS$7
 70
     0
  3

  4
"
  5
OPEN30
  6

  7

 40
0.5
 41
2.5
 42
1.0
 43
10.0
 44
1.0
 45
0.0
 46
0.0
 47
0.1
 48
0.1
140
3.2
141
0.0
142
0.0
143
0.0393701
144
1.0
145
0.0
146
0.71
147
1.5
 71
     0
 72
     0
 73
     0
 74
     0
 75
     0
 76
     0
 77
     3
 78
     8
170
     0
171
     2
172
     1
173
     0
174
     0
175
     0
176
   256
177
   256
178
     2
270
     2
271
     2
272
     3
273
     2
274
     2
340
6B
275
     0
280
     0
281
     0
282
     0
283
     0
284
     0
285
     0
286
     0
287
     3
288
     0
  0
DIMSTYLE
105
63
330
A
100
AcDbSymbolTableRecord
100
AcDbDimStyleTableRecord
  2
AM_JIS$SF
 70
     0
  3

  4
"
  5
OPEN30
  6

  7

 40
0.5
 41
2.5
 42
1.0
 43
10.0
 44
1.0
 45
0.0
 46
0.0
 47
0.1
 48
0.1
140
3.2
141
0.0
142
0.0
143
0.0393701
144
1.0
145
0.0
146
0.71
147
1.5
 71
     0
 72
     0
 73
     0
 74
     0
 75
     1
 76
     1
 77
     3
 78
     8
170
     0
171
     2
172
     1
173
     0
174
     0
175
     0
176
   256
177
   256
178
     2
270
     2
271
     2
272
     2
273
     2
274
     2
340
6B
275
     0
280
     0
281
     0
282
     0
283
     0
284
     0
285
     0
286
     0
287
     3
288
     0
  0
DIMSTYLE
105
68
330
A
100
AcDbSymbolTableRecord
100
AcDbDimStyleTableRecord
  2
AM_JIS$SH
 70
     0
  3

  4
"
  5

  6
GENAXEH
  7
OPEN30
 40
0.5
 41
2.5
 42
1.0
 43
10.0
 44
1.0
 45
0.0
 46
0.0
 47
0.1
 48
0.1
140
3.2
141
0.0
142
0.0
143
0.0393701
144
2.0
145
0.0
146
0.71
147
1.5
 71
     0
 72
     0
 73
     0
 74
     0
 75
     1
 76
     1
 77
     3
 78
     8
170
     0
171
     2
172
     1
173
     1
174
     0
175
     0
176
   256
177
   256
178
     2
270
     2
271
     2
272
     2
273
     2
274
     2
340
6B
275
     0
280
     0
281
     0
282
     0
283
     0
284
     0
285
     0
286
     0
287
     3
288
     0
  0
DIMSTYLE
105
B34
102
{ACAD_REACTORS
330
2BA8
102
}
330
A
100
AcDbSymbolTableRecord
100
AcDbDimStyleTableRecord
  2
AM_JIS$2
 70
     0
  3

  4
"
  5
OPEN30
  6

  7

 40
0.5
 41
2.5
 42
1.0
 43
12.0
 44
1.0
 45
0.0
 46
0.0
 47
0.1
 48
0.1
140
3.2
141
0.0
142
0.0
143
0.0393701
144
1.0
145
0.0
146
0.71
147
1.5
 71
     0
 72
     0
 73
     0
 74
     0
 75
     0
 76
     0
 77
     3
 78
     8
170
     0
171
     2
172
     1
173
     0
174
     0
175
     0
176
   256
177
   256
178
     2
270
     2
271
     3
272
     3
273
     2
274
     2
340
6B
275
     0
280
     0
281
     0
282
     0
283
     0
284
     0
285
     0
286
     0
287
     3
288
     0
  0
DIMSTYLE
105
BA5
102
{ACAD_REACTORS
330
CC6
330
DF5
330
228A
330
2D88
102
}
330
A
100
AcDbSymbolTableRecord
100
AcDbDimStyleTableRecord
  2
AM_JIS$0
 70
     0
  3

  4
"
  5
OPEN30
  6

  7

 40
0.5
 41
2.5
 42
0.0
 43
10.0
 44
1.0
 45
0.0
 46
0.0
 47
0.1
 48
0.1000000001
140
3.799999999999999
141
0.0
142
0.0
143
0.0393701
144
1.0
145
0.0
146
0.71
147
1.5
 71
     0
 72
     0
 73
     0
 74
     0
 75
     0
 76
     0
 77
     3
 78
     1
170
     0
171
     2
172
     1
173
     0
174
     0
175
     0
176
     3
177
     3
178
     2
270
     2
271
     2
272
     2
273
     2
274
     2
340
11
275
     1
280
     0
281
     0
282
     0
283
     0
284
     8
285
     0
286
     0
287
     0
288
     0
  0
ENDTAB
  0
TABLE
  2
BLOCK_RECORD
  5
1
330
0
100
AcDbSymbolTable
 70
    10
  0
BLOCK_RECORD
  5
1F
102
{ACAD_XDICTIONARY
360
74
102
}
330
1
100
AcDbSymbolTableRecord
100
AcDbBlockTableRecord
  2
*MODEL_SPACE
  0
BLOCK_RECORD
  5
101
102
{ACAD_XDICTIONARY
360
2FF1
102
}
330
1
100
AcDbSymbolTableRecord
100
AcDbBlockTableRecord
  2
*PAPER_SPACE
  0
BLOCK_RECORD
  5
59
330
1
100
AcDbSymbolTableRecord
100
AcDbBlockTableRecord
  2
_OPEN30
  0
BLOCK_RECORD
  5
64
330
1
100
AcDbSymbolTableRecord
100
AcDbBlockTableRecord
  2
GENAXEH
  0
BLOCK_RECORD
  5
CC8
330
1
100
AcDbSymbolTableRecord
100
AcDbBlockTableRecord
  2
*D5
  0
BLOCK_RECORD
  5
DF6
330
1
100
AcDbSymbolTableRecord
100
AcDbBlockTableRecord
  2
*D6
  0
BLOCK_RECORD
  5
228B
330
1
100
AcDbSymbolTableRecord
100
AcDbBlockTableRecord
  2
*D7
  0
BLOCK_RECORD
  5
2BA9
330
1
100
AcDbSymbolTableRecord
100
AcDbBlockTableRecord
  2
*D8
  0
BLOCK_RECORD
  5
2D89
330
1
100
AcDbSymbolTableRecord
100
AcDbBlockTableRecord
  2
*D9
  0
ENDTAB
  0
ENDSEC
  0
SECTION
  2
BLOCKS
  0
BLOCK
  5
20
330
1F
100
AcDbEntity
  8
0
100
AcDbBlockBegin
  2
*MODEL_SPACE
 70
     0
 10
0.0
 20
0.0
 30
0.0
  3
*MODEL_SPACE
  1

  0
ENDBLK
  5
21
330
1F
100
AcDbEntity
  8
0
100
AcDbBlockEnd
  0
BLOCK
  5
103
330
101
100
AcDbEntity
 67
     1
  8
0
100
AcDbBlockBegin
  2
*PAPER_SPACE
 70
     0
 10
0.0
 20
0.0
 30
0.0
  3
*PAPER_SPACE
  1

  0
ENDBLK
  5
104
330
101
100
AcDbEntity
 67
     1
  8
0
100
AcDbBlockEnd
  0
BLOCK
  5
5D
330
59
100
AcDbEntity
  8
0
100
AcDbBlockBegin
  2
_OPEN30
 70
     0
 10
0.0
 20
0.0
 30
0.0
  3
_OPEN30
  1

  0
LINE
  5
5A
330
59
100
AcDbEntity
  8
0
 62
     0
100
AcDbLine
 10
-1.0
 20
0.26794919
 30
0.0
 11
0.0
 21
0.0
 31
0.0
  0
LINE
  5
5B
330
59
100
AcDbEntity
  8
0
 62
     0
100
AcDbLine
 10
0.0
 20
0.0
 30
0.0
 11
-1.0
 21
-0.26794919
 31
0.0
  0
LINE
  5
5C
330
59
100
AcDbEntity
  8
0
 62
     0
100
AcDbLine
 10
0.0
 20
0.0
 30
0.0
 11
-1.0
 21
0.0
 31
0.0
  0
ENDBLK
  5
5E
330
59
100
AcDbEntity
  8
0
100
AcDbBlockEnd
  0
BLOCK
  5
66
330
64
100
AcDbEntity
  8
0
100
AcDbBlockBegin
  2
GENAXEH
 70
     0
 10
0.0
 20
0.0
 30
0.0
  3
GENAXEH
  1

  0
LINE
  5
65
330
64
100
AcDbEntity
  8
0
100
AcDbLine
 10
-1.0
 20
0.0
 30
0.0
 11
1.0
 21
0.0
 31
0.0
  0
ENDBLK
  5
67
330
64
100
AcDbEntity
  8
0
100
AcDbBlockEnd
  0
BLOCK
  5
CD2
330
CC8
100
AcDbEntity
  8
0
100
AcDbBlockBegin
  2
*D5
 70
     1
 10
0.0
 20
0.0
 30
0.0
  3
*D5
  1

  0
LINE
  5
2F76
330
CC8
100
AcDbEntity
  8
AM_5
 62
     3
100
AcDbLine
 10
-101.9999999999999
 20
-4.000000000000016
 30
0.0
 11
-101.9999999999999
 21
-17.00000236965379
 31
0.0
  0
LINE
  5
2F77
330
CC8
100
AcDbEntity
  8
AM_5
 62
     3
100
AcDbLine
 10
-1.999998253225056
 20
-4.2499994697219
 30
0.0
 11
-1.999998253225057
 21
-17.00000236965379
 31
0.0
  0
LINE
  5
2F78
330
CC8
100
AcDbEntity
  8
AM_5
 62
     3
100
AcDbLine
 10
-100.7499999999999
 20
-16.50000236965379
 30
0.0
 11
-3.249998253225057
 21
-16.50000236965379
 31
0.0
  0
INSERT
  5
2F79
330
CC8
100
AcDbEntity
  8
AM_5
 62
     3
100
AcDbBlockReference
  2
_OPEN30
 10
-101.9999999999999
 20
-16.50000236965379
 30
0.0
 41
1.25
 42
1.25
 43
1.25
 50
180.0
  0
INSERT
  5
2F7A
330
CC8
100
AcDbEntity
  8
AM_5
 62
     3
100
AcDbBlockReference
  2
_OPEN30
 10
-1.999998253225057
 20
-16.50000236965379
 30
0.0
 41
1.25
 42
1.25
 43
1.25
  0
MTEXT
  5
2F7B
330
CC8
100
AcDbEntity
  8
AM_5
 62
     2
100
AcDbMText
 10
-51.99999912661252
 20
-14.80000236965379
 30
0.0
 40
1.9
 41
0.0
 71
     5
 72
     1
  1
100
1001
ACAD
1000
MTEXTBEGIN
1070
    73
1070
     1
1070
    44
1040
1.0
1070
    74
1070
     0
1000
MTEXTEND
  0
POINT
  5
2F7C
330
CC8
100
AcDbEntity
  8
DEFPOINTS
 62
     0
100
AcDbPoint
 10
-101.9999999999999
 20
-4.000000000000016
 30
0.0
  0
POINT
  5
2F7D
330
CC8
100
AcDbEntity
  8
DEFPOINTS
 62
     0
100
AcDbPoint
 10
-1.999998253225056
 20
-4.2499994697219
 30
0.0
  0
POINT
  5
2F7E
330
CC8
100
AcDbEntity
  8
DEFPOINTS
 62
     0
100
AcDbPoint
 10
-1.999998253225057
 20
-16.50000236965379
 30
0.0
  0
ENDBLK
  5
CD3
330
CC8
100
AcDbEntity
  8
0
100
AcDbBlockEnd
  0
BLOCK
  5
E00
330
DF6
100
AcDbEntity
  8
0
100
AcDbBlockBegin
  2
*D6
 70
     1
 10
0.0
 20
0.0
 30
0.0
  3
*D6
  1

  0
LINE
  5
2F93
330
DF6
100
AcDbEntity
  8
AM_5
 62
     3
100
AcDbLine
 10
-47.0
 20
-4.500001369653887
 30
0.0
 11
-47.0
 21
-12.00000236965376
 31
0.0
  0
LINE
  5
2F94
330
DF6
100
AcDbEntity
  8
AM_5
 62
     3
100
AcDbLine
 10
-1.999998253225056
 20
-4.2499994697219
 30
0.0
 11
-1.999998253225057
 21
-12.00000236965376
 31
0.0
  0
LINE
  5
2F95
330
DF6
100
AcDbEntity
  8
AM_5
 62
     3
100
AcDbLine
 10
-45.75
 20
-11.50000236965376
 30
0.0
 11
-3.249998253225057
 21
-11.50000236965376
 31
0.0
  0
INSERT
  5
2F96
330
DF6
100
AcDbEntity
  8
AM_5
 62
     3
100
AcDbBlockReference
  2
_OPEN30
 10
-47.0
 20
-11.50000236965376
 30
0.0
 41
1.25
 42
1.25
 43
1.25
 50
180.0
  0
INSERT
  5
2F97
330
DF6
100
AcDbEntity
  8
AM_5
 62
     3
100
AcDbBlockReference
  2
_OPEN30
 10
-1.999998253225057
 20
-11.50000236965376
 30
0.0
 41
1.25
 42
1.25
 43
1.25
  0
MTEXT
  5
2F98
330
DF6
100
AcDbEntity
  8
AM_5
 62
     2
100
AcDbMText
 10
-24.49999912661253
 20
-9.800002369653768
 30
0.0
 40
1.9
 41
0.0
 71
     5
 72
     1
  1
45
1001
ACAD
1000
MTEXTBEGIN
1070
    73
1070
     1
1070
    44
1040
1.0
1070
    74
1070
     0
1000
MTEXTEND
  0
POINT
  5
2F99
330
DF6
100
AcDbEntity
  8
DEFPOINTS
 62
     0
100
AcDbPoint
 10
-47.0
 20
-4.500001369653887
 30
0.0
  0
POINT
  5
2F9A
330
DF6
100
AcDbEntity
  8
DEFPOINTS
 62
     0
100
AcDbPoint
 10
-1.999998253225056
 20
-4.2499994697219
 30
0.0
  0
POINT
  5
2F9B
330
DF6
100
AcDbEntity
  8
DEFPOINTS
 62
     0
100
AcDbPoint
 10
-1.999998253225057
 20
-11.50000236965376
 30
0.0
  0
ENDBLK
  5
E01
330
DF6
100
AcDbEntity
  8
0
100
AcDbBlockEnd
  0
BLOCK
  5
2297
330
228B
100
AcDbEntity
  8
0
100
AcDbBlockBegin
  2
*D7
 70
     1
 10
0.0
 20
0.0
 30
0.0
  3
*D7
  1

  0
LINE
  5
2F7F
330
228B
100
AcDbEntity
  8
AM_5
 62
     3
100
AcDbLine
 10
-101.4999999999999
 20
-4.500000000000325
 30
0.0
 11
-111.5000009999999
 21
-4.500000000000352
 31
0.0
  0
LINE
  5
2F80
330
228B
100
AcDbEntity
  8
AM_5
 62
     3
100
AcDbLine
 10
-101.5
 20
4.499999999999698
 30
0.0
 11
-111.5000009999999
 21
4.49999999999967
 31
0.0
  0
LINE
  5
2F81
330
228B
100
AcDbEntity
  8
AM_5
 62
     3
100
AcDbLine
 10
-111.0000009999999
 20
-3.250000000000351
 30
0.0
 11
-111.0000009999999
 21
3.249999999999671
 31
0.0
  0
INSERT
  5
2F82
330
228B
100
AcDbEntity
  8
AM_5
 62
     3
100
AcDbBlockReference
  2
_OPEN30
 10
-111.0000009999999
 20
-4.500000000000351
 30
0.0
 41
1.25
 42
1.25
 43
1.25
 50
270.0000000000001
  0
INSERT
  5
2F83
330
228B
100
AcDbEntity
  8
AM_5
 62
     3
100
AcDbBlockReference
  2
_OPEN30
 10
-111.0000009999999
 20
4.499999999999671
 30
0.0
 41
1.25
 42
1.25
 43
1.25
 50
90.00000000000015
  0
MTEXT
  5
2F84
330
228B
100
AcDbEntity
  8
AM_5
 62
     2
100
AcDbMText
 10
-112.7000009999999
 20
-0.000000000000339
 30
0.0
 40
1.9
 41
0.0
 71
     5
 72
     1
  1
%%c9
 11
-0.0000000000000028
 21
1.0
 31
0.0
1001
ACAD
1000
MTEXTBEGIN
1070
    73
1070
     1
1070
    44
1040
1.0
1070
    74
1070
     0
1000
MTEXTEND
  0
POINT
  5
2F85
330
228B
100
AcDbEntity
  8
DEFPOINTS
 62
     0
100
AcDbPoint
 10
-101.5
 20
-4.500000000000009
 30
0.0
  0
POINT
  5
2F86
330
228B
100
AcDbEntity
  8
DEFPOINTS
 62
     0
100
AcDbPoint
 10
-101.4999999999999
 20
4.500000000000013
 30
0.0
  0
POINT
  5
2F87
330
228B
100
AcDbEntity
  8
DEFPOINTS
 62
     0
100
AcDbPoint
 10
-111.0000009999999
 20
4.500000000000016
 30
0.0
  0
ENDBLK
  5
2298
330
228B
100
AcDbEntity
  8
0
100
AcDbBlockEnd
  0
BLOCK
  5
2BB7
330
2BA9
100
AcDbEntity
  8
0
100
AcDbBlockBegin
  2
*D8
 70
     1
 10
0.0
 20
0.0
 30
0.0
  3
*D8
  1

  0
LINE
  5
2FF3
330
2BA9
100
AcDbEntity
  8
AM_5
100
AcDbLine
 10
0.1710101364597399
 20
-0.4698462868088068
 30
0.0
 11
4.584937879512482
 21
-12.59700788815584
 31
0.0
  0
LINE
  5
2FF4
330
2BA9
100
AcDbEntity
  8
AM_5
100
AcDbLine
 10
0.1710111995358663
 20
0.4698458998792058
 30
0.0
 11
4.584966381553948
 21
12.59699751422015
 31
0.0
  0
ARC
  5
2FF5
330
2BA9
100
AcDbEntity
  8
AM_5
100
AcDbCircle
 10
-0.0000000000000016
 20
-0.0000000000000031
 30
0.0
 40
12.90545646717219
100
AcDbArc
 50
295.5517487548053
 51
64.44812160747662
  0
INSERT
  5
2FF6
330
2BA9
100
AcDbEntity
  8
AM_5
100
AcDbBlockReference
  2
_OPEN30
 10
4.41392774305274
 20
-12.12716160134703
 30
0.0
 41
1.25
 42
1.25
 43
1.25
 50
202.7758783282578
  0
INSERT
  5
2FF7
330
2BA9
100
AcDbEntity
  8
AM_5
100
AcDbBlockReference
  2
_OPEN30
 10
4.41395518201808
 20
12.12715161434094
 30
0.0
 41
1.25
 42
1.25
 43
1.25
 50
157.2239920340242
  0
MTEXT
  5
2FF8
330
2BA9
100
AcDbEntity
  8
AM_5
 62
     2
100
AcDbMText
 10
11.35545646716492
 20
-0.0000128464563639
 30
0.0
 40
1.6
 41
0.0
 71
     5
 72
     1
  1
140°
  7
ASAMI
 11
0.0000011313025075
 21
0.9999999999993601
 31
0.0
  0
POINT
  5
2FF9
330
2BA9
100
AcDbEntity
  8
DEFPOINTS
 62
     0
100
AcDbPoint
 10
11.84999437460812
 20
-5.111598570685321
 30
0.0
  0
POINT
  5
2FFA
330
2BA9
100
AcDbEntity
  8
DEFPOINTS
 62
     0
100
AcDbPoint
 10
-0.0000000000000016
 20
-0.0000000000000031
 30
0.0
  0
POINT
  5
2FFB
330
2BA9
100
AcDbEntity
  8
DEFPOINTS
 62
     0
100
AcDbPoint
 10
-0.0000000000000016
 20
-0.0000000000000031
 30
0.0
  0
POINT
  5
2FFC
330
2BA9
100
AcDbEntity
  8
DEFPOINTS
 62
     0
100
AcDbPoint
 10
-0.5059335634320963
 20
1.390040444804149
 30
0.0
  0
POINT
  5
2FFD
330
2BA9
100
AcDbEntity
  8
DEFPOINTS
 62
     0
100
AcDbPoint
 10
-0.5059401244912117
 20
-1.390048685242466
 30
0.0
  0
ENDBLK
  5
2BB8
330
2BA9
100
AcDbEntity
  8
0
100
AcDbBlockEnd
  0
BLOCK
  5
2D93
330
2D89
100
AcDbEntity
  8
0
100
AcDbBlockBegin
  2
*D9
 70
     1
 10
0.0
 20
0.0
 30
0.0
  3
*D9
  1

  0
LINE
  5
2F9C
330
2D89
100
AcDbEntity
  8
AM_5
 62
     3
100
AcDbLine
 10
-1.999998253225016
 20
4.250003035756543
 30
0.0
 11
9.05592102485804
 21
4.250003035756573
 31
0.0
  0
LINE
  5
2F9D
330
2D89
100
AcDbEntity
  8
AM_5
 62
     3
100
AcDbLine
 10
-1.999998253225056
 20
-4.249999469721901
 30
0.0
 11
9.055921024858065
 21
-4.249999469721871
 31
0.0
  0
LINE
  5
2F9E
330
2D89
100
AcDbEntity
  8
AM_5
 62
     3
100
AcDbLine
 10
8.555921024858044
 20
3.000003035756572
 30
0.0
 11
8.555921024858061
 21
-2.999999469721871
 31
0.0
  0
INSERT
  5
2F9F
330
2D89
100
AcDbEntity
  8
AM_5
 62
     3
100
AcDbBlockReference
  2
_OPEN30
 10
8.55592102485804
 20
4.250003035756572
 30
0.0
 41
1.25
 42
1.25
 43
1.25
 50
90.00000000000017
  0
INSERT
  5
2FA0
330
2D89
100
AcDbEntity
  8
AM_5
 62
     3
100
AcDbBlockReference
  2
_OPEN30
 10
8.555921024858065
 20
-4.249999469721871
 30
0.0
 41
1.25
 42
1.25
 43
1.25
 50
270.0000000000001
  0
MTEXT
  5
2FA1
330
2D89
100
AcDbEntity
  8
AM_5
 62
     2
100
AcDbMText
 10
6.855921024858052
 20
0.000001783017345
 30
0.0
 40
1.9
 41
0.0
 71
     5
 72
     1
  1
%%c8.5
 11
-0.0000000000000028
 21
1.0
 31
0.0
1001
ACAD
1000
MTEXTBEGIN
1070
    73
1070
     1
1070
    44
1040
1.0
1070
    74
1070
     0
1000
MTEXTEND
  0
POINT
  5
2FA2
330
2D89
100
AcDbEntity
  8
DEFPOINTS
 62
     0
100
AcDbPoint
 10
-1.999998253225003
 20
4.250003035756548
 30
0.0
  0
POINT
  5
2FA3
330
2D89
100
AcDbEntity
  8
DEFPOINTS
 62
     0
100
AcDbPoint
 10
-1.999998253225069
 20
-4.249999469721895
 30
0.0
  0
POINT
  5
2FA4
330
2D89
100
AcDbEntity
  8
DEFPOINTS
 62
     0
100
AcDbPoint
 10
8.555921024858051
 20
-4.249999469721898
 30
0.0
  0
ENDBLK
  5
2D94
330
2D89
100
AcDbEntity
  8
0
100
AcDbBlockEnd
  0
ENDSEC
  0
SECTION
  2
ENTITIES
  0
LINE
  5
C1D
330
1F
100
AcDbEntity
  8
AM_0
 48
0.5
100
AcDbLine
 10
-0.0000000000000016
 20
-0.0000000000000031
 30
0.0
 11
-0.5059335634320964
 21
1.390040444804149
 31
0.0
  0
LINE
  5
C20
330
1F
100
AcDbEntity
  8
AM_0
 48
0.5
100
AcDbLine
 10
-0.0000000000000016
 20
-0.0000000000000031
 30
0.0
 11
-0.5059401244912118
 21
-1.390048685242466
 31
0.0
  0
LINE
  5
C30
330
1F
100
AcDbEntity
  8
AM_0
 48
0.5
100
AcDbLine
 10
-101.9999999999999
 20
-4.000000000000016
 30
0.0
 11
-102.0
 21
3.999999999999987
 31
0.0
  0
LINE
  5
C9F
330
1F
100
AcDbEntity
  8
AM_7
100
AcDbLine
 10
-103.9999999999999
 20
-0.000000000000012
 30
0.0
 11
1.555920024858059
 21
0.0000000000000002
 31
0.0
1001
GENIUS_GENODEF_13
1002
{
1000
HIER
1070
     0
1002
}
1002
{
1000
MANEDIT
1070
     0
1002
}
1002
{
1000
NOSEL
1070
     0
1002
}
1002
{
1000
BEHIND
1070
     0
1002
}
1002
{
1000
REACTOR
1002
}
1001
GENIUS_GENOBJ-N-CEN_13
1002
{
1000
OWNER
1000
GEN
1002
}
  0
DIMENSION
  5
CC6
330
1F
100
AcDbEntity
  8
AM_5
100
AcDbDimension
  2
*D5
 10
-1.999998253225057
 20
-16.50000236965379
 30
0.0
 11
-51.99999912661252
 21
-14.80000236965379
 31
0.0
 70
    32
  1
<>
  3
AM_JIS$0
100
AcDbAlignedDimension
 13
-101.9999999999999
 23
-4.000000000000016
 33
0.0
 14
-1.999998253225056
 24
-4.2499994697219
 34
0.0
 50
0.0000000000001132
100
AcDbRotatedDimension
1001
GENIUS_GENDTOL_13
1000

1000
h7
1000

1040
0.0
1001
ACAD
1000
DSTYLE
1002
{
1070
   271
1070
     0
1002
}
  0
DIMENSION
  5
DF5
330
1F
100
AcDbEntity
  8
AM_5
100
AcDbDimension
  2
*D6
 10
-1.999998253225057
 20
-11.50000236965376
 30
0.0
 11
-24.49999912661253
 21
-9.800002369653768
 31
0.0
 70
    32
  1
<>
  3
AM_JIS$0
100
AcDbAlignedDimension
 13
-47.0
 23
-4.500001369653887
 33
0.0
 14
-1.999998253225056
 24
-4.2499994697219
 34
0.0
 50
0.0000000000001527
100
AcDbRotatedDimension
1001
GENIUS_GENDTOL_13
1000

1000
h7
1000

1040
0.0
1001
ACAD
1000
DSTYLE
1002
{
1070
   271
1070
     0
1002
}
  0
TEXT
  5
19BD
330
1F
100
AcDbEntity
  8
AM_6
100
AcDbText
 10
-63.24999999999997
 20
-27.75000236965382
 30
0.0
 40
2.5
  1
MDW085MHK
 50
0.0000000000001527
 72
     4
 11
-51.99999999999997
 21
-26.50000236965379
 31
0.0
100
AcDbText
  0
ARC
  5
1BE8
330
1F
100
AcDbEntity
  8
AM_11
 48
0.5
100
AcDbCircle
 10
-65.18578898111988
 20
17.66787048062784
 30
0.0
 40
19.53452809651666
100
AcDbArc
 50
244.7482808787518
 51
295.2516148471758
  0
ARC
  5
1BE9
330
1F
100
AcDbEntity
  8
AM_11
 48
0.5
100
AcDbCircle
 10
-65.18578898111991
 20
-17.66785848258815
 30
0.0
 40
19.53452809651666
100
AcDbArc
 50
64.74833051131179
 51
115.2516644797366
  0
LINE
  5
1CA9
330
1F
100
AcDbEntity
  8
AM_0
 48
0.5
100
AcDbLine
 10
-47.0
 20
-4.500000000000097
 30
0.0
 11
-47.0
 21
4.499999999999902
 31
0.0
  0
LINE
  5
1E12
330
1F
100
AcDbEntity
  8
AM_0
 48
0.5
100
AcDbLine
 10
-101.5
 20
4.499999999999989
 30
0.0
 11
-47.0
 21
4.499999999999902
 31
0.0
1001
GENIUS_GENODEF_13
1002
{
1000
HIER
1070
     0
1002
}
1002
{
1000
MANEDIT
1070
     0
1002
}
1002
{
1000
NOSEL
1070
     0
1002
}
1002
{
1000
BEHIND
1070
     0
1002
}
1002
{
1000
REACTOR
1002
}
1001
GENIUS_GENOBJ-N-CEN_13
1002
{
1000
OWNER
1000
GEN
1002
}
  0
LINE
  5
1E16
330
1F
100
AcDbEntity
  8
AM_0
 48
0.5
100
AcDbLine
 10
-101.4999999999999
 20
-4.500000000000009
 30
0.0
 11
-47.0
 21
-4.500000000000097
 31
0.0
1001
GENIUS_GENODEF_13
1002
{
1000
HIER
1070
     0
1002
}
1002
{
1000
MANEDIT
1070
     0
1002
}
1002
{
1000
NOSEL
1070
     0
1002
}
1002
{
1000
BEHIND
1070
     0
1002
}
1002
{
1000
REACTOR
1002
}
1001
GENIUS_GENOBJ-N-CEN_13
1002
{
1000
OWNER
1000
GEN
1002
}
  0
LINE
  5
1E22
330
1F
100
AcDbEntity
  8
AM_0
100
AcDbLine
 10
-101.5
 20
-4.5
 30
0.0
 11
-101.4999999999999
 21
4.500000000000013
 31
0.0
  0
LINE
  5
1E25
330
1F
100
AcDbEntity
  8
AM_0
100
AcDbLine
 10
-47.0
 20
-4.500001369653887
 30
0.0
 11
-46.56698337368289
 21
-4.249999103886122
 31
0.0
  0
LINE
  5
1E26
330
1F
100
AcDbEntity
  8
AM_0
100
AcDbLine
 10
-47.0
 20
4.499999999999944
 30
0.0
 11
-46.56698885022259
 21
4.250000896113865
 31
0.0
  0
ARC
  5
1F66
330
1F
100
AcDbEntity
  8
AM_11
 48
0.5
100
AcDbCircle
 10
-81.85241919041599
 20
17.66787048062778
 30
0.0
 40
19.53452809651666
100
AcDbArc
 50
244.7482808787518
 51
295.2516148471758
  0
ARC
  5
1F67
330
1F
100
AcDbEntity
  8
AM_11
 48
0.5
100
AcDbCircle
 10
-81.85241919041601
 20
-17.66785848258821
 30
0.0
 40
19.53452809651666
100
AcDbArc
 50
64.74833051131179
 51
115.2516644797366
  0
LINE
  5
220F
330
1F
100
AcDbEntity
  8
AM_0
100
AcDbLine
 10
-46.56698885022289
 20
-4.250002265767966
 30
0.0
 11
-46.5669888502226
 21
4.250003994739863
 31
0.0
  0
ELLIPSE
  5
222E
330
1F
100
AcDbEntity
  8
AM_11
 48
0.5
100
AcDbEllipse
 10
-15.18578898112439
 20
16.72558433296425
 30
0.0
 11
-19.53452809651665
 21
0.000000000000166
 31
0.0
210
0.0
220
0.0
230
1.0
 40
0.9466666666666663
 41
1.130070686340305
 42
2.011520147323594
  0
ELLIPSE
  5
222F
330
1F
100
AcDbEntity
  8
AM_11
 48
0.5
100
AcDbEllipse
 10
-15.18578898112476
 20
-16.72557241888021
 30
0.0
 11
-19.53452809651663
 21
0.0000000000000489
 31
0.0
210
0.0
220
0.0
230
1.0
 40
0.9466666666666668
 41
4.271664206181679
 42
5.153113667164986
  0
ELLIPSE
  5
2230
330
1F
100
AcDbEntity
  8
AM_11
 48
0.5
100
AcDbEllipse
 10
-48.51912231445306
 20
16.7255843329646
 30
0.0
 11
-19.53452809651663
 21
0.000000000000114
 31
0.0
210
0.0
220
0.0
230
1.0
 40
0.946666666666667
 41
1.130070686340299
 42
2.011520147323592
  0
ELLIPSE
  5
2231
330
1F
100
AcDbEntity
  8
AM_11
 48
0.5
100
AcDbEllipse
 10
-48.51912231445343
 20
-16.72557241887987
 30
0.0
 11
-19.53452809651663
 21
0.0000000000000055
 31
0.0
210
0.0
220
0.0
230
1.0
 40
0.946666666666667
 41
4.271664206181676
 42
5.153113667164983
  0
ELLIPSE
  5
2232
330
1F
100
AcDbEntity
  8
AM_11
 48
0.5
100
AcDbEllipse
 10
-31.85245564779143
 20
-16.72557241888004
 30
0.0
 11
-19.53452809651665
 21
0.0000000000000576
 31
0.0
210
0.0
220
0.0
230
1.0
 40
0.9466666666666657
 41
4.271664206181679
 42
5.153113667164985
  0
ELLIPSE
  5
2233
330
1F
100
AcDbEntity
  8
AM_11
 48
0.5
100
AcDbEllipse
 10
-31.85245564779106
 20
16.72558433296443
 30
0.0
 11
19.53452809651663
 21
0.0000000000000446
 31
0.0
210
0.0
220
0.0
230
1.0
 40
0.9466666666666672
 41
4.271663339930084
 42
5.153112800913377
  0
DIMENSION
  5
228A
330
1F
100
AcDbEntity
  8
AM_5
100
AcDbDimension
  2
*D7
 10
-111.0000009999999
 20
4.500000000000016
 30
0.0
 11
-111.0000009999999
 21
-0.0000000000000113
 31
0.0
 70
   160
  1
%%c<>
 51
359.9999999999998
  3
AM_JIS$0
100
AcDbAlignedDimension
 13
-101.5
 23
-4.500000000000009
 33
0.0
 14
-101.4999999999999
 24
4.500000000000013
 34
0.0
 50
270.0000000000002
100
AcDbRotatedDimension
1001
ACAD
1000
DSTYLE
1002
{
1070
   271
1070
     0
1002
}
1001
GENIUS_GENDTOL_13
1000

1000
h7
1000

1040
0.0
  0
LINE
  5
24F9
330
1F
100
AcDbEntity
  8
AM_0
 48
0.5
100
AcDbLine
 10
-101.5
 20
4.499999999999989
 30
0.0
 11
-102.0
 21
3.999999999999989
 31
0.0
1001
GENIUS_GENFIL_13
1070
     0
1040
0.5
1040
0.5
1040
20.0
1040
0.0
1002
{
1002
}
1001
GENIUS_GENODEF_13
1002
{
1000
HIER
1070
     0
1002
}
1002
{
1000
MANEDIT
1070
     0
1002
}
1002
{
1000
NOSEL
1070
     0
1002
}
1002
{
1000
BEHIND
1070
     0
1002
}
1002
{
1000
REACTOR
1002
}
1001
GENIUS_GENOBJ-N-CHA_13
1002
{
1000
OWNER
1000
GEN
1002
}
  0
LINE
  5
24FC
330
1F
100
AcDbEntity
  8
AM_0
 48
0.5
100
AcDbLine
 10
-101.9999999999999
 20
-4.000000000000008
 30
0.0
 11
-101.4999999999999
 21
-4.500000000000009
 31
0.0
1001
GENIUS_GENFIL_13
1070
     0
1040
0.5
1040
0.5
1040
20.0
1040
0.0
1002
{
1002
}
1001
GENIUS_GENODEF_13
1002
{
1000
HIER
1070
     0
1002
}
1002
{
1000
MANEDIT
1070
     0
1002
}
1002
{
1000
NOSEL
1070
     0
1002
}
1002
{
1000
BEHIND
1070
     0
1002
}
1002
{
1000
REACTOR
1002
}
1001
GENIUS_GENOBJ-N-CHA_13
1002
{
1000
OWNER
1000
GEN
1002
}
  0
ELLIPSE
  5
2541
330
1F
100
AcDbEntity
  8
AM_0
 48
0.5
100
AcDbEllipse
 10
6.103455813051644
 20
-5.995169608223523
 30
0.0
 11
-7.397222288058633
 21
3.406917701414937
 31
0.0
210
0.0
220
0.0
230
-1.0
 40
0.7639059874992274
 41
-0.1617760152509138
 42
0.2299315428291684
  0
LINE
  5
2542
330
1F
100
AcDbEntity
  8
AM_0
 48
0.5
100
AcDbLine
 10
-1.616377741131771
 20
-3.542915580519085
 30
0.0
 11
-1.999998253225069
 21
-4.249999469721895
 31
0.0
  0
ARC
  5
290C
330
1F
100
AcDbEntity
  8
AM_11
 48
0.5
100
AcDbCircle
 10
-98.51907483729785
 20
-17.66785848258827
 30
0.0
 40
19.53452809651666
100
AcDbArc
 50
64.74833051131179
 51
100.2645516450266
  0
ARC
  5
290D
330
1F
100
AcDbEntity
  8
AM_11
 48
0.5
100
AcDbCircle
 10
-98.51907483729782
 20
17.66787048062773
 30
0.0
 40
19.53452809651666
100
AcDbArc
 50
259.7354483549732
 51
295.2516148471758
  0
ELLIPSE
  5
2B8E
330
1F
100
AcDbEntity
  8
AM_0
 48
0.5
100
AcDbEllipse
 10
6.103455813051643
 20
5.995169608223525
 30
0.0
 11
-7.397222288058633
 21
-3.406917701414938
 31
0.0
210
0.0
220
0.0
230
1.0
 40
0.7639059874992274
 41
-0.1617760152509138
 42
0.2299315428291684
  0
LINE
  5
2B8F
330
1F
100
AcDbEntity
  8
AM_0
 48
0.5
100
AcDbLine
 10
-1.616377741131771
 20
3.542915580519085
 30
0.0
 11
-1.999998253225003
 21
4.250003035756548
 31
0.0
  0
DIMENSION
  5
2BA8
330
1F
100
AcDbEntity
  8
AM_5
100
AcDbDimension
  2
*D8
 10
-0.5059401244912117
 20
-1.390048685242466
 30
0.0
 11
11.35545646716492
 21
-0.0000128464563975
 31
0.0
 70
    34
  1
<>
 51
359.9999999999998
  3
AM_JIS$2
100
AcDb2LineAngularDimension
 13
-0.0000000000000016
 23
-0.0000000000000031
 33
0.0
 14
-0.5059335634320963
 24
1.390040444804149
 34
0.0
 15
-0.0000000000000016
 25
-0.0000000000000031
 35
0.0
 16
11.84999437460812
 26
-5.111598570685321
 36
0.0
1001
GENIUS_GENDTOL_13
1000

1000
h7
1000

1040
0.0
1001
ACAD
1000
DSTYLE
1002
{
1070
   271
1070
     1
1070
   179
1070
     1
1002
}
  0
DIMENSION
  5
2D88
330
1F
100
AcDbEntity
  8
AM_5
100
AcDbDimension
  2
*D9
 10
8.555921024858051
 20
-4.249999469721898
 30
0.0
 11
6.855921024858052
 21
0.000001783017325
 31
0.0
 70
    32
  1
%%c<>
 51
359.9999999999998
  3
AM_JIS$0
100
AcDbAlignedDimension
 13
-1.999998253225003
 23
4.250003035756548
 33
0.0
 14
-1.999998253225069
 24
-4.249999469721895
 34
0.0
 50
90.0
100
AcDbRotatedDimension
1001
ACAD
1000
DSTYLE
1002
{
1070
   271
1070
     1
1002
}
1001
GENIUS_GENDTOL_13
1000

1000
h7
1000

1040
0.0
  0
ELLIPSE
  5
2E9D
330
1F
100
AcDbEntity
  8
AM_11
 48
0.5
100
AcDbEllipse
 10
1.480877685542336
 20
16.92709739721667
 30
0.0
 11
19.53452809651624
 21
0.0000000000037185
 31
0.0
210
0.0
220
0.0
230
1.0
 40
0.9580722891566427
 41
4.271663339929894
 42
4.433393390970589
  0
LINE
  5
2F06
330
1F
100
AcDbEntity
  8
AM_0
100
AcDbLine
 10
-43.09937216590341
 20
-4.249999103886195
 30
0.0
 11
-46.56698337368288
 21
-4.249999103886122
 31
0.0
  0
LINE
  5
2F07
330
1F
100
AcDbEntity
  8
AM_0
100
AcDbLine
 10
-41.46328924286588
 20
4.250000896113752
 30
0.0
 11
-46.56698885022261
 21
4.250000896113864
 31
0.0
  0
LINE
  5
2F08
330
1F
100
AcDbEntity
  8
AM_0
 48
0.5
100
AcDbLine
 10
-4.539400129482588
 20
4.249981302241217
 30
0.0
 11
-1.999998253225003
 21
4.250003035756548
 31
0.0
  0
LINE
  5
2F09
330
1F
100
AcDbEntity
  8
AM_0
 48
0.5
100
AcDbLine
 10
-0.0000000000000052
 20
-0.0000000000000038
 30
0.0
 11
-2.389738150086978
 21
1.631871801670204
 31
0.0
  0
LINE
  5
2F0A
330
1F
100
AcDbEntity
  8
AM_0
 48
0.5
100
AcDbLine
 10
-4.896485833696624
 20
-4.250015995693833
 30
0.0
 11
-1.999998253225069
 21
-4.249999469721895
 31
0.0
  0
LINE
  5
2F0B
330
1F
100
AcDbEntity
  8
AM_0
 48
0.5
100
AcDbLine
 10
-33.03348220963675
 20
-4.250015995693584
 30
0.0
 11
-18.23519367165466
 21
-4.250015995693724
 31
0.0
  0
LINE
  5
2F0C
330
1F
100
AcDbEntity
  8
AM_11
 48
0.5
100
AcDbLine
 10
-41.71125556344263
 20
4.249984004306487
 30
0.0
 11
-33.20205027367833
 21
4.249984004306406
 31
0.0
  0
LINE
  5
2F0D
330
1F
100
AcDbEntity
  8
AM_0
 48
0.5
100
AcDbLine
 10
-35.03757012231508
 20
1.976205938352142
 30
0.0
 11
-44.49999825322503
 21
-0.3439550909599105
 31
0.0
  0
LINE
  5
2F0E
330
1F
100
AcDbEntity
  8
AM_0
100
AcDbLine
 10
-33.20205027367833
 20
4.249984004306406
 30
0.0
 11
-18.00586788794028
 21
4.249984004306526
 31
0.0
  0
LINE
  5
2F0F
330
1F
100
AcDbEntity
  8
AM_11
 48
0.5
100
AcDbLine
 10
-43.09961856989732
 20
-4.250015995693482
 30
0.0
 11
-33.03348220963675
 21
-4.250015995693584
 31
0.0
  0
LINE
  5
2F10
330
1F
100
AcDbEntity
  8
AM_11
 48
0.5
100
AcDbLine
 10
-18.23519367165466
 20
-4.250015995693724
 30
0.0
 11
-4.896485833696624
 21
-4.250015995693845
 31
0.0
  0
LINE
  5
2F11
330
1F
100
AcDbEntity
  8
AM_11
 48
0.5
100
AcDbLine
 10
-18.0056131621823
 20
4.249981302241825
 30
0.0
 11
-4.539400129482588
 21
4.249981302241217
 31
0.0
  0
SPLINE
  5
2F12
330
1F
100
AcDbEntity
  8
AM_0
100
AcDbSpline
210
0.0
220
0.0
230
1.0
 70
     8
 71
     3
 72
    11
 73
     7
 74
     0
 42
0.0000000001
 43
0.0000000001
 40
11.27226913003534
 40
11.27226913003534
 40
11.27226913003534
 40
11.2722691300354
 40
12.28301561507924
 40
13.29510212255852
 40
14.30984805882082
 40
15.18258238371378
 40
15.18258238371378
 40
15.18258238371378
 40
15.18258238371378
 10
-18.23519367165466
 20
-4.250015995693724
 30
0.0
 10
-18.47022874329983
 20
-4.229217962716271
 30
0.0
 10
-18.93985556575159
 20
-4.178860288464689
 30
0.0
 10
-19.64187073406914
 20
-4.07727640355804
 30
0.0
 10
-20.30809550725743
 20
-3.955945591275654
 30
0.0
 10
-20.73897058394602
 20
-3.86267498483754
 30
0.0
 10
-20.93753008844072
 20
-3.816601881484095
 30
0.0
  0
SPLINE
  5
2F13
330
1F
100
AcDbEntity
  8
AM_0
100
AcDbSpline
210
0.0
220
0.0
230
1.0
 70
     8
 71
     3
 72
    22
 73
    18
 74
     0
 42
0.0000000001
 43
0.0000000001
 40
17.17441611292
 40
17.17441611292
 40
17.17441611292
 40
17.17441611292
 40
17.38177636558528
 40
18.41823744757437
 40
19.46215659509824
 40
20.51397914882054
 40
21.57394542641293
 40
22.64209583141747
 40
23.71826625065247
 40
24.80210429862395
 40
25.8930771157021
 40
26.99048705697709
 40
28.09349309193389
 40
29.20112995599786
 40
30.31233024745139
 40
31.42594771747373
 40
32.5407895042663
 40
32.54078950426994
 40
32.54078950426994
 40
32.54078950426994
 10
-20.93783976328781
 20
-3.816549457766598
 30
0.0
 10
-20.98525488907734
 20
-3.806711124614114
 30
0.0
 10
-21.26948267327723
 20
-3.746784762026048
 30
0.0
 10
-21.79017195775954
 20
-3.626624605447205
 30
0.0
 10
-22.49794257807898
 20
-3.440921639298551
 30
0.0
 10
-23.20564107805792
 20
-3.234012574240648
 30
0.0
 10
-23.91327245400807
 20
-3.007188987961316
 30
0.0
 10
-24.62083577119762
 20
-2.761841644407372
 30
0.0
 10
-25.32833973891044
 20
-2.499497453471393
 30
0.0
 10
-26.03578763308888
 20
-2.221768698141474
 30
0.0
 10
-26.74318599930822
 20
-1.930368116433943
 30
0.0
 10
-27.45054270338977
 20
-1.627093465361725
 30
0.0
 10
-28.15786388476289
 20
-1.313809589925526
 30
0.0
 10
-28.86515666375896
 20
-0.9924438654656562
 30
0.0
 10
-29.57242730991276
 20
-0.6649723274224233
 30
0.0
 10
-30.27968630082391
 20
-0.3334156521865748
 30
0.0
 10
-30.75109974378452
 20
-0.1110476231281042
 30
0.0
 10
-30.9869359659316
 20
0.0001974684212608
 30
0.0
  0
SPLINE
  5
2F14
330
1F
100
AcDbEntity
  8
AM_0
100
AcDbSpline
210
0.0
220
0.0
230
1.0
 70
     8
 71
     3
 72
    17
 73
    13
 74
     0
 42
0.0000000001
 43
0.0000000001
 40
1.580019955310467
 40
1.580019955310467
 40
1.580019955310467
 40
1.580019955310467
 40
2.030549285115227
 40
3.082371838836284
 40
4.126290986361125
 40
5.162752068350215
 40
6.192395305374981
 40
7.216039564037012
 40
8.234688489606833
 40
9.249433870634691
 40
10.26152376260694
 40
11.27226744710342
 40
11.27226744710342
 40
11.27226744710342
 40
11.27226744710352
 10
-11.5653194136793
 20
-3.136643845767548
 30
0.0
 10
-11.66550319787407
 20
-3.168948479078652
 30
0.0
 10
-12.00015069504876
 20
-3.274831229656391
 30
0.0
 10
-12.57147696183227
 20
-3.440912112488109
 30
0.0
 10
-13.27914906210074
 20
-3.626900669123442
 30
0.0
 10
-13.98701598383581
 20
-3.790173927842604
 30
0.0
 10
-14.69491533978623
 20
-3.930183580346636
 30
0.0
 10
-15.40289182010266
 20
-4.045911189661744
 30
0.0
 10
-16.11091721248264
 20
-4.13669634935039
 30
0.0
 10
-16.81898669219121
 20
-4.201950741200715
 30
0.0
 10
-17.52708281423005
 20
-4.241254315114244
 30
0.0
 10
-17.9992614696253
 20
-4.250018722076954
 30
0.0
 10
-18.2351936716546
 20
-4.250015995693724
 30
0.0
  0
SPLINE
  5
2F15
330
1F
100
AcDbEntity
  8
AM_0
100
AcDbSpline
210
0.0
220
0.0
230
1.0
 70
     8
 71
     3
 72
    55
 73
    51
 74
     0
 42
0.0000000001
 43
0.0000000001
 40
0.0
 40
0.0
 40
0.0
 40
0.0
 40
1.010743684496582
 40
2.022833576467832
 40
3.037578957496688
 40
4.056212745003489
 40
5.079857003664532
 40
6.109500240690281
 40
7.145961322679372
 40
8.189895241603872
 40
9.241717795325891
 40
10.30168407291828
 40
11.36983447792315
 40
12.44600489715814
 40
13.52984294512926
 40
14.62081576220742
 40
15.7182257034828
 40
16.82123173843959
 40
17.92886860250316
 40
19.0400688939571
 40
20.15368796660465
 40
21.26852814259644
 40
22.38336992938901
 40
23.49698739941135
 40
24.6081876908653
 40
25.71582455492886
 40
26.81883757994213
 40
27.91624752121713
 40
29.00722033829659
 40
30.09105838626677
 40
31.16722880550176
 40
32.23537921050758
 40
33.29534548809967
 40
34.347168041821
 40
35.39108718934584
 40
36.42754827133493
 40
37.45720575381954
 40
38.48085062012849
 40
39.49948440763516
 40
40.51422944315121
 40
41.52631975251916
 40
42.53706336719636
 40
43.54780698187354
 40
44.55989729124051
 40
45.57464232675757
 40
46.59327611426424
 40
47.6169209805722
 40
48.64656348684535
 40
49.68302456883444
 40
50.58557219878025
 40
50.58557219878025
 40
50.58557219878025
 40
50.58557219878025
 10
-4.896485833696624
 20
-4.250015995693833
 30
0.0
 10
-5.132418038838558
 20
-4.24749005072134
 30
0.0
 10
-5.604596686750625
 20
-4.242429388746535
 30
0.0
 10
-6.312692823808592
 20
-4.201634771923521
 30
0.0
 10
-7.020758734912348
 20
-4.136781987917793
 30
0.0
 10
-7.728780823687735
 20
-4.0458883445967
 30
0.0
 10
-8.436752025188965
 20
-3.930185625093858
 30
0.0
 10
-9.144658372727075
 20
-3.790188340964423
 30
0.0
 10
-9.852502234217437
 20
-3.626839563813574
 30
0.0
 10
-10.56027733251545
 20
-3.441139563396165
 30
0.0
 10
-11.26797884638289
 20
-3.23422852644945
 30
0.0
 10
-11.97561030332048
 20
-3.007405212163711
 30
0.0
 10
-12.68317359850642
 20
-2.762057794772355
 30
0.0
 10
-13.39067757237732
 20
-2.499713624271116
 30
0.0
 10
-14.09812546414989
 20
-2.221984861796635
 30
0.0
 10
-14.80552383380304
 20
-1.930584288094985
 30
0.0
 10
-15.51288052648036
 20
-1.627309611997747
 30
0.0
 10
-16.22020175032188
 20
-1.314025829273101
 30
0.0
 10
-16.92749436996071
 20
-0.9926597570551999
 30
0.0
 10
-17.6347659537283
 20
-0.6651893653383549
 30
0.0
 10
-18.34202270506989
 20
-0.3336278075123226
 30
0.0
 10
-19.0492746115462
 20
-0.000019564912578
 30
0.0
 10
-19.75652334305324
 20
0.3335946828434231
 30
0.0
 10
-20.46378246496526
 20
0.6651510773790418
 30
0.0
 10
-21.17105317559665
 20
0.9926224603301012
 30
0.0
 10
-21.87834705633036
 20
1.313989756809491
 30
0.0
 10
-22.58567121447963
 20
1.627270865915327
 30
0.0
 10
-23.29302902355273
 20
1.930547080037159
 30
0.0
 10
-24.00042749533063
 20
2.221947417442965
 30
0.0
 10
-24.70787536136143
 20
2.499676238322761
 30
0.0
 10
-25.41537933704396
 20
2.762020409207768
 30
0.0
 10
-26.12294265025212
 20
3.007367767932873
 30
0.0
 10
-26.83057403415445
 20
3.234191313826094
 30
0.0
 10
-27.53827250658072
 20
3.441100523750977
 30
0.0
 10
-28.2460432281073
 20
3.626802956375082
 30
0.0
 10
-28.95388682702431
 20
3.790155018264353
 30
0.0
 10
-29.66179822925098
 20
3.930136312760559
 30
0.0
 10
-30.36977176968897
 20
4.045874844700997
 30
0.0
 10
-31.07779406835384
 20
4.136660745339826
 30
0.0
 10
-31.78586047144325
 20
4.201907356678035
 30
0.0
 10
-32.49395600812006
 20
4.241223263095688
 30
0.0
 10
-33.2020671047669
 20
4.254357406503785
 30
0.0
 10
-33.91017820037185
 20
4.241223263075147
 30
0.0
 10
-34.6182737401804
 20
4.201907356760778
 30
0.0
 10
-35.32634013173972
 20
4.136660745028649
 30
0.0
 10
-36.03436247363384
 20
4.045874845871161
 30
0.0
 10
-36.74233240005077
 20
3.930136872605551
 30
0.0
 10
-37.45024101337601
 20
3.79015644949778
 30
0.0
 10
-38.12590049999279
 20
3.63421810579702
 30
0.0
 10
-38.5642760695387
 20
3.520178920858485
 30
0.0
 10
-38.7676567834319
 20
3.464602062871454
 30
0.0
  0
SPLINE
  5
2F16
330
1F
100
AcDbEntity
  8
AM_0
 48
0.5
100
AcDbSpline
210
0.0
220
0.0
230
1.0
 70
     8
 71
     3
 72
    25
 73
    21
 74
     0
 42
0.0000000001
 43
0.0000000001
 40
6.846175049578289
 40
6.846175049578289
 40
6.846175049578289
 40
6.846175049578289
 40
7.604337694224321
 40
8.711974558287883
 40
9.814980593243754
 40
10.91239053451967
 40
12.0033633515982
 40
13.08720139956839
 40
14.16337181880432
 40
15.23152222380919
 40
16.29148850140128
 40
17.34331105512262
 40
18.38723020264746
 40
19.42369128463655
 40
20.45333379090873
 40
21.47697865721768
 40
22.49561244472435
 40
23.5103574802404
 40
24.52244778960836
 40
25.53320666051913
 40
25.53320666051913
 40
25.53320666051913
 40
25.53320666051913
 10
-5.372889300829741
 20
0.7692618284223557
 30
0.0
 10
-5.535288268507513
 20
0.8438842698251855
 30
0.0
 10
-5.935285601667857
 20
1.026779555335357
 30
0.0
 10
-6.573475738884829
 20
1.313990992733381
 30
0.0
 10
-7.287585204730498
 20
1.627274956694827
 30
0.0
 10
-8.00173058360502
 20
1.930549584194189
 30
0.0
 10
-8.71591801134811
 20
2.221950172270708
 30
0.0
 10
-9.43015544577017
 20
2.499678925517535
 30
0.0
 10
-10.14444949132404
 20
2.762023118454803
 30
0.0
 10
-10.85880345481493
 20
3.007370456129534
 30
0.0
 10
-11.57322613525111
 20
3.234194063704432
 30
0.0
 10
-12.28771656521895
 20
3.441103050295747
 30
0.0
 10
-13.00227987675334
 20
3.626806305993523
 30
0.0
 10
-13.71691354812747
 20
3.790154542301625
 30
0.0
 10
-14.431614787621
 20
3.930146551401626
 30
0.0
 10
-15.14637961825754
 20
4.045854401323726
 30
0.0
 10
-15.86119691858326
 20
4.136748528172716
 30
0.0
 10
-16.57605881058606
 20
4.201594364193152
 30
0.0
 10
-17.29095368990332
 20
4.242400380820209
 30
0.0
 10
-17.76766774625667
 20
4.247457239285116
 30
0.0
 10
-18.00586788794026
 20
4.249984004306529
 30
0.0
  0
SPLINE
  5
2F17
330
1F
100
AcDbEntity
  8
AM_0
100
AcDbSpline
210
0.0
220
0.0
230
1.0
 70
     8
 71
     3
 72
    23
 73
    19
 74
     0
 42
0.0000000001
 43
0.0000000001
 40
16.03460024169435
 40
16.03460024169435
 40
16.03460024169435
 40
16.03460024169435
 40
16.35212704903564
 40
17.38177054169784
 40
18.41822485651776
 40
19.46214173629503
 40
20.51396345435107
 40
21.57393551351153
 40
22.64208202342361
 40
23.7182574881101
 40
24.80209208578934
 40
25.89306333925047
 40
26.99048218457928
 40
28.09348763352352
 40
29.20111863782268
 40
30.31232390128032
 40
31.42594612798585
 40
32.5407912310448
 40
32.5407912310486
 40
32.5407912310486
 40
32.5407912310486
 10
-41.7112555635172
 20
4.24998400430649
 30
0.0
 10
-41.64155405472043
 20
4.236237840295673
 30
0.0
 10
-41.33321531845737
 20
4.173759597801788
 30
0.0
 10
-40.79007331394939
 20
4.051343017016904
 30
0.0
 10
-40.08670299624852
 20
3.869310900124475
 30
0.0
 10
-39.38398600198311
 20
3.664919174536293
 30
0.0
 10
-38.68188080704547
 20
3.439350755309487
 30
0.0
 10
-37.98036249247791
 20
3.193863191430976
 30
0.0
 10
-37.27939051220324
 20
2.929859793341258
 30
0.0
 10
-36.57891605319707
 20
2.648876994595712
 30
0.0
 10
-35.87889931198473
 20
2.352505984401325
 30
0.0
 10
-35.1792841656858
 20
2.042471276610382
 30
0.0
 10
-34.48001391831614
 20
1.720574926894577
 30
0.0
 10
-33.78104197949372
 20
1.388667704317148
 30
0.0
 10
-33.08230986708528
 20
1.048679603924563
 30
0.0
 10
-32.38375286369894
 20
0.7025959067884465
 30
0.0
 10
-31.68531408707552
 20
0.3524220742175026
 30
0.0
 10
-31.21981330293438
 20
0.1176496667859415
 30
0.0
 10
-30.98693596592846
 20
0.0001974684197466
 30
0.0
  0
SPLINE
  5
2F18
330
1F
100
AcDbEntity
  8
AM_0
100
AcDbSpline
210
0.0
220
0.0
230
1.0
 70
     8
 71
     3
 72
    46
 73
    42
 74
     0
 42
0.0000000001
 43
0.0000000001
 40
0.0
 40
0.0
 40
0.0
 40
0.0
 40
0.5056245176053715
 40
0.759310862862336
 40
1.013969309739036
 40
1.269880374404297
 40
1.527291183660732
 40
1.786406454158005
 40
2.047386241038974
 40
2.310345544571907
 40
2.575337113970003
 40
2.842374715221223
 40
3.111417320030211
 40
3.382376832022752
 40
3.655120036292296
 40
3.929472521611371
 40
4.205224030350333
 40
4.482133246366229
 40
4.759933319229942
 40
5.038338087391601
 40
5.317048131389549
 40
5.595758175387723
 40
5.874162943549383
 40
6.151963016412869
 40
6.428872232428759
 40
6.704623741167955
 40
6.978976226486705
 40
7.251719430756336
 40
7.522680721168327
 40
7.791723325977311
 40
8.058760927228529
 40
8.32375249662655
 40
8.586708135057122
 40
8.84768792193809
 40
9.106803192435362
 40
9.364213819003406
 40
9.620125035580644
 40
9.87478726697307
 40
10.12847352585208
 40
10.38149610319407
 40
10.63418200686337
 40
10.63418200686337
 40
10.63418200686337
 40
10.63418200686337
 10
-2.914297796891723
 20
-4.250018697758901
 30
0.0
 10
-3.386499514699999
 20
-4.240336869229992
 30
0.0
 10
-4.095618398990227
 20
-4.225797389204019
 30
0.0
 10
-5.038564702855227
 20
-4.136280481728766
 30
0.0
 10
-5.746594398593386
 20
-4.046023626440766
 30
0.0
 10
-6.454563574647506
 20
-3.930149155811441
 30
0.0
 10
-7.162470365984396
 20
-3.790197894647514
 30
0.0
 10
-7.870311135947977
 20
-3.626838929204699
 30
0.0
 10
-8.57808469901137
 20
-3.441136439443214
 30
0.0
 10
-9.285787905332178
 20
-3.234230666140073
 30
0.0
 10
-9.993422169439412
 20
-3.007404915630943
 30
0.0
 10
-10.70098558801211
 20
-2.762057875138631
 30
0.0
 10
-11.40848952843511
 20
-2.49971360247896
 30
0.0
 10
-12.11593742931893
 20
-2.221984867786002
 30
0.0
 10
-12.82333579630688
 20
-1.930584286132597
 30
0.0
 10
-13.53069249045597
 20
-1.6273096138182
 30
0.0
 10
-14.23801371107604
 20
-1.314025823932851
 30
0.0
 10
-14.9453063421872
 20
-0.9926597766970026
 30
0.0
 10
-15.6525778831076
 20
-0.6651892918239547
 30
0.0
 10
-16.35983479480901
 20
-0.333628082604076
 30
0.0
 10
-17.06708576118395
 20
-0.0000186978257716
 30
0.0
 10
-17.77433672740353
 20
0.3335906873579014
 30
0.0
 10
-18.48159363957101
 20
0.6651518953621931
 30
0.0
 10
-19.18886517878791
 20
0.9926223846777766
 30
0.0
 10
-19.89615781621561
 20
1.313988415437857
 30
0.0
 10
-20.6034790134146
 20
1.627272266413596
 30
0.0
 10
-21.3108357943
 20
1.930546712488828
 30
0.0
 10
-22.01823537830549
 20
2.221948764495361
 30
0.0
 10
-22.72568602799058
 20
2.499674975881975
 30
0.0
 10
-23.43319123049211
 20
2.762020593753228
 30
0.0
 10
-24.14075463259075
 20
3.007367707249354
 30
0.0
 10
-24.84838598981683
 20
3.234191373423676
 30
0.0
 10
-25.55608448085671
 20
3.441100347383863
 30
0.0
 10
-26.2638551548359
 20
3.626803595760345
 30
0.0
 10
-26.97169551513844
 20
3.790151873402011
 30
0.0
 10
-27.67960282546924
 20
3.930143725946618
 30
0.0
 10
-28.38757651983727
 20
4.045852726346066
 30
0.0
 10
-29.0956025672779
 20
4.136744973081211
 30
0.0
 10
-29.80367241994555
 20
4.201591805093691
 30
0.0
 10
-30.51176797502215
 20
4.242397430384538
 30
0.0
 10
-30.98394682067767
 20
4.247454467191344
 30
0.0
 10
-31.21987906778847
 20
4.249981302242349
 30
0.0
  0
SPLINE
  5
2F19
330
1F
100
AcDbEntity
  8
AM_0
 48
0.5
100
AcDbSpline
210
0.0
220
0.0
230
1.0
 70
     8
 71
     3
 72
    17
 73
    13
 74
     0
 42
0.0000000001
 43
0.0000000001
 40
0.0
 40
0.0
 40
0.0
 40
0.0
 40
1.010743614677189
 40
2.022833924044153
 40
3.037578959561199
 40
4.056212747067873
 40
5.079857613375832
 40
6.109500119648989
 40
7.14596120163808
 40
8.18989512056258
 40
9.241717674284874
 40
9.693948937866434
 40
9.693948937866434
 40
9.693948937866434
 40
9.693948937866434
 10
-4.53914541356185
 20
4.249984004306273
 30
0.0
 10
-4.777341957502321
 20
4.247457179534848
 30
0.0
 10
-5.254052413721005
 20
4.242400163300924
 30
0.0
 10
-5.96894370944198
 20
4.201594383421248
 30
0.0
 10
-6.683805573503287
 20
4.13674846357998
 30
0.0
 10
-7.398622979240291
 20
4.045854641875334
 30
0.0
 10
-8.113387413384874
 20
3.930145647163616
 30
0.0
 10
-8.828090145795966
 20
3.790157947754853
 30
0.0
 10
-9.542721583961771
 20
3.626792690765713
 30
0.0
 10
-10.25730945845065
 20
3.441149693179339
 30
0.0
 10
-10.83414342452976
 20
3.273913414436082
 30
0.0
 10
-11.17289414980965
 20
3.169366690592369
 30
0.0
 10
-11.27456894333759
 20
3.137365638290292
 30
0.0
  0
SPLINE
  5
2F1A
330
1F
100
AcDbEntity
  8
AM_0
 48
0.5
100
AcDbSpline
210
0.0
220
0.0
230
1.0
 70
     8
 71
     3
 72
    10
 73
     6
 74
     0
 42
0.0000000001
 43
0.0000000001
 40
0.0
 40
0.0
 40
0.0
 40
0.0
 40
2.69986029516136
 40
4.147722969032201
 40
6.285750005020438
 40
6.285750005020438
 40
6.285750005020438
 40
6.285750005020438
 10
-5.457445310769331
 20
0.7692282418967461
 30
0.0
 10
-4.451689271741262
 20
0.3743738730730795
 30
0.0
 10
-3.674263218616704
 20
-0.2322303049015218
 30
0.0
 10
-1.83575503649844
 20
0.0614374044646082
 30
0.0
 10
-2.181999603498792
 20
1.050549107631679
 30
0.0
 10
-2.410775890900669
 20
1.653443154532516
 30
0.0
  0
SPLINE
  5
2F1B
330
1F
100
AcDbEntity
  8
AM_0
 48
0.5
100
AcDbSpline
210
0.0
220
0.0
230
1.0
 70
     8
 71
     3
 72
    26
 73
    22
 74
     0
 42
0.0000000001
 43
0.0000000001
 40
0.0
 40
0.0
 40
0.0
 40
0.0
 40
0.2526859211241313
 40
0.5057083941171959
 40
0.7593947393741639
 40
1.01405318625086
 40
1.26996425091637
 40
1.527375060172565
 40
1.786490330669834
 40
2.047470117551047
 40
2.310425755981314
 40
2.575417325379407
 40
2.842456731169063
 40
3.111495753801943
 40
3.382458822635121
 40
3.655202026904655
 40
3.929554512223505
 40
4.205306020962704
 40
4.482215236978595
 40
4.76001530984208
 40
5.029821427366006
 40
5.029821427366006
 40
5.029821427366006
 40
5.029821427366006
 10
-31.07643231006008
 20
-4.25023735694143
 30
0.0
 10
-31.31236451523043
 20
-4.247708710014159
 30
0.0
 10
-31.78454316319953
 20
-4.24264804825986
 30
0.0
 10
-32.49263929983063
 20
-4.201853429779861
 30
0.0
 10
-33.20070521256304
 20
-4.137000652096762
 30
0.0
 10
-33.90872729521645
 20
-4.046106985009255
 30
0.0
 10
-34.61669851973874
 20
-3.930404354877693
 30
0.0
 10
-35.32460478059684
 20
-3.790406734243727
 30
0.0
 10
-36.03244560685201
 20
-3.627060001351765
 30
0.0
 10
-36.74021617104558
 20
-3.441356241989414
 30
0.0
 10
-37.4479147999393
 20
-3.234447716955859
 30
0.0
 10
-38.15554731791937
 20
-3.007622242120962
 30
0.0
 10
-38.86311079278783
 20
-2.762280391678158
 30
0.0
 10
-39.5706132414379
 20
-2.499927153376457
 30
0.0
 10
-40.27806412366514
 20
-2.2222064023783
 30
0.0
 10
-40.98546496800496
 20
-1.930802864328842
 30
0.0
 10
-41.69282104775898
 20
-1.627526962706542
 30
0.0
 10
-42.40014535268932
 20
-1.314249844346755
 30
0.0
 10
-43.10742619347677
 20
-0.9928581929698459
 30
0.0
 10
-43.80744172337643
 20
-0.6688627210332175
 30
0.0
 10
-44.27122834925847
 20
-0.4512002902915588
 30
0.0
 10
-44.49999825322507
 20
-0.3439550909599063
 30
0.0
  0
SPLINE
  5
2F1C
330
1F
100
AcDbEntity
  8
AM_0
 48
0.5
100
AcDbSpline
210
0.0
220
0.0
230
1.0
 70
     8
 71
     3
 72
    22
 73
    18
 74
     0
 42
0.0000000001
 43
0.0000000001
 40
0.0
 40
0.0
 40
0.0
 40
0.0
 40
1.010743684496582
 40
2.022833993863546
 40
3.037578683882831
 40
4.056212471389632
 40
5.079857945358201
 40
6.109499720892564
 40
7.145961650132166
 40
8.189873411961459
 40
9.241710626092514
 40
10.30166235592959
 40
11.36982472628033
 40
12.44598212828784
 40
13.52983440361964
 40
14.62080578343036
 40
14.90544694398022
 40
14.90544694398022
 40
14.90544694398022
 40
14.90544694398022
 10
-33.03348220963655
 20
-4.250015995693585
 30
0.0
 10
-33.29455259708959
 20
-4.247709465342302
 30
0.0
 10
-33.76673143265726
 20
-4.24265031420661
 30
0.0
 10
-34.47482682776347
 20
-4.201844333573526
 30
0.0
 10
-35.1828935050694
 20
-4.137002467764888
 30
0.0
 10
-35.89091597032491
 20
-4.046108740652997
 30
0.0
 10
-36.5988852435481
 20
-3.930395226589809
 30
0.0
 10
-37.30679393899164
 20
-3.790409710427782
 30
0.0
 10
-38.01463168328051
 20
-3.627057041683463
 30
0.0
 10
-38.7224033437541
 20
-3.441350593711376
 30
0.0
 10
-39.43010254588697
 20
-3.234449886526776
 30
0.0
 10
-40.13773298804557
 20
-3.007614141139574
 30
0.0
 10
-40.84529923184621
 20
-2.762286817108253
 30
0.0
 10
-41.55280074582365
 20
-2.499926374988657
 30
0.0
 10
-42.26025078418533
 20
-2.22220416958168
 30
0.0
 10
-42.79194892775485
 20
-2.003190162187023
 30
0.0
 10
-43.08822968768746
 20
-1.87800879557611
 30
0.0
 10
-43.04545873657717
 20
-1.896197138781612
 30
0.0
  0
SPLINE
  5
2F1D
330
1F
100
AcDbEntity
  8
AM_0
100
AcDbSpline
210
0.0
220
0.0
230
1.0
 70
     8
 71
     3
 72
    13
 73
     9
 74
     0
 42
0.0000000001
 43
0.0000000001
 40
16.03460056234195
 40
16.03460056234195
 40
16.03460056234195
 40
16.03460056234195
 40
16.35212717791071
 40
17.38177067057215
 40
18.41822498539278
 40
19.46214186516937
 40
20.5139635832251
 40
21.34083983469381
 40
21.34083983469381
 40
21.34083983469381
 40
21.34083983469381
 10
-43.09961856989745
 20
-4.250015995693489
 30
0.0
 10
-42.89914765334259
 20
-4.236277046673155
 30
0.0
 10
-42.59080866193555
 20
-4.173800518380829
 30
0.0
 10
-42.0476669535026
 20
-4.05138250835366
 30
0.0
 10
-41.34429654728578
 20
-3.869350896192727
 30
0.0
 10
-40.64157957699225
 20
-3.664959033914803
 30
0.0
 10
-39.99133520717527
 20
-3.456052205954954
 30
0.0
 10
-39.57649074997339
 20
-3.312204987777276
 30
0.0
 10
-39.39450097293614
 20
-3.247184734424875
 30
0.0
  0
ELLIPSE
  5
2F1E
330
1F
100
AcDbEntity
  8
AM_0
 48
0.5
100
AcDbEllipse
 10
-43.09961813026712
 20
-2.833570690274235
 30
0.0
 11
0.0099740053279705
 21
1.416410994576948
 31
0.0
210
0.0
220
0.0
230
0.9999999999999998
 40
0.9887177597344226
 41
1.58900704520461
 42
3.148714317684926
  0
ELLIPSE
  5
2F1F
330
1F
100
AcDbEntity
  8
AM_0
 48
0.5
100
AcDbEllipse
 10
-43.44999173741063
 20
-2.876733671943286
 30
0.0
 11
-0.0000000000018148
 21
1.062499999999998
 31
0.0
210
0.0
220
0.0
230
1.0
 40
0.9885661374128815
 41
-0.3953601559033404
 42
1.545164924682944
  0
ELLIPSE
  5
2F20
330
1F
100
AcDbEntity
  8
AM_0
 48
0.5
100
AcDbEllipse
 10
-8.771835545868109
 20
11.55905943400548
 30
0.0
 11
0.0181316508520615
 21
14.55002508891158
 31
0.0
210
0.0
220
0.0
230
0.9999999999999998
 40
0.9926553154528839
 41
3.688369960106336
 42
3.795549086524841
  0
ELLIPSE
  5
2F21
330
1F
100
AcDbEntity
  8
AM_0
 48
0.5
100
AcDbEllipse
 10
1.908137783126974
 20
-2.223770825556884
 30
0.0
 11
-0.0000000000001013
 21
4.866789027104506
 31
0.0
210
0.0
220
0.0
230
1.0
 40
0.9397058823529343
 41
1.48510242726119
 42
2.000210031613655
  0
ELLIPSE
  5
2F22
330
1F
100
AcDbEntity
  8
AM_0
 48
0.5
100
AcDbEllipse
 10
-1.573346145597199
 20
-1.107610283239873
 30
0.0
 11
-0.1215180384311164
 21
0.6976723070104621
 31
0.0
210
0.0
220
0.0
230
1.0
 40
0.4965399983172486
 41
1.807525792064867
 42
4.942867681776842
  0
ELLIPSE
  5
2F23
330
1F
100
AcDbEntity
  8
AM_0
 48
0.5
100
AcDbEllipse
 10
-1.573346145597199
 20
-1.107610283239873
 30
0.0
 11
-0.6081666710341627
 21
0.3554783359983384
 31
0.0
210
0.0
220
0.0
230
1.0
 40
0.5018312673568236
 41
4.488123616458351
 42
7.631563957787861
  0
ELLIPSE
  5
2F24
330
1F
100
AcDbEntity
  8
AM_0
 48
0.5
100
AcDbEllipse
 10
2.376710884127291
 20
5.102387370721451
 30
0.0
 11
-12.28063648483946
 21
11.22698235752773
 31
0.0
210
0.0
220
0.0
230
1.0
 40
0.5111044928174096
 41
1.404602915802835
 42
1.628120924702283
  0
ELLIPSE
  5
2F25
330
1F
100
AcDbEntity
  8
AM_0
 48
0.5
100
AcDbEllipse
 10
-7.619270570722035
 20
7.133041642165135
 30
0.0
 11
0.0000000001710754
 21
10.2472002903625
 31
0.0
210
0.0
220
0.0
230
1.0
 40
0.9926470588236384
 41
3.652175978834875
 42
3.740670756514347
  0
VIEWPORT
  5
110
330
101
100
AcDbEntity
 67
     1
  8
0
100
AcDbViewport
 10
420.5
 20
297.0
 30
0.0
 40
948.9782706766916
 41
628.452
 68
     1
 69
     1
1001
ACAD
1000
MVIEW
1002
{
1070
    16
1010
0.0
1020
0.0
1030
0.0
1010
0.0
1020
0.0
1030
1.0
1040
0.0
1040
628.452
1040
420.5
1040
297.0
1040
50.0
1040
0.0
1040
0.0
1070
     0
1070
   100
1070
     1
1070
     1
1070
     0
1070
     0
1070
     0
1070
     0
1040
0.0
1040
0.0
1040
0.0
1040
10.0
1040
10.0
1040
10.0
1040
10.0
1070
     0
1002
{
1002
}
1002
}
  0
ENDSEC
  0
SECTION
  2
OBJECTS
  0
DICTIONARY
  5
C
330
0
100
AcDbDictionary
  3
ACAD_GROUP
350
D
  3
ACAD_LAYOUT
350
1A
  3
ACAD_MLINESTYLE
350
17
  3
ACAD_PLOTSETTINGS
350
19
  3
ACAD_PLOTSTYLENAME
350
E
  3
ACDBVARIABLEDICTIONARY
350
34
  3
ACMDICTIONARY
350
43
  3
AMG
350
2B
  3
AMGSNAPSETTINGS
350
6E
  3
DWGPROPS
350
2FBD
  3
ACDBHEADERROUNDTRIPXREC
350
2FC9
  0
DICTIONARY
  5
74
330
1F
100
AcDbDictionary
280
     1
  3
ACAD_INDEX
360
2FBF
  3
ACAD_LAYOUTSELFREF
360
2FEC
  0
DICTIONARY
  5
2FF1
330
101
100
AcDbDictionary
280
     1
  3
ACAD_LAYOUTSELFREF
360
2FF2
  0
DICTIONARY
  5
D
102
{ACAD_REACTORS
330
C
102
}
330
C
100
AcDbDictionary
  0
DICTIONARY
  5
1A
102
{ACAD_REACTORS
330
C
102
}
330
C
100
AcDbDictionary
  0
DICTIONARY
  5
17
102
{ACAD_REACTORS
330
C
102
}
330
C
100
AcDbDictionary
  3
STANDARD
350
18
  0
DICTIONARY
  5
19
102
{ACAD_REACTORS
330
C
102
}
330
C
100
AcDbDictionary
  0
ACDBDICTIONARYWDFLT
  5
E
102
{ACAD_REACTORS
330
C
102
}
330
C
100
AcDbDictionary
281
     1
  3
Normal
350
F
100
AcDbDictionaryWithDefault
340
F
  0
DICTIONARY
  5
34
102
{ACAD_REACTORS
330
C
102
}
330
C
100
AcDbDictionary
  3
INDEXCTL
350
35
  3
SORTENTS
350
B5E
  0
DICTIONARY
  5
43
102
{ACAD_REACTORS
330
C
102
}
330
C
100
AcDbDictionary
  3
ACMSTDDICTIONARY
350
260
  0
DICTIONARY
  5
2B
102
{ACAD_REACTORS
330
C
102
}
330
C
100
AcDbDictionary
  3
ACMGSETTINGS
350
2C
  0
DICTIONARY
  5
6E
102
{ACAD_REACTORS
330
C
102
}
330
C
100
AcDbDictionary
  0
XRECORD
  5
2FBD
102
{ACAD_REACTORS
330
C
102
}
330
C
100
AcDbXrecord
  1
DWGPROPS COOKIE
  2

  3

  4

  6

  7

  8

  9

300
AmdtFileType=82
301
=
302
=
303
=
304
=
305
=
306
=
307
=
308
=
309
=
 40
0.0515888888888889
 41
2452800.443498622
 42
2452946.614459815
  1

 90
        1
  0
DICTIONARY
  5
2FC9
102
{ACAD_REACTORS
330
C
102
}
330
C
100
AcDbDictionary
  3
TSTACKALIGN
350
2FCA
  3
TSTACKSIZE
350
2FCB
  3
HYPERLINKBASE
350
2FCC
  3
STYLESHEET
350
2FCD
  3
LAYOUTDICT
350
2FCE
  3
PLOTSETDICT
350
2FCF
  3
PLOTSTYLNAMDICT
350
2FD0
  3
LWETCUNION
350
2FD1
  3
INSUNITS
350
2FD2
  3
CEPSNTYPE
350
2FD3
  3
FINGERPRINTGUID
350
2FD4
  3
VERSIONGUID
350
2FD5
  3
PSVPSCALE
350
2FD6
  3
DIMSTYLEDATA
350
2FD7
  3
PUCSORTHOREF
350
2FD8
  3
PUCSORTHOVIEW
350
2FD9
  3
PUCSBASE
350
2FDA
  3
PUCSORGTOP
350
2FDB
  3
PUCSORGBOTTOM
350
2FDC
  3
PUCSORGLEFT
350
2FDD
  3
PUCSORGRIGHT
350
2FDE
  3
PUCSORGFRONT
350
2FDF
  3
PUCSORGBACK
350
2FE0
  3
UCSORTHOREF
350
2FE1
  3
UCSORTHOVIEW
350
2FE2
  3
UCSBASE
350
2FE3
  3
UCSORGTOP
350
2FE4
  3
UCSORGBOTTOM
350
2FE5
  3
UCSORGLEFT
350
2FE6
  3
UCSORGRIGHT
350
2FE7
  3
UCSORGFRONT
350
2FE8
  3
UCSORGBACK
350
2FE9
  0
DICTIONARY
  5
2FBF
102
{ACAD_REACTORS
330
74
102
}
330
74
100
AcDbDictionary
  3
*A1
350
2FC0
  0
XRECORD
  5
2FEC
102
{ACAD_REACTORS
330
74
102
}
330
74
100
AcDbXrecord
340
1F
  0
XRECORD
  5
2FF2
102
{ACAD_REACTORS
330
2FF1
102
}
330
2FF1
100
AcDbXrecord
340
101
  0
MLINESTYLE
  5
18
102
{ACAD_REACTORS
330
17
102
}
330
17
100
AcDbMlineStyle
  2
STANDARD
 70
     0
  3

 62
   256
 51
90.0
 52
90.0
 71
     2
 49
0.5
 62
   256
  6
BYLAYER
 49
-0.5
 62
   256
  6
BYLAYER
  0
ACDBPLACEHOLDER
  5
F
102
{ACAD_REACTORS
330
E
102
}
330
E
100
AcDbPlaceHolder
280
     0
  0
DICTIONARYVAR
  5
35
102
{ACAD_REACTORS
330
34
102
}
330
34
100
DictionaryVariables
280
     0
  1
1
  0
DICTIONARYVAR
  5
B5E
102
{ACAD_REACTORS
330
34
102
}
330
34
100
DictionaryVariables
280
     0
  1
96
  0
DICTIONARY
  5
260
102
{ACAD_REACTORS
330
43
102
}
330
43
100
AcDbDictionary
  0
DICTIONARY
  5
2C
102
{ACAD_REACTORS
330
2B
102
}
330
2B
100
AcDbDictionary
  3
DWGSETTINGS
350
2D
  0
XRECORD
  5
2FCA
102
{ACAD_REACTORS
330
2FC9
102
}
330
2FC9
100
AcDbXrecord
 90
        1
  0
XRECORD
  5
2FCB
102
{ACAD_REACTORS
330
2FC9
102
}
330
2FC9
100
AcDbXrecord
 90
       70
  0
XRECORD
  5
2FCC
102
{ACAD_REACTORS
330
2FC9
102
}
330
2FC9
100
AcDbXrecord
  1

  0
XRECORD
  5
2FCD
102
{ACAD_REACTORS
330
2FC9
102
}
330
2FC9
100
AcDbXrecord
  1
ASAMI.ctb
  0
XRECORD
  5
2FCE
102
{ACAD_REACTORS
330
2FC9
102
}
330
2FC9
100
AcDbXrecord
340
1A
  0
XRECORD
  5
2FCF
102
{ACAD_REACTORS
330
2FC9
102
}
330
2FC9
100
AcDbXrecord
340
19
  0
XRECORD
  5
2FD0
102
{ACAD_REACTORS
330
2FC9
102
}
330
2FC9
100
AcDbXrecord
340
E
  0
XRECORD
  5
2FD1
102
{ACAD_REACTORS
330
2FC9
102
}
330
2FC9
100
AcDbXrecord
 90
    10781
  0
XRECORD
  5
2FD2
102
{ACAD_REACTORS
330
2FC9
102
}
330
2FC9
100
AcDbXrecord
 90
        4
  0
XRECORD
  5
2FD3
102
{ACAD_REACTORS
330
2FC9
102
}
330
2FC9
100
AcDbXrecord
 90
        0
  0
XRECORD
  5
2FD4
102
{ACAD_REACTORS
330
2FC9
102
}
330
2FC9
100
AcDbXrecord
  1
{AFB28963-8C59-40AE-9337-C84526B81ACE}
  0
XRECORD
  5
2FD5
102
{ACAD_REACTORS
330
2FC9
102
}
330
2FC9
100
AcDbXrecord
  1
{DAB841BF-FDC5-4843-9282-238FA68E5469}
  0
XRECORD
  5
2FD6
102
{ACAD_REACTORS
330
2FC9
102
}
330
2FC9
100
AcDbXrecord
 40
0.0
  0
XRECORD
  5
2FD7
102
{ACAD_REACTORS
330
2FC9
102
}
330
2FC9
100
AcDbXrecord
1000
DSTYLE
1002
{
1070
    79
 70
     2
1070
   341
340
59
1070
   342
340
59
1070
   371
 70
    -1
1070
   372
 70
    -1
1002
}
  0
XRECORD
  5
2FD8
102
{ACAD_REACTORS
330
2FC9
102
}
330
2FC9
100
AcDbXrecord
340
0
  0
XRECORD
  5
2FD9
102
{ACAD_REACTORS
330
2FC9
102
}
330
2FC9
100
AcDbXrecord
 70
     0
  0
XRECORD
  5
2FDA
102
{ACAD_REACTORS
330
2FC9
102
}
330
2FC9
100
AcDbXrecord
340
0
  0
XRECORD
  5
2FDB
102
{ACAD_REACTORS
330
2FC9
102
}
330
2FC9
100
AcDbXrecord
 10
0.0
 20
0.0
 30
0.0
  0
XRECORD
  5
2FDC
102
{ACAD_REACTORS
330
2FC9
102
}
330
2FC9
100
AcDbXrecord
 10
0.0
 20
0.0
 30
0.0
  0
XRECORD
  5
2FDD
102
{ACAD_REACTORS
330
2FC9
102
}
330
2FC9
100
AcDbXrecord
 10
0.0
 20
0.0
 30
0.0
  0
XRECORD
  5
2FDE
102
{ACAD_REACTORS
330
2FC9
102
}
330
2FC9
100
AcDbXrecord
 10
0.0
 20
0.0
 30
0.0
  0
XRECORD
  5
2FDF
102
{ACAD_REACTORS
330
2FC9
102
}
330
2FC9
100
AcDbXrecord
 10
0.0
 20
0.0
 30
0.0
  0
XRECORD
  5
2FE0
102
{ACAD_REACTORS
330
2FC9
102
}
330
2FC9
100
AcDbXrecord
 10
0.0
 20
0.0
 30
0.0
  0
XRECORD
  5
2FE1
102
{ACAD_REACTORS
330
2FC9
102
}
330
2FC9
100
AcDbXrecord
340
0
  0
XRECORD
  5
2FE2
102
{ACAD_REACTORS
330
2FC9
102
}
330
2FC9
100
AcDbXrecord
 70
     0
  0
XRECORD
  5
2FE3
102
{ACAD_REACTORS
330
2FC9
102
}
330
2FC9
100
AcDbXrecord
340
0
  0
XRECORD
  5
2FE4
102
{ACAD_REACTORS
330
2FC9
102
}
330
2FC9
100
AcDbXrecord
 10
0.0
 20
0.0
 30
0.0
  0
XRECORD
  5
2FE5
102
{ACAD_REACTORS
330
2FC9
102
}
330
2FC9
100
AcDbXrecord
 10
0.0
 20
0.0
 30
0.0
  0
XRECORD
  5
2FE6
102
{ACAD_REACTORS
330
2FC9
102
}
330
2FC9
100
AcDbXrecord
 10
0.0
 20
0.0
 30
0.0
  0
XRECORD
  5
2FE7
102
{ACAD_REACTORS
330
2FC9
102
}
330
2FC9
100
AcDbXrecord
 10
0.0
 20
0.0
 30
0.0
  0
XRECORD
  5
2FE8
102
{ACAD_REACTORS
330
2FC9
102
}
330
2FC9
100
AcDbXrecord
 10
0.0
 20
0.0
 30
0.0
  0
XRECORD
  5
2FE9
102
{ACAD_REACTORS
330
2FC9
102
}
330
2FC9
100
AcDbXrecord
 10
0.0
 20
0.0
 30
0.0
  0
LAYER_INDEX
  5
2FC0
102
{ACAD_REACTORS
330
2FBF
102
}
330
2FBF
100
AcDbIndex
 40
2453151.57112647
100
AcDbLayerIndex
  8
0
360
2FC1
 90
        0
  8
AM_0
360
2FC2
 90
       44
  8
AM_7
360
2FC3
 90
        1
  8
AM_11
360
2FC4
 90
       17
  8
AM_5
360
2FC5
 90
        5
  8
Defpoints
360
2FC6
 90
        0
  8
AM_6
360
2FC7
 90
        1
  0
XRECORD
  5
2D
102
{ACAD_REACTORS
330
2C
102
}
330
2C
100
AcDbXrecord
  1
VERSION
140
15.0
  1
PRODUCT
  2
AutoCAD Mechanical 2000
  0
IDBUFFER
  5
2FC1
330
0
100
AcDbIdBuffer
  0
IDBUFFER
  5
2FC2
330
0
100
AcDbIdBuffer
330
2F06
330
2F07
330
2F08
330
2F09
330
2F0A
330
2F0B
330
2F0D
330
2F0E
330
2F12
330
2F13
330
2F14
330
2F15
330
2F16
330
2F17
330
2F18
330
2F19
330
2F1A
330
2F1B
330
2F1C
330
2F1D
330
2F1E
330
2F1F
330
2F20
330
2F21
330
2F22
330
2F23
330
2F24
330
2F25
330
C1D
330
C20
330
C30
330
1CA9
330
1E12
330
1E16
330
1E22
330
1E25
330
1E26
330
220F
330
24F9
330
24FC
330
2541
330
2542
330
2B8E
330
2B8F
  0
IDBUFFER
  5
2FC3
330
0
100
AcDbIdBuffer
330
C9F
  0
IDBUFFER
  5
2FC4
330
0
100
AcDbIdBuffer
330
2F11
330
1BE8
330
1BE9
330
1F66
330
1F67
330
222E
330
222F
330
2230
330
2231
330
2232
330
2233
330
290C
330
290D
330
2E9D
330
2F0C
330
2F0F
330
2F10
  0
IDBUFFER
  5
2FC5
330
0
100
AcDbIdBuffer
330
CC6
330
DF5
330
228A
330
2BA8
330
2D88
  0
IDBUFFER
  5
2FC6
330
0
100
AcDbIdBuffer
  0
IDBUFFER
  5
2FC7
330
0
100
AcDbIdBuffer
330
19BD
  0
ENDSEC
  0
EOF
