  0
SECTION
  2
HEADER
  9
$ACADVER
  1
AC1014
  9
$ACADMAINTVER
 70
     9
  9
$DWGCODEPAGE
  3
ANSI_932
  9
$INSBASE
 10
0.0
 20
0.0
 30
0.0
  9
$EXTMIN
 10
-132.3316223813938
 20
-49.01904765806868
 30
-0.00000001
  9
$EXTMAX
 10
23.02731417062179
 20
28.91519898865146
 30
0.00000001
  9
$LIMMIN
 10
-154.8554385228486
 20
-69.93343714456329
  9
$LIMMAX
 10
42.67617035355215
 20
47.4111146144636
  9
$ORTHOMODE
 70
     0
  9
$REGENMODE
 70
     1
  9
$FILLMODE
 70
     1
  9
$QTEXTMODE
 70
     0
  9
$MIRRTEXT
 70
     0
  9
$DRAGMODE
 70
     2
  9
$LTSCALE
 40
0.5
  9
$OSMODE
 70
    55
  9
$ATTMODE
 70
     1
  9
$TEXTSIZE
 40
2.5
  9
$TRACEWID
 40
1.0
  9
$TEXTSTYLE
  7
STANDARD
  9
$CLAYER
  8
AM_0
  9
$CELTYPE
  6
BYLAYER
  9
$CECOLOR
 62
   256
  9
$CELTSCALE
 40
1.0
  9
$DELOBJ
 70
     1
  9
$DISPSILH
 70
     0
  9
$DIMSCALE
 40
0.5
  9
$DIMASZ
 40
2.5
  9
$DIMEXO
 40
1.0
  9
$DIMDLI
 40
12.0
  9
$DIMRND
 40
0.0
  9
$DIMDLE
 40
0.0
  9
$DIMEXE
 40
1.0
  9
$DIMTP
 40
0.1
  9
$DIMTM
 40
0.1
  9
$DIMTXT
 40
3.2
  9
$DIMCEN
 40
0.0
  9
$DIMTSZ
 40
0.0
  9
$DIMTOL
 70
     0
  9
$DIMLIM
 70
     0
  9
$DIMTIH
 70
     0
  9
$DIMTOH
 70
     0
  9
$DIMSE1
 70
     0
  9
$DIMSE2
 70
     0
  9
$DIMTAD
 70
     3
  9
$DIMZIN
 70
     8
  9
$DIMBLK
  1
OPEN30
  9
$DIMASO
 70
     1
  9
$DIMSHO
 70
     1
  9
$DIMPOST
  1

  9
$DIMAPOST
  1
"
  9
$DIMALT
 70
     0
  9
$DIMALTD
 70
     2
  9
$DIMALTF
 40
0.0393701
  9
$DIMLFAC
 40
1.0
  9
$DIMTOFL
 70
     1
  9
$DIMTVP
 40
0.0
  9
$DIMTIX
 70
     0
  9
$DIMSOXD
 70
     0
  9
$DIMSAH
 70
     0
  9
$DIMBLK1
  1

  9
$DIMBLK2
  1

  9
$DIMSTYLE
  2
AM_JIS
  9
$DIMCLRD
 70
   256
  9
$DIMCLRE
 70
   256
  9
$DIMCLRT
 70
     2
  9
$DIMTFAC
 40
0.71
  9
$DIMGAP
 40
1.5
  9
$DIMJUST
 70
     0
  9
$DIMSD1
 70
     0
  9
$DIMSD2
 70
     0
  9
$DIMTOLJ
 70
     0
  9
$DIMTZIN
 70
     0
  9
$DIMALTZ
 70
     0
  9
$DIMALTTZ
 70
     0
  9
$DIMFIT
 70
     3
  9
$DIMUPT
 70
     0
  9
$DIMUNIT
 70
     2
  9
$DIMDEC
 70
     3
  9
$DIMTDEC
 70
     3
  9
$DIMALTU
 70
     2
  9
$DIMALTTD
 70
     2
  9
$DIMTXSTY
  7
ASAMI
  9
$DIMAUNIT
 70
     0
  9
$LUNITS
 70
     2
  9
$LUPREC
 70
     2
  9
$SKETCHINC
 40
1.0
  9
$FILLETRAD
 40
2.5
  9
$AUNITS
 70
     0
  9
$AUPREC
 70
     0
  9
$MENU
  1
.
  9
$ELEVATION
 40
0.0
  9
$PELEVATION
 40
0.0
  9
$THICKNESS
 40
0.0
  9
$LIMCHECK
 70
     0
  9
$BLIPMODE
 70
     0
  9
$CHAMFERA
 40
2.5
  9
$CHAMFERB
 40
2.5
  9
$CHAMFERC
 40
20.0
  9
$CHAMFERD
 40
0.0
  9
$SKPOLY
 70
     0
  9
$TDCREATE
 40
2452800.443498622
  9
$TDUPDATE
 40
2453151.589842835
  9
$TDINDWG
 40
0.2976746759
  9
$TDUSRTIMER
 40
0.2976746759
  9
$USRTIMER
 70
     1
  9
$ANGBASE
 50
0.0
  9
$ANGDIR
 70
     0
  9
$PDMODE
 70
     0
  9
$PDSIZE
 40
0.0
  9
$PLINEWID
 40
0.0
  9
$COORDS
 70
     1
  9
$SPLFRAME
 70
     0
  9
$SPLINETYPE
 70
     6
  9
$SPLINESEGS
 70
     8
  9
$ATTDIA
 70
     1
  9
$ATTREQ
 70
     1
  9
$HANDLING
 70
 12289
  9
$HANDSEED
  5
418E
  9
$SURFTAB1
 70
     6
  9
$SURFTAB2
 70
     6
  9
$SURFTYPE
 70
     6
  9
$SURFU
 70
     6
  9
$SURFV
 70
     6
  9
$UCSNAME
  2

  9
$UCSORG
 10
0.0000000000000031
 20
-0.0000000000000078
 30
0.0
  9
$UCSXDIR
 10
1.0
 20
0.0000000000000027
 30
0.0
  9
$UCSYDIR
 10
-0.0000000000000027
 20
1.0
 30
0.0
  9
$PUCSNAME
  2

  9
$PUCSORG
 10
0.0
 20
0.0
 30
0.0
  9
$PUCSXDIR
 10
1.0
 20
0.0
 30
0.0
  9
$PUCSYDIR
 10
0.0
 20
1.0
 30
0.0
  9
$USERI1
 70
     0
  9
$USERI2
 70
     0
  9
$USERI3
 70
     0
  9
$USERI4
 70
     0
  9
$USERI5
 70
     0
  9
$USERR1
 40
0.0
  9
$USERR2
 40
0.0
  9
$USERR3
 40
0.0
  9
$USERR4
 40
0.0
  9
$USERR5
 40
0.0
  9
$WORLDVIEW
 70
     1
  9
$SHADEDGE
 70
     3
  9
$SHADEDIF
 70
    70
  9
$TILEMODE
 70
     1
  9
$MAXACTVP
 70
    64
  9
$PINSBASE
 10
0.0
 20
0.0
 30
0.0
  9
$PLIMCHECK
 70
     0
  9
$PEXTMIN
 10
1.000000000000000E+20
 20
1.000000000000000E+20
 30
1.000000000000000E+20
  9
$PEXTMAX
 10
-1.000000000000000E+20
 20
-1.000000000000000E+20
 30
-1.000000000000000E+20
  9
$PLIMMIN
 10
0.0
 20
0.0
  9
$PLIMMAX
 10
841.0
 20
594.0
  9
$UNITMODE
 70
     0
  9
$VISRETAIN
 70
     1
  9
$PLINEGEN
 70
     0
  9
$PSLTSCALE
 70
     0
  9
$TREEDEPTH
 70
  3020
  9
$PICKSTYLE
 70
     0
  9
$CMLSTYLE
  2
STANDARD
  9
$CMLJUST
 70
     0
  9
$CMLSCALE
 40
20.0
  9
$PROXYGRAPHICS
 70
     1
  9
$MEASUREMENT
 70
     1
  0
ENDSEC
  0
SECTION
  2
CLASSES
  0
CLASS
  1
ACDBDICTIONARYWDFLT
  2
AcDbDictionaryWithDefault
  3
AutoCAD 2000
 90
        0
280
     0
281
     0
  0
CLASS
  1
ACDBPLACEHOLDER
  2
AcDbPlaceHolder
  3
AutoCAD 2000
 90
        0
280
     0
281
     0
  0
CLASS
  1
LAYOUT
  2
AcDbLayout
  3
AutoCAD 2000
 90
        0
280
     0
281
     0
  0
CLASS
  1
AMGSETTINGSOBJ
  2
AmgSettingsObj
  3
"AcadM|Product Description: AutoCAD Mechanical 2000|Company: Autodesk"
 90
        0
280
     0
281
     0
  0
CLASS
  1
ACME_DOCUMENT
  2
AcMeDbDoc
  3
AcMeServices
 90
        0
280
     0
281
     0
  0
CLASS
  1
ACMESCOPE
  2
AcMeScope
  3
AcMeServices
 90
        0
280
     0
281
     0
  0
CLASS
  1
ACMECOMMANDHISTORY
  2
AcMeCommandHistory
  3
AcMeServices
 90
        0
280
     0
281
     0
  0
CLASS
  1
DICTIONARYVAR
  2
AcDbDictionaryVar
  3
AutoCAD 2000
 90
        0
280
     0
281
     0
  0
CLASS
  1
ACIMSYSVARMAN
  2
AcImSysVarManager
  3
AcMeServices
 90
        0
280
     0
281
     0
  0
CLASS
  1
ACIMREALSYSVAR
  2
AcImRealSysVar
  3
AcMeServices
 90
        0
280
     0
281
     0
  0
CLASS
  1
ACIMINTSYSVAR
  2
AcImIntSysVar
  3
AcMeServices
 90
        0
280
     0
281
     0
  0
CLASS
  1
ACMEDRAWINGMAN
  2
AcMeDrawingMan
  3
AcMeServices
 90
        0
280
     0
281
     0
  0
CLASS
  1
ACMEVIEW
  2
AcMeView
  3
AcMeServices
 90
        0
280
     0
281
     0
  0
CLASS
  1
ACDBENTITYCACHE
  2
AcMeEntityCache
  3
AcMeServices
 90
        0
280
     0
281
     0
  0
CLASS
  1
GSMANAGER
  2
AcMeGSManager
  3
AcMeServices
 90
        0
280
     0
281
     0
  0
CLASS
  1
AmdtInternalReactor
  2
AmdtInternalReactor
  3
AcMeServices
 90
        0
280
     0
281
     0
  0
CLASS
  1
ACMESTATEMGR
  2
AcMeStateMgr
  3
AcMeServices
 90
        0
280
     0
281
     0
  0
CLASS
  1
ACME_DATABASE
  2
AcMeDbDatabase
  3
AcMeServices
 90
        0
280
     0
281
     0
  0
CLASS
  1
ACRFINSADJUSTERMGR
  2
AcRfInsAdjusterMgr
  3
AcMeServices
 90
        0
280
     0
281
     0
  0
CLASS
  1
ACMDATADICTIONARY
  2
AcmDataDictionary
  3
"AcmSymBB|Product Description: AutoCAD Mechanical 2000|Company: Autodesk"
 90
        0
280
     0
281
     0
  0
CLASS
  1
ACMDATAENTRYBLOCK
  2
AcmDataEntryBlock
  3
"AcmSymBB|Product Description: AutoCAD Mechanical 2000|Company: Autodesk"
 90
        0
280
     0
281
     0
  0
CLASS
  1
AMGOBJPROPCFG
  2
AmgObjPropCfg
  3
"AmgLay|Product Description: AutoCAD Mechanical 2000|Company: Autodesk"
 90
        1
280
     0
281
     0
  0
CLASS
  1
ACAMGFILTERDAT
  2
AcAmgFilterDat
  3
"AcadM|Product Description: AutoCAD Mechanical 2000|Company: Autodesk"
 90
        0
280
     0
281
     0
  0
CLASS
  1
LAYER_INDEX
  2
AcDbLayerIndex
  3
AutoCAD 2000
 90
        0
280
     0
281
     0
  0
CLASS
  1
IDBUFFER
  2
AcDbIdBuffer
  3
AutoCAD 2000
 90
        0
280
     0
281
     0
  0
CLASS
  1
ACIMSTRSYSVAR
  2
AcImStrSysVar
  3
AcMeServices
 90
        0
280
     0
281
     0
  0
CLASS
  1
ACMSTANDARDJIS
  2
AcmStandardJIS
  3
"AcmSymBB|Product Description: AutoCAD Mechanical 2000|Company: Autodesk"
 90
        0
280
     0
281
     0
  0
CLASS
  1
ACMSURFSTANDARDJIS
  2
AcmSurfTextStdJIS
  3
"AcmSymBB|Product Description: AutoCAD Mechanical 2000|Company: Autodesk"
 90
        0
280
     0
281
     0
  0
CLASS
  1
ACMFCFSTANDARDJIS
  2
AcmFCFStdJIS
  3
"AcmSymBB|Product Description: AutoCAD Mechanical 2000|Company: Autodesk"
 90
        0
280
     0
281
     0
  0
CLASS
  1
ACMWELDSTANDARDJIS
  2
AcmWeldingStdJIS
  3
"AcmSymBB|Product Description: AutoCAD Mechanical 2000|Company: Autodesk"
 90
        0
280
     0
281
     0
  0
CLASS
  1
ACMIDSTANDARDJIS
  2
AcmIdStdJIS
  3
"AcmSymBB|Product Description: AutoCAD Mechanical 2000|Company: Autodesk"
 90
        0
280
     0
281
     0
  0
CLASS
  1
ACMDATUMSTANDARDJIS
  2
AcmDatumStdJIS
  3
"AcmSymBB|Product Description: AutoCAD Mechanical 2000|Company: Autodesk"
 90
        0
280
     0
281
     0
  0
CLASS
  1
ACMBOMSTANDARDJIS
  2
AcmBOMStdJIS
  3
"AcmSymBB|Product Description: AutoCAD Mechanical 2000|Company: Autodesk"
 90
        0
280
     0
281
     0
  0
CLASS
  1
ACMSTANDARDANSI
  2
AcmStandardANSI
  3
"AcmSymBB|Product Description: AutoCAD Mechanical 2000|Company: Autodesk"
 90
        0
280
     0
281
     0
  0
CLASS
  1
ACMSURFSTANDARDANSI
  2
AcmSurfTextStdANSI
  3
"AcmSymBB|Product Description: AutoCAD Mechanical 2000|Company: Autodesk"
 90
        0
280
     0
281
     0
  0
CLASS
  1
ACMFCFSTANDARDANSI
  2
AcmFCFStdANSI
  3
"AcmSymBB|Product Description: AutoCAD Mechanical 2000|Company: Autodesk"
 90
        0
280
     0
281
     0
  0
CLASS
  1
ACMWELDSTANDARDANSI
  2
AcmWeldingStdANSI
  3
"AcmSymBB|Product Description: AutoCAD Mechanical 2000|Company: Autodesk"
 90
        0
280
     0
281
     0
  0
CLASS
  1
ACMIDSTANDARDANSI
  2
AcmIdStdANSI
  3
"AcmSymBB|Product Description: AutoCAD Mechanical 2000|Company: Autodesk"
 90
        0
280
     0
281
     0
  0
CLASS
  1
ACMDATUMSTANDARDANSI
  2
AcmDatumStdANSI
  3
"AcmSymBB|Product Description: AutoCAD Mechanical 2000|Company: Autodesk"
 90
        0
280
     0
281
     0
  0
CLASS
  1
ACMBOMSTANDARDANSI
  2
AcmBOMStdANSI
  3
"AcmSymBB|Product Description: AutoCAD Mechanical 2000|Company: Autodesk"
 90
        0
280
     0
281
     0
  0
CLASS
  1
ACMSTANDARDBSI
  2
AcmStandardBSI
  3
"AcmSymBB|Product Description: AutoCAD Mechanical 2000|Company: Autodesk"
 90
        0
280
     0
281
     0
  0
CLASS
  1
ACMSURFSTANDARDBSI
  2
AcmSurfTextStdBSI
  3
"AcmSymBB|Product Description: AutoCAD Mechanical 2000|Company: Autodesk"
 90
        0
280
     0
281
     0
  0
CLASS
  1
ACMFCFSTANDARDBSI
  2
AcmFCFStdBSI
  3
"AcmSymBB|Product Description: AutoCAD Mechanical 2000|Company: Autodesk"
 90
        0
280
     0
281
     0
  0
CLASS
  1
ACMWELDSTANDARDBSI
  2
AcmWeldingStdBSI
  3
"AcmSymBB|Product Description: AutoCAD Mechanical 2000|Company: Autodesk"
 90
        0
280
     0
281
     0
  0
CLASS
  1
ACMIDSTANDARDBSI
  2
AcmIdStdBSI
  3
"AcmSymBB|Product Description: AutoCAD Mechanical 2000|Company: Autodesk"
 90
        0
280
     0
281
     0
  0
CLASS
  1
ACMDATUMSTANDARDBSI
  2
AcmDatumStdBSI
  3
"AcmSymBB|Product Description: AutoCAD Mechanical 2000|Company: Autodesk"
 90
        0
280
     0
281
     0
  0
CLASS
  1
ACMBOMSTANDARDBSI
  2
AcmBOMStdBSI
  3
"AcmSymBB|Product Description: AutoCAD Mechanical 2000|Company: Autodesk"
 90
        0
280
     0
281
     0
  0
CLASS
  1
LONG_TRANSACTION
  2
AcDbLongTransaction
  3
AutoCAD 2000
 90
        0
280
     0
281
     0
  0
CLASS
  1
LWPOLYLINE
  2
AcDbPolyline
  3
AutoCAD 2000
 90
        0
280
     0
281
     1
  0
CLASS
  1
HATCH
  2
AcDbHatch
  3
AutoCAD 2000
 90
        0
280
     0
281
     1
  0
CLASS
  1
XRECORD
  2
AcDbXrecord
  3
AutoCAD 2000
 90
        0
280
     0
281
     0
  0
ENDSEC
  0
SECTION
  2
TABLES
  0
TABLE
  2
VPORT
  5
8
330
0
100
AcDbSymbolTable
 70
     3
  0
VPORT
  5
4163
330
8
100
AcDbSymbolTableRecord
100
AcDbViewportTableRecord
  2
*ACTIVE
 70
     0
 10
0.0
 20
0.0
 11
1.0
 21
1.0
 12
-53.28023017526797
 22
-12.01427827063248
 13
0.0
 23
0.0
 14
2.5
 24
2.5
 15
10.0
 25
10.0
 16
0.0
 26
0.0
 36
1.0
 17
0.0
 27
0.0
 37
0.0
 40
135.6597497925344
 41
1.56570841889117
 42
50.0
 43
0.0
 44
0.0
 50
0.0
 51
0.0
 71
     0
 72
   100
 73
     1
 74
     1
 75
     0
 76
     0
 77
     0
 78
     0
  0
ENDTAB
  0
TABLE
  2
LTYPE
  5
5
330
0
100
AcDbSymbolTable
 70
    10
  0
LTYPE
  5
14
330
5
100
AcDbSymbolTableRecord
100
AcDbLinetypeTableRecord
  2
BYBLOCK
 70
     0
  3

 72
    65
 73
     0
 40
0.0
  0
LTYPE
  5
15
330
5
100
AcDbSymbolTableRecord
100
AcDbLinetypeTableRecord
  2
BYLAYER
 70
     0
  3

 72
    65
 73
     0
 40
0.0
  0
LTYPE
  5
16
330
5
100
AcDbSymbolTableRecord
100
AcDbLinetypeTableRecord
  2
CONTINUOUS
 70
     0
  3
Solid line
 72
    65
 73
     0
 40
0.0
  0
LTYPE
  5
4B
330
5
100
AcDbSymbolTableRecord
100
AcDbLinetypeTableRecord
  2
AM_ISO02W050
 70
     0
  3
__ __ __ __ __ __ __ __ __ __ __ __ __ __ __
 72
    65
 73
     2
 40
7.5
 49
6.0
 74
     0
 49
-1.5
 74
     0
  0
LTYPE
  5
4C
330
5
100
AcDbSymbolTableRecord
100
AcDbLinetypeTableRecord
  2
AM_ISO08W050
 70
     0
  3
____ . ____ . ____ . ____ . ____ . ____ . ____
 72
    65
 73
     4
 40
18.0
 49
12.0
 74
     0
 49
-1.5
 74
     0
 49
3.0
 74
     0
 49
-1.5
 74
     0
  0
LTYPE
  5
4D
330
5
100
AcDbSymbolTableRecord
100
AcDbLinetypeTableRecord
  2
AM_ISO09W050
 70
     0
  3
_____ . . _____ . . _____ . . ____ .. ____
 72
    65
 73
     6
 40
22.5
 49
12.0
 74
     0
 49
-1.5
 74
     0
 49
3.0
 74
     0
 49
-1.5
 74
     0
 49
3.0
 74
     0
 49
-1.5
 74
     0
  0
LTYPE
  5
4E
330
5
100
AcDbSymbolTableRecord
100
AcDbLinetypeTableRecord
  2
AMCONSTR
 70
     0
  3
_______________________
 72
    65
 73
     2
 40
9999.0
 49
9999.0
 74
     0
 49
0.0
 74
     0
  0
LTYPE
  5
4F
330
5
100
AcDbSymbolTableRecord
100
AcDbLinetypeTableRecord
  2
AM_ISO02W050X2
 70
     0
  3
 _ _ _ _ _ _ _ _ _ _ _ _
 72
    65
 73
     2
 40
3.75
 49
3.0
 74
     0
 49
-0.75
 74
     0
  0
LTYPE
  5
50
330
5
100
AcDbSymbolTableRecord
100
AcDbLinetypeTableRecord
  2
AM_ISO08W050X2
 70
     0
  3
__ . __ . __ . __ . __ . __
 72
    65
 73
     4
 40
9.0
 49
6.0
 74
     0
 49
-0.75
 74
     0
 49
1.5
 74
     0
 49
-0.75
 74
     0
  0
LTYPE
  5
53
330
5
100
AcDbSymbolTableRecord
100
AcDbLinetypeTableRecord
  2
AMZIGZAG
 70
     0
  3
/\/-/\/-/\/-/\/-/\/-/\/
 72
    65
 73
     2
 40
11.00009999999999
 49
0.0001
 74
     4
 75
   135
340
52
 46
0.04
 50
0.0
 44
0.0
 45
0.0
 49
-11.0
 74
     0
  0
LTYPE
  5
166
330
5
100
AcDbSymbolTableRecord
100
AcDbLinetypeTableRecord
  2
ACJISTGL
 70
     0
  3
_ _ _ _ _
 72
    65
 73
     2
 40
3.0
 49
2.0
 74
     0
 49
-1.0
 74
     0
  0
LTYPE
  5
26A
330
5
100
AcDbSymbolTableRecord
100
AcDbLinetypeTableRecord
  2
ACJISTGB
 70
     0
  3
__ . . __ . .
 72
    65
 73
     6
 40
9.0
 49
4.0
 74
     0
 49
-1.0
 74
     0
 49
1.0
 74
     0
 49
-1.0
 74
     0
 49
1.0
 74
     0
 49
-1.0
 74
     0
  0
ENDTAB
  0
TABLE
  2
LAYER
  5
2
330
0
100
AcDbSymbolTable
 70
    10
  0
LAYER
  5
10
330
2
100
AcDbSymbolTableRecord
100
AcDbLayerTableRecord
  2
0
 70
     0
 62
     7
  6
CONTINUOUS
  0
LAYER
  5
3F9
330
2
100
AcDbSymbolTableRecord
100
AcDbLayerTableRecord
  2
AM_0
 70
     0
 62
     7
  6
CONTINUOUS
  0
LAYER
  5
BA4
330
2
100
AcDbSymbolTableRecord
100
AcDbLayerTableRecord
  2
PV0001_1
 70
     0
 62
     7
  6
CONTINUOUS
  0
LAYER
  5
C6C
330
2
100
AcDbSymbolTableRecord
100
AcDbLayerTableRecord
  2
AM_CL
 70
     0
 62
     1
  6
AMCONSTR
  0
LAYER
  5
C7C
330
2
100
AcDbSymbolTableRecord
100
AcDbLayerTableRecord
  2
AM_7
 70
     0
 62
     4
  6
AM_ISO08W050
  0
LAYER
  5
C97
330
2
100
AcDbSymbolTableRecord
100
AcDbLayerTableRecord
  2
AM_11
 70
     0
 62
     3
  6
AM_ISO09W050
  0
LAYER
  5
CC5
330
2
100
AcDbSymbolTableRecord
100
AcDbLayerTableRecord
  2
AM_5
 70
     0
 62
     3
  6
CONTINUOUS
  0
LAYER
  5
CC7
330
2
100
AcDbSymbolTableRecord
100
AcDbLayerTableRecord
  2
DEFPOINTS
 70
     0
 62
     7
  6
CONTINUOUS
  0
LAYER
  5
19BC
330
2
100
AcDbSymbolTableRecord
100
AcDbLayerTableRecord
  2
AM_6
 70
     0
 62
     2
  6
CONTINUOUS
  0
LAYER
  5
1F8E
330
2
100
AcDbSymbolTableRecord
100
AcDbLayerTableRecord
  2
AM_4
 70
     0
 62
     3
  6
CONTINUOUS
  0
ENDTAB
  0
TABLE
  2
STYLE
  5
3
330
0
100
AcDbSymbolTable
 70
     5
  0
STYLE
  5
11
330
3
100
AcDbSymbolTableRecord
100
AcDbTextStyleTableRecord
  2
STANDARD
 70
     0
 40
0.0
 41
1.0
 50
0.0
 71
     0
 42
2.5
  3
simplex.shx
  4
EXTFONT.SHX
  0
STYLE
  5
52
330
3
100
AcDbSymbolTableRecord
100
AcDbTextStyleTableRecord
  2

 70
     1
 40
0.0
 41
1.0
 50
0.0
 71
     0
 42
2.5
  3
ltypeshp.shx
  4

  0
STYLE
  5
6B
330
3
100
AcDbSymbolTableRecord
100
AcDbTextStyleTableRecord
  2
ASAMI
 70
     0
 40
0.0
 41
1.0
 50
0.0
 71
     0
 42
2.5
  3
simplex.shx
  4
EXTFONT.SHX
  0
STYLE
  5
262
330
3
100
AcDbSymbolTableRecord
100
AcDbTextStyleTableRecord
  2
ACJISTS
 70
     0
 40
1.0
 41
1.0
 50
0.0
 71
     0
 42
2.5
  3
simplex.shx
  4
bigfont.shx
  0
STYLE
  5
269
330
3
100
AcDbSymbolTableRecord
100
AcDbTextStyleTableRecord
  2
ACJISGDT
 70
     0
 40
0.0
 41
1.0
 50
0.0
 71
     0
 42
2.5
  3
amgdtans.shx
  4

  0
ENDTAB
  0
TABLE
  2
VIEW
  5
6
330
0
100
AcDbSymbolTable
 70
     0
  0
ENDTAB
  0
TABLE
  2
UCS
  5
7
330
0
100
AcDbSymbolTable
 70
     0
  0
ENDTAB
  0
TABLE
  2
APPID
  5
9
330
0
100
AcDbSymbolTable
 70
    16
  0
APPID
  5
12
330
9
100
AcDbSymbolTableRecord
100
AcDbRegAppTableRecord
  2
ACAD
 70
     0
  0
APPID
  5
30
330
9
100
AcDbSymbolTableRecord
100
AcDbRegAppTableRecord
  2
MCAD_NO_VIS
 70
     0
  0
APPID
  5
31
330
9
100
AcDbSymbolTableRecord
100
AcDbRegAppTableRecord
  2
ACAD_TEMP_GRAPHIC
 70
     0
  0
APPID
  5
2C2
330
9
100
AcDbSymbolTableRecord
100
AcDbRegAppTableRecord
  2
GENIUS_GENDTOL_13
 70
     0
  0
APPID
  5
339
330
9
100
AcDbSymbolTableRecord
100
AcDbRegAppTableRecord
  2
GENIUS_GENODEF_13
 70
     0
  0
APPID
  5
33A
330
9
100
AcDbSymbolTableRecord
100
AcDbRegAppTableRecord
  2
GENIUS_GENOBJ-N-RSBK_13
 70
     0
  0
APPID
  5
33B
330
9
100
AcDbSymbolTableRecord
100
AcDbRegAppTableRecord
  2
GENIUS_GENOBJ-N-LIB_13
 70
     0
  0
APPID
  5
33C
330
9
100
AcDbSymbolTableRecord
100
AcDbRegAppTableRecord
  2
GENIUS_GENSCALE_13
 70
     0
  0
APPID
  5
378
330
9
100
AcDbSymbolTableRecord
100
AcDbRegAppTableRecord
  2
GENIUS_GENDIMSH_14
 70
     0
  0
APPID
  5
C82
330
9
100
AcDbSymbolTableRecord
100
AcDbRegAppTableRecord
  2
GENIUS_GENOBJ-N-CRS_13
 70
     0
  0
APPID
  5
C83
330
9
100
AcDbSymbolTableRecord
100
AcDbRegAppTableRecord
  2
GENIUS_GENOENT_13
 70
     0
  0
APPID
  5
C84
330
9
100
AcDbSymbolTableRecord
100
AcDbRegAppTableRecord
  2
GENIUS_GENOREF_13
 70
     0
  0
APPID
  5
C85
330
9
100
AcDbSymbolTableRecord
100
AcDbRegAppTableRecord
  2
GENIUS_GENOLIS_13
 70
     0
  0
APPID
  5
CA0
330
9
100
AcDbSymbolTableRecord
100
AcDbRegAppTableRecord
  2
GENIUS_GENOBJ-N-CEN_13
 70
     0
  0
APPID
  5
31AE
330
9
100
AcDbSymbolTableRecord
100
AcDbRegAppTableRecord
  2
GENIUS_GENFIL_13
 70
     0
  0
APPID
  5
31AF
330
9
100
AcDbSymbolTableRecord
100
AcDbRegAppTableRecord
  2
GENIUS_GENOBJ-N-CHA_13
 70
     0
  0
ENDTAB
  0
TABLE
  2
DIMSTYLE
  5
A
330
0
100
AcDbSymbolTable
 70
    10
  0
DIMSTYLE
105
58
330
A
100
AcDbSymbolTableRecord
100
AcDbDimStyleTableRecord
  2
AM_JIS
 70
     0
  3

  4
"
  5
OPEN30
  6

  7

 40
0.5
 41
2.5
 42
1.0
 43
12.0
 44
1.0
 45
0.0
 46
0.0
 47
0.1
 48
0.1
140
3.2
141
0.0
142
0.0
143
0.0393701
144
1.0
145
0.0
146
0.71
147
1.5
 71
     0
 72
     0
 73
     0
 74
     0
 75
     0
 76
     0
 77
     3
 78
     8
170
     0
171
     2
172
     1
173
     0
174
     0
175
     0
176
   256
177
   256
178
     2
270
     2
271
     3
272
     3
273
     2
274
     2
340
6B
275
     0
280
     0
281
     0
282
     0
283
     0
284
     0
285
     0
286
     0
287
     3
288
     0
  0
DIMSTYLE
105
5F
330
A
100
AcDbSymbolTableRecord
100
AcDbDimStyleTableRecord
  2
AM_JIS$3
 70
     0
  3

  4
"
  5
OPEN30
  6

  7

 40
0.5
 41
2.5
 42
1.0
 43
10.0
 44
1.0
 45
0.0
 46
0.0
 47
0.1
 48
0.1
140
3.2
141
0.0
142
0.0
143
0.0393701
144
1.0
145
0.0
146
0.71
147
1.5
 71
     0
 72
     0
 73
     0
 74
     1
 75
     0
 76
     0
 77
     3
 78
     8
170
     0
171
     2
172
     0
173
     0
174
     0
175
     0
176
   256
177
   256
178
     2
270
     2
271
     2
272
     3
273
     2
274
     2
340
6B
275
     0
280
     0
281
     0
282
     0
283
     0
284
     0
285
     0
286
     0
287
     0
288
     1
  0
DIMSTYLE
105
60
330
A
100
AcDbSymbolTableRecord
100
AcDbDimStyleTableRecord
  2
AM_JIS$4
 70
     0
  3

  4
"
  5
OPEN30
  6

  7

 40
0.5
 41
2.5
 42
1.0
 43
10.0
 44
1.0
 45
0.0
 46
0.0
 47
0.1
 48
0.1
140
3.2
141
0.0
142
0.0
143
0.0393701
144
1.0
145
0.0
146
0.71
147
1.5
 71
     0
 72
     0
 73
     0
 74
     1
 75
     0
 76
     0
 77
     3
 78
     8
170
     0
171
     2
172
     0
173
     0
174
     0
175
     0
176
   256
177
   256
178
     2
270
     2
271
     2
272
     3
273
     2
274
     2
340
6B
275
     0
280
     0
281
     0
282
     0
283
     0
284
     0
285
     0
286
     0
287
     0
288
     1
  0
DIMSTYLE
105
61
330
A
100
AcDbSymbolTableRecord
100
AcDbDimStyleTableRecord
  2
AM_JIS$6
 70
     0
  3

  4
"
  5
OPEN30
  6

  7

 40
0.5
 41
2.5
 42
1.0
 43
10.0
 44
1.0
 45
0.0
 46
0.0
 47
0.1
 48
0.1
140
3.2
141
0.0
142
0.0
143
0.0393701
144
1.0
145
0.0
146
0.71
147
1.5
 71
     0
 72
     0
 73
     0
 74
     0
 75
     0
 76
     0
 77
     0
 78
     8
170
     0
171
     2
172
     1
173
     0
174
     0
175
     0
176
   256
177
   256
178
     2
270
     2
271
     2
272
     2
273
     2
274
     2
340
6B
275
     0
280
     0
281
     0
282
     0
283
     0
284
     0
285
     0
286
     0
287
     3
288
     0
  0
DIMSTYLE
105
62
330
A
100
AcDbSymbolTableRecord
100
AcDbDimStyleTableRecord
  2
AM_JIS$7
 70
     0
  3

  4
"
  5
OPEN30
  6

  7

 40
0.5
 41
2.5
 42
1.0
 43
10.0
 44
1.0
 45
0.0
 46
0.0
 47
0.1
 48
0.1
140
3.2
141
0.0
142
0.0
143
0.0393701
144
1.0
145
0.0
146
0.71
147
1.5
 71
     0
 72
     0
 73
     0
 74
     0
 75
     0
 76
     0
 77
     3
 78
     8
170
     0
171
     2
172
     1
173
     0
174
     0
175
     0
176
   256
177
   256
178
     2
270
     2
271
     2
272
     3
273
     2
274
     2
340
6B
275
     0
280
     0
281
     0
282
     0
283
     0
284
     0
285
     0
286
     0
287
     3
288
     0
  0
DIMSTYLE
105
63
330
A
100
AcDbSymbolTableRecord
100
AcDbDimStyleTableRecord
  2
AM_JIS$SF
 70
     0
  3

  4
"
  5
OPEN30
  6

  7

 40
0.5
 41
2.5
 42
1.0
 43
10.0
 44
1.0
 45
0.0
 46
0.0
 47
0.1
 48
0.1
140
3.2
141
0.0
142
0.0
143
0.0393701
144
1.0
145
0.0
146
0.71
147
1.5
 71
     0
 72
     0
 73
     0
 74
     0
 75
     1
 76
     1
 77
     3
 78
     8
170
     0
171
     2
172
     1
173
     0
174
     0
175
     0
176
   256
177
   256
178
     2
270
     2
271
     2
272
     2
273
     2
274
     2
340
6B
275
     0
280
     0
281
     0
282
     0
283
     0
284
     0
285
     0
286
     0
287
     3
288
     0
  0
DIMSTYLE
105
68
330
A
100
AcDbSymbolTableRecord
100
AcDbDimStyleTableRecord
  2
AM_JIS$SH
 70
     0
  3

  4
"
  5

  6
GENAXEH
  7
OPEN30
 40
0.5
 41
2.5
 42
1.0
 43
10.0
 44
1.0
 45
0.0
 46
0.0
 47
0.1
 48
0.1
140
3.2
141
0.0
142
0.0
143
0.0393701
144
2.0
145
0.0
146
0.71
147
1.5
 71
     0
 72
     0
 73
     0
 74
     0
 75
     1
 76
     1
 77
     3
 78
     8
170
     0
171
     2
172
     1
173
     1
174
     0
175
     0
176
   256
177
   256
178
     2
270
     2
271
     2
272
     2
273
     2
274
     2
340
6B
275
     0
280
     0
281
     0
282
     0
283
     0
284
     0
285
     0
286
     0
287
     3
288
     0
  0
DIMSTYLE
105
B34
102
{ACAD_REACTORS
330
31FC
330
3FB6
102
}
330
A
100
AcDbSymbolTableRecord
100
AcDbDimStyleTableRecord
  2
AM_JIS$2
 70
     0
  3

  4
"
  5
OPEN30
  6

  7

 40
0.5
 41
2.5
 42
1.0
 43
12.0
 44
1.0
 45
0.0
 46
0.0
 47
0.1
 48
0.1
140
3.2
141
0.0
142
0.0
143
0.0393701
144
1.0
145
0.0
146
0.71
147
1.5
 71
     0
 72
     0
 73
     0
 74
     0
 75
     0
 76
     0
 77
     3
 78
     8
170
     0
171
     2
172
     1
173
     0
174
     0
175
     0
176
   256
177
   256
178
     2
270
     2
271
     3
272
     3
273
     2
274
     2
340
6B
275
     0
280
     0
281
     0
282
     0
283
     0
284
     0
285
     0
286
     0
287
     3
288
     0
  0
DIMSTYLE
105
BA5
102
{ACAD_REACTORS
330
31FD
330
31FE
330
3202
330
320B
330
323E
102
}
330
A
100
AcDbSymbolTableRecord
100
AcDbDimStyleTableRecord
  2
AM_JIS$0
 70
     0
  3

  4
"
  5
OPEN30
  6

  7

 40
0.5
 41
2.5
 42
0.8
 43
10.0
 44
1.0
 45
0.0
 46
0.0
 47
0.1
 48
0.1000000001
140
3.799999999999999
141
0.0
142
0.0
143
0.0393701
144
1.0
145
0.0
146
0.71
147
1.5
 71
     0
 72
     0
 73
     0
 74
     0
 75
     0
 76
     0
 77
     3
 78
     9
170
     0
171
     2
172
     1
173
     0
174
     0
175
     0
176
     3
177
     3
178
     2
270
     2
271
     2
272
     2
273
     2
274
     2
340
11
275
     1
280
     0
281
     0
282
     0
283
     0
284
     8
285
     0
286
     0
287
     0
288
     0
  0
DIMSTYLE
105
BA6
330
A
100
AcDbSymbolTableRecord
100
AcDbDimStyleTableRecord
  2
AM_JISORG-1P0$2
 70
     0
  3

  4
"
  5
OPEN30
  6

  7

 40
1.0
 41
2.5
 42
0.0
 43
10.0
 44
1.0
 45
0.0
 46
0.0
 47
0.1
 48
0.1000000001
140
3.799999999999999
141
0.0
142
0.0
143
0.0393701
144
-0.999999980146674
145
0.0
146
0.71
147
1.5
 71
     0
 72
     0
 73
     0
 74
     0
 75
     0
 76
     0
 77
     3
 78
     1
170
     0
171
     2
172
     1
173
     0
174
     0
175
     0
176
     3
177
     3
178
     2
270
     2
271
     2
272
     2
273
     2
274
     2
340
11
275
     1
280
     0
281
     0
282
     0
283
     0
284
     8
285
     0
286
     0
287
     0
288
     0
  0
ENDTAB
  0
TABLE
  2
BLOCK_RECORD
  5
1
330
0
100
AcDbSymbolTable
 70
    15
  0
BLOCK_RECORD
  5
1F
102
{ACAD_XDICTIONARY
360
74
102
}
330
1
100
AcDbSymbolTableRecord
100
AcDbBlockTableRecord
  2
*MODEL_SPACE
  0
BLOCK_RECORD
  5
101
102
{ACAD_XDICTIONARY
360
418C
102
}
330
1
100
AcDbSymbolTableRecord
100
AcDbBlockTableRecord
  2
*PAPER_SPACE
  0
BLOCK_RECORD
  5
59
330
1
100
AcDbSymbolTableRecord
100
AcDbBlockTableRecord
  2
_OPEN30
  0
BLOCK_RECORD
  5
64
330
1
100
AcDbSymbolTableRecord
100
AcDbBlockTableRecord
  2
GENAXEH
  0
BLOCK_RECORD
  5
C31
330
1
100
AcDbSymbolTableRecord
100
AcDbBlockTableRecord
  2
A$C36D02A34
  0
BLOCK_RECORD
  5
2453
330
1
100
AcDbSymbolTableRecord
100
AcDbBlockTableRecord
  2
*D6
  0
BLOCK_RECORD
  5
245F
330
1
100
AcDbSymbolTableRecord
100
AcDbBlockTableRecord
  2
A$C4FFC6CC0
  0
BLOCK_RECORD
  5
3244
330
1
100
AcDbSymbolTableRecord
100
AcDbBlockTableRecord
  2
*D8
  0
BLOCK_RECORD
  5
3252
330
1
100
AcDbSymbolTableRecord
100
AcDbBlockTableRecord
  2
*D9
  0
BLOCK_RECORD
  5
3260
330
1
100
AcDbSymbolTableRecord
100
AcDbBlockTableRecord
  2
*D10
  0
BLOCK_RECORD
  5
326E
330
1
100
AcDbSymbolTableRecord
100
AcDbBlockTableRecord
  2
*D11
  0
BLOCK_RECORD
  5
3288
330
1
100
AcDbSymbolTableRecord
100
AcDbBlockTableRecord
  2
*D12
  0
BLOCK_RECORD
  5
3294
330
1
100
AcDbSymbolTableRecord
100
AcDbBlockTableRecord
  2
*D13
  0
BLOCK_RECORD
  5
3FB7
330
1
100
AcDbSymbolTableRecord
100
AcDbBlockTableRecord
  2
*D14
  0
ENDTAB
  0
ENDSEC
  0
SECTION
  2
BLOCKS
  0
BLOCK
  5
20
330
1F
100
AcDbEntity
  8
0
100
AcDbBlockBegin
  2
*MODEL_SPACE
 70
     0
 10
0.0
 20
0.0
 30
0.0
  3
*MODEL_SPACE
  1

  0
ENDBLK
  5
21
330
1F
100
AcDbEntity
  8
0
100
AcDbBlockEnd
  0
BLOCK
  5
103
330
101
100
AcDbEntity
 67
     1
  8
0
100
AcDbBlockBegin
  2
*PAPER_SPACE
 70
     0
 10
0.0
 20
0.0
 30
0.0
  3
*PAPER_SPACE
  1

  0
ENDBLK
  5
104
330
101
100
AcDbEntity
 67
     1
  8
0
100
AcDbBlockEnd
  0
BLOCK
  5
5D
330
59
100
AcDbEntity
  8
0
100
AcDbBlockBegin
  2
_OPEN30
 70
     0
 10
0.0
 20
0.0
 30
0.0
  3
_OPEN30
  1

  0
LINE
  5
5A
330
59
100
AcDbEntity
  8
0
 62
     0
100
AcDbLine
 10
-1.0
 20
0.26794919
 30
0.0
 11
0.0
 21
0.0
 31
0.0
  0
LINE
  5
5B
330
59
100
AcDbEntity
  8
0
 62
     0
100
AcDbLine
 10
0.0
 20
0.0
 30
0.0
 11
-1.0
 21
-0.26794919
 31
0.0
  0
LINE
  5
5C
330
59
100
AcDbEntity
  8
0
 62
     0
100
AcDbLine
 10
0.0
 20
0.0
 30
0.0
 11
-1.0
 21
0.0
 31
0.0
  0
ENDBLK
  5
5E
330
59
100
AcDbEntity
  8
0
100
AcDbBlockEnd
  0
BLOCK
  5
66
330
64
100
AcDbEntity
  8
0
100
AcDbBlockBegin
  2
GENAXEH
 70
     0
 10
0.0
 20
0.0
 30
0.0
  3
GENAXEH
  1

  0
LINE
  5
65
330
64
100
AcDbEntity
  8
0
100
AcDbLine
 10
-1.0
 20
0.0
 30
0.0
 11
1.0
 21
0.0
 31
0.0
  0
ENDBLK
  5
67
330
64
100
AcDbEntity
  8
0
100
AcDbBlockEnd
  0
BLOCK
  5
C4B
330
C31
100
AcDbEntity
  8
0
100
AcDbBlockBegin
  2
A$C36D02A34
 70
     0
 10
0.0
 20
0.0
 30
0.0
  3
A$C36D02A34
  1

  0
ARC
  5
C32
330
C31
100
AcDbEntity
  8
PV0001_1
  6
CONTINUOUS
 48
0.5
100
AcDbCircle
 10
18.06811523436999
 20
-11.83651161193799
 30
0.0
 40
21.600000381469
100
AcDbArc
 50
123.2290435713209
 51
126.6341524197568
  0
ARC
  5
C33
330
C31
100
AcDbEntity
  8
PV0001_1
  6
CONTINUOUS
 48
0.5
100
AcDbCircle
 10
18.06811523436999
 20
-11.83651161193799
 30
0.0
 40
21.600000381469
100
AcDbArc
 50
135.0736707620117
 51
146.7709980930592
  0
ARC
  5
C34
330
C31
100
AcDbEntity
  8
PV0001_1
  6
CONTINUOUS
 48
0.5
100
AcDbCircle
 10
-18.0680770874
 20
11.8365631103514
 30
0.0
 40
21.600000381469
100
AcDbArc
 50
315.0734847530392
 51
326.770781348241
  0
ARC
  5
C35
330
C31
100
AcDbEntity
  8
PV0001_1
  6
CONTINUOUS
 48
0.5
100
AcDbCircle
 10
-18.0680770874
 20
11.8365631103514
 30
0.0
 40
21.600000381469
100
AcDbArc
 50
303.2288882981993
 51
306.633986901359
  0
ARC
  5
C36
330
C31
100
AcDbEntity
  8
PV0001_1
  6
CONTINUOUS
 48
0.5
100
AcDbCircle
 10
-0.6269836425800009
 20
-2.044216156005997
 30
0.0
 40
2.0
100
AcDbArc
 50
337.4067997351092
 51
43.42231293132884
  0
ARC
  5
C37
330
C31
100
AcDbEntity
  8
PV0001_1
  6
CONTINUOUS
 48
0.5
100
AcDbCircle
 10
0.626953125
 20
2.044223785401001
 30
0.0
 40
2.0
100
AcDbArc
 50
157.4068184044407
 51
223.4222769591536
  0
CIRCLE
  5
C38
330
C31
100
AcDbEntity
  8
PV0001_1
  6
CONTINUOUS
 48
0.5
100
AcDbCircle
 10
3.856727600100001
 20
4.596265792847002
 30
0.0
 40
1.6000000238419
  0
CIRCLE
  5
C39
330
C31
100
AcDbEntity
  8
PV0001_1
  6
CONTINUOUS
 48
0.5
100
AcDbCircle
 10
-3.856727600100001
 20
-4.596265792845997
 30
0.0
 40
1.6000000238419
  0
ARC
  5
C3A
330
C31
100
AcDbEntity
  8
PV0001_1
  6
CONTINUOUS
 48
0.5
100
AcDbCircle
 10
-5.58123779297
 20
5.092639923096001
 30
0.0
 40
5.019082546234099
100
AcDbArc
 50
240.2658959250867
 51
321.5156269706421
  0
ARC
  5
C3B
330
C31
100
AcDbEntity
  8
PV0001_1
  6
CONTINUOUS
 48
0.5
100
AcDbCircle
 10
5.486755371089998
 20
-4.601703643798998
 30
0.0
 40
4.651036739349399
100
AcDbArc
 50
56.25271400417071
 51
145.528859890601
  0
ARC
  5
C3C
330
C31
100
AcDbEntity
  8
PV0001_1
  6
CONTINUOUS
 48
0.5
100
AcDbCircle
 10
-2.11590576172
 20
-3.453323364257997
 30
0.0
 40
4.050000190734899
100
AcDbArc
 50
43.42230610113921
 51
58.50391703385149
  0
ARC
  5
C3D
330
C31
100
AcDbEntity
  8
PV0001_1
  6
CONTINUOUS
 48
0.5
100
AcDbCircle
 10
2.115875244139999
 20
3.453330993653001
 30
0.0
 40
4.050000190734899
100
AcDbArc
 50
223.4222942619974
 51
238.5038164022482
  0
ARC
  5
C3E
330
C31
100
AcDbEntity
  8
PV0001_1
  6
CONTINUOUS
 48
0.5
100
AcDbCircle
 10
-6.70369720459
 20
5.094657897949002
 30
0.0
 40
5.940000057220499
100
AcDbArc
 50
328.2536768887549
 51
31.74641873389623
  0
ARC
  5
C3F
330
C31
100
AcDbEntity
  8
PV0001_1
  6
CONTINUOUS
 48
0.5
100
AcDbCircle
 10
6.703674316410001
 20
-5.094650268553998
 30
0.0
 40
5.940000057220499
100
AcDbArc
 50
148.2533403882529
 51
211.7466423089037
  0
ARC
  5
C40
330
C31
100
AcDbEntity
  8
PV0001_1
  6
CONTINUOUS
 48
0.5
100
AcDbCircle
 10
0.0
 20
0.0
 30
0.0
 40
8.812800407409699
100
AcDbArc
 50
175.2198288164333
 51
272.8622597568298
  0
ARC
  5
C41
330
C31
100
AcDbEntity
  8
PV0001_1
  6
CONTINUOUS
 48
0.5
100
AcDbCircle
 10
0.0
 20
0.0
 30
0.0
 40
9.1800003051758
100
AcDbArc
 50
272.7511362215027
 51
280.3697477877874
  0
ARC
  5
C42
330
C31
100
AcDbEntity
  8
PV0001_1
  6
CONTINUOUS
 48
0.5
100
AcDbCircle
 10
0.0
 20
0.0
 30
0.0
 40
8.812800407409699
100
AcDbArc
 50
355.2198199654955
 51
92.86229572901076
  0
ARC
  5
C43
330
C31
100
AcDbEntity
  8
PV0001_1
  6
CONTINUOUS
 48
0.5
100
AcDbCircle
 10
0.0
 20
0.0
 30
0.0
 40
9.1800003051758
100
AcDbArc
 50
92.75115489083434
 51
100.3697664571193
  0
CIRCLE
  5
C44
330
C31
100
AcDbEntity
  8
PV0001_1
  6
CONTINUOUS
100
AcDbCircle
 10
0.0
 20
0.0
 30
0.0
 40
9.1800003051758
  0
LINE
  5
C45
330
C31
100
AcDbEntity
  8
PV0001_1
  6
CONTINUOUS
 48
0.5
100
AcDbLine
 10
-1.652404785160001
 20
9.030059814453
 30
0.0
 11
-1.652404785160001
 21
8.220062255860002
 31
0.0
  0
LINE
  5
C46
330
C31
100
AcDbEntity
  8
PV0001_1
  6
CONTINUOUS
 48
0.5
100
AcDbLine
 10
1.652404785160001
 20
-8.220058441161999
 30
0.0
 11
1.652404785160001
 21
-9.030055999755997
 31
0.0
  0
LINE
  5
C47
330
C31
100
AcDbEntity
  8
PV0001_1
  6
CONTINUOUS
 48
0.5
100
AcDbLine
 10
-8.78217315674
 20
0.7343807220460015
 30
0.0
 11
-8.070594787600001
 21
0.7343997955320028
 31
0.0
  0
LINE
  5
C48
330
C31
100
AcDbEntity
  8
PV0001_1
  6
CONTINUOUS
 48
0.5
100
AcDbLine
 10
8.07057952881
 20
-0.7343864440919994
 30
0.0
 11
8.78215789795
 21
-0.7343654632569994
 31
0.0
  0
LINE
  5
C49
330
C31
100
AcDbEntity
  8
PV0001_1
  6
CONTINUOUS
 48
0.5
100
AcDbLine
 10
0.4406127929700006
 20
-9.169414520263
 30
0.0
 11
0.4406127929700006
 21
-8.812801361083998
 31
0.0
  0
LINE
  5
C4A
330
C31
100
AcDbEntity
  8
PV0001_1
  6
CONTINUOUS
 48
0.5
100
AcDbLine
 10
-0.4406127929700006
 20
9.169418334961001
 30
0.0
 11
-0.4406127929700006
 21
8.812805175781001
 31
0.0
  0
ENDBLK
  5
C4C
330
C31
100
AcDbEntity
  8
0
100
AcDbBlockEnd
  0
BLOCK
  5
245D
330
2453
100
AcDbEntity
  8
0
100
AcDbBlockBegin
  2
*D6
 70
     1
 10
0.0
 20
0.0
 30
0.0
  3
*D6
  1

  0
LINE
  5
2454
330
2453
100
AcDbEntity
  8
AM_5
 62
     3
100
AcDbLine
 10
-137.574381722344
 20
-5.00000294019065
 30
0.0
 11
-152.8199008769066
 21
-5.000002940190694
 31
0.0
  0
LINE
  5
2455
330
2453
100
AcDbEntity
  8
AM_5
 62
     3
100
AcDbLine
 10
-137.5743817223442
 20
5.00002461040103
 30
0.0
 11
-152.8199008769066
 21
5.000024610400987
 31
0.0
  0
LINE
  5
2456
330
2453
100
AcDbEntity
  8
AM_5
 62
     3
100
AcDbLine
 10
-151.8199008769066
 20
-2.500002940190691
 30
0.0
 11
-151.8199008769066
 21
2.50002461040099
 31
0.0
  0
INSERT
  5
2457
330
2453
100
AcDbEntity
  8
AM_5
 62
     3
100
AcDbBlockReference
  2
_OPEN30
 10
-151.8199008769066
 20
-5.00000294019069
 30
0.0
 41
2.5
 42
2.5
 43
2.5
 50
270.0000000000001
  0
INSERT
  5
2458
330
2453
100
AcDbEntity
  8
AM_5
 62
     3
100
AcDbBlockReference
  2
_OPEN30
 10
-151.8199008769066
 20
5.00002461040099
 30
0.0
 41
2.5
 42
2.5
 43
2.5
 50
90.00000000000015
  0
MTEXT
  5
2459
330
2453
100
AcDbEntity
  8
AM_5
 62
     2
100
AcDbMText
 10
-155.2199008769066
 20
0.000010835105146
 30
0.0
 40
3.799999999999999
 41
0.0
 71
     5
 72
     1
  1
%%c10
 11
-0.0000000000000028
 21
1.0
 31
0.0
1001
ACAD
1000
MTEXTBEGIN
1070
    73
1070
     1
1070
    44
1040
1.0
1070
    74
1070
     0
1000
MTEXTEND
  0
POINT
  5
245A
330
2453
100
AcDbEntity
  8
DEFPOINTS
 62
     0
100
AcDbPoint
 10
-137.5743817223441
 20
-5.000002940190223
 30
0.0
  0
POINT
  5
245B
330
2453
100
AcDbEntity
  8
DEFPOINTS
 62
     0
100
AcDbPoint
 10
-137.5743817223441
 20
5.000024610401458
 30
0.0
  0
POINT
  5
245C
330
2453
100
AcDbEntity
  8
DEFPOINTS
 62
     0
100
AcDbPoint
 10
-151.8199008769066
 20
5.000024610401462
 30
0.0
  0
ENDBLK
  5
245E
330
2453
100
AcDbEntity
  8
0
100
AcDbBlockEnd
  0
BLOCK
  5
246B
330
245F
100
AcDbEntity
  8
0
100
AcDbBlockBegin
  2
A$C4FFC6CC0
 70
     0
 10
0.0
 20
0.0
 30
0.0
  3
A$C4FFC6CC0
  1

  0
DIMENSION
  5
2460
330
245F
100
AcDbEntity
  8
AM_5
100
AcDbDimension
  2
*D6
 10
-70.00000100000002
 20
5.000008477104842
 30
0.0
 11
-70.00000100000002
 21
-0.0000052981910228
 31
0.0
 12
81.81989987690661
 22
-0.0000161332966199
 32
0.0
 70
   128
  1
%%c<>
 51
359.9999999999998
  3
AM_JIS$0
100
AcDbAlignedDimension
 13
-55.75448184543748
 23
-5.000019073486843
 33
0.0
 14
-55.75448184543756
 24
5.000008477104838
 34
0.0
 50
270.0
100
AcDbRotatedDimension
1001
ACAD
1000
DSTYLE
1002
{
1070
   271
1070
     0
1002
}
1001
GENIUS_GENDTOL_13
1000

1000
h7
1000

1040
0.0
  0
LINE
  5
2461
330
245F
100
AcDbEntity
  8
AM_0
 48
0.5
100
AcDbLine
 10
-56.0
 20
-4.754495620727796
 30
0.0
 11
-56.00000000000003
 21
4.754485024345811
 31
0.0
  0
LINE
  5
2462
330
245F
100
AcDbEntity
  8
AM_0
 48
0.5
100
AcDbLine
 10
-55.75448184543751
 20
-5.000019073486843
 30
0.0
 11
-55.75448184543754
 21
5.000008477104838
 31
0.0
  0
LINE
  5
2463
330
245F
100
AcDbEntity
  8
AM_0
100
AcDbLine
 10
-0.0000000000000142
 20
4.999995231627903
 30
0.0
 11
-55.75448184543754
 21
4.999995231627746
 31
0.0
  0
LINE
  5
2464
330
245F
100
AcDbEntity
  8
AM_0
 48
0.5
100
AcDbLine
 10
-55.99996821086117
 20
4.754439989725671
 30
0.0
 11
-55.75443945990975
 21
4.999963442484006
 31
0.0
  0
LINE
  5
2465
330
245F
100
AcDbEntity
  8
AM_0
100
AcDbLine
 10
-55.75448184543751
 20
-5.000008477105588
 30
0.0
 11
0.0000000000000142
 21
-5.00000847710543
 31
0.0
  0
LINE
  5
2466
330
245F
100
AcDbEntity
  8
AM_0
 48
0.5
100
AcDbLine
 10
-55.99996821086114
 20
-4.754474427965309
 30
0.0
 11
-55.75443945990972
 21
-4.999997880724334
 31
0.0
  0
LINE
  5
2467
330
245F
100
AcDbEntity
  8
AM_0
100
AcDbLine
 10
0.7794201296714505
 20
4.549985867772141
 30
0.0
 11
0.7794201296714789
 21
-4.550003370497427
 31
0.0
  0
LINE
  5
2468
330
245F
100
AcDbEntity
  8
AM_0
 48
0.5
100
AcDbLine
 10
0.0000000000000142
 20
-5.00000847710543
 30
0.0
 11
-0.0000000000000142
 21
5.000008477104995
 31
0.0
  0
LINE
  5
2469
330
245F
100
AcDbEntity
  8
AM_0
 48
0.5
100
AcDbLine
 10
0.7794201296714647
 20
-4.550003370497435
 30
0.0
 11
-0.0000105963812445
 21
-5.00000847710543
 31
0.0
  0
LINE
  5
246A
330
245F
100
AcDbEntity
  8
AM_0
 48
0.5
100
AcDbLine
 10
0.7794201296714647
 20
4.549985867772141
 30
0.0
 11
-0.0000000000000142
 21
4.999984635246652
 31
0.0
  0
ENDBLK
  5
246C
330
245F
100
AcDbEntity
  8
0
100
AcDbBlockEnd
  0
BLOCK
  5
3250
330
3244
100
AcDbEntity
  8
0
100
AcDbBlockBegin
  2
*D8
 70
     1
 10
0.0
 20
0.0
 30
0.0
  3
*D8
  1

  0
LINE
  5
3E53
330
3244
100
AcDbEntity
  8
AM_5
100
AcDbLine
 10
0.1710100704080519
 20
-0.46984631084965
 30
0.0
 11
8.070735287114084
 21
-22.1741631439948
 31
0.0
  0
LINE
  5
3E54
330
3244
100
AcDbEntity
  8
AM_5
100
AcDbLine
 10
0.1710098052266613
 20
0.4698478148157159
 30
0.0
 11
8.070750640108956
 21
22.17416080069669
 31
0.0
  0
ARC
  5
3E55
330
3244
100
AcDbEntity
  8
AM_5
100
AcDbCircle
 10
-0.0000005904945895
 20
0.000001622370506
 30
0.0
 40
23.09725324464769
100
AcDbArc
 50
293.1011680552344
 51
66.89879227418813
  0
INSERT
  5
3E56
330
3244
100
AcDbEntity
  8
AM_5
100
AcDbBlockReference
  2
_OPEN30
 10
7.899725216706011
 20
-21.70431683314514
 30
0.0
 41
1.25
 42
1.25
 43
1.25
 50
201.5505839511108
  0
INSERT
  5
3E57
330
3244
100
AcDbEntity
  8
AM_5
100
AcDbBlockReference
  2
_OPEN30
 10
7.899740244387704
 20
21.70431460825148
 30
0.0
 41
1.25
 42
1.25
 43
1.25
 50
158.4493763783117
  0
MTEXT
  5
3E58
330
3244
100
AcDbEntity
  8
AM_5
 62
     2
100
AcDbMText
 10
21.54725265415172
 20
-0.0000063736928997
 30
0.0
 40
1.6
 41
0.0
 71
     5
 72
     1
  1
140°
  7
ASAMI
 11
0.0000000000000001
 21
1.0
 31
0.0
1001
ACAD
1000
MTEXTBEGIN
1070
    73
1070
     1
1070
    44
1040
1.0
1070
    74
1070
     0
1000
MTEXTEND
  0
POINT
  5
3E59
330
3244
100
AcDbEntity
  8
DEFPOINTS
 62
     0
100
AcDbPoint
 10
21.20827357805945
 20
9.148346513050567
 30
0.0
  0
POINT
  5
3E5A
330
3244
100
AcDbEntity
  8
DEFPOINTS
 62
     0
100
AcDbPoint
 10
-0.0000000000000213
 20
0.0
 30
0.0
  0
POINT
  5
3E5B
330
3244
100
AcDbEntity
  8
DEFPOINTS
 62
     0
100
AcDbPoint
 10
-0.0000006834663893
 20
0.0000013669331338
 30
0.0
  0
POINT
  5
3E5C
330
3244
100
AcDbEntity
  8
DEFPOINTS
 62
     0
100
AcDbPoint
 10
-0.286932261784635
 20
-0.7883349736532637
 30
0.0
  0
POINT
  5
3E5D
330
3244
100
AcDbEntity
  8
DEFPOINTS
 62
     0
100
AcDbPoint
 10
-0.2869274775186525
 20
0.7883267720540062
 30
0.0
  0
ENDBLK
  5
3251
330
3244
100
AcDbEntity
  8
0
100
AcDbBlockEnd
  0
BLOCK
  5
325E
330
3252
100
AcDbEntity
  8
0
100
AcDbBlockBegin
  2
*D9
 70
     1
 10
0.0
 20
0.0
 30
0.0
  3
*D9
  1

  0
LINE
  5
40D4
330
3252
100
AcDbEntity
  8
AM_5
 62
     3
100
AcDbLine
 10
-1.546864653917121
 20
-4.649999999999947
 30
0.0
 11
-1.546864653917122
 21
-22.20952382903428
 31
0.0
  0
LINE
  5
40D5
330
3252
100
AcDbEntity
  8
AM_5
 62
     3
100
AcDbLine
 10
-21.54687706629423
 20
-7.024775203706736
 30
0.0
 11
-21.54687706629423
 21
-22.20952382903428
 31
0.0
  0
LINE
  5
40D6
330
3252
100
AcDbEntity
  8
AM_5
 62
     3
100
AcDbLine
 10
-2.796864653917122
 20
-21.70952382903428
 30
0.0
 11
-20.29687706629423
 21
-21.70952382903428
 31
0.0
  0
INSERT
  5
40D7
330
3252
100
AcDbEntity
  8
AM_5
 62
     3
100
AcDbBlockReference
  2
_OPEN30
 10
-1.546864653917122
 20
-21.70952382903428
 30
0.0
 41
1.25
 42
1.25
 43
1.25
  0
INSERT
  5
40D8
330
3252
100
AcDbEntity
  8
AM_5
 62
     3
100
AcDbBlockReference
  2
_OPEN30
 10
-21.54687706629423
 20
-21.70952382903428
 30
0.0
 41
1.25
 42
1.25
 43
1.25
 50
180.0
  0
MTEXT
  5
40D9
330
3252
100
AcDbEntity
  8
AM_5
 62
     2
100
AcDbMText
 10
-11.54688327248281
 20
-20.00952382903428
 30
0.0
 40
1.9
 41
0.0
 71
     5
 72
     1
  1
20
1001
ACAD
1000
MTEXTBEGIN
1070
    73
1070
     1
1070
    44
1040
1.0
1070
    74
1070
     0
1000
MTEXTEND
  0
POINT
  5
40DA
330
3252
100
AcDbEntity
  8
DEFPOINTS
 62
     0
100
AcDbPoint
 10
-1.546864653917121
 20
-4.249999999999947
 30
0.0
  0
POINT
  5
40DB
330
3252
100
AcDbEntity
  8
DEFPOINTS
 62
     0
100
AcDbPoint
 10
-21.54687706629423
 20
-6.624775203706736
 30
0.0
  0
POINT
  5
40DC
330
3252
100
AcDbEntity
  8
DEFPOINTS
 62
     0
100
AcDbPoint
 10
-21.54687706629423
 20
-21.70952382903428
 30
0.0
  0
ENDBLK
  5
325F
330
3252
100
AcDbEntity
  8
0
100
AcDbBlockEnd
  0
BLOCK
  5
326C
330
3260
100
AcDbEntity
  8
0
100
AcDbBlockBegin
  2
*D10
 70
     1
 10
0.0
 20
0.0
 30
0.0
  3
*D10
  1

  0
LINE
  5
3F11
330
3260
100
AcDbEntity
  8
AM_5
 62
     3
100
AcDbLine
 10
-1.146877066294258
 20
-4.249982063075285
 30
0.0
 11
11.72083449889053
 21
-4.249982063075289
 31
0.0
  0
LINE
  5
3F12
330
3260
100
AcDbEntity
  8
AM_5
 62
     3
100
AcDbLine
 10
-1.146864653917177
 20
4.250000000000074
 30
0.0
 11
11.72083449889053
 21
4.250000000000071
 31
0.0
  0
LINE
  5
3F13
330
3260
100
AcDbEntity
  8
AM_5
 62
     3
100
AcDbLine
 10
11.22083449889053
 20
-5.499982063075289
 30
0.0
 11
11.22083449889053
 21
-6.749982063075289
 31
0.0
  0
LINE
  5
3F14
330
3260
100
AcDbEntity
  8
AM_5
 62
     3
100
AcDbLine
 10
11.22083449889053
 20
5.500000000000071
 30
0.0
 11
11.22083449889053
 21
6.750000000000071
 31
0.0
  0
LINE
  5
3F15
330
3260
100
AcDbEntity
  8
AM_5
 62
     3
100
AcDbLine
 10
11.22083449889053
 20
-4.249982063075289
 30
0.0
 11
11.22083449889053
 21
4.250000000000071
 31
0.0
  0
INSERT
  5
3F16
330
3260
100
AcDbEntity
  8
AM_5
 62
     3
100
AcDbBlockReference
  2
_OPEN30
 10
11.22083449889053
 20
-4.249982063075289
 30
0.0
 41
1.25
 42
1.25
 43
1.25
 50
90.0
  0
INSERT
  5
3F17
330
3260
100
AcDbEntity
  8
AM_5
 62
     3
100
AcDbBlockReference
  2
_OPEN30
 10
11.22083449889053
 20
4.250000000000071
 30
0.0
 41
1.25
 42
1.25
 43
1.25
 50
270.0
  0
MTEXT
  5
3F18
330
3260
100
AcDbEntity
  8
AM_5
 62
     2
100
AcDbMText
 10
9.520834498890536
 20
0.0000089684623792
 30
0.0
 40
1.9
 41
0.0
 71
     5
 72
     1
  1
%%C8.5
 11
0.0000000000000001
 21
1.0
 31
0.0
1001
ACAD
1000
MTEXTBEGIN
1070
    73
1070
     1
1070
    44
1040
1.0
1070
    74
1070
     0
1000
MTEXTEND
  0
POINT
  5
3F19
330
3260
100
AcDbEntity
  8
DEFPOINTS
 62
     0
100
AcDbPoint
 10
-1.546877066294257
 20
-4.249982063075285
 30
0.0
  0
POINT
  5
3F1A
330
3260
100
AcDbEntity
  8
DEFPOINTS
 62
     0
100
AcDbPoint
 10
-1.546864653917177
 20
4.250000000000074
 30
0.0
  0
POINT
  5
3F1B
330
3260
100
AcDbEntity
  8
DEFPOINTS
 62
     0
100
AcDbPoint
 10
11.22083449889053
 20
4.250000000000071
 30
0.0
  0
ENDBLK
  5
326D
330
3260
100
AcDbEntity
  8
0
100
AcDbBlockEnd
  0
BLOCK
  5
3278
330
326E
100
AcDbEntity
  8
0
100
AcDbBlockBegin
  2
*D11
 70
     1
 10
0.0
 20
0.0
 30
0.0
  3
*D11
  1

  0
LINE
  5
40F8
330
326E
100
AcDbEntity
  8
AM_5
 62
     3
100
AcDbLine
 10
-1.546877066294257
 20
-5.149999999999947
 30
0.0
 11
-1.546877066294259
 21
-38.26904765806863
 31
0.0
  0
LINE
  5
40F9
330
326E
100
AcDbEntity
  8
AM_5
 62
     3
100
AcDbLine
 10
-113.5468770662943
 20
-5.962729356585485
 30
0.0
 11
-113.5468770662943
 21
-38.26904765806863
 31
0.0
  0
LINE
  5
40FA
330
326E
100
AcDbEntity
  8
AM_5
 62
     3
100
AcDbLine
 10
-2.79687706629426
 20
-37.76904765806863
 30
0.0
 11
-112.2968770662943
 21
-37.76904765806863
 31
0.0
  0
INSERT
  5
40FB
330
326E
100
AcDbEntity
  8
AM_5
 62
     3
100
AcDbBlockReference
  2
_OPEN30
 10
-1.546877066294259
 20
-37.76904765806863
 30
0.0
 41
1.25
 42
1.25
 43
1.25
  0
INSERT
  5
40FC
330
326E
100
AcDbEntity
  8
AM_5
 62
     3
100
AcDbBlockReference
  2
_OPEN30
 10
-113.5468770662943
 20
-37.76904765806863
 30
0.0
 41
1.25
 42
1.25
 43
1.25
 50
180.0
  0
MTEXT
  5
40FD
330
326E
100
AcDbEntity
  8
AM_5
 62
     2
100
AcDbMText
 10
-57.5468770662943
 20
-36.06904765806862
 30
0.0
 40
1.9
 41
0.0
 71
     5
 72
     1
  1
112
1001
ACAD
1000
MTEXTBEGIN
1070
    73
1070
     1
1070
    44
1040
1.0
1070
    74
1070
     0
1000
MTEXTEND
  0
POINT
  5
40FE
330
326E
100
AcDbEntity
  8
DEFPOINTS
 62
     0
100
AcDbPoint
 10
-1.546877066294257
 20
-4.749999999999947
 30
0.0
  0
POINT
  5
40FF
330
326E
100
AcDbEntity
  8
DEFPOINTS
 62
     0
100
AcDbPoint
 10
-113.5468770662943
 20
-5.562729356585485
 30
0.0
  0
POINT
  5
4100
330
326E
100
AcDbEntity
  8
DEFPOINTS
 62
     0
100
AcDbPoint
 10
-113.5468770662943
 20
-37.76904765806863
 30
0.0
  0
ENDBLK
  5
3279
330
326E
100
AcDbEntity
  8
0
100
AcDbBlockEnd
  0
BLOCK
  5
3292
330
3288
100
AcDbEntity
  8
0
100
AcDbBlockBegin
  2
*D12
 70
     1
 10
0.0
 20
0.0
 30
0.0
  3
*D12
  1

  0
LINE
  5
40CB
330
3288
100
AcDbEntity
  8
AM_5
 62
     3
100
AcDbLine
 10
-1.546877066294257
 20
-4.649999999999947
 30
0.0
 11
-1.546877066294259
 21
-30.65855345623026
 31
0.0
  0
LINE
  5
40CC
330
3288
100
AcDbEntity
  8
AM_5
 62
     3
100
AcDbLine
 10
-51.54538274219657
 20
-4.622158762226673
 30
0.0
 11
-51.54538274219657
 21
-30.65855345623026
 31
0.0
  0
LINE
  5
40CD
330
3288
100
AcDbEntity
  8
AM_5
 62
     3
100
AcDbLine
 10
-2.796877066294259
 20
-30.15855345623026
 30
0.0
 11
-50.29538274219657
 21
-30.15855345623026
 31
0.0
  0
INSERT
  5
40CE
330
3288
100
AcDbEntity
  8
AM_5
 62
     3
100
AcDbBlockReference
  2
_OPEN30
 10
-1.546877066294259
 20
-30.15855345623026
 30
0.0
 41
1.25
 42
1.25
 43
1.25
  0
INSERT
  5
40CF
330
3288
100
AcDbEntity
  8
AM_5
 62
     3
100
AcDbBlockReference
  2
_OPEN30
 10
-51.54538274219657
 20
-30.15855345623026
 30
0.0
 41
1.25
 42
1.25
 43
1.25
 50
180.0
  0
MTEXT
  5
40D0
330
3288
100
AcDbEntity
  8
AM_5
 62
     2
100
AcDbMText
 10
-26.54612990424541
 20
-28.45855345623026
 30
0.0
 40
1.9
 41
0.0
 71
     5
 72
     1
  1
50
1001
ACAD
1000
MTEXTBEGIN
1070
    73
1070
     1
1070
    44
1040
1.0
1070
    74
1070
     0
1000
MTEXTEND
  0
POINT
  5
40D1
330
3288
100
AcDbEntity
  8
DEFPOINTS
 62
     0
100
AcDbPoint
 10
-1.546877066294257
 20
-4.249999999999947
 30
0.0
  0
POINT
  5
40D2
330
3288
100
AcDbEntity
  8
DEFPOINTS
 62
     0
100
AcDbPoint
 10
-51.54538274219657
 20
-4.222158762226673
 30
0.0
  0
POINT
  5
40D3
330
3288
100
AcDbEntity
  8
DEFPOINTS
 62
     0
100
AcDbPoint
 10
-51.54538274219657
 20
-30.15855345623026
 30
0.0
  0
ENDBLK
  5
3293
330
3288
100
AcDbEntity
  8
0
100
AcDbBlockEnd
  0
BLOCK
  5
32A0
330
3294
100
AcDbEntity
  8
0
100
AcDbBlockBegin
  2
*D13
 70
     1
 10
0.0
 20
0.0
 30
0.0
  3
*D13
  1

  0
LINE
  5
40EF
330
3294
100
AcDbEntity
  8
AM_5
 62
     3
100
AcDbLine
 10
-113.588543732961
 20
6.00024654791472
 30
0.0
 11
-130.1816223813938
 21
6.000246547914725
 31
0.0
  0
LINE
  5
40F0
330
3294
100
AcDbEntity
  8
AM_5
 62
     3
100
AcDbLine
 10
-113.588543732961
 20
-6.000249871484605
 30
0.0
 11
-130.1816223813938
 21
-6.0002498714846
 31
0.0
  0
LINE
  5
40F1
330
3294
100
AcDbEntity
  8
AM_5
 62
     3
100
AcDbLine
 10
-129.6816223813938
 20
4.750246547914724
 30
0.0
 11
-129.6816223813938
 21
-4.750249871484601
 31
0.0
  0
INSERT
  5
40F2
330
3294
100
AcDbEntity
  8
AM_5
 62
     3
100
AcDbBlockReference
  2
_OPEN30
 10
-129.6816223813938
 20
6.000246547914724
 30
0.0
 41
1.25
 42
1.25
 43
1.25
 50
90.0
  0
INSERT
  5
40F3
330
3294
100
AcDbEntity
  8
AM_5
 62
     3
100
AcDbBlockReference
  2
_OPEN30
 10
-129.6816223813938
 20
-6.000249871484601
 30
0.0
 41
1.25
 42
1.25
 43
1.25
 50
270.0
  0
MTEXT
  5
40F4
330
3294
100
AcDbEntity
  8
AM_5
 62
     2
100
AcDbMText
 10
-131.3816223813938
 20
-0.0000016617849584
 30
0.0
 40
1.9
 41
0.0
 71
     5
 72
     1
  1
%%C12
 11
0.0000000000000001
 21
1.0
 31
0.0
1001
ACAD
1000
MTEXTBEGIN
1070
    73
1070
     1
1070
    44
1040
1.0
1070
    74
1070
     0
1000
MTEXTEND
  0
POINT
  5
40F5
330
3294
100
AcDbEntity
  8
DEFPOINTS
 62
     0
100
AcDbPoint
 10
-113.188543732961
 20
6.00024654791472
 30
0.0
  0
POINT
  5
40F6
330
3294
100
AcDbEntity
  8
DEFPOINTS
 62
     0
100
AcDbPoint
 10
-113.188543732961
 20
-6.000249871484605
 30
0.0
  0
POINT
  5
40F7
330
3294
100
AcDbEntity
  8
DEFPOINTS
 62
     0
100
AcDbPoint
 10
-129.6816223813938
 20
-6.000249871484601
 30
0.0
  0
ENDBLK
  5
32A1
330
3294
100
AcDbEntity
  8
0
100
AcDbBlockEnd
  0
BLOCK
  5
3FC7
330
3FB7
100
AcDbEntity
  8
0
100
AcDbBlockBegin
  2
*D14
 70
     1
 10
0.0
 20
0.0
 30
0.0
  3
*D14
  1

  0
LINE
  5
40B7
330
3FB7
100
AcDbEntity
  8
AM_5
100
AcDbLine
 10
-21.90043045688768
 20
6.244878133530058
 30
0.0
 11
-44.57075131200915
 21
28.91519898865146
 31
0.0
  0
LINE
  5
40B8
330
3FB7
100
AcDbEntity
  8
AM_5
100
AcDbLine
 10
-21.90043045482191
 20
-6.311636054792987
 30
0.0
 11
-44.57075114287056
 21
-28.98195700775449
 31
0.0
  0
ARC
  5
40B9
330
3FB7
100
AcDbEntity
  8
AM_5
100
AcDbCircle
 10
-15.62217339837538
 20
-0.0333789249822177
 30
0.0
 40
40.43947149687505
100
AcDbArc
 50
136.7711056367743
 51
223.2288946979891
  0
INSERT
  5
40BA
330
3FB7
100
AcDbEntity
  8
AM_5
100
AcDbBlockReference
  2
_OPEN30
 10
-44.21719792141588
 20
28.56164559805819
 30
0.0
 41
1.25
 42
1.25
 43
1.25
 50
45.88555281838717
  0
INSERT
  5
40BB
330
3FB7
100
AcDbEntity
  8
AM_5
100
AcDbBlockReference
  2
_OPEN30
 10
-44.217197754343
 20
-28.6284036150955
 30
0.0
 41
1.25
 42
1.25
 43
1.25
 50
314.1144475163763
  0
MTEXT
  5
40BC
330
3FB7
100
AcDbEntity
  8
AM_5
 62
     2
100
AcDbMText
 10
-57.61164489525043
 20
-0.0333790431205813
 30
0.0
 40
1.6
 41
0.0
 71
     5
 72
     1
  1
90°
  7
ASAMI
 11
-0.0000000000000028
 21
1.0
 31
0.0
1001
ACAD
1000
MTEXTBEGIN
1070
    73
1070
     1
1070
    44
1040
1.0
1070
    74
1070
     0
1000
MTEXTEND
  0
POINT
  5
40BD
330
3FB7
100
AcDbEntity
  8
DEFPOINTS
 62
     0
100
AcDbPoint
 10
-54.68370327791906
 20
-10.49988447440434
 30
0.0
  0
POINT
  5
40BE
330
3FB7
100
AcDbEntity
  8
DEFPOINTS
 62
     0
100
AcDbPoint
 10
-19.90555232335787
 20
4.250000000000329
 30
0.0
  0
POINT
  5
40BF
330
3FB7
100
AcDbEntity
  8
DEFPOINTS
 62
     0
100
AcDbPoint
 10
-19.79662889666414
 20
-4.207834472051281
 30
0.0
  0
POINT
  5
40C0
330
3FB7
100
AcDbEntity
  8
DEFPOINTS
 62
     0
100
AcDbPoint
 10
-21.54687706629437
 20
-5.958082662133932
 30
0.0
  0
POINT
  5
40C1
330
3FB7
100
AcDbEntity
  8
DEFPOINTS
 62
     0
100
AcDbPoint
 10
-21.54687706629439
 20
5.891324742936852
 30
0.0
  0
ENDBLK
  5
3FC8
330
3FB7
100
AcDbEntity
  8
0
100
AcDbBlockEnd
  0
ENDSEC
  0
SECTION
  2
ENTITIES
  0
TEXT
  5
19BD
330
1F
100
AcDbEntity
  8
AM_6
100
AcDbText
 10
-69.80878182819904
 20
-49.01904765806866
 30
0.0
 40
2.5
  1
MDW085S2HG
 50
0.0000000000001527
 72
     4
 11
-57.54687706629428
 21
-47.76904765806863
 31
0.0
100
AcDbText
  0
DIMENSION
  5
31FC
330
1F
100
AcDbEntity
  8
AM_5
100
AcDbDimension
  2
*D8
 10
-0.2869274775186525
 20
0.7883267720540062
 30
0.0
 11
21.54725265415172
 21
-0.0000063736929032
 31
0.0
 70
    34
  1
<>
  3
AM_JIS$2
100
AcDb2LineAngularDimension
 13
-0.0000006834663893
 23
0.0000013669331338
 33
0.0
 14
-0.286932261784635
 24
-0.7883349736532637
 34
0.0
 15
-0.0000000000000213
 25
0.0
 35
0.0
 16
21.20827357805945
 26
9.148346513050567
 36
0.0
1001
ACAD
1000
DSTYLE
1002
{
1070
   179
1070
     3
1002
}
1001
GENIUS_GENDTOL_13
1000

1000
h7
1000

1040
0.0
  0
DIMENSION
  5
31FD
330
1F
100
AcDbEntity
  8
AM_5
100
AcDbDimension
  2
*D9
 10
-21.54687706629423
 20
-21.70952382903428
 30
0.0
 11
-11.54688327248281
 21
-21.70952382903428
 31
0.0
 70
   160
  1
<>
  3
AM_JIS$0
100
AcDbAlignedDimension
 13
-1.546864653917121
 23
-4.249999999999947
 33
0.0
 14
-21.54687706629423
 24
-6.624775203706736
 34
0.0
 50
180.0
100
AcDbRotatedDimension
1001
GENIUS_GENDTOL_13
1000

1000
h7
1000

1040
0.0
1001
ACAD
1000
DSTYLE
1002
{
1070
   271
1070
     3
1002
}
  0
DIMENSION
  5
31FE
330
1F
100
AcDbEntity
  8
AM_5
100
AcDbDimension
  2
*D10
 10
11.22083449889053
 20
4.250000000000071
 30
0.0
 11
11.22083449889053
 21
0.000008968462379
 31
0.0
 70
   160
  1
%%C<>
  3
AM_JIS$0
100
AcDbAlignedDimension
 13
-1.546877066294257
 23
-4.249982063075285
 33
0.0
 14
-1.546864653917177
 24
4.250000000000074
 34
0.0
 50
90.0
100
AcDbRotatedDimension
1001
ACAD
1000
DSTYLE
1002
{
1070
   271
1070
     1
1002
}
1001
GENIUS_GENDTOL_13
1000

1000
h7
1000

1040
0.0
  0
LINE
  5
31FF
330
1F
100
AcDbEntity
  8
AM_0
100
AcDbLine
 10
-47.24066564963552
 20
6.000246547914833
 30
0.0
 11
-113.188543732961
 21
6.000246547914706
 31
0.0
  0
LINE
  5
3200
330
1F
100
AcDbEntity
  8
AM_0
100
AcDbLine
 10
-46.2833100460612
 20
-6.000249000166941
 30
0.0
 11
-113.1885437329609
 21
-6.000251191222137
 31
0.0
  0
LINE
  5
3201
330
1F
100
AcDbEntity
  8
AM_7
100
AcDbLine
 10
3.226237378435541
 20
0.0
 30
0.0
 11
-117.5419117709249
 21
-0.0000000000002926
 31
0.0
  0
DIMENSION
  5
3202
330
1F
100
AcDbEntity
  8
AM_5
100
AcDbDimension
  2
*D11
 10
-113.5468770662943
 20
-37.76904765806863
 30
0.0
 11
-57.5468770662943
 21
-36.06904765806862
 31
0.0
 70
    32
  1
<>
  3
AM_JIS$0
100
AcDbAlignedDimension
 13
-1.546877066294257
 23
-4.749999999999947
 33
0.0
 14
-113.5468770662943
 24
-5.562729356585485
 34
0.0
 50
180.0
100
AcDbRotatedDimension
1001
GENIUS_GENDTOL_13
1000

1000
h7
1000

1040
0.0
1001
ACAD
1000
DSTYLE
1002
{
1070
   271
1070
     1
1002
}
  0
DIMENSION
  5
320B
330
1F
100
AcDbEntity
  8
AM_5
100
AcDbDimension
  2
*D12
 10
-51.54538274219657
 20
-30.15855345623026
 30
0.0
 11
-26.54612990424541
 21
-28.45855345623026
 31
0.0
 70
    32
  1
<>
  3
AM_JIS$0
100
AcDbAlignedDimension
 13
-1.546877066294257
 23
-4.249999999999947
 33
0.0
 14
-51.54538274219657
 24
-4.222158762226673
 34
0.0
 50
180.0
100
AcDbRotatedDimension
1001
GENIUS_GENDTOL_13
1000

1000
h7
1000

1040
0.0
1001
ACAD
1000
DSTYLE
1002
{
1070
   271
1070
     1
1002
}
  0
LINE
  5
320C
330
1F
100
AcDbEntity
  8
AM_0
 48
0.5
100
AcDbLine
 10
-3.946363102162406
 20
4.250000000000075
 30
0.0
 11
-1.546864653917176
 21
4.250000000000075
 31
0.0
  0
LINE
  5
320D
330
1F
100
AcDbEntity
  8
AM_0
 48
0.5
100
AcDbLine
 10
-1.407378714147413
 20
3.683333873748516
 30
0.0
 11
-3.946312201074735
 21
3.683333873748516
 31
0.0
  0
LINE
  5
320E
330
1F
100
AcDbEntity
  8
AM_0
 48
0.5
100
AcDbLine
 10
-3.414946278070023
 20
-4.249999999999947
 30
0.0
 11
-1.54686465391712
 21
-4.249999999999947
 31
0.0
  0
LINE
  5
3212
330
1F
100
AcDbEntity
  8
AM_0
 48
0.5
100
AcDbLine
 10
-1.41796906789146
 20
-3.89582792917924
 30
0.0
 11
-1.546877066294257
 21
-4.249999999999947
 31
0.0
  0
ARC
  5
3213
330
1F
100
AcDbEntity
  8
AM_0
 48
0.5
100
AcDbCircle
 10
5.950836022694877
 20
5.254283746083603
 30
0.0
 40
7.492973645527968
100
AcDbArc
 50
190.4452443731646
 51
209.5547271424571
  0
LINE
  5
3214
330
1F
100
AcDbEntity
  8
AM_0
 48
0.5
100
AcDbLine
 10
-1.417974472045541
 20
3.895852247874166
 30
0.0
 11
-1.546874364217245
 21
4.249997297922949
 31
0.0
  0
ARC
  5
3215
330
1F
100
AcDbEntity
  8
AM_0
 48
0.5
100
AcDbCircle
 10
5.950836022694904
 20
-5.254286448160375
 30
0.0
 40
7.492973645527968
100
AcDbArc
 50
150.4452250462215
 51
169.5547078155142
  0
LINE
  5
3216
330
1F
100
AcDbEntity
  8
AM_0
 48
0.5
100
AcDbLine
 10
-0.0000023345159323
 20
-0.0000000000000078
 30
0.0
 11
-2.062083259592171
 21
1.653442258420353
 31
0.0
  0
LINE
  5
3217
330
1F
100
AcDbEntity
  8
AM_0
 48
0.5
100
AcDbLine
 10
-0.0000013510381721
 20
0.0000027020771326
 30
0.0
 11
-0.5671916802719138
 21
-1.558336575826211
 31
0.0
  0
LINE
  5
3218
330
1F
100
AcDbEntity
  8
AM_0
 48
0.5
100
AcDbLine
 10
-0.0000000000000029
 20
0.0000000000000076
 30
0.0
 11
-0.5671822230019766
 21
1.558320363362578
 31
0.0
  0
ELLIPSE
  5
3219
330
1F
100
AcDbEntity
  8
AM_0
 48
0.5
100
AcDbEllipse
 10
3.293301857656376
 20
-0.9447164535519465
 30
0.0
 11
-0.000000000000082
 21
-6.800000270207685
 31
0.0
210
0.0
220
0.0
230
1.0
 40
0.8144800295859891
 41
-1.443613828220574
 42
-1.063207999863884
  0
ELLIPSE
  5
321A
330
1F
100
AcDbEntity
  8
AM_0
 48
0.5
100
AcDbEllipse
 10
-5.176296487117867
 20
5.56418693551909
 30
0.0
 11
16.25724536222456
 21
13.74069398590751
 31
0.0
210
0.0
220
0.0
230
1.0
 40
0.3566671075771178
 41
4.664193379463919
 42
4.72937592476327
  0
ELLIPSE
  5
321B
330
1F
100
AcDbEntity
  8
AM_0
 48
0.5
100
AcDbEllipse
 10
-6.279069312203464
 20
7.133040746052795
 30
0.0
 11
-0.000000000018823
 21
-10.2472002903641
 31
0.0
210
0.0
220
0.0
230
1.0
 40
0.8144800295862856
 41
0.5105833252303227
 42
0.5990781029097283
  0
ELLIPSE
  5
321C
330
1F
100
AcDbEntity
  8
AM_0
 48
0.5
100
AcDbEllipse
 10
-1.318308424555485
 20
-1.107611179352068
 30
0.0
 11
0.0901834202109056
 21
-0.6992950546401459
 31
0.0
210
0.0
220
0.0
230
1.0
 40
0.4109961598300526
 41
-1.300749870782985
 42
1.834592018928995
  0
ELLIPSE
  5
321D
330
1F
100
AcDbEntity
  8
AM_0
 48
0.5
100
AcDbEllipse
 10
-1.318308424555485
 20
-1.107611179352068
 30
0.0
 11
0.4752510688805325
 21
-0.3927388356804253
 31
0.0
210
0.0
220
0.0
230
1.0
 40
0.5375531060333493
 41
1.479250058199623
 42
4.62269039952912
  0
DIMENSION
  5
323E
330
1F
100
AcDbEntity
  8
AM_5
100
AcDbDimension
  2
*D13
 10
-129.6816223813938
 20
-6.000249871484601
 30
0.0
 11
-131.3816223813938
 21
-0.0000016617849584
 31
0.0
 70
    32
  1
%%C<>
  3
AM_JIS$0
100
AcDbAlignedDimension
 13
-113.188543732961
 23
6.00024654791472
 33
0.0
 14
-113.188543732961
 24
-6.000249871484605
 34
0.0
 50
270.0
100
AcDbRotatedDimension
1001
ACAD
1000
DSTYLE
1002
{
1070
   271
1070
     1
1002
}
1001
GENIUS_GENDTOL_13
1000

1000
h7
1000

1040
0.0
  0
LINE
  5
323F
330
1F
100
AcDbEntity
  8
AM_0
100
AcDbLine
 10
-113.188543732961
 20
-6.000249871484605
 30
0.0
 11
-113.188543732961
 21
6.000246547914719
 31
0.0
  0
LINE
  5
3240
330
1F
100
AcDbEntity
  8
AM_0
 48
0.5
100
AcDbLine
 10
-113.5468770662943
 20
-0.0000000000002494
 30
0.0
 11
-113.5468770662943
 21
-5.562729356585485
 31
0.0
  0
LINE
  5
3241
330
1F
100
AcDbEntity
  8
AM_0
 48
0.5
100
AcDbLine
 10
-113.5468770662943
 20
-0.0000000000002494
 30
0.0
 11
-113.5468770662943
 21
5.562726002255096
 31
0.0
  0
LINE
  5
3242
330
1F
100
AcDbEntity
  8
AM_0
100
AcDbLine
 10
-113.5468770662943
 20
5.562726002255096
 30
0.0
 11
-113.188543732961
 21
6.000246547914719
 31
0.0
1001
GENIUS_GENFIL_13
1070
     0
1040
1.0
1040
1.0
1040
20.0
1040
0.0
1002
{
1002
}
1001
GENIUS_GENODEF_13
1002
{
1000
HIER
1070
     0
1002
}
1002
{
1000
MANEDIT
1070
     0
1002
}
1002
{
1000
NOSEL
1070
     0
1002
}
1002
{
1000
BEHIND
1070
     0
1002
}
1002
{
1000
REACTOR
1002
}
1001
GENIUS_GENOBJ-N-CHA_13
1002
{
1000
OWNER
1000
GEN
1002
}
  0
LINE
  5
3243
330
1F
100
AcDbEntity
  8
AM_0
 48
0.5
100
AcDbLine
 10
-113.188543732961
 20
-6.000249871484605
 30
0.0
 11
-113.5468770662943
 21
-5.562729356585485
 31
0.0
1001
GENIUS_GENFIL_13
1070
     0
1040
1.0
1040
1.0
1040
20.0
1040
0.0
1002
{
1002
}
1001
GENIUS_GENODEF_13
1002
{
1000
HIER
1070
     0
1002
}
1002
{
1000
MANEDIT
1070
     0
1002
}
1002
{
1000
NOSEL
1070
     0
1002
}
1002
{
1000
BEHIND
1070
     0
1002
}
1002
{
1000
REACTOR
1002
}
1001
GENIUS_GENOBJ-N-CHA_13
1002
{
1000
OWNER
1000
GEN
1002
}
  0
LINE
  5
37E0
330
1F
100
AcDbEntity
  8
AM_0
100
AcDbLine
 10
-49.05344472231432
 20
6.000246547914829
 30
0.0
 11
-68.29591442933483
 21
6.000246547914708
 31
0.0
  0
ELLIPSE
  5
3B09
330
1F
100
AcDbEntity
  8
AM_0
 48
0.5
100
AcDbEllipse
 10
1.97708297461844
 20
5.102386474609371
 30
0.0
 11
1.048520311472036
 21
8.266397499422602
 31
0.0
210
0.0
220
0.0
230
1.0
 40
0.8466078179710084
 41
2.225987634979885
 42
2.658835137844322
  0
SPLINE
  5
3B0A
330
1F
100
AcDbEntity
  8
AM_0
 48
0.5
100
AcDbSpline
210
0.0
220
0.0
230
1.0
 70
     8
 71
     3
 72
    10
 73
     6
 74
     0
 42
0.0000000001
 43
0.0000000001
 40
0.0
 40
0.0
 40
0.0
 40
0.0
 40
2.69986029516136
 40
4.147722969032201
 40
6.285750005020438
 40
6.285750005020438
 40
6.285750005020438
 40
6.285750005020438
 10
-4.210934180451393
 20
0.7692273457844989
 30
0.0
 10
-3.783986379583911
 20
0.3743729769607704
 30
0.0
 10
-3.128077922613162
 20
-0.2322312010137004
 30
0.0
 10
-1.576942531646206
 20
0.0614365083524181
 30
0.0
 10
-1.869066443319848
 20
1.050548211519432
 30
0.0
 10
-2.062083259592172
 20
1.653442258420354
 30
0.0
  0
SPLINE
  5
3B0B
330
1F
100
AcDbEntity
  8
AM_0
100
AcDbSpline
210
0.0
220
0.0
230
1.0
 70
     8
 71
     3
 72
    17
 73
    13
 74
     0
 42
0.0000000001
 43
0.0000000001
 40
1.580019955310467
 40
1.580019955310467
 40
1.580019955310467
 40
1.580019955310467
 40
2.030549285115227
 40
3.082371838836284
 40
4.126290986361125
 40
5.162752068350215
 40
6.192395305374981
 40
7.216039564037012
 40
8.234688489606833
 40
9.249433870634691
 40
10.26152376260694
 40
11.27226744710342
 40
11.27226744710342
 40
11.27226744710342
 40
11.27226744710352
 10
-9.161088122926861
 20
-3.136625148009001
 30
0.0
 10
-9.245961347416386
 20
-3.168929781320078
 30
0.0
 10
-9.529466431406252
 20
-3.274812531897865
 30
0.0
 10
-10.0134799160956
 20
-3.440893414729624
 30
0.0
 10
-10.61300221916896
 20
-3.626881971365032
 30
0.0
 10
-11.21268957017107
 20
-3.790155230084167
 30
0.0
 10
-11.81240439863824
 20
-3.930164882588229
 30
0.0
 10
-12.41218456496119
 20
-4.045892491903392
 30
0.0
 10
-13.01200616837471
 20
-4.136677651591931
 30
0.0
 10
-13.61186512148279
 20
-4.201932043442306
 30
0.0
 10
-14.21174664531424
 20
-4.241235617355923
 30
0.0
 10
-14.61176472549187
 20
-4.250000024318664
 30
0.0
 10
-14.81164065260005
 20
-4.249999999999864
 30
0.0
  0
SPLINE
  5
3B0C
330
1F
100
AcDbEntity
  8
AM_0
 48
0.5
100
AcDbSpline
210
0.0
220
0.0
230
1.0
 70
     8
 71
     3
 72
    16
 73
    12
 74
     0
 42
0.0000000001
 43
0.0000000001
 40
0.0
 40
0.0
 40
0.0
 40
0.0
 40
1.010743614677189
 40
2.022833924044153
 40
3.037578959561199
 40
4.056212747067873
 40
5.079857613375832
 40
6.109500119648989
 40
7.14596120163808
 40
8.18989512056258
 40
8.362086094421943
 40
8.362086094421943
 40
8.362086094421943
 40
8.362086094421943
 10
-3.51137193885662
 20
3.683333873748536
 30
0.0
 10
-3.711236793174424
 20
3.6833083348641
 30
0.0
 10
-4.111271313077413
 20
3.67458770675312
 30
0.0
 10
-4.711145785635491
 20
3.63525672216206
 30
0.0
 10
-5.311003907349196
 20
3.57001423378657
 30
0.0
 10
-5.910822366639987
 20
3.479226968192647
 30
0.0
 10
-6.510597428528885
 20
3.363490324187769
 30
0.0
 10
-7.110318861127811
 20
3.223505925395022
 30
0.0
 10
-7.709986886659385
 20
3.060155501068361
 30
0.0
 10
-8.141204462424015
 20
2.926601720001295
 30
0.0
 10
-8.372992143038848
 20
2.85007467902458
 30
0.0
 10
-8.405790470383287
 20
2.839151711163711
 30
0.0
  0
LINE
  5
3B0D
330
1F
100
AcDbEntity
  8
AM_7
 48
0.5
100
AcDbLine
 10
-14.81164065260011
 20
4.250000000000158
 30
0.0
 11
-3.511417229913648
 21
4.250000000000095
 31
0.0
  0
LINE
  5
3B0E
330
1F
100
AcDbEntity
  8
AM_7
 48
0.5
100
AcDbLine
 10
-14.8116406526001
 20
-4.249999999999864
 30
0.0
 11
-3.511417229913633
 21
-4.249999999999928
 31
0.0
  0
SPLINE
  5
3B0F
330
1F
100
AcDbEntity
  8
AM_0
 48
0.5
100
AcDbSpline
210
0.0
220
0.0
230
1.0
 70
     8
 71
     3
 72
    25
 73
    21
 74
     0
 42
0.0000000001
 43
0.0000000001
 40
6.846175049578289
 40
6.846175049578289
 40
6.846175049578289
 40
6.846175049578289
 40
7.604337694224321
 40
8.711974558287883
 40
9.814980593243754
 40
10.91239053451967
 40
12.0033633515982
 40
13.08720139956839
 40
14.16337181880432
 40
15.23152222380919
 40
16.29148850140128
 40
17.34331105512262
 40
18.38723020264746
 40
19.42369128463655
 40
20.45333379090873
 40
21.47697865721768
 40
22.49561244472435
 40
23.5103574802404
 40
24.52244778960836
 40
25.53320666051913
 40
25.53320666051913
 40
25.53320666051913
 40
25.53320666051913
 10
-4.211030088302234
 20
0.7692778241160846
 30
0.0
 10
-4.347302638795808
 20
0.8439002655188742
 30
0.0
 10
-4.682949210691118
 20
1.026795551029166
 30
0.0
 10
-5.218468610487729
 20
1.314006988427103
 30
0.0
 10
-5.817693591002807
 20
1.62729095238841
 30
0.0
 10
-6.416948706931364
 20
1.930565579887863
 30
0.0
 10
-7.016239106991612
 20
2.221966167964336
 30
0.0
 10
-7.615571468757549
 20
2.499694921211073
 30
0.0
 10
-8.214951334171026
 20
2.76203911414836
 30
0.0
 10
-8.814381478045056
 20
3.007386451823163
 30
0.0
 10
-9.413869283821339
 20
3.234210059397948
 30
0.0
 10
-10.01341393972181
 20
3.441119045989382
 30
0.0
 10
-10.61301975214987
 20
3.626822301687196
 30
0.0
 10
-11.21268460506913
 20
3.790170537995245
 30
0.0
 10
-11.81240615588553
 20
3.930162547095212
 30
0.0
 10
-12.41218106743051
 20
4.045870397017269
 30
0.0
 10
-13.01200000744733
 20
4.136764523866368
 30
0.0
 10
-13.61185636532245
 20
4.201610359886768
 30
0.0
 10
-14.21174040357969
 20
4.242416376513903
 30
0.0
 10
-14.61176166753439
 20
4.247473234978585
 30
0.0
 10
-14.81164065260009
 20
4.250000000000045
 30
0.0
  0
SPLINE
  5
3B10
330
1F
100
AcDbEntity
  8
AM_0
 48
0.5
100
AcDbSpline
210
0.0
220
0.0
230
1.0
 70
     8
 71
     3
 72
    17
 73
    13
 74
     0
 42
0.0000000001
 43
0.0000000001
 40
0.0
 40
0.0
 40
0.0
 40
0.0
 40
1.010743614677189
 40
2.022833924044153
 40
3.037578959561199
 40
4.056212747067873
 40
5.079857613375832
 40
6.109500119648989
 40
7.14596120163808
 40
8.18989512056258
 40
9.241717674284874
 40
9.693948937866434
 40
9.693948937866434
 40
9.693948937866434
 40
9.693948937866434
 10
-3.511417229913635
 20
4.249999999999981
 30
0.0
 10
-3.711293196033874
 20
4.247473175228602
 30
0.0
 10
-4.111311439036287
 20
4.242416158994618
 30
0.0
 10
-4.711192470218942
 20
4.201610379115047
 30
0.0
 10
-5.311048804647731
 20
4.136764459273812
 30
0.0
 10
-5.910867833117487
 20
4.045870637569018
 30
0.0
 10
-6.510642411957361
 20
3.930161642857321
 30
0.0
 10
-7.110365215513763
 20
3.790173943448515
 30
0.0
 10
-7.710028194498694
 20
3.626808686459374
 30
0.0
 10
-8.309654618242859
 20
3.441165688872931
 30
0.0
 10
-8.793688703514128
 20
3.273929410129669
 30
0.0
 10
-9.077941897826489
 20
3.169382686285931
 30
0.0
 10
-9.163259456386672
 20
3.137381633983934
 30
0.0
  0
ELLIPSE
  5
3B11
330
1F
100
AcDbEntity
  8
AM_0
100
AcDbEllipse
 10
-25.10960849944962
 20
7.347601766072565
 30
0.0
 11
-2.912490390641375
 21
2.626487190974838
 31
0.0
210
0.0
220
0.0
230
1.0
 40
0.8800669307524366
 41
3.186444829332802
 42
3.52218189279284
  0
LINE
  5
3B12
330
1F
100
AcDbEntity
  8
AM_0
 48
0.5
100
AcDbLine
 10
-23.40326080330485
 20
6.000246547915031
 30
0.0
 11
-21.54511507251846
 21
5.891221359386024
 31
0.0
  0
SPLINE
  5
3B13
330
1F
100
AcDbEntity
  8
AM_0
100
AcDbSpline
210
0.0
220
0.0
230
1.0
 70
     8
 71
     3
 72
    12
 73
     8
 74
     0
 42
0.0000000001
 43
0.0000000001
 40
16.52159807216846
 40
16.52159807216846
 40
16.52159807216846
 40
16.52159807216846
 40
17.38177054169784
 40
18.41822485651776
 40
19.46214173629503
 40
20.51396345435107
 40
21.10941894199757
 40
21.10941894199757
 40
21.10941894199757
 40
21.10941894199757
 10
-23.07967907894813
 20
6.000246547915025
 30
0.0
 10
-22.9410151353881
 20
5.849672639093031
 30
0.0
 10
-22.63864084041944
 20
5.509140454057916
 30
0.0
 10
-22.18120164667582
 20
4.953764267482826
 30
0.0
 10
-21.70684359168136
 20
4.332674325841577
 30
0.0
 10
-21.22501737017503
 20
3.841528925237447
 30
0.0
 10
-21.00616281703275
 20
3.554969629126758
 30
0.0
 10
-20.38440869165826
 20
2.971268505228945
 30
0.0
  0
ELLIPSE
  5
3B14
330
1F
100
AcDbEntity
  8
AM_0
100
AcDbEllipse
 10
-10.77897046797777
 20
-0.455045073540874
 30
0.0
 11
0.0000000000044292
 21
10.89454658320532
 31
0.0
210
0.0
220
0.0
230
1.0
 40
0.9288031970066912
 41
1.124229503792042
 42
1.250868507930503
  0
LINE
  5
3B15
330
1F
100
AcDbEntity
  8
AM_0
100
AcDbLine
 10
-19.90555232335787
 20
4.250000000000329
 30
0.0
 11
-21.54687706629439
 21
5.891324742936852
 31
0.0
  0
ELLIPSE
  5
3B16
330
1F
100
AcDbEntity
  8
AM_0
100
AcDbEllipse
 10
-19.0181734978082
 20
54.44990578520759
 30
0.0
 11
1.338794236725589
 21
56.34947265037863
 31
0.0
210
0.0
220
0.0
230
1.0
 40
0.580717789911836
 41
3.078078361711001
 42
3.134366324086853
  0
ELLIPSE
  5
3B17
330
1F
100
AcDbEntity
  8
AM_0
100
AcDbEllipse
 10
-10.7122125687398
 20
0.4550450735412183
 30
0.0
 11
-0.0000000000014581
 21
10.89454658320517
 31
0.0
210
0.0
220
0.0
230
1.0
 40
0.9288031970066901
 41
1.787976445887694
 42
2.017363149798003
  0
LINE
  5
3B18
330
1F
100
AcDbEntity
  8
AM_0
 48
0.5
100
AcDbLine
 10
-23.13790915759345
 20
-6.000249161749686
 30
0.0
 11
-21.5468770881275
 21
-5.95808266271258
 31
0.0
  0
ELLIPSE
  5
3B1A
330
1F
100
AcDbEntity
  8
AM_0
100
AcDbEllipse
 10
-10.65224384811608
 20
0.416682892556722
 30
0.0
 11
0.8615043482323329
 21
15.19348555153675
 31
0.0
210
0.0
220
0.0
230
1.0
 40
0.7782182179120691
 41
1.756955177609598
 42
2.047431896578856
  0
LINE
  5
3B1B
330
1F
100
AcDbEntity
  8
AM_0
 48
0.5
100
AcDbLine
 10
-19.90555232335788
 20
4.250000000000317
 30
0.0
 11
-14.81164065260011
 21
4.250000000000158
 31
0.0
  0
LINE
  5
3B1C
330
1F
100
AcDbEntity
  8
AM_0
 48
0.5
100
AcDbLine
 10
-19.83879442427165
 20
-4.249999999999835
 30
0.0
 11
-14.8116406526001
 21
-4.249999999999864
 31
0.0
  0
SPLINE
  5
3B1D
330
1F
100
AcDbEntity
  8
AM_0
100
AcDbSpline
210
0.0
220
0.0
230
1.0
 70
     8
 71
     3
 72
    11
 73
     7
 74
     0
 42
0.0000000001
 43
0.0000000001
 40
11.27226913003534
 40
11.27226913003534
 40
11.27226913003534
 40
11.2722691300354
 40
12.28301561507924
 40
13.29510212255852
 40
14.30984805882082
 40
15.09690564740603
 40
15.09690564740603
 40
15.09690564740603
 40
15.09690564740603
 10
-14.81164065260011
 20
-4.249999999999864
 30
0.0
 10
-15.01075655303234
 20
-4.229199264957938
 30
0.0
 10
-15.40861278344543
 20
-4.178841590706416
 30
0.0
 10
-16.00334267366223
 20
-4.077257705799816
 30
0.0
 10
-17.80658394184671
 20
-3.355675904254534
 30
0.0
 10
-19.24577291022646
 20
-2.593229708487052
 30
0.0
 10
-20.59339892165352
 20
-1.892477446384938
 30
0.0
  0
SPLINE
  5
3B1E
330
1F
100
AcDbEntity
  8
AM_0
100
AcDbSpline
210
0.0
220
0.0
230
1.0
 70
     8
 71
     3
 72
    33
 73
    29
 74
     0
 42
0.0000000001
 43
0.0000000001
 40
0.0
 40
0.0
 40
0.0
 40
0.0
 40
1.010743684496582
 40
2.022833576467832
 40
3.037578957496688
 40
4.056212745003489
 40
5.079857003664532
 40
6.109500240690281
 40
7.145961322679372
 40
8.189895241603872
 40
9.241717795325891
 40
10.30168407291828
 40
11.36983447792315
 40
12.44600489715814
 40
13.52984294512926
 40
14.62081576220742
 40
15.7182257034828
 40
16.82123173843959
 40
17.92886860250316
 40
19.0400688939571
 40
20.15368796660465
 40
21.26852814259644
 40
22.38336992938901
 40
23.49698739941135
 40
24.6081876908653
 40
25.71582455492886
 40
26.81883757994213
 40
27.56016774795276
 40
27.56016774795276
 40
27.56016774795276
 40
27.56016774795276
 10
-3.511417229913648
 20
-4.249999999999929
 30
0.0
 10
-3.711293159658838
 20
-4.247471352962504
 30
0.0
 10
-4.111311233496894
 20
-4.242410690987719
 30
0.0
 10
-4.711192770052185
 20
-4.20161607416476
 30
0.0
 10
-5.311048699926511
 20
-4.136763290159114
 30
0.0
 10
-5.91086750460797
 20
-4.045869646838083
 30
0.0
 10
-6.510643198849153
 20
-3.930166927335226
 30
0.0
 10
-7.110363950416571
 20
-3.790169643205806
 30
0.0
 10
-7.710031765349596
 20
-3.626820866054941
 30
0.0
 10
-8.309641325806557
 20
-3.441120865637543
 30
0.0
 10
-8.909188547353556
 20
-3.234209828690897
 30
0.0
 10
-9.508676418402135
 20
-3.007386514405237
 30
0.0
 10
-10.10810654450026
 20
-2.762039097013945
 30
0.0
 10
-10.70748641504729
 20
-2.49969492651278
 30
0.0
 10
-11.30681877422748
 20
-2.221966164038189
 30
0.0
 10
-11.90610917949272
 20
-1.930565590336669
 30
0.0
 10
-12.50536427705471
 20
-1.627290914239398
 30
0.0
 10
-13.10458932629615
 20
-1.314007131514694
 30
0.0
 10
-13.70379014276436
 20
-0.9926410592968011
 30
0.0
 10
-14.30297313816277
 20
-0.6651706675799955
 30
0.0
 10
-14.90214356789658
 20
-0.3336091097539187
 30
0.0
 10
-15.50130989318038
 20
-0.0000008671543177
 30
0.0
 10
-16.10047352870869
 20
0.3336133806017291
 30
0.0
 10
-16.6996459667312
 20
0.6651697751372652
 30
0.0
 10
-17.29882822243015
 20
0.9926411580883199
 30
0.0
 10
-17.8980301072668
 20
1.314008454567731
 30
0.0
 10
-18.20360235718408
 20
1.593567964905861
 30
0.0
 10
-18.52978836540775
 20
1.764273797037171
 30
0.0
 10
-20.38440869166283
 20
2.97126850523238
 30
0.0
  0
SPLINE
  5
3B1F
330
1F
100
AcDbEntity
  8
AM_0
100
AcDbSpline
210
0.0
220
0.0
230
1.0
 70
     8
 71
     3
 72
    37
 73
    33
 74
     0
 42
0.0000000001
 43
0.0000000001
 40
0.0
 40
0.0
 40
0.0
 40
0.0
 40
2.022498070421493
 40
3.03724345144935
 40
4.055877238956151
 40
5.079521497617194
 40
6.109164734642943
 40
7.145625816632033
 40
8.189544964155905
 40
9.24138217828764
 40
10.30134845588002
 40
11.3694988608849
 40
12.44566928012083
 40
13.52950732809102
 40
14.62048014516917
 40
15.71789008644548
 40
16.82089612140135
 40
17.92853298546491
 40
19.03973327691977
 40
20.1533523495664
 40
21.2681925255582
 40
22.3830327015509
 40
23.49665177419753
 40
24.60785206565148
 40
25.71548892971504
 40
26.81849496467183
 40
27.91590490594683
 40
29.00687772302536
 40
30.09072288467331
 40
31.16689330390925
 40
32.23504370891412
 40
32.37258236425404
 40
32.37258236425404
 40
32.37258236425404
 40
32.37258236425404
 10
-1.832156543362707
 20
-4.249999999999937
 30
0.0
 10
-2.232194161446357
 20
-4.240318171471127
 30
0.0
 10
-2.832942144164879
 20
-4.225778691445185
 30
0.0
 10
-3.631782934346135
 20
-4.136261783969892
 30
0.0
 10
-4.231608183458344
 20
-4.046004928681966
 30
0.0
 10
-4.831382161790834
 20
-3.930130458052612
 30
0.0
 10
-5.431103289333579
 20
-3.790179196888712
 30
0.0
 10
-6.030768485201611
 20
-3.626820231445986
 30
0.0
 10
-6.630376745045705
 20
-3.441117741684509
 30
0.0
 10
-7.229925400397423
 20
-3.23421196838138
 30
0.0
 10
-7.829415649610709
 20
-3.007386217872372
 30
0.0
 10
-8.42884588023902
 20
-2.762039177380025
 30
0.0
 10
-9.028225722449782
 20
-2.499694904720404
 30
0.0
 10
-9.6275580893488
 20
-2.221966170027472
 30
0.0
 10
-10.22684849235616
 20
-1.930565588374113
 30
0.0
 10
-10.82610359116499
 20
-1.627290916059831
 30
0.0
 10
-11.42532863767728
 20
-1.314007126174505
 30
0.0
 10
-12.0245294638646
 20
-0.9926410789385876
 30
0.0
 10
-12.6237124229639
 20
-0.6651705940656639
 30
0.0
 10
-13.22288298855062
 20
-0.3336093848456709
 30
0.0
 10
-13.82204851740379
 20
-0.0000000000674465
 30
0.0
 10
-14.4212140461253
 20
0.3336093851163029
 30
0.0
 10
-15.02038461210681
 20
0.6651705931204515
 30
0.0
 10
-15.61956756976302
 20
0.9926410824361708
 30
0.0
 10
-16.21876840130154
 20
1.314007113196136
 30
0.0
 10
-16.81799342797206
 20
1.627290964171785
 30
0.0
 10
-17.41724860026171
 20
1.930565410246987
 30
0.0
 10
-18.01654003429627
 20
2.221967462253574
 30
0.0
 10
-18.37673702311762
 20
2.499693673640135
 30
0.0
 10
-18.97611793453015
 20
2.7620392915113
 30
0.0
 10
-19.13757288732024
 20
2.936757604485968
 30
0.0
 10
-19.36411351568975
 20
3.025496706118171
 30
0.0
 10
-20.22473712685445
 20
3.452100905701732
 30
0.0
  0
ELLIPSE
  5
3B65
330
1F
100
AcDbEntity
  8
AM_0
100
AcDbEllipse
 10
-32.33529643350102
 20
-4.132280193116736
 30
0.0
 11
-0.0000000000339176
 21
1.441443658178143
 31
0.0
210
0.0
220
0.0
230
1.0
 40
0.8180457544940914
 41
3.427918371515771
 42
3.631632084743036
  0
LINE
  5
3B66
330
1F
100
AcDbEntity
  8
AM_0
100
AcDbLine
 10
-31.78030895593127
 20
-5.404086546227293
 30
0.0
 11
-30.02086425498164
 21
-4.256771668319833
 31
0.0
  0
SPLINE
  5
3B67
330
1F
100
AcDbEntity
  8
AM_0
 48
0.5
100
AcDbSpline
210
0.0
220
0.0
230
1.0
 70
     8
 71
     3
 72
    15
 73
    11
 74
     0
 42
0.0000000001
 43
0.0000000001
 40
7.907745354493536
 40
7.907745354493536
 40
7.907745354493536
 40
7.907745354493536
 40
8.189873411961459
 40
9.241710626092514
 40
10.30166235592959
 40
11.36982472628033
 40
12.44598212828784
 40
13.52983440361964
 40
14.62080578343036
 40
14.90544694398022
 40
14.90544694398022
 40
14.90544694398022
 40
14.90544694398022
 10
-28.68200165852682
 20
-4.938353380205053
 30
0.0
 10
-28.74630252191099
 20
-4.910471241195895
 30
0.0
 10
-29.05002509127374
 20
-4.776761093481741
 30
0.0
 10
-29.59245683335058
 20
-4.521240894922492
 30
0.0
 10
-30.30742979049136
 20
-4.151956061073615
 30
0.0
 10
-31.02233788313915
 20
-3.752567243676834
 30
0.0
 10
-31.7371805743142
 20
-3.325448792344215
 30
0.0
 10
-32.45197125575213
 20
-2.873321644990157
 30
0.0
 10
-32.98918640559012
 20
-2.516770470953185
 30
0.0
 10
-33.28854143393893
 20
-2.312977280902963
 30
0.0
 10
-34.69825742248252
 20
-1.495858907379093
 30
0.0
  0
SPLINE
  5
3B68
330
1F
100
AcDbEntity
  8
AM_0
 48
0.5
100
AcDbSpline
210
0.0
220
0.0
230
1.0
 70
     8
 71
     3
 72
    16
 73
    12
 74
     0
 42
0.0000000001
 43
0.0000000001
 40
0.0
 40
0.0
 40
0.0
 40
0.0
 40
1.010743614677189
 40
2.022833924044153
 40
3.037578959561199
 40
4.056212747067873
 40
5.079857613375832
 40
6.109500119648989
 40
7.14596120163808
 40
8.18989512056258
 40
8.545190612624931
 40
8.545190612624931
 40
8.545190612624931
 40
8.545190612624931
 10
-23.40326080330484
 20
6.000246547914786
 30
0.0
 10
-23.64162787917799
 20
6.000216500933993
 30
0.0
 10
-24.1187255614246
 20
5.98995651687142
 30
0.0
 10
-24.83416062079341
 20
5.943682868926587
 30
0.0
 10
-25.54957617947029
 20
5.866923846249723
 30
0.0
 10
-26.26494443510429
 20
5.760110909588076
 30
0.0
 10
-26.98026093320534
 20
5.623944556910052
 30
0.0
 10
-27.69551347080124
 20
5.459250261690923
 30
0.0
 10
-28.41070231292391
 20
5.267065395089622
 30
0.0
 10
-28.96679478562307
 20
5.097164435080387
 30
0.0
 10
-29.28464587318156
 20
4.992671137943913
 30
0.0
 10
-32.01910638054197
 20
4.312876004655287
 30
0.0
  0
SPLINE
  5
3B69
330
1F
100
AcDbEntity
  8
AM_0
 48
0.5
100
AcDbSpline
210
0.0
220
0.0
230
1.0
 70
     8
 71
     3
 72
    12
 73
     8
 74
     0
 42
0.0000000001
 43
0.0000000001
 40
3.172436591848706
 40
3.172436591848706
 40
3.172436591848706
 40
3.172436591848706
 40
4.056212471389632
 40
5.079857945358201
 40
6.109499720892564
 40
7.145961650132166
 40
7.907745354493536
 40
7.907745354493536
 40
7.907745354493536
 40
7.907745354493536
 10
-23.13790915759345
 20
-6.000249161749687
 30
0.0
 10
-24.85153269471016
 20
-6.003670737323118
 30
0.0
 10
-26.04794942570914
 20
-5.834338153459082
 30
0.0
 10
-26.73186225408643
 20
-5.65422837374505
 30
0.0
 10
-27.44711635172377
 20
-5.42633427359372
 30
0.0
 10
-28.09742029875627
 20
-5.18452342642931
 30
0.0
 10
-28.50838067824568
 20
-5.013638905971264
 30
0.0
 10
-28.68200165852682
 20
-4.938353380205053
 30
0.0
  0
LINE
  5
3B6A
330
1F
100
AcDbEntity
  8
AM_0
100
AcDbLine
 10
-33.35043810868892
 20
-6.000249067769649
 30
0.0
 11
-32.002264990829
 21
-5.515039903709523
 31
0.0
  0
SPLINE
  5
3B6B
330
1F
100
AcDbEntity
  8
AM_0
100
AcDbSpline
210
0.0
220
0.0
230
1.0
 70
     8
 71
     3
 72
     8
 73
     4
 74
     0
 42
0.0000000001
 43
0.0000000001
 40
16.03460024169435
 40
16.03460024169435
 40
16.03460024169435
 40
16.03460024169435
 40
16.03905285852473
 40
16.03905285852473
 40
16.03905285852473
 40
16.03905285852473
 10
-35.83731254119479
 20
6.001193711701264
 30
0.0
 10
-35.83628182252454
 20
6.000878108574863
 30
0.0
 10
-35.83525111836144
 20
6.000562388597484
 30
0.0
 10
-35.83422042871371
 20
6.000246551795332
 30
0.0
  0
LINE
  5
3B6C
330
1F
100
AcDbEntity
  8
AM_0
100
AcDbLine
 10
-35.83422042871374
 20
6.000246551795439
 30
0.0
 11
-36.33610033937057
 21
6.000246551795445
 31
0.0
  0
SPLINE
  5
3B6D
330
1F
100
AcDbEntity
  8
AM_0
 48
0.5
100
AcDbSpline
210
0.0
220
0.0
230
1.0
 70
     8
 71
     3
 72
    16
 73
    12
 74
     0
 42
0.0000000001
 43
0.0000000001
 40
0.0
 40
0.0
 40
0.0
 40
0.0
 40
1.010743614677189
 40
2.022833924044153
 40
3.037578959561199
 40
4.056212747067873
 40
5.079857613375832
 40
6.109500119648989
 40
7.14596120163808
 40
8.18989512056258
 40
8.493066654868243
 40
8.493066654868243
 40
8.493066654868243
 40
8.493066654868243
 10
-36.33613135275024
 20
6.000246547914861
 30
0.0
 10
-36.57449842862337
 20
6.000216500934072
 30
0.0
 10
-37.05159611086998
 20
5.989956516871497
 30
0.0
 10
-37.76703117023881
 20
5.943682868926663
 30
0.0
 10
-38.48244672891572
 20
5.866923846249798
 30
0.0
 10
-39.1978149845497
 20
5.76011090958815
 30
0.0
 10
-39.91313148265072
 20
5.623944556910184
 30
0.0
 10
-40.62838402024661
 20
5.459250261691053
 30
0.0
 10
-41.34357286236928
 20
5.267065395089751
 30
0.0
 10
-41.8877649147813
 20
5.100800328264762
 30
0.0
 10
-42.1938330771132
 20
5.000446724348562
 30
0.0
 10
-43.91145974303046
 20
4.571947469620763
 30
0.0
  0
ELLIPSE
  5
3B6E
330
1F
100
AcDbEntity
  8
AM_0
100
AcDbEllipse
 10
-45.26816698294641
 20
-4.132280193116635
 30
0.0
 11
-0.0000000000172052
 21
1.441443658179306
 31
0.0
210
0.0
220
0.0
230
1.0
 40
0.8180457544987959
 41
3.427918371527998
 42
3.631632084753699
  0
LINE
  5
3B6F
330
1F
100
AcDbEntity
  8
AM_0
100
AcDbLine
 10
-44.71317950537669
 20
-5.404086546227189
 30
0.0
 11
-42.77359655537812
 21
-4.139305462588755
 31
0.0
  0
SPLINE
  5
3B70
330
1F
100
AcDbEntity
  8
AM_0
 48
0.5
100
AcDbSpline
210
0.0
220
0.0
230
1.0
 70
     8
 71
     3
 72
    15
 73
    11
 74
     0
 42
0.0000000001
 43
0.0000000001
 40
7.907745354493536
 40
7.907745354493536
 40
7.907745354493536
 40
7.907745354493536
 40
8.189873411961459
 40
9.241710626092514
 40
10.30166235592959
 40
11.36982472628033
 40
12.44598212828784
 40
13.52983440361964
 40
14.62080578343036
 40
14.90544694398022
 40
14.90544694398022
 40
14.90544694398022
 40
14.90544694398022
 10
-41.61487221717211
 20
-4.686365429701129
 30
0.0
 10
-41.67917308055625
 20
-4.65848329069197
 30
0.0
 10
-41.982895649919
 20
-4.524773142977815
 30
0.0
 10
-42.52532739199589
 20
-4.269252944418567
 30
0.0
 10
-43.24030034913664
 20
-3.899968110569689
 30
0.0
 10
-43.95520844178444
 20
-3.500579293172908
 30
0.0
 10
-44.67005113295946
 20
-3.07346084184029
 30
0.0
 10
-45.38484181439739
 20
-2.62133369448623
 30
0.0
 10
-45.92205696423538
 20
-2.264782520449259
 30
0.0
 10
-46.22141199258421
 20
-2.060989330399037
 30
0.0
 10
-46.28330865813427
 20
-2.018642919478542
 30
0.0
  0
ELLIPSE
  5
3B71
330
1F
100
AcDbEntity
  8
AM_0
100
AcDbEllipse
 10
-48.34759888377714
 20
-3.779910710315282
 30
0.0
 11
3.197783866606892
 21
0.1922384034748771
 31
0.0
210
0.0
220
0.0
230
1.0
 40
0.6924354690120513
 41
0.828197737627461
 42
4.670786455030318
  0
SPLINE
  5
3B72
330
1F
100
AcDbEntity
  8
AM_0
 48
0.5
100
AcDbSpline
210
0.0
220
0.0
230
1.0
 70
     8
 71
     3
 72
    15
 73
    11
 74
     0
 42
0.0000000001
 43
0.0000000001
 40
0.0
 40
0.0
 40
0.0
 40
0.0
 40
1.010743684496582
 40
2.022833993863546
 40
3.037578683882831
 40
4.056212471389632
 40
5.079857945358201
 40
6.109499720892564
 40
7.145961650132166
 40
7.907745354493536
 40
7.907745354493536
 40
7.907745354493536
 40
7.907745354493536
 10
-35.9397430791855
 20
-6.000249227503519
 30
0.0
 10
-36.32916476474443
 20
-5.945638578321494
 30
0.0
 10
-36.80319200751535
 20
-5.910586530474708
 30
0.0
 10
-37.51863474204848
 20
-5.844155070334291
 30
0.0
 10
-38.23404846079967
 20
-5.738593587505897
 30
0.0
 10
-38.94941750874743
 20
-5.59062010626653
 30
0.0
 10
-39.6647328127317
 20
-5.402240423241123
 30
0.0
 10
-40.37998691036906
 20
-5.174346323089794
 30
0.0
 10
-41.03029085740153
 20
-4.932535475925384
 30
0.0
 10
-41.44125123689092
 20
-4.761650955467338
 30
0.0
 10
-41.61487221717211
 20
-4.686365429701129
 30
0.0
  0
LINE
  5
3B73
330
1F
100
AcDbEntity
  8
AM_0
100
AcDbLine
 10
-46.28331004606117
 20
-6.000249865596726
 30
0.0
 11
-44.93513554027439
 21
-5.515039903709419
 31
0.0
  0
SPLINE
  5
3B74
330
1F
100
AcDbEntity
  8
AM_0
100
AcDbSpline
210
0.0
220
0.0
230
1.0
 70
     8
 71
     3
 72
    23
 73
    19
 74
     0
 42
0.0000000001
 43
0.0000000001
 40
16.03905285852473
 40
16.03905285852473
 40
16.03905285852473
 40
16.03905285852473
 40
16.35212704903564
 40
17.38177054169784
 40
18.41822485651776
 40
19.46214173629503
 40
20.51396345435107
 40
21.57393551351153
 40
22.64208202342361
 40
23.7182574881101
 40
24.80209208578934
 40
25.89306333925047
 40
26.99048218457928
 40
28.09348763352352
 40
29.20111863782268
 40
30.31232390128032
 40
31.42594612798585
 40
32.5407912310448
 40
32.5407912310486
 40
32.5407912310486
 40
32.5407912310486
 10
-35.8342514797005
 20
6.000246547914856
 30
0.0
 10
-35.76178121346582
 20
5.978039303301827
 30
0.0
 10
-35.4512773277448
 20
5.880319457136043
 30
0.0
 10
-34.90352469141702
 20
5.688644277271766
 30
0.0
 10
-34.19285606263735
 20
5.403091968515366
 30
0.0
 10
-33.48284753630772
 20
5.08246432253307
 30
0.0
 10
-32.77345715745802
 20
4.728616968602472
 30
0.0
 10
-32.06465974856655
 20
4.343522613643423
 30
0.0
 10
-31.35641434284186
 20
3.929382619388483
 30
0.0
 10
-30.64867162076583
 20
3.488607176722688
 30
0.0
 10
-29.94139136585491
 20
3.023692371279188
 30
0.0
 10
-29.23451687288662
 20
2.537343433983635
 30
0.0
 10
-28.52799085758789
 20
2.0323872349854
 30
0.0
 10
-27.82176624614541
 20
1.511727060737415
 30
0.0
 10
-27.1157839496038
 20
0.9783904788518134
 30
0.0
 10
-26.40997857905059
 20
0.4354917836804599
 30
0.0
 10
-25.70429266200481
 20
-0.1138230738499003
 30
0.0
 10
-25.23396174863497
 20
-0.4821086495980819
 30
0.0
 10
-22.43125563054023
 20
-1.986566212561504
 30
0.0
  0
LINE
  5
3B75
330
1F
100
AcDbEntity
  8
AM_0
100
AcDbLine
 10
-33.35043810868892
 20
-6.000249067769649
 30
0.0
 11
-35.93974307918533
 21
-6.00024922750352
 31
0.0
  0
LINE
  5
3C2A
330
1F
100
AcDbEntity
  8
AM_0
100
AcDbLine
 10
-19.79662889666414
 20
-4.207834472051281
 30
0.0
 11
-21.54687706629437
 21
-5.958082662133932
 31
0.0
  0
SPLINE
  5
3D90
330
1F
100
AcDbEntity
  8
AM_0
100
AcDbSpline
210
0.0
220
0.0
230
1.0
 70
     8
 71
     3
 72
    23
 73
    19
 74
     0
 42
0.0000000001
 43
0.0000000001
 40
16.03905285852473
 40
16.03905285852473
 40
16.03905285852473
 40
16.03905285852473
 40
16.35212704903564
 40
17.38177054169784
 40
18.41822485651776
 40
19.46214173629503
 40
20.51396345435107
 40
21.57393551351153
 40
22.64208202342361
 40
23.7182574881101
 40
24.80209208578934
 40
25.89306333925047
 40
26.99048218457928
 40
28.09348763352352
 40
29.20111863782268
 40
30.31232390128032
 40
31.42594612798585
 40
32.5407912310448
 40
32.5407912310486
 40
32.5407912310486
 40
32.5407912310486
 10
-47.24066564963552
 20
5.990933931833714
 30
0.0
 10
-47.16819538340085
 20
5.968726687220687
 30
0.0
 10
-46.85769149767984
 20
5.871006841054905
 30
0.0
 10
-46.30993886135207
 20
5.679331661190626
 30
0.0
 10
-45.59927023257237
 20
5.393779352434225
 30
0.0
 10
-44.88926170624275
 20
5.073151706451929
 30
0.0
 10
-44.17987132739304
 20
4.719304352521331
 30
0.0
 10
-43.47107391850157
 20
4.334209997562282
 30
0.0
 10
-42.76282851277691
 20
3.920070003307343
 30
0.0
 10
-42.05508579070087
 20
3.479294560641547
 30
0.0
 10
-41.34780553578995
 20
3.014379755198048
 30
0.0
 10
-40.64093104282165
 20
2.528030817902494
 30
0.0
 10
-39.93440502752292
 20
2.02307461890426
 30
0.0
 10
-39.22818041608045
 20
1.502414444656274
 30
0.0
 10
-38.52219811953885
 20
0.9690778627706729
 30
0.0
 10
-37.81639274898564
 20
0.4261791675993195
 30
0.0
 10
-37.11070683193984
 20
-0.1231356899310408
 30
0.0
 10
-36.64037591857002
 20
-0.4914212656792225
 30
0.0
 10
-33.83766980047527
 20
-1.995878828642644
 30
0.0
  0
DIMENSION
  5
3FB6
330
1F
100
AcDbEntity
  8
AM_5
100
AcDbDimension
  2
*D14
 10
-21.54687706629439
 20
5.891324742936852
 30
0.0
 11
-57.61164489525043
 21
-0.0333790431204044
 31
0.0
 70
    34
  1
<>
 51
359.9999999999998
  3
AM_JIS$2
100
AcDb2LineAngularDimension
 13
-19.79662889666414
 23
-4.207834472051281
 33
0.0
 14
-21.54687706629437
 24
-5.958082662133932
 34
0.0
 15
-19.90555232335787
 25
4.250000000000329
 35
0.0
 16
-54.68370327791906
 26
-10.49988447440434
 36
0.0
1001
ACAD
1000
DSTYLE
1002
{
1070
   179
1070
     3
1002
}
1001
GENIUS_GENDTOL_13
1000

1000
h7
1000

1040
0.0
  0
VIEWPORT
  5
110
330
101
100
AcDbEntity
 67
     1
  8
0
100
AcDbViewport
 10
420.5
 20
297.0
 30
0.0
 40
948.9782706766916
 41
628.452
 68
     1
 69
     1
1001
ACAD
1000
MVIEW
1002
{
1070
    16
1010
0.0
1020
0.0
1030
0.0
1010
0.0
1020
0.0
1030
1.0
1040
0.0
1040
628.452
1040
420.5
1040
297.0
1040
50.0
1040
0.0
1040
0.0
1070
     0
1070
   100
1070
     1
1070
     1
1070
     0
1070
     0
1070
     0
1070
     0
1040
0.0
1040
0.0
1040
0.0
1040
10.0
1040
10.0
1040
10.0
1040
10.0
1070
     0
1002
{
1002
}
1002
}
  0
ENDSEC
  0
SECTION
  2
OBJECTS
  0
DICTIONARY
  5
C
330
0
100
AcDbDictionary
  3
ACAD_GROUP
350
D
  3
ACAD_LAYOUT
350
1A
  3
ACAD_MLINESTYLE
350
17
  3
ACAD_PLOTSETTINGS
350
19
  3
ACAD_PLOTSTYLENAME
350
E
  3
ACDBVARIABLEDICTIONARY
350
34
  3
ACMDICTIONARY
350
43
  3
AMG
350
2B
  3
AMGSNAPSETTINGS
350
6E
  3
DWGPROPS
350
4155
  3
ACDBHEADERROUNDTRIPXREC
350
4164
  0
DICTIONARY
  5
74
330
1F
100
AcDbDictionary
280
     1
  3
ACAD_INDEX
360
4157
  3
ACAD_LAYOUTSELFREF
360
4187
  0
DICTIONARY
  5
418C
330
101
100
AcDbDictionary
280
     1
  3
ACAD_LAYOUTSELFREF
360
418D
  0
DICTIONARY
  5
D
102
{ACAD_REACTORS
330
C
102
}
330
C
100
AcDbDictionary
  0
DICTIONARY
  5
1A
102
{ACAD_REACTORS
330
C
102
}
330
C
100
AcDbDictionary
  0
DICTIONARY
  5
17
102
{ACAD_REACTORS
330
C
102
}
330
C
100
AcDbDictionary
  3
STANDARD
350
18
  0
DICTIONARY
  5
19
102
{ACAD_REACTORS
330
C
102
}
330
C
100
AcDbDictionary
  0
ACDBDICTIONARYWDFLT
  5
E
102
{ACAD_REACTORS
330
C
102
}
330
C
100
AcDbDictionary
281
     1
  3
Normal
350
F
100
AcDbDictionaryWithDefault
340
F
  0
DICTIONARY
  5
34
102
{ACAD_REACTORS
330
C
102
}
330
C
100
AcDbDictionary
  3
INDEXCTL
350
35
  3
SORTENTS
350
B5E
  0
DICTIONARY
  5
43
102
{ACAD_REACTORS
330
C
102
}
330
C
100
AcDbDictionary
  3
ACMSTDDICTIONARY
350
260
  0
DICTIONARY
  5
2B
102
{ACAD_REACTORS
330
C
102
}
330
C
100
AcDbDictionary
  3
ACMGSETTINGS
350
2C
  0
DICTIONARY
  5
6E
102
{ACAD_REACTORS
330
C
102
}
330
C
100
AcDbDictionary
  0
XRECORD
  5
4155
102
{ACAD_REACTORS
330
C
102
}
330
C
100
AcDbXrecord
  1
DWGPROPS COOKIE
  2

  3

  4

  6

  7

  8

  9

300
AmdtFileType=82
301
=
302
=
303
=
304
=
305
=
306
=
307
=
308
=
309
=
 40
0.2975616550925926
 41
2452800.443498622
 42
2453002.970677465
  1

 90
        1
  0
DICTIONARY
  5
4164
102
{ACAD_REACTORS
330
C
102
}
330
C
100
AcDbDictionary
  3
TSTACKALIGN
350
4165
  3
TSTACKSIZE
350
4166
  3
HYPERLINKBASE
350
4167
  3
STYLESHEET
350
4168
  3
LAYOUTDICT
350
4169
  3
PLOTSETDICT
350
416A
  3
PLOTSTYLNAMDICT
350
416B
  3
LWETCUNION
350
416C
  3
INSUNITS
350
416D
  3
CEPSNTYPE
350
416E
  3
FINGERPRINTGUID
350
416F
  3
VERSIONGUID
350
4170
  3
PSVPSCALE
350
4171
  3
DIMSTYLEDATA
350
4172
  3
PUCSORTHOREF
350
4173
  3
PUCSORTHOVIEW
350
4174
  3
PUCSBASE
350
4175
  3
PUCSORGTOP
350
4176
  3
PUCSORGBOTTOM
350
4177
  3
PUCSORGLEFT
350
4178
  3
PUCSORGRIGHT
350
4179
  3
PUCSORGFRONT
350
417A
  3
PUCSORGBACK
350
417B
  3
UCSORTHOREF
350
417C
  3
UCSORTHOVIEW
350
417D
  3
UCSBASE
350
417E
  3
UCSORGTOP
350
417F
  3
UCSORGBOTTOM
350
4180
  3
UCSORGLEFT
350
4181
  3
UCSORGRIGHT
350
4182
  3
UCSORGFRONT
350
4183
  3
UCSORGBACK
350
4184
  0
DICTIONARY
  5
4157
102
{ACAD_REACTORS
330
74
102
}
330
74
100
AcDbDictionary
  3
*A1
350
4158
  0
XRECORD
  5
4187
102
{ACAD_REACTORS
330
74
102
}
330
74
100
AcDbXrecord
340
1F
  0
XRECORD
  5
418D
102
{ACAD_REACTORS
330
418C
102
}
330
418C
100
AcDbXrecord
340
101
  0
MLINESTYLE
  5
18
102
{ACAD_REACTORS
330
17
102
}
330
17
100
AcDbMlineStyle
  2
STANDARD
 70
     0
  3

 62
   256
 51
90.0
 52
90.0
 71
     2
 49
0.5
 62
   256
  6
BYLAYER
 49
-0.5
 62
   256
  6
BYLAYER
  0
ACDBPLACEHOLDER
  5
F
102
{ACAD_REACTORS
330
E
102
}
330
E
100
AcDbPlaceHolder
280
     0
  0
DICTIONARYVAR
  5
35
102
{ACAD_REACTORS
330
34
102
}
330
34
100
DictionaryVariables
280
     0
  1
1
  0
DICTIONARYVAR
  5
B5E
102
{ACAD_REACTORS
330
34
102
}
330
34
100
DictionaryVariables
280
     0
  1
96
  0
DICTIONARY
  5
260
102
{ACAD_REACTORS
330
43
102
}
330
43
100
AcDbDictionary
  0
DICTIONARY
  5
2C
102
{ACAD_REACTORS
330
2B
102
}
330
2B
100
AcDbDictionary
  3
DWGSETTINGS
350
2D
  0
XRECORD
  5
4165
102
{ACAD_REACTORS
330
4164
102
}
330
4164
100
AcDbXrecord
 90
        1
  0
XRECORD
  5
4166
102
{ACAD_REACTORS
330
4164
102
}
330
4164
100
AcDbXrecord
 90
       70
  0
XRECORD
  5
4167
102
{ACAD_REACTORS
330
4164
102
}
330
4164
100
AcDbXrecord
  1

  0
XRECORD
  5
4168
102
{ACAD_REACTORS
330
4164
102
}
330
4164
100
AcDbXrecord
  1
ASAMI.ctb
  0
XRECORD
  5
4169
102
{ACAD_REACTORS
330
4164
102
}
330
4164
100
AcDbXrecord
340
1A
  0
XRECORD
  5
416A
102
{ACAD_REACTORS
330
4164
102
}
330
4164
100
AcDbXrecord
340
19
  0
XRECORD
  5
416B
102
{ACAD_REACTORS
330
4164
102
}
330
4164
100
AcDbXrecord
340
E
  0
XRECORD
  5
416C
102
{ACAD_REACTORS
330
4164
102
}
330
4164
100
AcDbXrecord
 90
    10781
  0
XRECORD
  5
416D
102
{ACAD_REACTORS
330
4164
102
}
330
4164
100
AcDbXrecord
 90
        4
  0
XRECORD
  5
416E
102
{ACAD_REACTORS
330
4164
102
}
330
4164
100
AcDbXrecord
 90
        0
  0
XRECORD
  5
416F
102
{ACAD_REACTORS
330
4164
102
}
330
4164
100
AcDbXrecord
  1
{AFB28963-8C59-40AE-9337-C84526B81ACE}
  0
XRECORD
  5
4170
102
{ACAD_REACTORS
330
4164
102
}
330
4164
100
AcDbXrecord
  1
{6F75FD34-3EDD-4AE0-9BEE-823D0C91450E}
  0
XRECORD
  5
4171
102
{ACAD_REACTORS
330
4164
102
}
330
4164
100
AcDbXrecord
 40
0.0
  0
XRECORD
  5
4172
102
{ACAD_REACTORS
330
4164
102
}
330
4164
100
AcDbXrecord
1000
DSTYLE
1002
{
1070
    79
 70
     2
1070
   341
340
59
1070
   342
340
59
1070
   371
 70
    -1
1070
   372
 70
    -1
1002
}
  0
XRECORD
  5
4173
102
{ACAD_REACTORS
330
4164
102
}
330
4164
100
AcDbXrecord
340
0
  0
XRECORD
  5
4174
102
{ACAD_REACTORS
330
4164
102
}
330
4164
100
AcDbXrecord
 70
     0
  0
XRECORD
  5
4175
102
{ACAD_REACTORS
330
4164
102
}
330
4164
100
AcDbXrecord
340
0
  0
XRECORD
  5
4176
102
{ACAD_REACTORS
330
4164
102
}
330
4164
100
AcDbXrecord
 10
0.0
 20
0.0
 30
0.0
  0
XRECORD
  5
4177
102
{ACAD_REACTORS
330
4164
102
}
330
4164
100
AcDbXrecord
 10
0.0
 20
0.0
 30
0.0
  0
XRECORD
  5
4178
102
{ACAD_REACTORS
330
4164
102
}
330
4164
100
AcDbXrecord
 10
0.0
 20
0.0
 30
0.0
  0
XRECORD
  5
4179
102
{ACAD_REACTORS
330
4164
102
}
330
4164
100
AcDbXrecord
 10
0.0
 20
0.0
 30
0.0
  0
XRECORD
  5
417A
102
{ACAD_REACTORS
330
4164
102
}
330
4164
100
AcDbXrecord
 10
0.0
 20
0.0
 30
0.0
  0
XRECORD
  5
417B
102
{ACAD_REACTORS
330
4164
102
}
330
4164
100
AcDbXrecord
 10
0.0
 20
0.0
 30
0.0
  0
XRECORD
  5
417C
102
{ACAD_REACTORS
330
4164
102
}
330
4164
100
AcDbXrecord
340
0
  0
XRECORD
  5
417D
102
{ACAD_REACTORS
330
4164
102
}
330
4164
100
AcDbXrecord
 70
     0
  0
XRECORD
  5
417E
102
{ACAD_REACTORS
330
4164
102
}
330
4164
100
AcDbXrecord
340
0
  0
XRECORD
  5
417F
102
{ACAD_REACTORS
330
4164
102
}
330
4164
100
AcDbXrecord
 10
0.0
 20
0.0
 30
0.0
  0
XRECORD
  5
4180
102
{ACAD_REACTORS
330
4164
102
}
330
4164
100
AcDbXrecord
 10
0.0
 20
0.0
 30
0.0
  0
XRECORD
  5
4181
102
{ACAD_REACTORS
330
4164
102
}
330
4164
100
AcDbXrecord
 10
0.0
 20
0.0
 30
0.0
  0
XRECORD
  5
4182
102
{ACAD_REACTORS
330
4164
102
}
330
4164
100
AcDbXrecord
 10
0.0
 20
0.0
 30
0.0
  0
XRECORD
  5
4183
102
{ACAD_REACTORS
330
4164
102
}
330
4164
100
AcDbXrecord
 10
0.0
 20
0.0
 30
0.0
  0
XRECORD
  5
4184
102
{ACAD_REACTORS
330
4164
102
}
330
4164
100
AcDbXrecord
 10
0.0
 20
0.0
 30
0.0
  0
LAYER_INDEX
  5
4158
102
{ACAD_REACTORS
330
4157
102
}
330
4157
100
AcDbIndex
 40
2453151.589842835
100
AcDbLayerIndex
  8
0
360
4159
 90
        0
  8
AM_0
360
415A
 90
       62
  8
PV0001_1
360
415B
 90
        0
  8
AM_CL
360
415C
 90
        0
  8
AM_7
360
415D
 90
        3
  8
AM_11
360
415E
 90
        0
  8
AM_5
360
415F
 90
        7
  8
Defpoints
360
4160
 90
        0
  8
AM_6
360
4161
 90
        1
  8
AM_4
360
4162
 90
        0
  0
XRECORD
  5
2D
102
{ACAD_REACTORS
330
2C
102
}
330
2C
100
AcDbXrecord
  1
VERSION
140
15.0
  1
PRODUCT
  2
AutoCAD Mechanical 2000
  0
IDBUFFER
  5
4159
330
0
100
AcDbIdBuffer
  0
IDBUFFER
  5
415A
330
0
100
AcDbIdBuffer
330
3B6A
330
3B6B
330
3B6C
330
3B6D
330
3B6E
330
3B6F
330
3B70
330
3B71
330
3B72
330
3B73
330
3B74
330
3B75
330
3C2A
330
3D90
330
31FF
330
3200
330
320C
330
320D
330
320E
330
3212
330
3213
330
3214
330
3215
330
3216
330
3217
330
3218
330
3219
330
321A
330
321B
330
321C
330
321D
330
323F
330
3240
330
3241
330
3242
330
3243
330
37E0
330
3B09
330
3B0A
330
3B0B
330
3B0C
330
3B0F
330
3B10
330
3B11
330
3B12
330
3B13
330
3B14
330
3B15
330
3B16
330
3B17
330
3B18
330
3B1A
330
3B1B
330
3B1C
330
3B1D
330
3B1E
330
3B1F
330
3B65
330
3B66
330
3B67
330
3B68
330
3B69
  0
IDBUFFER
  5
415B
330
0
100
AcDbIdBuffer
  0
IDBUFFER
  5
415C
330
0
100
AcDbIdBuffer
  0
IDBUFFER
  5
415D
330
0
100
AcDbIdBuffer
330
3201
330
3B0D
330
3B0E
  0
IDBUFFER
  5
415E
330
0
100
AcDbIdBuffer
  0
IDBUFFER
  5
415F
330
0
100
AcDbIdBuffer
330
31FC
330
31FD
330
31FE
330
3202
330
320B
330
323E
330
3FB6
  0
IDBUFFER
  5
4160
330
0
100
AcDbIdBuffer
  0
IDBUFFER
  5
4161
330
0
100
AcDbIdBuffer
330
19BD
  0
IDBUFFER
  5
4162
330
0
100
AcDbIdBuffer
  0
ENDSEC
  0
EOF
