  0
SECTION
  2
HEADER
  9
$ACADVER
  1
AC1014
  9
$ACADMAINTVER
 70
     9
  9
$DWGCODEPAGE
  3
ANSI_932
  9
$INSBASE
 10
0.0
 20
0.0
 30
0.0
  9
$EXTMIN
 10
-138.3457932164027
 20
-54.92185652859598
 30
-0.00000001
  9
$EXTMAX
 10
22.94394879970511
 20
30.14593543209042
 30
0.00000001
  9
$LIMMIN
 10
-148.9701880052025
 20
-71.59648551449985
  9
$LIMMAX
 10
39.85432695515652
 20
41.06185573785177
  9
$ORTHOMODE
 70
     0
  9
$REGENMODE
 70
     1
  9
$FILLMODE
 70
     1
  9
$QTEXTMODE
 70
     0
  9
$MIRRTEXT
 70
     0
  9
$DRAGMODE
 70
     2
  9
$LTSCALE
 40
0.5
  9
$OSMODE
 70
    55
  9
$ATTMODE
 70
     1
  9
$TEXTSIZE
 40
2.5
  9
$TRACEWID
 40
1.0
  9
$TEXTSTYLE
  7
STANDARD
  9
$CLAYER
  8
AM_0
  9
$CELTYPE
  6
BYLAYER
  9
$CECOLOR
 62
   256
  9
$CELTSCALE
 40
1.0
  9
$DELOBJ
 70
     1
  9
$DISPSILH
 70
     0
  9
$DIMSCALE
 40
0.5
  9
$DIMASZ
 40
2.5
  9
$DIMEXO
 40
1.0
  9
$DIMDLI
 40
12.0
  9
$DIMRND
 40
0.0
  9
$DIMDLE
 40
0.0
  9
$DIMEXE
 40
1.0
  9
$DIMTP
 40
0.1
  9
$DIMTM
 40
0.1
  9
$DIMTXT
 40
3.2
  9
$DIMCEN
 40
0.0
  9
$DIMTSZ
 40
0.0
  9
$DIMTOL
 70
     0
  9
$DIMLIM
 70
     0
  9
$DIMTIH
 70
     0
  9
$DIMTOH
 70
     0
  9
$DIMSE1
 70
     0
  9
$DIMSE2
 70
     0
  9
$DIMTAD
 70
     3
  9
$DIMZIN
 70
     8
  9
$DIMBLK
  1
OPEN30
  9
$DIMASO
 70
     1
  9
$DIMSHO
 70
     1
  9
$DIMPOST
  1

  9
$DIMAPOST
  1
"
  9
$DIMALT
 70
     0
  9
$DIMALTD
 70
     2
  9
$DIMALTF
 40
0.0393701
  9
$DIMLFAC
 40
1.0
  9
$DIMTOFL
 70
     1
  9
$DIMTVP
 40
0.0
  9
$DIMTIX
 70
     0
  9
$DIMSOXD
 70
     0
  9
$DIMSAH
 70
     0
  9
$DIMBLK1
  1

  9
$DIMBLK2
  1

  9
$DIMSTYLE
  2
AM_JIS
  9
$DIMCLRD
 70
   256
  9
$DIMCLRE
 70
   256
  9
$DIMCLRT
 70
     2
  9
$DIMTFAC
 40
0.71
  9
$DIMGAP
 40
1.5
  9
$DIMJUST
 70
     0
  9
$DIMSD1
 70
     0
  9
$DIMSD2
 70
     0
  9
$DIMTOLJ
 70
     0
  9
$DIMTZIN
 70
     0
  9
$DIMALTZ
 70
     0
  9
$DIMALTTZ
 70
     0
  9
$DIMFIT
 70
     3
  9
$DIMUPT
 70
     0
  9
$DIMUNIT
 70
     2
  9
$DIMDEC
 70
     3
  9
$DIMTDEC
 70
     3
  9
$DIMALTU
 70
     2
  9
$DIMALTTD
 70
     2
  9
$DIMTXSTY
  7
ASAMI
  9
$DIMAUNIT
 70
     0
  9
$LUNITS
 70
     2
  9
$LUPREC
 70
     2
  9
$SKETCHINC
 40
1.0
  9
$FILLETRAD
 40
2.5
  9
$AUNITS
 70
     0
  9
$AUPREC
 70
     0
  9
$MENU
  1
.
  9
$ELEVATION
 40
0.0
  9
$PELEVATION
 40
0.0
  9
$THICKNESS
 40
0.0
  9
$LIMCHECK
 70
     0
  9
$BLIPMODE
 70
     0
  9
$CHAMFERA
 40
2.5
  9
$CHAMFERB
 40
2.5
  9
$CHAMFERC
 40
20.0
  9
$CHAMFERD
 40
0.0
  9
$SKPOLY
 70
     0
  9
$TDCREATE
 40
2452800.443498622
  9
$TDUPDATE
 40
2453151.582983923
  9
$TDINDWG
 40
0.3643074769
  9
$TDUSRTIMER
 40
0.3643074769
  9
$USRTIMER
 70
     1
  9
$ANGBASE
 50
0.0
  9
$ANGDIR
 70
     0
  9
$PDMODE
 70
     0
  9
$PDSIZE
 40
0.0
  9
$PLINEWID
 40
0.0
  9
$COORDS
 70
     1
  9
$SPLFRAME
 70
     0
  9
$SPLINETYPE
 70
     6
  9
$SPLINESEGS
 70
     8
  9
$ATTDIA
 70
     1
  9
$ATTREQ
 70
     1
  9
$HANDLING
 70
 12289
  9
$HANDSEED
  5
3F60
  9
$SURFTAB1
 70
     6
  9
$SURFTAB2
 70
     6
  9
$SURFTYPE
 70
     6
  9
$SURFU
 70
     6
  9
$SURFV
 70
     6
  9
$UCSNAME
  2

  9
$UCSORG
 10
0.0
 20
0.0
 30
0.0
  9
$UCSXDIR
 10
1.0
 20
0.0000000000000027
 30
0.0
  9
$UCSYDIR
 10
-0.0000000000000027
 20
1.0
 30
0.0
  9
$PUCSNAME
  2

  9
$PUCSORG
 10
0.0
 20
0.0
 30
0.0
  9
$PUCSXDIR
 10
1.0
 20
0.0
 30
0.0
  9
$PUCSYDIR
 10
0.0
 20
1.0
 30
0.0
  9
$USERI1
 70
     0
  9
$USERI2
 70
     0
  9
$USERI3
 70
     0
  9
$USERI4
 70
     0
  9
$USERI5
 70
     0
  9
$USERR1
 40
0.0
  9
$USERR2
 40
0.0
  9
$USERR3
 40
0.0
  9
$USERR4
 40
0.0
  9
$USERR5
 40
0.0
  9
$WORLDVIEW
 70
     1
  9
$SHADEDGE
 70
     3
  9
$SHADEDIF
 70
    70
  9
$TILEMODE
 70
     1
  9
$MAXACTVP
 70
    64
  9
$PINSBASE
 10
0.0
 20
0.0
 30
0.0
  9
$PLIMCHECK
 70
     0
  9
$PEXTMIN
 10
1.000000000000000E+20
 20
1.000000000000000E+20
 30
1.000000000000000E+20
  9
$PEXTMAX
 10
-1.000000000000000E+20
 20
-1.000000000000000E+20
 30
-1.000000000000000E+20
  9
$PLIMMIN
 10
0.0
 20
0.0
  9
$PLIMMAX
 10
841.0
 20
594.0
  9
$UNITMODE
 70
     0
  9
$VISRETAIN
 70
     1
  9
$PLINEGEN
 70
     0
  9
$PSLTSCALE
 70
     0
  9
$TREEDEPTH
 70
  3020
  9
$PICKSTYLE
 70
     0
  9
$CMLSTYLE
  2
STANDARD
  9
$CMLJUST
 70
     0
  9
$CMLSCALE
 40
20.0
  9
$PROXYGRAPHICS
 70
     1
  9
$MEASUREMENT
 70
     1
  0
ENDSEC
  0
SECTION
  2
CLASSES
  0
CLASS
  1
ACDBDICTIONARYWDFLT
  2
AcDbDictionaryWithDefault
  3
AutoCAD 2000
 90
        0
280
     0
281
     0
  0
CLASS
  1
ACDBPLACEHOLDER
  2
AcDbPlaceHolder
  3
AutoCAD 2000
 90
        0
280
     0
281
     0
  0
CLASS
  1
LAYOUT
  2
AcDbLayout
  3
AutoCAD 2000
 90
        0
280
     0
281
     0
  0
CLASS
  1
AMGSETTINGSOBJ
  2
AmgSettingsObj
  3
"AcadM|Product Description: AutoCAD Mechanical 2000|Company: Autodesk"
 90
        0
280
     0
281
     0
  0
CLASS
  1
ACME_DOCUMENT
  2
AcMeDbDoc
  3
AcMeServices
 90
        0
280
     0
281
     0
  0
CLASS
  1
ACMESCOPE
  2
AcMeScope
  3
AcMeServices
 90
        0
280
     0
281
     0
  0
CLASS
  1
ACMECOMMANDHISTORY
  2
AcMeCommandHistory
  3
AcMeServices
 90
        0
280
     0
281
     0
  0
CLASS
  1
DICTIONARYVAR
  2
AcDbDictionaryVar
  3
AutoCAD 2000
 90
        0
280
     0
281
     0
  0
CLASS
  1
ACIMSYSVARMAN
  2
AcImSysVarManager
  3
AcMeServices
 90
        0
280
     0
281
     0
  0
CLASS
  1
ACIMREALSYSVAR
  2
AcImRealSysVar
  3
AcMeServices
 90
        0
280
     0
281
     0
  0
CLASS
  1
ACIMINTSYSVAR
  2
AcImIntSysVar
  3
AcMeServices
 90
        0
280
     0
281
     0
  0
CLASS
  1
ACMEDRAWINGMAN
  2
AcMeDrawingMan
  3
AcMeServices
 90
        0
280
     0
281
     0
  0
CLASS
  1
ACMEVIEW
  2
AcMeView
  3
AcMeServices
 90
        0
280
     0
281
     0
  0
CLASS
  1
ACDBENTITYCACHE
  2
AcMeEntityCache
  3
AcMeServices
 90
        0
280
     0
281
     0
  0
CLASS
  1
GSMANAGER
  2
AcMeGSManager
  3
AcMeServices
 90
        0
280
     0
281
     0
  0
CLASS
  1
AmdtInternalReactor
  2
AmdtInternalReactor
  3
AcMeServices
 90
        0
280
     0
281
     0
  0
CLASS
  1
ACMESTATEMGR
  2
AcMeStateMgr
  3
AcMeServices
 90
        0
280
     0
281
     0
  0
CLASS
  1
ACME_DATABASE
  2
AcMeDbDatabase
  3
AcMeServices
 90
        0
280
     0
281
     0
  0
CLASS
  1
ACRFINSADJUSTERMGR
  2
AcRfInsAdjusterMgr
  3
AcMeServices
 90
        0
280
     0
281
     0
  0
CLASS
  1
ACMDATADICTIONARY
  2
AcmDataDictionary
  3
"AcmSymBB|Product Description: AutoCAD Mechanical 2000|Company: Autodesk"
 90
        0
280
     0
281
     0
  0
CLASS
  1
ACMDATAENTRYBLOCK
  2
AcmDataEntryBlock
  3
"AcmSymBB|Product Description: AutoCAD Mechanical 2000|Company: Autodesk"
 90
        0
280
     0
281
     0
  0
CLASS
  1
AMGOBJPROPCFG
  2
AmgObjPropCfg
  3
"AmgLay|Product Description: AutoCAD Mechanical 2000|Company: Autodesk"
 90
        1
280
     0
281
     0
  0
CLASS
  1
ACAMGFILTERDAT
  2
AcAmgFilterDat
  3
"AcadM|Product Description: AutoCAD Mechanical 2000|Company: Autodesk"
 90
        0
280
     0
281
     0
  0
CLASS
  1
LAYER_INDEX
  2
AcDbLayerIndex
  3
AutoCAD 2000
 90
        0
280
     0
281
     0
  0
CLASS
  1
IDBUFFER
  2
AcDbIdBuffer
  3
AutoCAD 2000
 90
        0
280
     0
281
     0
  0
CLASS
  1
ACIMSTRSYSVAR
  2
AcImStrSysVar
  3
AcMeServices
 90
        0
280
     0
281
     0
  0
CLASS
  1
ACMSTANDARDJIS
  2
AcmStandardJIS
  3
"AcmSymBB|Product Description: AutoCAD Mechanical 2000|Company: Autodesk"
 90
        0
280
     0
281
     0
  0
CLASS
  1
ACMSURFSTANDARDJIS
  2
AcmSurfTextStdJIS
  3
"AcmSymBB|Product Description: AutoCAD Mechanical 2000|Company: Autodesk"
 90
        0
280
     0
281
     0
  0
CLASS
  1
ACMFCFSTANDARDJIS
  2
AcmFCFStdJIS
  3
"AcmSymBB|Product Description: AutoCAD Mechanical 2000|Company: Autodesk"
 90
        0
280
     0
281
     0
  0
CLASS
  1
ACMWELDSTANDARDJIS
  2
AcmWeldingStdJIS
  3
"AcmSymBB|Product Description: AutoCAD Mechanical 2000|Company: Autodesk"
 90
        0
280
     0
281
     0
  0
CLASS
  1
ACMIDSTANDARDJIS
  2
AcmIdStdJIS
  3
"AcmSymBB|Product Description: AutoCAD Mechanical 2000|Company: Autodesk"
 90
        0
280
     0
281
     0
  0
CLASS
  1
ACMDATUMSTANDARDJIS
  2
AcmDatumStdJIS
  3
"AcmSymBB|Product Description: AutoCAD Mechanical 2000|Company: Autodesk"
 90
        0
280
     0
281
     0
  0
CLASS
  1
ACMBOMSTANDARDJIS
  2
AcmBOMStdJIS
  3
"AcmSymBB|Product Description: AutoCAD Mechanical 2000|Company: Autodesk"
 90
        0
280
     0
281
     0
  0
CLASS
  1
ACMSTANDARDANSI
  2
AcmStandardANSI
  3
"AcmSymBB|Product Description: AutoCAD Mechanical 2000|Company: Autodesk"
 90
        0
280
     0
281
     0
  0
CLASS
  1
ACMSURFSTANDARDANSI
  2
AcmSurfTextStdANSI
  3
"AcmSymBB|Product Description: AutoCAD Mechanical 2000|Company: Autodesk"
 90
        0
280
     0
281
     0
  0
CLASS
  1
ACMFCFSTANDARDANSI
  2
AcmFCFStdANSI
  3
"AcmSymBB|Product Description: AutoCAD Mechanical 2000|Company: Autodesk"
 90
        0
280
     0
281
     0
  0
CLASS
  1
ACMWELDSTANDARDANSI
  2
AcmWeldingStdANSI
  3
"AcmSymBB|Product Description: AutoCAD Mechanical 2000|Company: Autodesk"
 90
        0
280
     0
281
     0
  0
CLASS
  1
ACMIDSTANDARDANSI
  2
AcmIdStdANSI
  3
"AcmSymBB|Product Description: AutoCAD Mechanical 2000|Company: Autodesk"
 90
        0
280
     0
281
     0
  0
CLASS
  1
ACMDATUMSTANDARDANSI
  2
AcmDatumStdANSI
  3
"AcmSymBB|Product Description: AutoCAD Mechanical 2000|Company: Autodesk"
 90
        0
280
     0
281
     0
  0
CLASS
  1
ACMBOMSTANDARDANSI
  2
AcmBOMStdANSI
  3
"AcmSymBB|Product Description: AutoCAD Mechanical 2000|Company: Autodesk"
 90
        0
280
     0
281
     0
  0
CLASS
  1
ACMSTANDARDBSI
  2
AcmStandardBSI
  3
"AcmSymBB|Product Description: AutoCAD Mechanical 2000|Company: Autodesk"
 90
        0
280
     0
281
     0
  0
CLASS
  1
ACMSURFSTANDARDBSI
  2
AcmSurfTextStdBSI
  3
"AcmSymBB|Product Description: AutoCAD Mechanical 2000|Company: Autodesk"
 90
        0
280
     0
281
     0
  0
CLASS
  1
ACMFCFSTANDARDBSI
  2
AcmFCFStdBSI
  3
"AcmSymBB|Product Description: AutoCAD Mechanical 2000|Company: Autodesk"
 90
        0
280
     0
281
     0
  0
CLASS
  1
ACMWELDSTANDARDBSI
  2
AcmWeldingStdBSI
  3
"AcmSymBB|Product Description: AutoCAD Mechanical 2000|Company: Autodesk"
 90
        0
280
     0
281
     0
  0
CLASS
  1
ACMIDSTANDARDBSI
  2
AcmIdStdBSI
  3
"AcmSymBB|Product Description: AutoCAD Mechanical 2000|Company: Autodesk"
 90
        0
280
     0
281
     0
  0
CLASS
  1
ACMDATUMSTANDARDBSI
  2
AcmDatumStdBSI
  3
"AcmSymBB|Product Description: AutoCAD Mechanical 2000|Company: Autodesk"
 90
        0
280
     0
281
     0
  0
CLASS
  1
ACMBOMSTANDARDBSI
  2
AcmBOMStdBSI
  3
"AcmSymBB|Product Description: AutoCAD Mechanical 2000|Company: Autodesk"
 90
        0
280
     0
281
     0
  0
CLASS
  1
LONG_TRANSACTION
  2
AcDbLongTransaction
  3
AutoCAD 2000
 90
        0
280
     0
281
     0
  0
CLASS
  1
LWPOLYLINE
  2
AcDbPolyline
  3
AutoCAD 2000
 90
        0
280
     0
281
     1
  0
CLASS
  1
HATCH
  2
AcDbHatch
  3
AutoCAD 2000
 90
        0
280
     0
281
     1
  0
CLASS
  1
XRECORD
  2
AcDbXrecord
  3
AutoCAD 2000
 90
        0
280
     0
281
     0
  0
ENDSEC
  0
SECTION
  2
TABLES
  0
TABLE
  2
VPORT
  5
8
330
0
100
AcDbSymbolTable
 70
     3
  0
VPORT
  5
3F35
330
8
100
AcDbSymbolTableRecord
100
AcDbViewportTableRecord
  2
*ACTIVE
 70
     0
 10
0.0
 20
0.0
 11
1.0
 21
1.0
 12
-52.57970074391431
 22
-9.479167197732223
 13
0.0
 23
0.0
 14
2.5
 24
2.5
 15
10.0
 25
10.0
 16
0.0
 26
0.0
 36
1.0
 17
0.0
 27
0.0
 37
0.0
 40
153.7690334524963
 41
1.56570841889117
 42
50.0
 43
0.0
 44
0.0
 50
0.0
 51
0.0
 71
     0
 72
   100
 73
     1
 74
     1
 75
     0
 76
     0
 77
     0
 78
     0
  0
ENDTAB
  0
TABLE
  2
LTYPE
  5
5
330
0
100
AcDbSymbolTable
 70
    10
  0
LTYPE
  5
14
330
5
100
AcDbSymbolTableRecord
100
AcDbLinetypeTableRecord
  2
BYBLOCK
 70
     0
  3

 72
    65
 73
     0
 40
0.0
  0
LTYPE
  5
15
330
5
100
AcDbSymbolTableRecord
100
AcDbLinetypeTableRecord
  2
BYLAYER
 70
     0
  3

 72
    65
 73
     0
 40
0.0
  0
LTYPE
  5
16
330
5
100
AcDbSymbolTableRecord
100
AcDbLinetypeTableRecord
  2
CONTINUOUS
 70
     0
  3
Solid line
 72
    65
 73
     0
 40
0.0
  0
LTYPE
  5
4B
330
5
100
AcDbSymbolTableRecord
100
AcDbLinetypeTableRecord
  2
AM_ISO02W050
 70
     0
  3
__ __ __ __ __ __ __ __ __ __ __ __ __ __ __
 72
    65
 73
     2
 40
7.5
 49
6.0
 74
     0
 49
-1.5
 74
     0
  0
LTYPE
  5
4C
330
5
100
AcDbSymbolTableRecord
100
AcDbLinetypeTableRecord
  2
AM_ISO08W050
 70
     0
  3
____ . ____ . ____ . ____ . ____ . ____ . ____
 72
    65
 73
     4
 40
18.0
 49
12.0
 74
     0
 49
-1.5
 74
     0
 49
3.0
 74
     0
 49
-1.5
 74
     0
  0
LTYPE
  5
4D
330
5
100
AcDbSymbolTableRecord
100
AcDbLinetypeTableRecord
  2
AM_ISO09W050
 70
     0
  3
_____ . . _____ . . _____ . . ____ .. ____
 72
    65
 73
     6
 40
22.5
 49
12.0
 74
     0
 49
-1.5
 74
     0
 49
3.0
 74
     0
 49
-1.5
 74
     0
 49
3.0
 74
     0
 49
-1.5
 74
     0
  0
LTYPE
  5
4E
330
5
100
AcDbSymbolTableRecord
100
AcDbLinetypeTableRecord
  2
AMCONSTR
 70
     0
  3
_______________________
 72
    65
 73
     2
 40
9999.0
 49
9999.0
 74
     0
 49
0.0
 74
     0
  0
LTYPE
  5
4F
330
5
100
AcDbSymbolTableRecord
100
AcDbLinetypeTableRecord
  2
AM_ISO02W050X2
 70
     0
  3
 _ _ _ _ _ _ _ _ _ _ _ _
 72
    65
 73
     2
 40
3.75
 49
3.0
 74
     0
 49
-0.75
 74
     0
  0
LTYPE
  5
50
330
5
100
AcDbSymbolTableRecord
100
AcDbLinetypeTableRecord
  2
AM_ISO08W050X2
 70
     0
  3
__ . __ . __ . __ . __ . __
 72
    65
 73
     4
 40
9.0
 49
6.0
 74
     0
 49
-0.75
 74
     0
 49
1.5
 74
     0
 49
-0.75
 74
     0
  0
LTYPE
  5
53
330
5
100
AcDbSymbolTableRecord
100
AcDbLinetypeTableRecord
  2
AMZIGZAG
 70
     0
  3
/\/-/\/-/\/-/\/-/\/-/\/
 72
    65
 73
     2
 40
11.00009999999999
 49
0.0001
 74
     4
 75
   135
340
52
 46
0.04
 50
0.0
 44
0.0
 45
0.0
 49
-11.0
 74
     0
  0
LTYPE
  5
166
330
5
100
AcDbSymbolTableRecord
100
AcDbLinetypeTableRecord
  2
ACJISTGL
 70
     0
  3
_ _ _ _ _
 72
    65
 73
     2
 40
3.0
 49
2.0
 74
     0
 49
-1.0
 74
     0
  0
LTYPE
  5
26A
330
5
100
AcDbSymbolTableRecord
100
AcDbLinetypeTableRecord
  2
ACJISTGB
 70
     0
  3
__ . . __ . .
 72
    65
 73
     6
 40
9.0
 49
4.0
 74
     0
 49
-1.0
 74
     0
 49
1.0
 74
     0
 49
-1.0
 74
     0
 49
1.0
 74
     0
 49
-1.0
 74
     0
  0
ENDTAB
  0
TABLE
  2
LAYER
  5
2
330
0
100
AcDbSymbolTable
 70
    10
  0
LAYER
  5
10
330
2
100
AcDbSymbolTableRecord
100
AcDbLayerTableRecord
  2
0
 70
     0
 62
     7
  6
CONTINUOUS
  0
LAYER
  5
3F9
330
2
100
AcDbSymbolTableRecord
100
AcDbLayerTableRecord
  2
AM_0
 70
     0
 62
     7
  6
CONTINUOUS
  0
LAYER
  5
BA4
330
2
100
AcDbSymbolTableRecord
100
AcDbLayerTableRecord
  2
PV0001_1
 70
     0
 62
     7
  6
CONTINUOUS
  0
LAYER
  5
C6C
330
2
100
AcDbSymbolTableRecord
100
AcDbLayerTableRecord
  2
AM_CL
 70
     0
 62
     1
  6
AMCONSTR
  0
LAYER
  5
C7C
330
2
100
AcDbSymbolTableRecord
100
AcDbLayerTableRecord
  2
AM_7
 70
     0
 62
     4
  6
AM_ISO08W050
  0
LAYER
  5
C97
330
2
100
AcDbSymbolTableRecord
100
AcDbLayerTableRecord
  2
AM_11
 70
     0
 62
     3
  6
AM_ISO09W050
  0
LAYER
  5
CC5
330
2
100
AcDbSymbolTableRecord
100
AcDbLayerTableRecord
  2
AM_5
 70
     0
 62
     3
  6
CONTINUOUS
  0
LAYER
  5
CC7
330
2
100
AcDbSymbolTableRecord
100
AcDbLayerTableRecord
  2
DEFPOINTS
 70
     0
 62
     7
  6
CONTINUOUS
  0
LAYER
  5
19BC
330
2
100
AcDbSymbolTableRecord
100
AcDbLayerTableRecord
  2
AM_6
 70
     0
 62
     2
  6
CONTINUOUS
  0
LAYER
  5
1F8E
330
2
100
AcDbSymbolTableRecord
100
AcDbLayerTableRecord
  2
AM_4
 70
     0
 62
     3
  6
CONTINUOUS
  0
ENDTAB
  0
TABLE
  2
STYLE
  5
3
330
0
100
AcDbSymbolTable
 70
     5
  0
STYLE
  5
11
330
3
100
AcDbSymbolTableRecord
100
AcDbTextStyleTableRecord
  2
STANDARD
 70
     0
 40
0.0
 41
1.0
 50
0.0
 71
     0
 42
2.5
  3
simplex.shx
  4
EXTFONT.SHX
  0
STYLE
  5
52
330
3
100
AcDbSymbolTableRecord
100
AcDbTextStyleTableRecord
  2

 70
     1
 40
0.0
 41
1.0
 50
0.0
 71
     0
 42
2.5
  3
ltypeshp.shx
  4

  0
STYLE
  5
6B
330
3
100
AcDbSymbolTableRecord
100
AcDbTextStyleTableRecord
  2
ASAMI
 70
     0
 40
0.0
 41
1.0
 50
0.0
 71
     0
 42
2.5
  3
simplex.shx
  4
EXTFONT.SHX
  0
STYLE
  5
262
330
3
100
AcDbSymbolTableRecord
100
AcDbTextStyleTableRecord
  2
ACJISTS
 70
     0
 40
1.0
 41
1.0
 50
0.0
 71
     0
 42
2.5
  3
simplex.shx
  4
bigfont.shx
  0
STYLE
  5
269
330
3
100
AcDbSymbolTableRecord
100
AcDbTextStyleTableRecord
  2
ACJISGDT
 70
     0
 40
0.0
 41
1.0
 50
0.0
 71
     0
 42
2.5
  3
amgdtans.shx
  4

  0
ENDTAB
  0
TABLE
  2
VIEW
  5
6
330
0
100
AcDbSymbolTable
 70
     0
  0
ENDTAB
  0
TABLE
  2
UCS
  5
7
330
0
100
AcDbSymbolTable
 70
     0
  0
ENDTAB
  0
TABLE
  2
APPID
  5
9
330
0
100
AcDbSymbolTable
 70
    16
  0
APPID
  5
12
330
9
100
AcDbSymbolTableRecord
100
AcDbRegAppTableRecord
  2
ACAD
 70
     0
  0
APPID
  5
30
330
9
100
AcDbSymbolTableRecord
100
AcDbRegAppTableRecord
  2
MCAD_NO_VIS
 70
     0
  0
APPID
  5
31
330
9
100
AcDbSymbolTableRecord
100
AcDbRegAppTableRecord
  2
ACAD_TEMP_GRAPHIC
 70
     0
  0
APPID
  5
2C2
330
9
100
AcDbSymbolTableRecord
100
AcDbRegAppTableRecord
  2
GENIUS_GENDTOL_13
 70
     0
  0
APPID
  5
339
330
9
100
AcDbSymbolTableRecord
100
AcDbRegAppTableRecord
  2
GENIUS_GENODEF_13
 70
     0
  0
APPID
  5
33A
330
9
100
AcDbSymbolTableRecord
100
AcDbRegAppTableRecord
  2
GENIUS_GENOBJ-N-RSBK_13
 70
     0
  0
APPID
  5
33B
330
9
100
AcDbSymbolTableRecord
100
AcDbRegAppTableRecord
  2
GENIUS_GENOBJ-N-LIB_13
 70
     0
  0
APPID
  5
33C
330
9
100
AcDbSymbolTableRecord
100
AcDbRegAppTableRecord
  2
GENIUS_GENSCALE_13
 70
     0
  0
APPID
  5
378
330
9
100
AcDbSymbolTableRecord
100
AcDbRegAppTableRecord
  2
GENIUS_GENDIMSH_14
 70
     0
  0
APPID
  5
C82
330
9
100
AcDbSymbolTableRecord
100
AcDbRegAppTableRecord
  2
GENIUS_GENOBJ-N-CRS_13
 70
     0
  0
APPID
  5
C83
330
9
100
AcDbSymbolTableRecord
100
AcDbRegAppTableRecord
  2
GENIUS_GENOENT_13
 70
     0
  0
APPID
  5
C84
330
9
100
AcDbSymbolTableRecord
100
AcDbRegAppTableRecord
  2
GENIUS_GENOREF_13
 70
     0
  0
APPID
  5
C85
330
9
100
AcDbSymbolTableRecord
100
AcDbRegAppTableRecord
  2
GENIUS_GENOLIS_13
 70
     0
  0
APPID
  5
CA0
330
9
100
AcDbSymbolTableRecord
100
AcDbRegAppTableRecord
  2
GENIUS_GENOBJ-N-CEN_13
 70
     0
  0
APPID
  5
31AE
330
9
100
AcDbSymbolTableRecord
100
AcDbRegAppTableRecord
  2
GENIUS_GENFIL_13
 70
     0
  0
APPID
  5
31AF
330
9
100
AcDbSymbolTableRecord
100
AcDbRegAppTableRecord
  2
GENIUS_GENOBJ-N-CHA_13
 70
     0
  0
ENDTAB
  0
TABLE
  2
DIMSTYLE
  5
A
330
0
100
AcDbSymbolTable
 70
    10
  0
DIMSTYLE
105
58
330
A
100
AcDbSymbolTableRecord
100
AcDbDimStyleTableRecord
  2
AM_JIS
 70
     0
  3

  4
"
  5
OPEN30
  6

  7

 40
0.5
 41
2.5
 42
1.0
 43
12.0
 44
1.0
 45
0.0
 46
0.0
 47
0.1
 48
0.1
140
3.2
141
0.0
142
0.0
143
0.0393701
144
1.0
145
0.0
146
0.71
147
1.5
 71
     0
 72
     0
 73
     0
 74
     0
 75
     0
 76
     0
 77
     3
 78
     8
170
     0
171
     2
172
     1
173
     0
174
     0
175
     0
176
   256
177
   256
178
     2
270
     2
271
     3
272
     3
273
     2
274
     2
340
6B
275
     0
280
     0
281
     0
282
     0
283
     0
284
     0
285
     0
286
     0
287
     3
288
     0
  0
DIMSTYLE
105
5F
330
A
100
AcDbSymbolTableRecord
100
AcDbDimStyleTableRecord
  2
AM_JIS$3
 70
     0
  3

  4
"
  5
OPEN30
  6

  7

 40
0.5
 41
2.5
 42
1.0
 43
10.0
 44
1.0
 45
0.0
 46
0.0
 47
0.1
 48
0.1
140
3.2
141
0.0
142
0.0
143
0.0393701
144
1.0
145
0.0
146
0.71
147
1.5
 71
     0
 72
     0
 73
     0
 74
     1
 75
     0
 76
     0
 77
     3
 78
     8
170
     0
171
     2
172
     0
173
     0
174
     0
175
     0
176
   256
177
   256
178
     2
270
     2
271
     2
272
     3
273
     2
274
     2
340
6B
275
     0
280
     0
281
     0
282
     0
283
     0
284
     0
285
     0
286
     0
287
     0
288
     1
  0
DIMSTYLE
105
60
330
A
100
AcDbSymbolTableRecord
100
AcDbDimStyleTableRecord
  2
AM_JIS$4
 70
     0
  3

  4
"
  5
OPEN30
  6

  7

 40
0.5
 41
2.5
 42
1.0
 43
10.0
 44
1.0
 45
0.0
 46
0.0
 47
0.1
 48
0.1
140
3.2
141
0.0
142
0.0
143
0.0393701
144
1.0
145
0.0
146
0.71
147
1.5
 71
     0
 72
     0
 73
     0
 74
     1
 75
     0
 76
     0
 77
     3
 78
     8
170
     0
171
     2
172
     0
173
     0
174
     0
175
     0
176
   256
177
   256
178
     2
270
     2
271
     2
272
     3
273
     2
274
     2
340
6B
275
     0
280
     0
281
     0
282
     0
283
     0
284
     0
285
     0
286
     0
287
     0
288
     1
  0
DIMSTYLE
105
61
330
A
100
AcDbSymbolTableRecord
100
AcDbDimStyleTableRecord
  2
AM_JIS$6
 70
     0
  3

  4
"
  5
OPEN30
  6

  7

 40
0.5
 41
2.5
 42
1.0
 43
10.0
 44
1.0
 45
0.0
 46
0.0
 47
0.1
 48
0.1
140
3.2
141
0.0
142
0.0
143
0.0393701
144
1.0
145
0.0
146
0.71
147
1.5
 71
     0
 72
     0
 73
     0
 74
     0
 75
     0
 76
     0
 77
     0
 78
     8
170
     0
171
     2
172
     1
173
     0
174
     0
175
     0
176
   256
177
   256
178
     2
270
     2
271
     2
272
     2
273
     2
274
     2
340
6B
275
     0
280
     0
281
     0
282
     0
283
     0
284
     0
285
     0
286
     0
287
     3
288
     0
  0
DIMSTYLE
105
62
330
A
100
AcDbSymbolTableRecord
100
AcDbDimStyleTableRecord
  2
AM_JIS$7
 70
     0
  3

  4
"
  5
OPEN30
  6

  7

 40
0.5
 41
2.5
 42
1.0
 43
10.0
 44
1.0
 45
0.0
 46
0.0
 47
0.1
 48
0.1
140
3.2
141
0.0
142
0.0
143
0.0393701
144
1.0
145
0.0
146
0.71
147
1.5
 71
     0
 72
     0
 73
     0
 74
     0
 75
     0
 76
     0
 77
     3
 78
     8
170
     0
171
     2
172
     1
173
     0
174
     0
175
     0
176
   256
177
   256
178
     2
270
     2
271
     2
272
     3
273
     2
274
     2
340
6B
275
     0
280
     0
281
     0
282
     0
283
     0
284
     0
285
     0
286
     0
287
     3
288
     0
  0
DIMSTYLE
105
63
330
A
100
AcDbSymbolTableRecord
100
AcDbDimStyleTableRecord
  2
AM_JIS$SF
 70
     0
  3

  4
"
  5
OPEN30
  6

  7

 40
0.5
 41
2.5
 42
1.0
 43
10.0
 44
1.0
 45
0.0
 46
0.0
 47
0.1
 48
0.1
140
3.2
141
0.0
142
0.0
143
0.0393701
144
1.0
145
0.0
146
0.71
147
1.5
 71
     0
 72
     0
 73
     0
 74
     0
 75
     1
 76
     1
 77
     3
 78
     8
170
     0
171
     2
172
     1
173
     0
174
     0
175
     0
176
   256
177
   256
178
     2
270
     2
271
     2
272
     2
273
     2
274
     2
340
6B
275
     0
280
     0
281
     0
282
     0
283
     0
284
     0
285
     0
286
     0
287
     3
288
     0
  0
DIMSTYLE
105
68
330
A
100
AcDbSymbolTableRecord
100
AcDbDimStyleTableRecord
  2
AM_JIS$SH
 70
     0
  3

  4
"
  5

  6
GENAXEH
  7
OPEN30
 40
0.5
 41
2.5
 42
1.0
 43
10.0
 44
1.0
 45
0.0
 46
0.0
 47
0.1
 48
0.1
140
3.2
141
0.0
142
0.0
143
0.0393701
144
2.0
145
0.0
146
0.71
147
1.5
 71
     0
 72
     0
 73
     0
 74
     0
 75
     1
 76
     1
 77
     3
 78
     8
170
     0
171
     2
172
     1
173
     1
174
     0
175
     0
176
   256
177
   256
178
     2
270
     2
271
     2
272
     2
273
     2
274
     2
340
6B
275
     0
280
     0
281
     0
282
     0
283
     0
284
     0
285
     0
286
     0
287
     3
288
     0
  0
DIMSTYLE
105
B34
102
{ACAD_REACTORS
330
31FC
330
3E00
102
}
330
A
100
AcDbSymbolTableRecord
100
AcDbDimStyleTableRecord
  2
AM_JIS$2
 70
     0
  3

  4
"
  5
OPEN30
  6

  7

 40
0.5
 41
2.5
 42
1.0
 43
12.0
 44
1.0
 45
0.0
 46
0.0
 47
0.1
 48
0.1
140
3.2
141
0.0
142
0.0
143
0.0393701
144
1.0
145
0.0
146
0.71
147
1.5
 71
     0
 72
     0
 73
     0
 74
     0
 75
     0
 76
     0
 77
     3
 78
     8
170
     0
171
     2
172
     1
173
     0
174
     0
175
     0
176
   256
177
   256
178
     2
270
     2
271
     3
272
     3
273
     2
274
     2
340
6B
275
     0
280
     0
281
     0
282
     0
283
     0
284
     0
285
     0
286
     0
287
     3
288
     0
  0
DIMSTYLE
105
BA5
102
{ACAD_REACTORS
330
31FD
330
31FE
330
3202
330
320B
330
323E
102
}
330
A
100
AcDbSymbolTableRecord
100
AcDbDimStyleTableRecord
  2
AM_JIS$0
 70
     0
  3

  4
"
  5
OPEN30
  6

  7

 40
0.5
 41
2.5
 42
0.8
 43
10.0
 44
1.0
 45
0.0
 46
0.0
 47
0.1
 48
0.1000000001
140
3.799999999999999
141
0.0
142
0.0
143
0.0393701
144
1.0
145
0.0
146
0.71
147
1.5
 71
     0
 72
     0
 73
     0
 74
     0
 75
     0
 76
     0
 77
     3
 78
     9
170
     0
171
     2
172
     1
173
     0
174
     0
175
     0
176
     3
177
     3
178
     2
270
     2
271
     2
272
     2
273
     2
274
     2
340
11
275
     1
280
     0
281
     0
282
     0
283
     0
284
     8
285
     0
286
     0
287
     0
288
     0
  0
DIMSTYLE
105
BA6
330
A
100
AcDbSymbolTableRecord
100
AcDbDimStyleTableRecord
  2
AM_JISORG-1P0$2
 70
     0
  3

  4
"
  5
OPEN30
  6

  7

 40
1.0
 41
2.5
 42
0.0
 43
10.0
 44
1.0
 45
0.0
 46
0.0
 47
0.1
 48
0.1000000001
140
3.799999999999999
141
0.0
142
0.0
143
0.0393701
144
-0.999999980146674
145
0.0
146
0.71
147
1.5
 71
     0
 72
     0
 73
     0
 74
     0
 75
     0
 76
     0
 77
     3
 78
     1
170
     0
171
     2
172
     1
173
     0
174
     0
175
     0
176
     3
177
     3
178
     2
270
     2
271
     2
272
     2
273
     2
274
     2
340
11
275
     1
280
     0
281
     0
282
     0
283
     0
284
     8
285
     0
286
     0
287
     0
288
     0
  0
ENDTAB
  0
TABLE
  2
BLOCK_RECORD
  5
1
330
0
100
AcDbSymbolTable
 70
    15
  0
BLOCK_RECORD
  5
1F
102
{ACAD_XDICTIONARY
360
74
102
}
330
1
100
AcDbSymbolTableRecord
100
AcDbBlockTableRecord
  2
*MODEL_SPACE
  0
BLOCK_RECORD
  5
101
102
{ACAD_XDICTIONARY
360
3F5E
102
}
330
1
100
AcDbSymbolTableRecord
100
AcDbBlockTableRecord
  2
*PAPER_SPACE
  0
BLOCK_RECORD
  5
59
330
1
100
AcDbSymbolTableRecord
100
AcDbBlockTableRecord
  2
_OPEN30
  0
BLOCK_RECORD
  5
64
330
1
100
AcDbSymbolTableRecord
100
AcDbBlockTableRecord
  2
GENAXEH
  0
BLOCK_RECORD
  5
C31
330
1
100
AcDbSymbolTableRecord
100
AcDbBlockTableRecord
  2
A$C36D02A34
  0
BLOCK_RECORD
  5
2453
330
1
100
AcDbSymbolTableRecord
100
AcDbBlockTableRecord
  2
*D6
  0
BLOCK_RECORD
  5
245F
330
1
100
AcDbSymbolTableRecord
100
AcDbBlockTableRecord
  2
A$C4FFC6CC0
  0
BLOCK_RECORD
  5
3244
330
1
100
AcDbSymbolTableRecord
100
AcDbBlockTableRecord
  2
*D8
  0
BLOCK_RECORD
  5
3252
330
1
100
AcDbSymbolTableRecord
100
AcDbBlockTableRecord
  2
*D9
  0
BLOCK_RECORD
  5
3260
330
1
100
AcDbSymbolTableRecord
100
AcDbBlockTableRecord
  2
*D10
  0
BLOCK_RECORD
  5
326E
330
1
100
AcDbSymbolTableRecord
100
AcDbBlockTableRecord
  2
*D11
  0
BLOCK_RECORD
  5
3288
330
1
100
AcDbSymbolTableRecord
100
AcDbBlockTableRecord
  2
*D12
  0
BLOCK_RECORD
  5
3294
330
1
100
AcDbSymbolTableRecord
100
AcDbBlockTableRecord
  2
*D13
  0
BLOCK_RECORD
  5
3E01
330
1
100
AcDbSymbolTableRecord
100
AcDbBlockTableRecord
  2
*D14
  0
ENDTAB
  0
ENDSEC
  0
SECTION
  2
BLOCKS
  0
BLOCK
  5
20
330
1F
100
AcDbEntity
  8
0
100
AcDbBlockBegin
  2
*MODEL_SPACE
 70
     0
 10
0.0
 20
0.0
 30
0.0
  3
*MODEL_SPACE
  1

  0
ENDBLK
  5
21
330
1F
100
AcDbEntity
  8
0
100
AcDbBlockEnd
  0
BLOCK
  5
103
330
101
100
AcDbEntity
 67
     1
  8
0
100
AcDbBlockBegin
  2
*PAPER_SPACE
 70
     0
 10
0.0
 20
0.0
 30
0.0
  3
*PAPER_SPACE
  1

  0
ENDBLK
  5
104
330
101
100
AcDbEntity
 67
     1
  8
0
100
AcDbBlockEnd
  0
BLOCK
  5
5D
330
59
100
AcDbEntity
  8
0
100
AcDbBlockBegin
  2
_OPEN30
 70
     0
 10
0.0
 20
0.0
 30
0.0
  3
_OPEN30
  1

  0
LINE
  5
5A
330
59
100
AcDbEntity
  8
0
 62
     0
100
AcDbLine
 10
-1.0
 20
0.26794919
 30
0.0
 11
0.0
 21
0.0
 31
0.0
  0
LINE
  5
5B
330
59
100
AcDbEntity
  8
0
 62
     0
100
AcDbLine
 10
0.0
 20
0.0
 30
0.0
 11
-1.0
 21
-0.26794919
 31
0.0
  0
LINE
  5
5C
330
59
100
AcDbEntity
  8
0
 62
     0
100
AcDbLine
 10
0.0
 20
0.0
 30
0.0
 11
-1.0
 21
0.0
 31
0.0
  0
ENDBLK
  5
5E
330
59
100
AcDbEntity
  8
0
100
AcDbBlockEnd
  0
BLOCK
  5
66
330
64
100
AcDbEntity
  8
0
100
AcDbBlockBegin
  2
GENAXEH
 70
     0
 10
0.0
 20
0.0
 30
0.0
  3
GENAXEH
  1

  0
LINE
  5
65
330
64
100
AcDbEntity
  8
0
100
AcDbLine
 10
-1.0
 20
0.0
 30
0.0
 11
1.0
 21
0.0
 31
0.0
  0
ENDBLK
  5
67
330
64
100
AcDbEntity
  8
0
100
AcDbBlockEnd
  0
BLOCK
  5
C4B
330
C31
100
AcDbEntity
  8
0
100
AcDbBlockBegin
  2
A$C36D02A34
 70
     0
 10
0.0
 20
0.0
 30
0.0
  3
A$C36D02A34
  1

  0
ARC
  5
C32
330
C31
100
AcDbEntity
  8
PV0001_1
  6
CONTINUOUS
 48
0.5
100
AcDbCircle
 10
18.06811523436999
 20
-11.83651161193799
 30
0.0
 40
21.600000381469
100
AcDbArc
 50
123.2290435713209
 51
126.6341524197568
  0
ARC
  5
C33
330
C31
100
AcDbEntity
  8
PV0001_1
  6
CONTINUOUS
 48
0.5
100
AcDbCircle
 10
18.06811523436999
 20
-11.83651161193799
 30
0.0
 40
21.600000381469
100
AcDbArc
 50
135.0736707620117
 51
146.7709980930592
  0
ARC
  5
C34
330
C31
100
AcDbEntity
  8
PV0001_1
  6
CONTINUOUS
 48
0.5
100
AcDbCircle
 10
-18.0680770874
 20
11.8365631103514
 30
0.0
 40
21.600000381469
100
AcDbArc
 50
315.0734847530392
 51
326.770781348241
  0
ARC
  5
C35
330
C31
100
AcDbEntity
  8
PV0001_1
  6
CONTINUOUS
 48
0.5
100
AcDbCircle
 10
-18.0680770874
 20
11.8365631103514
 30
0.0
 40
21.600000381469
100
AcDbArc
 50
303.2288882981993
 51
306.633986901359
  0
ARC
  5
C36
330
C31
100
AcDbEntity
  8
PV0001_1
  6
CONTINUOUS
 48
0.5
100
AcDbCircle
 10
-0.6269836425800009
 20
-2.044216156005997
 30
0.0
 40
2.0
100
AcDbArc
 50
337.4067997351092
 51
43.42231293132884
  0
ARC
  5
C37
330
C31
100
AcDbEntity
  8
PV0001_1
  6
CONTINUOUS
 48
0.5
100
AcDbCircle
 10
0.626953125
 20
2.044223785401001
 30
0.0
 40
2.0
100
AcDbArc
 50
157.4068184044407
 51
223.4222769591536
  0
CIRCLE
  5
C38
330
C31
100
AcDbEntity
  8
PV0001_1
  6
CONTINUOUS
 48
0.5
100
AcDbCircle
 10
3.856727600100001
 20
4.596265792847002
 30
0.0
 40
1.6000000238419
  0
CIRCLE
  5
C39
330
C31
100
AcDbEntity
  8
PV0001_1
  6
CONTINUOUS
 48
0.5
100
AcDbCircle
 10
-3.856727600100001
 20
-4.596265792845997
 30
0.0
 40
1.6000000238419
  0
ARC
  5
C3A
330
C31
100
AcDbEntity
  8
PV0001_1
  6
CONTINUOUS
 48
0.5
100
AcDbCircle
 10
-5.58123779297
 20
5.092639923096001
 30
0.0
 40
5.019082546234099
100
AcDbArc
 50
240.2658959250867
 51
321.5156269706421
  0
ARC
  5
C3B
330
C31
100
AcDbEntity
  8
PV0001_1
  6
CONTINUOUS
 48
0.5
100
AcDbCircle
 10
5.486755371089998
 20
-4.601703643798998
 30
0.0
 40
4.651036739349399
100
AcDbArc
 50
56.25271400417071
 51
145.528859890601
  0
ARC
  5
C3C
330
C31
100
AcDbEntity
  8
PV0001_1
  6
CONTINUOUS
 48
0.5
100
AcDbCircle
 10
-2.11590576172
 20
-3.453323364257997
 30
0.0
 40
4.050000190734899
100
AcDbArc
 50
43.42230610113921
 51
58.50391703385149
  0
ARC
  5
C3D
330
C31
100
AcDbEntity
  8
PV0001_1
  6
CONTINUOUS
 48
0.5
100
AcDbCircle
 10
2.115875244139999
 20
3.453330993653001
 30
0.0
 40
4.050000190734899
100
AcDbArc
 50
223.4222942619974
 51
238.5038164022482
  0
ARC
  5
C3E
330
C31
100
AcDbEntity
  8
PV0001_1
  6
CONTINUOUS
 48
0.5
100
AcDbCircle
 10
-6.70369720459
 20
5.094657897949002
 30
0.0
 40
5.940000057220499
100
AcDbArc
 50
328.2536768887549
 51
31.74641873389623
  0
ARC
  5
C3F
330
C31
100
AcDbEntity
  8
PV0001_1
  6
CONTINUOUS
 48
0.5
100
AcDbCircle
 10
6.703674316410001
 20
-5.094650268553998
 30
0.0
 40
5.940000057220499
100
AcDbArc
 50
148.2533403882529
 51
211.7466423089037
  0
ARC
  5
C40
330
C31
100
AcDbEntity
  8
PV0001_1
  6
CONTINUOUS
 48
0.5
100
AcDbCircle
 10
0.0
 20
0.0
 30
0.0
 40
8.812800407409699
100
AcDbArc
 50
175.2198288164333
 51
272.8622597568298
  0
ARC
  5
C41
330
C31
100
AcDbEntity
  8
PV0001_1
  6
CONTINUOUS
 48
0.5
100
AcDbCircle
 10
0.0
 20
0.0
 30
0.0
 40
9.1800003051758
100
AcDbArc
 50
272.7511362215027
 51
280.3697477877874
  0
ARC
  5
C42
330
C31
100
AcDbEntity
  8
PV0001_1
  6
CONTINUOUS
 48
0.5
100
AcDbCircle
 10
0.0
 20
0.0
 30
0.0
 40
8.812800407409699
100
AcDbArc
 50
355.2198199654955
 51
92.86229572901076
  0
ARC
  5
C43
330
C31
100
AcDbEntity
  8
PV0001_1
  6
CONTINUOUS
 48
0.5
100
AcDbCircle
 10
0.0
 20
0.0
 30
0.0
 40
9.1800003051758
100
AcDbArc
 50
92.75115489083434
 51
100.3697664571193
  0
CIRCLE
  5
C44
330
C31
100
AcDbEntity
  8
PV0001_1
  6
CONTINUOUS
100
AcDbCircle
 10
0.0
 20
0.0
 30
0.0
 40
9.1800003051758
  0
LINE
  5
C45
330
C31
100
AcDbEntity
  8
PV0001_1
  6
CONTINUOUS
 48
0.5
100
AcDbLine
 10
-1.652404785160001
 20
9.030059814453
 30
0.0
 11
-1.652404785160001
 21
8.220062255860002
 31
0.0
  0
LINE
  5
C46
330
C31
100
AcDbEntity
  8
PV0001_1
  6
CONTINUOUS
 48
0.5
100
AcDbLine
 10
1.652404785160001
 20
-8.220058441161999
 30
0.0
 11
1.652404785160001
 21
-9.030055999755997
 31
0.0
  0
LINE
  5
C47
330
C31
100
AcDbEntity
  8
PV0001_1
  6
CONTINUOUS
 48
0.5
100
AcDbLine
 10
-8.78217315674
 20
0.7343807220460015
 30
0.0
 11
-8.070594787600001
 21
0.7343997955320028
 31
0.0
  0
LINE
  5
C48
330
C31
100
AcDbEntity
  8
PV0001_1
  6
CONTINUOUS
 48
0.5
100
AcDbLine
 10
8.07057952881
 20
-0.7343864440919994
 30
0.0
 11
8.78215789795
 21
-0.7343654632569994
 31
0.0
  0
LINE
  5
C49
330
C31
100
AcDbEntity
  8
PV0001_1
  6
CONTINUOUS
 48
0.5
100
AcDbLine
 10
0.4406127929700006
 20
-9.169414520263
 30
0.0
 11
0.4406127929700006
 21
-8.812801361083998
 31
0.0
  0
LINE
  5
C4A
330
C31
100
AcDbEntity
  8
PV0001_1
  6
CONTINUOUS
 48
0.5
100
AcDbLine
 10
-0.4406127929700006
 20
9.169418334961001
 30
0.0
 11
-0.4406127929700006
 21
8.812805175781001
 31
0.0
  0
ENDBLK
  5
C4C
330
C31
100
AcDbEntity
  8
0
100
AcDbBlockEnd
  0
BLOCK
  5
245D
330
2453
100
AcDbEntity
  8
0
100
AcDbBlockBegin
  2
*D6
 70
     1
 10
0.0
 20
0.0
 30
0.0
  3
*D6
  1

  0
LINE
  5
2454
330
2453
100
AcDbEntity
  8
AM_5
 62
     3
100
AcDbLine
 10
-137.574381722344
 20
-5.00000294019065
 30
0.0
 11
-152.8199008769066
 21
-5.000002940190694
 31
0.0
  0
LINE
  5
2455
330
2453
100
AcDbEntity
  8
AM_5
 62
     3
100
AcDbLine
 10
-137.5743817223442
 20
5.00002461040103
 30
0.0
 11
-152.8199008769066
 21
5.000024610400987
 31
0.0
  0
LINE
  5
2456
330
2453
100
AcDbEntity
  8
AM_5
 62
     3
100
AcDbLine
 10
-151.8199008769066
 20
-2.500002940190691
 30
0.0
 11
-151.8199008769066
 21
2.50002461040099
 31
0.0
  0
INSERT
  5
2457
330
2453
100
AcDbEntity
  8
AM_5
 62
     3
100
AcDbBlockReference
  2
_OPEN30
 10
-151.8199008769066
 20
-5.00000294019069
 30
0.0
 41
2.5
 42
2.5
 43
2.5
 50
270.0000000000001
  0
INSERT
  5
2458
330
2453
100
AcDbEntity
  8
AM_5
 62
     3
100
AcDbBlockReference
  2
_OPEN30
 10
-151.8199008769066
 20
5.00002461040099
 30
0.0
 41
2.5
 42
2.5
 43
2.5
 50
90.00000000000015
  0
MTEXT
  5
2459
330
2453
100
AcDbEntity
  8
AM_5
 62
     2
100
AcDbMText
 10
-155.2199008769066
 20
0.000010835105146
 30
0.0
 40
3.799999999999999
 41
0.0
 71
     5
 72
     1
  1
%%c10
 11
-0.0000000000000028
 21
1.0
 31
0.0
1001
ACAD
1000
MTEXTBEGIN
1070
    73
1070
     1
1070
    44
1040
1.0
1070
    74
1070
     0
1000
MTEXTEND
  0
POINT
  5
245A
330
2453
100
AcDbEntity
  8
DEFPOINTS
 62
     0
100
AcDbPoint
 10
-137.5743817223441
 20
-5.000002940190223
 30
0.0
  0
POINT
  5
245B
330
2453
100
AcDbEntity
  8
DEFPOINTS
 62
     0
100
AcDbPoint
 10
-137.5743817223441
 20
5.000024610401458
 30
0.0
  0
POINT
  5
245C
330
2453
100
AcDbEntity
  8
DEFPOINTS
 62
     0
100
AcDbPoint
 10
-151.8199008769066
 20
5.000024610401462
 30
0.0
  0
ENDBLK
  5
245E
330
2453
100
AcDbEntity
  8
0
100
AcDbBlockEnd
  0
BLOCK
  5
246B
330
245F
100
AcDbEntity
  8
0
100
AcDbBlockBegin
  2
A$C4FFC6CC0
 70
     0
 10
0.0
 20
0.0
 30
0.0
  3
A$C4FFC6CC0
  1

  0
DIMENSION
  5
2460
330
245F
100
AcDbEntity
  8
AM_5
100
AcDbDimension
  2
*D6
 10
-70.00000100000002
 20
5.000008477104842
 30
0.0
 11
-70.00000100000002
 21
-0.0000052981910228
 31
0.0
 12
81.81989987690661
 22
-0.0000161332966199
 32
0.0
 70
   128
  1
%%c<>
 51
359.9999999999998
  3
AM_JIS$0
100
AcDbAlignedDimension
 13
-55.75448184543748
 23
-5.000019073486843
 33
0.0
 14
-55.75448184543756
 24
5.000008477104838
 34
0.0
 50
270.0
100
AcDbRotatedDimension
1001
ACAD
1000
DSTYLE
1002
{
1070
   271
1070
     0
1002
}
1001
GENIUS_GENDTOL_13
1000

1000
h7
1000

1040
0.0
  0
LINE
  5
2461
330
245F
100
AcDbEntity
  8
AM_0
 48
0.5
100
AcDbLine
 10
-56.0
 20
-4.754495620727796
 30
0.0
 11
-56.00000000000003
 21
4.754485024345811
 31
0.0
  0
LINE
  5
2462
330
245F
100
AcDbEntity
  8
AM_0
 48
0.5
100
AcDbLine
 10
-55.75448184543751
 20
-5.000019073486843
 30
0.0
 11
-55.75448184543754
 21
5.000008477104838
 31
0.0
  0
LINE
  5
2463
330
245F
100
AcDbEntity
  8
AM_0
100
AcDbLine
 10
-0.0000000000000142
 20
4.999995231627903
 30
0.0
 11
-55.75448184543754
 21
4.999995231627746
 31
0.0
  0
LINE
  5
2464
330
245F
100
AcDbEntity
  8
AM_0
 48
0.5
100
AcDbLine
 10
-55.99996821086117
 20
4.754439989725671
 30
0.0
 11
-55.75443945990975
 21
4.999963442484006
 31
0.0
  0
LINE
  5
2465
330
245F
100
AcDbEntity
  8
AM_0
100
AcDbLine
 10
-55.75448184543751
 20
-5.000008477105588
 30
0.0
 11
0.0000000000000142
 21
-5.00000847710543
 31
0.0
  0
LINE
  5
2466
330
245F
100
AcDbEntity
  8
AM_0
 48
0.5
100
AcDbLine
 10
-55.99996821086114
 20
-4.754474427965309
 30
0.0
 11
-55.75443945990972
 21
-4.999997880724334
 31
0.0
  0
LINE
  5
2467
330
245F
100
AcDbEntity
  8
AM_0
100
AcDbLine
 10
0.7794201296714505
 20
4.549985867772141
 30
0.0
 11
0.7794201296714789
 21
-4.550003370497427
 31
0.0
  0
LINE
  5
2468
330
245F
100
AcDbEntity
  8
AM_0
 48
0.5
100
AcDbLine
 10
0.0000000000000142
 20
-5.00000847710543
 30
0.0
 11
-0.0000000000000142
 21
5.000008477104995
 31
0.0
  0
LINE
  5
2469
330
245F
100
AcDbEntity
  8
AM_0
 48
0.5
100
AcDbLine
 10
0.7794201296714647
 20
-4.550003370497435
 30
0.0
 11
-0.0000105963812445
 21
-5.00000847710543
 31
0.0
  0
LINE
  5
246A
330
245F
100
AcDbEntity
  8
AM_0
 48
0.5
100
AcDbLine
 10
0.7794201296714647
 20
4.549985867772141
 30
0.0
 11
-0.0000000000000142
 21
4.999984635246652
 31
0.0
  0
ENDBLK
  5
246C
330
245F
100
AcDbEntity
  8
0
100
AcDbBlockEnd
  0
BLOCK
  5
3250
330
3244
100
AcDbEntity
  8
0
100
AcDbBlockBegin
  2
*D8
 70
     1
 10
0.0
 20
0.0
 30
0.0
  3
*D8
  1

  0
LINE
  5
3A18
330
3244
100
AcDbEntity
  8
AM_5
100
AcDbLine
 10
0.1710100704080519
 20
-0.46984631084965
 30
0.0
 11
8.042128000074971
 21
-22.09556526816988
 31
0.0
  0
LINE
  5
3A19
330
3244
100
AcDbEntity
  8
AM_5
100
AcDbLine
 10
0.1710098052266613
 20
0.4698478148157159
 30
0.0
 11
8.04214329865008
 21
22.09556294467896
 31
0.0
  0
ARC
  5
3A1A
330
3244
100
AcDbEntity
  8
AM_5
100
AcDbCircle
 10
-0.0000005904945895
 20
0.000001622370506
 30
0.0
 40
23.01361113231229
100
AcDbArc
 50
293.112441903024
 51
66.88751842639859
  0
INSERT
  5
3A1B
330
3244
100
AcDbEntity
  8
AM_5
100
AcDbBlockReference
  2
_OPEN30
 10
7.871117929666898
 20
-21.62571895732023
 30
0.0
 41
1.25
 42
1.25
 43
1.25
 50
201.5562208750056
  0
INSERT
  5
3A1C
330
3244
100
AcDbEntity
  8
AM_5
100
AcDbBlockReference
  2
_OPEN30
 10
7.871132902928827
 20
21.62571675223376
 30
0.0
 41
1.25
 42
1.25
 43
1.25
 50
158.443739454417
  0
MTEXT
  5
3A1D
330
3244
100
AcDbEntity
  8
AM_5
 62
     2
100
AcDbMText
 10
21.46361054181632
 20
-0.0000063447367452
 30
0.0
 40
1.6
 41
0.0
 71
     5
 72
     1
  1
140°
  7
ASAMI
 11
0.0000000000000001
 21
1.0
 31
0.0
1001
ACAD
1000
MTEXTBEGIN
1070
    73
1070
     1
1070
    44
1040
1.0
1070
    74
1070
     0
1000
MTEXTEND
  0
POINT
  5
3A1E
330
3244
100
AcDbEntity
  8
DEFPOINTS
 62
     0
100
AcDbPoint
 10
21.13147202803716
 20
9.115217600148053
 30
0.0
  0
POINT
  5
3A1F
330
3244
100
AcDbEntity
  8
DEFPOINTS
 62
     0
100
AcDbPoint
 10
-0.0000000000000213
 20
0.0
 30
0.0
  0
POINT
  5
3A20
330
3244
100
AcDbEntity
  8
DEFPOINTS
 62
     0
100
AcDbPoint
 10
-0.0000006834663893
 20
0.0000013669331338
 30
0.0
  0
POINT
  5
3A21
330
3244
100
AcDbEntity
  8
DEFPOINTS
 62
     0
100
AcDbPoint
 10
-0.286932261784635
 20
-0.7883349736532637
 30
0.0
  0
POINT
  5
3A22
330
3244
100
AcDbEntity
  8
DEFPOINTS
 62
     0
100
AcDbPoint
 10
-0.2869274775186525
 20
0.7883267720540062
 30
0.0
  0
ENDBLK
  5
3251
330
3244
100
AcDbEntity
  8
0
100
AcDbBlockEnd
  0
BLOCK
  5
325E
330
3252
100
AcDbEntity
  8
0
100
AcDbBlockBegin
  2
*D9
 70
     1
 10
0.0
 20
0.0
 30
0.0
  3
*D9
  1

  0
LINE
  5
3EF0
330
3252
100
AcDbEntity
  8
AM_5
 62
     3
100
AcDbLine
 10
-1.546921234380984
 20
-4.64882557688964
 30
0.0
 11
-1.546921234380986
 21
-27.40016480439911
 31
0.0
  0
LINE
  5
3EF1
330
3252
100
AcDbEntity
  8
AM_5
 62
     3
100
AcDbLine
 10
-31.54692357091638
 20
-7.066981581610386
 30
0.0
 11
-31.54692357091638
 21
-27.40016480439911
 31
0.0
  0
LINE
  5
3EF2
330
3252
100
AcDbEntity
  8
AM_5
 62
     3
100
AcDbLine
 10
-2.796921234380985
 20
-26.90016480439911
 30
0.0
 11
-30.29692357091638
 21
-26.90016480439911
 31
0.0
  0
INSERT
  5
3EF3
330
3252
100
AcDbEntity
  8
AM_5
 62
     3
100
AcDbBlockReference
  2
_OPEN30
 10
-1.546921234380986
 20
-26.90016480439911
 30
0.0
 41
1.25
 42
1.25
 43
1.25
  0
INSERT
  5
3EF4
330
3252
100
AcDbEntity
  8
AM_5
 62
     3
100
AcDbBlockReference
  2
_OPEN30
 10
-31.54692357091638
 20
-26.90016480439911
 30
0.0
 41
1.25
 42
1.25
 43
1.25
 50
180.0
  0
MTEXT
  5
3EF5
330
3252
100
AcDbEntity
  8
AM_5
 62
     2
100
AcDbMText
 10
-12.4766478723204
 20
-25.20016480439911
 30
0.0
 40
1.9
 41
0.0
 71
     5
 72
     1
  1
30
1001
ACAD
1000
MTEXTBEGIN
1070
    73
1070
     1
1070
    44
1040
1.0
1070
    74
1070
     0
1000
MTEXTEND
  0
POINT
  5
3EF6
330
3252
100
AcDbEntity
  8
DEFPOINTS
 62
     0
100
AcDbPoint
 10
-1.546921234380984
 20
-4.24882557688964
 30
0.0
  0
POINT
  5
3EF7
330
3252
100
AcDbEntity
  8
DEFPOINTS
 62
     0
100
AcDbPoint
 10
-31.54692357091638
 20
-6.666981581610386
 30
0.0
  0
POINT
  5
3EF8
330
3252
100
AcDbEntity
  8
DEFPOINTS
 62
     0
100
AcDbPoint
 10
-31.54692357091638
 20
-26.90016480439911
 30
0.0
  0
ENDBLK
  5
325F
330
3252
100
AcDbEntity
  8
0
100
AcDbBlockEnd
  0
BLOCK
  5
326C
330
3260
100
AcDbEntity
  8
0
100
AcDbBlockBegin
  2
*D10
 70
     1
 10
0.0
 20
0.0
 30
0.0
  3
*D10
  1

  0
LINE
  5
3C09
330
3260
100
AcDbEntity
  8
AM_5
 62
     3
100
AcDbLine
 10
-1.146923570916396
 20
-4.248826105287509
 30
0.0
 11
12.96410020608556
 21
-4.248826105287513
 31
0.0
  0
LINE
  5
3C0A
330
3260
100
AcDbEntity
  8
AM_5
 62
     3
100
AcDbLine
 10
-1.146912762607503
 20
4.251173894712512
 30
0.0
 11
12.96410020608556
 21
4.251173894712509
 31
0.0
  0
LINE
  5
3C0B
330
3260
100
AcDbEntity
  8
AM_5
 62
     3
100
AcDbLine
 10
12.46410020608556
 20
-5.498826105287513
 30
0.0
 11
12.46410020608556
 21
-6.748826105287513
 31
0.0
  0
LINE
  5
3C0C
330
3260
100
AcDbEntity
  8
AM_5
 62
     3
100
AcDbLine
 10
12.46410020608556
 20
5.501173894712509
 30
0.0
 11
12.46410020608556
 21
6.751173894712509
 31
0.0
  0
LINE
  5
3C0D
330
3260
100
AcDbEntity
  8
AM_5
 62
     3
100
AcDbLine
 10
12.46410020608556
 20
-4.248826105287513
 30
0.0
 11
12.46410020608556
 21
4.251173894712509
 31
0.0
  0
INSERT
  5
3C0E
330
3260
100
AcDbEntity
  8
AM_5
 62
     3
100
AcDbBlockReference
  2
_OPEN30
 10
12.46410020608556
 20
-4.248826105287513
 30
0.0
 41
1.25
 42
1.25
 43
1.25
 50
90.0
  0
INSERT
  5
3C0F
330
3260
100
AcDbEntity
  8
AM_5
 62
     3
100
AcDbBlockReference
  2
_OPEN30
 10
12.46410020608556
 20
4.251173894712509
 30
0.0
 41
1.25
 42
1.25
 43
1.25
 50
270.0
  0
MTEXT
  5
3C10
330
3260
100
AcDbEntity
  8
AM_5
 62
     2
100
AcDbMText
 10
10.76410020608556
 20
0.0011738947124895
 30
0.0
 40
1.9
 41
0.0
 71
     5
 72
     1
  1
%%C8.5
 11
0.0000000000000001
 21
1.0
 31
0.0
1001
ACAD
1000
MTEXTBEGIN
1070
    73
1070
     1
1070
    44
1040
1.0
1070
    74
1070
     0
1000
MTEXTEND
  0
POINT
  5
3C11
330
3260
100
AcDbEntity
  8
DEFPOINTS
 62
     0
100
AcDbPoint
 10
-1.546923570916396
 20
-4.248826105287509
 30
0.0
  0
POINT
  5
3C12
330
3260
100
AcDbEntity
  8
DEFPOINTS
 62
     0
100
AcDbPoint
 10
-1.546912762607503
 20
4.251173894712512
 30
0.0
  0
POINT
  5
3C13
330
3260
100
AcDbEntity
  8
DEFPOINTS
 62
     0
100
AcDbPoint
 10
12.46410020608556
 20
4.251173894712509
 30
0.0
  0
ENDBLK
  5
326D
330
3260
100
AcDbEntity
  8
0
100
AcDbBlockEnd
  0
BLOCK
  5
3278
330
326E
100
AcDbEntity
  8
0
100
AcDbBlockBegin
  2
*D11
 70
     1
 10
0.0
 20
0.0
 30
0.0
  3
*D11
  1

  0
LINE
  5
3EDE
330
326E
100
AcDbEntity
  8
AM_5
 62
     3
100
AcDbLine
 10
-1.546921234380984
 20
-4.64882557688964
 30
0.0
 11
-1.546921234380987
 21
-44.17185652859593
 31
0.0
  0
LINE
  5
3EDF
330
326E
100
AcDbEntity
  8
AM_5
 62
     3
100
AcDbLine
 10
-123.546921234381
 20
-5.900262121812012
 30
0.0
 11
-123.546921234381
 21
-44.17185652859593
 31
0.0
  0
LINE
  5
3EE0
330
326E
100
AcDbEntity
  8
AM_5
 62
     3
100
AcDbLine
 10
-2.796921234380987
 20
-43.67185652859594
 30
0.0
 11
-122.296921234381
 21
-43.67185652859594
 31
0.0
  0
INSERT
  5
3EE1
330
326E
100
AcDbEntity
  8
AM_5
 62
     3
100
AcDbBlockReference
  2
_OPEN30
 10
-1.546921234380987
 20
-43.67185652859594
 30
0.0
 41
1.25
 42
1.25
 43
1.25
  0
INSERT
  5
3EE2
330
326E
100
AcDbEntity
  8
AM_5
 62
     3
100
AcDbBlockReference
  2
_OPEN30
 10
-123.546921234381
 20
-43.67185652859594
 30
0.0
 41
1.25
 42
1.25
 43
1.25
 50
180.0
  0
MTEXT
  5
3EE3
330
326E
100
AcDbEntity
  8
AM_5
 62
     2
100
AcDbMText
 10
-62.546921234381
 20
-41.97185652859594
 30
0.0
 40
1.9
 41
0.0
 71
     5
 72
     1
  1
122
1001
ACAD
1000
MTEXTBEGIN
1070
    73
1070
     1
1070
    44
1040
1.0
1070
    74
1070
     0
1000
MTEXTEND
  0
POINT
  5
3EE4
330
326E
100
AcDbEntity
  8
DEFPOINTS
 62
     0
100
AcDbPoint
 10
-1.546921234380984
 20
-4.24882557688964
 30
0.0
  0
POINT
  5
3EE5
330
326E
100
AcDbEntity
  8
DEFPOINTS
 62
     0
100
AcDbPoint
 10
-123.546921234381
 20
-5.500262121812012
 30
0.0
  0
POINT
  5
3EE6
330
326E
100
AcDbEntity
  8
DEFPOINTS
 62
     0
100
AcDbPoint
 10
-123.546921234381
 20
-43.67185652859594
 30
0.0
  0
ENDBLK
  5
3279
330
326E
100
AcDbEntity
  8
0
100
AcDbBlockEnd
  0
BLOCK
  5
3292
330
3288
100
AcDbEntity
  8
0
100
AcDbBlockBegin
  2
*D12
 70
     1
 10
0.0
 20
0.0
 30
0.0
  3
*D12
  1

  0
LINE
  5
3EE7
330
3288
100
AcDbEntity
  8
AM_5
 62
     3
100
AcDbLine
 10
-1.546921234380984
 20
-4.64882557688964
 30
0.0
 11
-1.546921234380986
 21
-35.23740392122403
 31
0.0
  0
LINE
  5
3EE8
330
3288
100
AcDbEntity
  8
AM_5
 62
     3
100
AcDbLine
 10
-61.54692123438097
 20
-4.750210164734912
 30
0.0
 11
-61.54692123438097
 21
-35.23740392122403
 31
0.0
  0
LINE
  5
3EE9
330
3288
100
AcDbEntity
  8
AM_5
 62
     3
100
AcDbLine
 10
-2.796921234380986
 20
-34.73740392122403
 30
0.0
 11
-60.29692123438097
 21
-34.73740392122403
 31
0.0
  0
INSERT
  5
3EEA
330
3288
100
AcDbEntity
  8
AM_5
 62
     3
100
AcDbBlockReference
  2
_OPEN30
 10
-1.546921234380986
 20
-34.73740392122403
 30
0.0
 41
1.25
 42
1.25
 43
1.25
  0
INSERT
  5
3EEB
330
3288
100
AcDbEntity
  8
AM_5
 62
     3
100
AcDbBlockReference
  2
_OPEN30
 10
-61.54692123438097
 20
-34.73740392122403
 30
0.0
 41
1.25
 42
1.25
 43
1.25
 50
180.0
  0
MTEXT
  5
3EEC
330
3288
100
AcDbEntity
  8
AM_5
 62
     2
100
AcDbMText
 10
-31.54692123438098
 20
-33.03740392122403
 30
0.0
 40
1.9
 41
0.0
 71
     5
 72
     1
  1
60
1001
ACAD
1000
MTEXTBEGIN
1070
    73
1070
     1
1070
    44
1040
1.0
1070
    74
1070
     0
1000
MTEXTEND
  0
POINT
  5
3EED
330
3288
100
AcDbEntity
  8
DEFPOINTS
 62
     0
100
AcDbPoint
 10
-1.546921234380984
 20
-4.24882557688964
 30
0.0
  0
POINT
  5
3EEE
330
3288
100
AcDbEntity
  8
DEFPOINTS
 62
     0
100
AcDbPoint
 10
-61.54692123438097
 20
-4.350210164734912
 30
0.0
  0
POINT
  5
3EEF
330
3288
100
AcDbEntity
  8
DEFPOINTS
 62
     0
100
AcDbPoint
 10
-61.54692123438097
 20
-34.73740392122403
 30
0.0
  0
ENDBLK
  5
3293
330
3288
100
AcDbEntity
  8
0
100
AcDbBlockEnd
  0
BLOCK
  5
32A0
330
3294
100
AcDbEntity
  8
0
100
AcDbBlockBegin
  2
*D13
 70
     1
 10
0.0
 20
0.0
 30
0.0
  3
*D13
  1

  0
LINE
  5
3C93
330
3294
100
AcDbEntity
  8
AM_5
 62
     3
100
AcDbLine
 10
-123.5373974248572
 20
6.000281769045365
 30
0.0
 11
-136.1957932164027
 21
6.000281769045368
 31
0.0
  0
LINE
  5
3C94
330
3294
100
AcDbEntity
  8
AM_5
 62
     3
100
AcDbLine
 10
-123.5373974248572
 20
-6.000285567411006
 30
0.0
 11
-136.1957932164027
 21
-6.000285567411002
 31
0.0
  0
LINE
  5
3C95
330
3294
100
AcDbEntity
  8
AM_5
 62
     3
100
AcDbLine
 10
-135.6957932164027
 20
4.750281769045368
 30
0.0
 11
-135.6957932164027
 21
-4.750285567411002
 31
0.0
  0
INSERT
  5
3C96
330
3294
100
AcDbEntity
  8
AM_5
 62
     3
100
AcDbBlockReference
  2
_OPEN30
 10
-135.6957932164027
 20
6.000281769045368
 30
0.0
 41
1.25
 42
1.25
 43
1.25
 50
90.0
  0
INSERT
  5
3C97
330
3294
100
AcDbEntity
  8
AM_5
 62
     3
100
AcDbBlockReference
  2
_OPEN30
 10
-135.6957932164027
 20
-6.000285567411002
 30
0.0
 41
1.25
 42
1.25
 43
1.25
 50
270.0
  0
MTEXT
  5
3C98
330
3294
100
AcDbEntity
  8
AM_5
 62
     2
100
AcDbMText
 10
-137.3957932164026
 20
-0.0000018991828385
 30
0.0
 40
1.9
 41
0.0
 71
     5
 72
     1
  1
%%C12
 11
0.0000000000000001
 21
1.0
 31
0.0
1001
ACAD
1000
MTEXTBEGIN
1070
    73
1070
     1
1070
    44
1040
1.0
1070
    74
1070
     0
1000
MTEXTEND
  0
POINT
  5
3C99
330
3294
100
AcDbEntity
  8
DEFPOINTS
 62
     0
100
AcDbPoint
 10
-123.1373974248572
 20
6.000281769045365
 30
0.0
  0
POINT
  5
3C9A
330
3294
100
AcDbEntity
  8
DEFPOINTS
 62
     0
100
AcDbPoint
 10
-123.1373974248572
 20
-6.000285567411006
 30
0.0
  0
POINT
  5
3C9B
330
3294
100
AcDbEntity
  8
DEFPOINTS
 62
     0
100
AcDbPoint
 10
-135.6957932164027
 20
-6.000285567411002
 30
0.0
  0
ENDBLK
  5
32A1
330
3294
100
AcDbEntity
  8
0
100
AcDbBlockEnd
  0
BLOCK
  5
3E11
330
3E01
100
AcDbEntity
  8
0
100
AcDbBlockBegin
  2
*D14
 70
     1
 10
0.0
 20
0.0
 30
0.0
  3
*D14
  1

  0
LINE
  5
3EC8
330
3E01
100
AcDbEntity
  8
AM_5
100
AcDbLine
 10
-31.90976349699783
 20
6.397722535054653
 30
0.0
 11
-55.65797639403439
 21
30.14593543209042
 31
0.0
  0
LINE
  5
3EC9
330
3E01
100
AcDbEntity
  8
AM_5
100
AcDbLine
 10
-31.90976349699776
 20
-6.397722535055025
 30
0.0
 11
-55.65797639403406
 21
-30.14593543209106
 31
0.0
  0
ARC
  5
3ECA
330
3E01
100
AcDbEntity
  8
AM_5
100
AcDbCircle
 10
-25.51204096194281
 20
-0.0000000000001518
 30
0.0
 40
42.13279073848684
100
AcDbArc
 50
136.699919469817
 51
223.3000805301835
  0
INSERT
  5
3ECB
330
3E01
100
AcDbEntity
  8
AM_5
100
AcDbBlockReference
  2
_OPEN30
 10
-55.30442300344112
 20
29.79238204149715
 30
0.0
 41
1.25
 42
1.25
 43
1.25
 50
45.84995973490905
  0
INSERT
  5
3ECC
330
3E01
100
AcDbEntity
  8
AM_5
100
AcDbBlockReference
  2
_OPEN30
 10
-55.30442300344079
 20
-29.79238204149779
 30
0.0
 41
1.25
 42
1.25
 43
1.25
 50
314.1500402650915
  0
MTEXT
  5
3ECD
330
3E01
100
AcDbEntity
  8
AM_5
 62
     2
100
AcDbMText
 10
-69.19483170042965
 20
-0.0000000000003848
 30
0.0
 40
1.6
 41
0.0
 71
     5
 72
     1
  1
90°
  7
ASAMI
 11
-0.0000000000000028
 21
1.0
 31
0.0
1001
ACAD
1000
MTEXTBEGIN
1070
    73
1070
     1
1070
    44
1040
1.0
1070
    74
1070
     0
1000
MTEXTEND
  0
POINT
  5
3ECE
330
3E01
100
AcDbEntity
  8
DEFPOINTS
 62
     0
100
AcDbPoint
 10
-66.20919166988018
 20
10.90476866643916
 30
0.0
  0
POINT
  5
3ECF
330
3E01
100
AcDbEntity
  8
DEFPOINTS
 62
     0
100
AcDbPoint
 10
-29.76086653883236
 20
-4.248825576889553
 30
0.0
  0
POINT
  5
3ED0
330
3E01
100
AcDbEntity
  8
DEFPOINTS
 62
     0
100
AcDbPoint
 10
-29.76321538505349
 20
4.251174423110494
 30
0.0
  0
POINT
  5
3ED1
330
3E01
100
AcDbEntity
  8
DEFPOINTS
 62
     0
100
AcDbPoint
 10
-31.55621010640453
 20
6.044169144461484
 30
0.0
  0
POINT
  5
3ED2
330
3E01
100
AcDbEntity
  8
DEFPOINTS
 62
     0
100
AcDbPoint
 10
-31.5562101064045
 20
-6.044169144461655
 30
0.0
  0
ENDBLK
  5
3E12
330
3E01
100
AcDbEntity
  8
0
100
AcDbBlockEnd
  0
ENDSEC
  0
SECTION
  2
ENTITIES
  0
TEXT
  5
19BD
330
1F
100
AcDbEntity
  8
AM_6
100
AcDbText
 10
-73.49930218676191
 20
-54.92185652859596
 30
0.0
 40
2.5
  1
MDW085S3G
 50
0.0000000000001527
 72
     4
 11
-62.54692123438097
 21
-53.67185652859594
 31
0.0
100
AcDbText
  0
DIMENSION
  5
31FC
330
1F
100
AcDbEntity
  8
AM_5
100
AcDbDimension
  2
*D8
 10
-0.2869274775186525
 20
0.7883267720540062
 30
0.0
 11
21.46361054181632
 21
-0.0000063447367487
 31
0.0
 70
    34
  1
<>
  3
AM_JIS$2
100
AcDb2LineAngularDimension
 13
-0.0000006834663893
 23
0.0000013669331338
 33
0.0
 14
-0.286932261784635
 24
-0.7883349736532637
 34
0.0
 15
-0.0000000000000213
 25
0.0
 35
0.0
 16
21.13147202803716
 26
9.115217600148053
 36
0.0
1001
ACAD
1000
DSTYLE
1002
{
1070
   179
1070
     3
1002
}
1001
GENIUS_GENDTOL_13
1000

1000
h7
1000

1040
0.0
  0
DIMENSION
  5
31FD
330
1F
100
AcDbEntity
  8
AM_5
100
AcDbDimension
  2
*D9
 10
-31.54692357091638
 20
-26.90016480439911
 30
0.0
 11
-12.4766478723204
 21
-26.90016480439911
 31
0.0
 70
   160
  1
<>
  3
AM_JIS$0
100
AcDbAlignedDimension
 13
-1.546921234380984
 23
-4.24882557688964
 33
0.0
 14
-31.54692357091638
 24
-6.666981581610386
 34
0.0
 50
180.0
100
AcDbRotatedDimension
1001
GENIUS_GENDTOL_13
1000

1000
h7
1000

1040
0.0
  0
DIMENSION
  5
31FE
330
1F
100
AcDbEntity
  8
AM_5
100
AcDbDimension
  2
*D10
 10
12.46410020608556
 20
4.251173894712509
 30
0.0
 11
12.46410020608556
 21
0.0011738947124893
 31
0.0
 70
   160
  1
%%C<>
  3
AM_JIS$0
100
AcDbAlignedDimension
 13
-1.546923570916396
 23
-4.248826105287509
 33
0.0
 14
-1.546912762607503
 24
4.251173894712512
 34
0.0
 50
90.0
100
AcDbRotatedDimension
1001
ACAD
1000
DSTYLE
1002
{
1070
   271
1070
     1
1002
}
1001
GENIUS_GENDTOL_13
1000

1000
h7
1000

1040
0.0
  0
LINE
  5
31FF
330
1F
100
AcDbEntity
  8
AM_0
100
AcDbLine
 10
-57.62723416540076
 20
6.000281769045522
 30
0.0
 11
-123.1373974248571
 21
6.000281769045394
 31
0.0
  0
LINE
  5
3200
330
1F
100
AcDbEntity
  8
AM_0
100
AcDbLine
 10
-56.11254602082555
 20
-6.032403427362905
 30
0.0
 11
-123.137397424857
 21
-6.000287325986451
 31
0.0
  0
LINE
  5
3201
330
1F
100
AcDbEntity
  8
AM_7
100
AcDbLine
 10
3.226237378435541
 20
0.0
 30
0.0
 11
-125.9636031551925
 21
-0.000000000000313
 31
0.0
  0
DIMENSION
  5
3202
330
1F
100
AcDbEntity
  8
AM_5
100
AcDbDimension
  2
*D11
 10
-123.546921234381
 20
-43.67185652859594
 30
0.0
 11
-62.546921234381
 21
-41.97185652859594
 31
0.0
 70
    32
  1
<>
  3
AM_JIS$0
100
AcDbAlignedDimension
 13
-1.546921234380984
 23
-4.24882557688964
 33
0.0
 14
-123.546921234381
 24
-5.500262121812012
 34
0.0
 50
180.0
100
AcDbRotatedDimension
1001
GENIUS_GENDTOL_13
1000

1000
h7
1000

1040
0.0
1001
ACAD
1000
DSTYLE
1002
{
1070
   271
1070
     1
1002
}
  0
ELLIPSE
  5
3205
330
1F
100
AcDbEntity
  8
AM_0
100
AcDbEllipse
 10
-30.16968524629743
 20
25.0136173338839
 30
0.0
 11
-19.00715097792747
 21
19.00715097792748
 31
0.0
210
0.0
220
0.0
230
1.0
 40
0.9999999999999948
 41
2.258200933246287
 42
2.343612134967818
  0
DIMENSION
  5
320B
330
1F
100
AcDbEntity
  8
AM_5
100
AcDbDimension
  2
*D12
 10
-61.54692123438097
 20
-34.73740392122403
 30
0.0
 11
-31.54692123438098
 21
-33.03740392122403
 31
0.0
 70
    32
  1
<>
  3
AM_JIS$0
100
AcDbAlignedDimension
 13
-1.546921234380984
 23
-4.24882557688964
 33
0.0
 14
-61.54692123438097
 24
-4.350210164734912
 34
0.0
 50
180.0
100
AcDbRotatedDimension
1001
GENIUS_GENDTOL_13
1000

1000
h7
1000

1040
0.0
1001
ACAD
1000
DSTYLE
1002
{
1070
   271
1070
     5
1002
}
  0
ELLIPSE
  5
3225
330
1F
100
AcDbEntity
  8
AM_0
100
AcDbEllipse
 10
-20.88502390953066
 20
0.4562194966516252
 30
0.0
 11
0.0000000000025287
 21
-10.89454658320558
 31
0.0
210
0.0
220
0.0
230
1.0
 40
0.9032857142856435
 41
-1.355287982022058
 42
-1.124229503791887
  0
ELLIPSE
  5
3227
330
1F
100
AcDbEntity
  8
AM_0
100
AcDbEllipse
 10
-20.88737275575176
 20
-0.4538706504306076
 30
0.0
 11
-0.0000000000007321
 21
-10.8945465832047
 31
0.0
210
0.0
220
0.0
230
1.0
 40
0.9032857142857174
 41
4.265822157381497
 42
4.363915756622795
  0
DIMENSION
  5
323E
330
1F
100
AcDbEntity
  8
AM_5
100
AcDbDimension
  2
*D13
 10
-135.6957932164027
 20
-6.000285567411002
 30
0.0
 11
-137.3957932164026
 21
-0.0000018991828385
 31
0.0
 70
    32
  1
%%C<>
  3
AM_JIS$0
100
AcDbAlignedDimension
 13
-123.1373974248572
 23
6.000281769045365
 33
0.0
 14
-123.1373974248572
 24
-6.000285567411006
 34
0.0
 50
270.0
100
AcDbRotatedDimension
1001
ACAD
1000
DSTYLE
1002
{
1070
   271
1070
     1
1002
}
1001
GENIUS_GENDTOL_13
1000

1000
h7
1000

1040
0.0
  0
LINE
  5
323F
330
1F
100
AcDbEntity
  8
AM_0
100
AcDbLine
 10
-123.1373974248571
 20
-6.00028556741103
 30
0.0
 11
-123.1373974248571
 21
6.000281769045342
 31
0.0
  0
LINE
  5
3240
330
1F
100
AcDbEntity
  8
AM_0
 48
0.5
100
AcDbLine
 10
-123.546921234381
 20
-0.0000000000003126
 30
0.0
 11
-123.546921234381
 21
-5.500262121812012
 31
0.0
  0
LINE
  5
3241
330
1F
100
AcDbEntity
  8
AM_0
 48
0.5
100
AcDbLine
 10
-123.546921234381
 20
-0.0000000000003126
 30
0.0
 11
-123.546921234381
 21
5.50025828829151
 31
0.0
  0
LINE
  5
3242
330
1F
100
AcDbEntity
  8
AM_0
100
AcDbLine
 10
-123.546921234381
 20
5.50025828829151
 30
0.0
 11
-123.1373974248572
 21
6.000281769045365
 31
0.0
1001
GENIUS_GENFIL_13
1070
     0
1040
1.0
1040
1.0
1040
20.0
1040
0.0
1002
{
1002
}
1001
GENIUS_GENODEF_13
1002
{
1000
HIER
1070
     0
1002
}
1002
{
1000
MANEDIT
1070
     0
1002
}
1002
{
1000
NOSEL
1070
     0
1002
}
1002
{
1000
BEHIND
1070
     0
1002
}
1002
{
1000
REACTOR
1002
}
1001
GENIUS_GENOBJ-N-CHA_13
1002
{
1000
OWNER
1000
GEN
1002
}
  0
LINE
  5
3243
330
1F
100
AcDbEntity
  8
AM_0
 48
0.5
100
AcDbLine
 10
-123.1373974248571
 20
-6.00028556741103
 30
0.0
 11
-123.5469212343809
 21
-5.500262121812035
 31
0.0
1001
GENIUS_GENFIL_13
1070
     0
1040
1.0
1040
1.0
1040
20.0
1040
0.0
1002
{
1002
}
1001
GENIUS_GENODEF_13
1002
{
1000
HIER
1070
     0
1002
}
1002
{
1000
MANEDIT
1070
     0
1002
}
1002
{
1000
NOSEL
1070
     0
1002
}
1002
{
1000
BEHIND
1070
     0
1002
}
1002
{
1000
REACTOR
1002
}
1001
GENIUS_GENOBJ-N-CHA_13
1002
{
1000
OWNER
1000
GEN
1002
}
  0
SPLINE
  5
35C6
330
1F
100
AcDbEntity
  8
AM_0
100
AcDbSpline
210
0.0
220
0.0
230
1.0
 70
     8
 71
     3
 72
    17
 73
    13
 74
     0
 42
0.0000000001
 43
0.0000000001
 40
1.580019955310467
 40
1.580019955310467
 40
1.580019955310467
 40
1.580019955310467
 40
2.030549285115227
 40
3.082371838836284
 40
4.126290986361125
 40
5.162752068350215
 40
6.192395305374981
 40
7.216039564037012
 40
8.234688489606833
 40
9.249433870634691
 40
10.26152376260694
 40
11.27226744710342
 40
11.27226744710342
 40
11.27226744710342
 40
11.27226744710352
 10
-12.6932828741182
 20
-3.135450724898575
 30
0.0
 10
-12.81392873203503
 20
-3.167755358209708
 30
0.0
 10
-13.21692642992453
 20
-3.273638108787441
 30
0.0
 10
-13.90494343946867
 20
-3.439718991619203
 30
0.0
 10
-14.75715428723114
 20
-3.625707548254558
 30
0.0
 10
-15.60959974784211
 20
-3.788980806973751
 30
0.0
 10
-16.4620842672065
 20
-3.92899045947779
 30
0.0
 10
-17.31466166323143
 20
-4.044718068792929
 30
0.0
 10
-18.16729796138218
 20
-4.135503228481612
 30
0.0
 10
-19.01998735149413
 20
-4.200757620331962
 30
0.0
 10
-19.87270882550891
 20
-4.240061194245497
 30
0.0
 10
-20.4413277834374
 20
-4.24882560120824
 30
0.0
 10
-20.72544804454362
 20
-4.248825576889527
 30
0.0
  0
SPLINE
  5
35C7
330
1F
100
AcDbEntity
  8
AM_0
100
AcDbSpline
210
0.0
220
0.0
230
1.0
 70
     8
 71
     3
 72
    36
 73
    32
 74
     0
 42
0.0000000001
 43
0.0000000001
 40
0.0
 40
0.0
 40
0.0
 40
0.0
 40
1.010743684496582
 40
2.022833576467832
 40
3.037578957496688
 40
4.056212745003489
 40
5.079857003664532
 40
6.109500240690281
 40
7.145961322679372
 40
8.189895241603872
 40
9.241717795325891
 40
10.30168407291828
 40
11.36983447792315
 40
12.44600489715814
 40
13.52984294512926
 40
14.62081576220742
 40
15.7182257034828
 40
16.82123173843959
 40
17.92886860250316
 40
19.0400688939571
 40
20.15368796660465
 40
21.26852814259644
 40
22.38336992938901
 40
23.49698739941135
 40
24.6081876908653
 40
25.71582455492886
 40
26.81883757994213
 40
27.91624752121713
 40
29.00722033829659
 40
30.09105838626677
 40
30.79552876096828
 40
30.79552876096828
 40
30.79552876096828
 40
30.79552876096828
 10
-4.662370935343412
 20
-4.248825576889583
 30
0.0
 10
-4.946491200198016
 20
-4.246296929852132
 30
0.0
 10
-5.515110149114907
 20
-4.241236267877322
 30
0.0
 10
-6.367831641216379
 20
-4.200441651054365
 30
0.0
 10
-7.220516733852503
 20
-4.135588867048667
 30
0.0
 10
-8.073149053652805
 20
-4.044695223727583
 30
0.0
 10
-8.925720092688923
 20
-3.928992504224785
 30
0.0
 10
-9.778213031640465
 20
-3.788995220095368
 30
0.0
 10
-10.63063072205853
 20
-3.625646442944562
 30
0.0
 10
-11.4829656047209
 20
-3.43994644252714
 30
0.0
 10
-12.33521187367363
 20
-3.233035405580497
 30
0.0
 10
-13.18737377689323
 20
-3.006212091294785
 30
0.0
 10
-14.03945359663922
 20
-2.76086467390344
 30
0.0
 10
-14.89146197896642
 20
-2.498520503402223
 30
0.0
 10
-15.7434028246866
 20
-2.220791740927747
 30
0.0
 10
-16.59528403362389
 20
-1.929391167226146
 30
0.0
 10
-17.44711505325617
 20
-1.626116491128907
 30
0.0
 10
-18.29890335970729
 20
-1.312832708404318
 30
0.0
 10
-19.15065721967981
 20
-0.9914666361864286
 30
0.0
 10
-20.00238574730194
 20
-0.6639962444696265
 30
0.0
 10
-20.85409641304371
 20
-0.3324346866436096
 30
0.0
 10
-21.70580124437895
 20
0.0011735559561006
 30
0.0
 10
-22.55750225227213
 20
0.3347878037120879
 30
0.0
 10
-23.4092157727624
 20
0.6663441982476768
 30
0.0
 10
-24.26094324891427
 20
0.9938155811987002
 30
0.0
 10
-25.11269862755448
 20
1.315182877678051
 30
0.0
 10
-25.96449046763209
 20
1.628463986783864
 30
0.0
 10
-26.81632283167878
 20
1.931740200905643
 30
0.0
 10
-27.66820416359939
 20
2.223140538311448
 30
0.0
 10
-28.4227385612785
 20
2.469115311393947
 30
0.0
 10
-28.88991854211301
 20
2.770365173993501
 30
0.0
 10
-30.13677589402818
 20
3.266216049426457
 30
0.0
  0
SPLINE
  5
35C8
330
1F
100
AcDbEntity
  8
AM_0
100
AcDbSpline
210
0.0
220
0.0
230
1.0
 70
     8
 71
     3
 72
    38
 73
    34
 74
     0
 42
0.0000000001
 43
0.0000000001
 40
0.0
 40
0.0
 40
0.0
 40
0.0
 40
0.8427075293422852
 40
1.265518104770559
 40
1.68994884956506
 40
2.116467290673827
 40
2.54548530610122
 40
2.977344090263342
 40
3.412310401731623
 40
3.850575907619846
 40
4.292228523283339
 40
4.737291192035372
 40
5.185695533383686
 40
5.637294720037921
 40
6.091866727153826
 40
6.549120869352287
 40
7.008706717250554
 40
7.470222077277051
 40
7.933222198716569
 40
8.397230145652669
 40
8.861746885649248
 40
9.326263625646204
 40
9.790271572582303
 40
10.25327169402144
 40
10.71478705404793
 40
11.17437290194659
 40
11.6316270441445
 40
12.08619905126056
 40
12.53780120194721
 40
12.98620554329551
 40
13.43126821204755
 40
13.87292082771091
 40
13.97820595453336
 40
13.97820595453336
 40
13.97820595453336
 40
13.97820595453336
 10
-2.275330176453377
 20
-4.248825576889611
 30
0.0
 10
-2.843976907185928
 20
-4.239143748360717
 30
0.0
 10
-3.697930037902928
 20
-4.224604268334752
 30
0.0
 10
-4.833468755207795
 20
-4.135087360859576
 30
0.0
 10
-5.686110235657727
 20
-4.044830505571598
 30
0.0
 10
-6.53867883555858
 20
-3.928956034942275
 30
0.0
 10
-7.391172308952739
 20
-3.789004773778377
 30
0.0
 10
-8.243586276414045
 20
-3.625645808335571
 30
0.0
 10
-9.095919310277174
 20
-3.439943318574153
 30
0.0
 10
-9.948167617359082
 20
-3.233037545271028
 30
0.0
 10
-10.80033290109972
 20
-3.00621179476191
 30
0.0
 10
-11.65241286943361
 20
-2.760864754269652
 30
0.0
 10
-12.50442121148131
 20
-2.498520481610006
 30
0.0
 10
-13.35636206817369
 20
-2.220791746917077
 30
0.0
 10
-14.20824327390146
 20
-1.929391165263665
 30
0.0
 10
-15.06007429530608
 20
-1.626116492949303
 30
0.0
 10
-15.91186259787777
 20
-1.31283270306398
 30
0.0
 10
-16.76361647166581
 20
-0.991466655828178
 30
0.0
 10
-17.61534494768937
 20
-0.663996170955145
 30
0.0
 10
-18.46705580654377
 20
-0.3324349617353241
 30
0.0
 10
-19.31875950576628
 20
0.0011744230429812
 30
0.0
 10
-20.17046320480166
 20
0.3347838082266429
 30
0.0
 10
-21.02217406421729
 20
0.6663450162308724
 30
0.0
 10
-21.87390253818947
 20
0.9938155055464481
 30
0.0
 10
-22.72565641958418
 20
1.315181536306522
 30
0.0
 10
-23.57744469395108
 20
1.628465387282224
 30
0.0
 10
-24.42927581980752
 20
1.931739833357422
 30
0.0
 10
-25.28115849112304
 20
2.223141885363922
 30
0.0
 10
-26.13310265804658
 20
2.500868096750508
 30
0.0
 10
-26.98511251994657
 20
2.763213714621754
 30
0.0
 10
-27.83719246844162
 20
3.008560828117851
 30
0.0
 10
-28.47520076469848
 20
3.178382314682212
 30
0.0
 10
-28.82866537914815
 20
3.26731096875284
 30
0.0
 10
-29.99281462392502
 20
3.678629985441472
 30
0.0
  0
SPLINE
  5
35C9
330
1F
100
AcDbEntity
  8
AM_0
 48
0.5
100
AcDbSpline
210
0.0
220
0.0
230
1.0
 70
     8
 71
     3
 72
    25
 73
    21
 74
     0
 42
0.0000000001
 43
0.0000000001
 40
6.846175049578289
 40
6.846175049578289
 40
6.846175049578289
 40
6.846175049578289
 40
7.604337694224321
 40
8.711974558287883
 40
9.814980593243754
 40
10.91239053451967
 40
12.0033633515982
 40
13.08720139956839
 40
14.16337181880432
 40
15.23152222380919
 40
16.29148850140128
 40
17.34331105512262
 40
18.38723020264746
 40
19.42369128463655
 40
20.45333379090873
 40
21.47697865721768
 40
22.49561244472435
 40
23.5103574802404
 40
24.52244778960836
 40
25.53320666051913
 40
25.53320666051913
 40
25.53320666051913
 40
25.53320666051913
 10
-5.656858820275149
 20
0.7704522472264537
 30
0.0
 10
-5.850567953676081
 20
0.8450746886292987
 30
0.0
 10
-6.327683897682021
 20
1.027969974139476
 30
0.0
 10
-7.08891569732379
 20
1.315181411537495
 30
0.0
 10
-7.940703906081576
 20
1.628465375498939
 30
0.0
 10
-8.792534951821593
 20
1.931740002998247
 30
0.0
 10
-9.644416153360044
 20
2.223140591074773
 30
0.0
 10
-10.49635700275582
 20
2.500869344321619
 30
0.0
 10
-11.34836537778576
 20
2.763213537258847
 30
0.0
 10
-12.20044522279993
 20
3.008560874933562
 30
0.0
 10
-13.0526070332361
 20
3.235384482508484
 30
0.0
 10
-13.90484965516547
 20
3.442293469099773
 30
0.0
 10
-14.75717921006796
 20
3.627996724797557
 30
0.0
 10
-15.60959269003338
 20
3.791344961105631
 30
0.0
 10
-16.46208676510386
 20
3.931336970205623
 30
0.0
 10
-17.31465669155057
 20
4.047044820127705
 30
0.0
 10
-18.16728920372776
 20
4.137938946976687
 30
0.0
 10
-19.01997490475985
 20
4.202784782997111
 30
0.0
 10
-19.87269995298846
 20
4.243590799624159
 30
0.0
 10
-20.4413234366024
 20
4.248647658089065
 30
0.0
 10
-20.72544804454364
 20
4.251174423110467
 30
0.0
  0
LINE
  5
35CA
330
1F
100
AcDbEntity
  8
AM_11
 48
0.2
100
AcDbLine
 10
-20.72544804454369
 20
-4.248825576889554
 30
0.0
 11
-4.662370935343412
 21
-4.24882557688961
 31
0.0
  0
LINE
  5
35CB
330
1F
100
AcDbEntity
  8
AM_11
 48
0.2
100
AcDbLine
 10
-25.21358381275323
 20
4.251174423110483
 30
0.0
 11
-4.662370935343361
 21
4.251174423110412
 31
0.0
  0
LINE
  5
35CC
330
1F
100
AcDbEntity
  8
AM_0
 48
0.5
100
AcDbLine
 10
-29.76321538505349
 20
4.251174423110496
 30
0.0
 11
-20.72544804454364
 21
4.251174423110467
 31
0.0
  0
SPLINE
  5
35CD
330
1F
100
AcDbEntity
  8
AM_0
100
AcDbSpline
210
0.0
220
0.0
230
1.0
 70
     8
 71
     3
 72
    14
 73
    10
 74
     0
 42
0.0000000001
 43
0.0000000001
 40
17.17441611292
 40
17.17441611292
 40
17.17441611292
 40
17.17441611292
 40
17.38177636558528
 40
18.41823744757437
 40
19.46215659509824
 40
20.51397914882054
 40
21.57394542641293
 40
22.64209583141747
 40
23.52740269164275
 40
23.52740269164275
 40
23.52740269164275
 40
23.52740269164275
 10
-23.98009707773131
 20
-3.815356336898008
 30
0.0
 10
-24.03719652326623
 20
-3.805518003745521
 30
0.0
 10
-24.37947651542467
 20
-3.745591641157445
 30
0.0
 10
-25.00651417365816
 20
-3.625431484578645
 30
0.0
 10
-25.85884366373552
 20
-3.439728518430006
 30
0.0
 10
-26.71108630322699
 20
-3.232819453372116
 30
0.0
 10
-27.54740690335413
 20
-2.969977936200836
 30
0.0
 10
-28.26680506024921
 20
-2.686555083711063
 30
0.0
 10
-28.77799719654957
 20
-2.488624607703493
 30
0.0
 10
-30.49827094268112
 20
-1.873514375629389
 30
0.0
  0
LINE
  5
35CE
330
1F
100
AcDbEntity
  8
AM_0
 48
0.5
100
AcDbLine
 10
-29.76086653883236
 20
-4.248825576889554
 30
0.0
 11
-20.72544804454369
 21
-4.248825576889554
 31
0.0
  0
SPLINE
  5
35CF
330
1F
100
AcDbEntity
  8
AM_0
100
AcDbSpline
210
0.0
220
0.0
230
1.0
 70
     8
 71
     3
 72
    11
 73
     7
 74
     0
 42
0.0000000001
 43
0.0000000001
 40
11.27226913003534
 40
11.27226913003534
 40
11.27226913003534
 40
11.2722691300354
 40
12.28301561507924
 40
13.29510212255852
 40
14.30984805882082
 40
15.18258238371378
 40
15.18258238371378
 40
15.18258238371378
 40
15.18258238371378
 10
-20.72544804454366
 20
-4.248825576889527
 30
0.0
 10
-21.00848794054164
 20
-4.228024841847602
 30
0.0
 10
-21.57403386547181
 20
-4.177667167595997
 30
0.0
 10
-22.41943237914367
 20
-4.0760832826894
 30
0.0
 10
-23.22173047531532
 20
-3.95475247040702
 30
0.0
 10
-23.74060978996571
 20
-3.861481863968935
 30
0.0
 10
-23.97972415323157
 20
-3.815408760615513
 30
0.0
  0
SPLINE
  5
35D0
330
1F
100
AcDbEntity
  8
AM_0
 48
0.5
100
AcDbSpline
210
0.0
220
0.0
230
1.0
 70
     8
 71
     3
 72
    10
 73
     6
 74
     0
 42
0.0000000001
 43
0.0000000001
 40
0.0
 40
0.0
 40
0.0
 40
0.0
 40
2.69986029516136
 40
4.147722969032201
 40
6.285750005020438
 40
6.285750005020438
 40
6.285750005020438
 40
6.285750005020438
 10
-5.656722488881917
 20
0.77040176889484
 30
0.0
 10
-5.049823386942944
 20
0.3755474000711981
 30
0.0
 10
-4.117460571908186
 20
-0.2310567779034096
 30
0.0
 10
-1.91254776090216
 20
0.0626109314627738
 30
0.0
 10
-2.327796977057813
 20
1.051722634629842
 30
0.0
 10
-2.602167127733803
 20
1.654616681530678
 30
0.0
  0
ELLIPSE
  5
35D1
330
1F
100
AcDbEntity
  8
AM_0
 48
0.5
100
AcDbEllipse
 10
-8.848686320465052
 20
7.134215169163157
 30
0.0
 11
-12.19904796471481
 21
0.0000000000050173
 31
0.0
210
0.0
220
0.0
230
1.0
 40
0.8400000000000627
 41
2.081379652023706
 42
2.169874429703217
  0
ELLIPSE
  5
35D2
330
1F
100
AcDbEntity
  8
AM_0
 48
0.5
100
AcDbEllipse
 10
5.142669575530782
 20
-0.9435420304416378
 30
0.0
 11
7.999514291207371
 21
1.206257396659492
 31
0.0
210
0.0
220
0.0
230
0.9999999999999998
 40
0.587737838764192
 41
3.069090876427146
 42
3.639513831164404
  0
LINE
  5
35D3
330
1F
100
AcDbEntity
  8
AM_0
 48
0.5
100
AcDbLine
 10
-4.662370935343412
 20
-4.24882557688961
 30
0.0
 11
-1.546921234381008
 21
-4.248825576889639
 31
0.0
  0
LINE
  5
35D4
330
1F
100
AcDbEntity
  8
AM_0
 48
0.5
100
AcDbLine
 10
-4.662370935343361
 20
4.251174423110412
 30
0.0
 11
-1.546921140716704
 21
4.251174423110383
 31
0.0
  0
LINE
  5
35D5
330
1F
100
AcDbEntity
  8
AM_0
 48
0.5
100
AcDbLine
 10
-0.0000465046221278
 20
0.0011771251874127
 30
0.0
 11
-2.576936680197101
 21
1.633045328668374
 31
0.0
  0
SPLINE
  5
35D6
330
1F
100
AcDbEntity
  8
AM_0
 48
0.5
100
AcDbSpline
210
0.0
220
0.0
230
1.0
 70
     8
 71
     3
 72
    17
 73
    13
 74
     0
 42
0.0000000001
 43
0.0000000001
 40
0.0
 40
0.0
 40
0.0
 40
0.0
 40
1.010743614677189
 40
2.022833924044153
 40
3.037578959561199
 40
4.056212747067873
 40
5.079857613375832
 40
6.109500119648989
 40
7.14596120163808
 40
8.18989512056258
 40
9.241717674284874
 40
9.693948937866434
 40
9.693948937866434
 40
9.693948937866434
 40
9.693948937866434
 10
-4.662370935343362
 20
4.251174423110411
 30
0.0
 10
-4.946491251904459
 20
4.248647598338946
 30
0.0
 10
-5.515110441285677
 20
4.243590582105045
 30
0.0
 10
-6.36783121500847
 20
4.202784802225358
 30
0.0
 10
-7.220516882711973
 20
4.137938882384091
 30
0.0
 10
-8.073149520623548
 20
4.047045060679433
 30
0.0
 10
-8.925718974135506
 20
3.931336065967676
 30
0.0
 10
-9.778214829954762
 20
3.791348366558924
 30
0.0
 10
-10.63062564615416
 20
3.62798310956978
 30
0.0
 10
-11.48298449969504
 20
3.44234011198339
 30
0.0
 10
-12.17103079261919
 20
3.275103833240125
 30
0.0
 10
-12.57509191672131
 20
3.170557109396414
 30
0.0
 10
-12.69636938802946
 20
3.138556057094331
 30
0.0
  0
ELLIPSE
  5
35D7
330
1F
100
AcDbEntity
  8
AM_0
 48
0.5
100
AcDbEllipse
 10
3.139439586585348
 20
5.103560897719718
 30
0.0
 11
10.19719072750619
 21
0.0000000000000301
 31
0.0
210
0.0
220
0.0
230
1.0
 40
0.8399999999999996
 41
3.671960206823881
 42
4.080081137018774
  0
SPLINE
  5
35D8
330
1F
100
AcDbEntity
  8
AM_0
 48
0.5
100
AcDbSpline
210
0.0
220
0.0
230
1.0
 70
     8
 71
     3
 72
    16
 73
    12
 74
     0
 42
0.0000000001
 43
0.0000000001
 40
0.0
 40
0.0
 40
0.0
 40
0.0
 40
1.010743614677189
 40
2.022833924044153
 40
3.037578959561199
 40
4.056212747067873
 40
5.079857613375832
 40
6.109500119648989
 40
7.14596120163808
 40
8.18989512056258
 40
8.545190612624931
 40
8.545190612624931
 40
8.545190612624931
 40
8.545190612624931
 10
-4.662370935343362
 20
4.251174423110411
 30
0.0
 10
-4.946475456664637
 20
4.251148884226029
 30
0.0
 10
-5.515117783385654
 20
4.24242825611499
 30
0.0
 10
-6.367829234134173
 20
4.203097271523956
 30
0.0
 10
-7.220517442433036
 20
4.137854783148518
 30
0.0
 10
-8.073149271266274
 20
4.047067517554593
 30
0.0
 10
-8.925719411424335
 20
3.93133087354971
 30
0.0
 10
-9.778213318450664
 20
3.791346474757016
 30
0.0
 10
-10.63063130823101
 20
3.627996050430353
 30
0.0
 10
-11.29342580360274
 20
3.483586168415102
 30
0.0
 10
-11.6722655856972
 20
3.394770515401543
 30
0.0
 10
-11.76833723865653
 20
3.371850991517159
 30
0.0
  0
LINE
  5
35D9
330
1F
100
AcDbEntity
  8
AM_0
100
AcDbLine
 10
-1.552189238212744
 20
4.265648402024244
 30
0.0
 11
-0.0000476919174943
 21
0.0011745517807368
 31
0.0
  0
LINE
  5
35DA
330
1F
100
AcDbEntity
  8
AM_0
100
AcDbLine
 10
-1.54692123438101
 20
-4.248825576889639
 30
0.0
 11
-0.0000476919174943
 21
0.0011745517807368
 31
0.0
  0
ELLIPSE
  5
35DB
330
1F
100
AcDbEntity
  8
AM_0
 48
0.5
100
AcDbEllipse
 10
-9.16174393356712
 20
8.085142180487833
 30
0.0
 11
13.78721187901304
 21
3.345426128567562
 31
0.0
210
0.0
220
0.0
230
1.0
 40
0.811582024494827
 41
-1.227952952720665
 42
-1.055037279555886
  0
SPLINE
  5
37F7
330
1F
100
AcDbEntity
  8
AM_0
100
AcDbSpline
210
0.0
220
0.0
230
1.0
 70
     8
 71
     3
 72
    12
 73
     8
 74
     0
 42
0.0000000001
 43
0.0000000001
 40
16.45872079909662
 40
16.45872079909662
 40
16.45872079909662
 40
16.45872079909662
 40
17.38177054169784
 40
18.41822485651776
 40
19.46214173629503
 40
20.51396345435107
 40
21.05671915303344
 40
21.05671915303344
 40
21.05671915303344
 40
21.05671915303344
 10
-32.70781314735955
 20
6.039274357278779
 30
0.0
 10
-32.56286776015681
 20
5.884189750551726
 30
0.0
 10
-32.25880763668173
 20
5.545820568476871
 30
0.0
 10
-31.8044232666155
 20
4.99931779043442
 30
0.0
 10
-31.33608796323546
 20
4.542684454489746
 30
0.0
 10
-30.83222128350824
 20
3.955304368301021
 30
0.0
 10
-30.55642906479666
 20
3.665779176742207
 30
0.0
 10
-30.13677589402791
 20
3.266216049426733
 30
0.0
  0
LINE
  5
3AD4
330
1F
100
AcDbEntity
  8
AM_0
100
AcDbLine
 10
-29.76086653883236
 20
-4.248825576889553
 30
0.0
 11
-31.5562101064045
 21
-6.044169144461655
 31
0.0
  0
ELLIPSE
  5
3D06
330
1F
100
AcDbEntity
  8
AM_0
100
AcDbEllipse
 10
-35.92144972564018
 20
7.565459481939909
 30
0.0
 11
-4.648801264163425
 21
0.0000000001106596
 31
0.0
210
0.0
220
0.0
230
1.0
 40
0.967021360483001
 41
2.580960597917082
 42
2.796372267675212
  0
SPLINE
  5
3D07
330
1F
100
AcDbEntity
  8
AM_0
100
AcDbSpline
210
0.0
220
0.0
230
1.0
 70
    24
 71
     3
 72
     8
 73
     4
 74
     0
 42
0.0000000001
 43
0.0000000001
 40
32.54006563661681
 40
32.54006563661681
 40
32.54006563661681
 40
32.54006563661681
 40
32.5407895042663
 40
32.54078950426994
 40
32.54078950426994
 40
32.54078950426994
 10
-36.42997102575579
 20
0.0011351812618473
 30
0.0
 10
-36.43015543021661
 20
0.0012050306898031
 30
0.0
 10
-36.43033983467831
 20
0.0012748801181935
 30
0.0
 10
-36.43052423914002
 20
0.0013447295465839
 30
0.0
  0
SPLINE
  5
3D08
330
1F
100
AcDbEntity
  8
AM_0
 48
0.5
100
AcDbSpline
210
0.0
220
0.0
230
1.0
 70
     8
 71
     3
 72
    16
 73
    12
 74
     0
 42
0.0000000001
 43
0.0000000001
 40
0.0
 40
0.0
 40
0.0
 40
0.0
 40
1.010743614677189
 40
2.022833924044153
 40
3.037578959561199
 40
4.056212747067873
 40
5.079857613375832
 40
6.109500119648989
 40
7.14596120163808
 40
8.18989512056258
 40
8.545190612624931
 40
8.545190612624931
 40
8.545190612624931
 40
8.545190612624931
 10
-34.00119424300866
 20
6.044167332899717
 30
0.0
 10
-34.23155299604012
 20
6.044138281585881
 30
0.0
 10
-34.6926218192152
 20
6.034218282668518
 30
0.0
 10
-35.38402069444777
 20
5.989478004836163
 30
0.0
 10
-36.07540072414533
 20
5.915262546292737
 30
0.0
 10
-36.76673504002132
 20
5.811989070468468
 30
0.0
 10
-37.45801933724139
 20
5.680334862926939
 30
0.0
 10
-38.1492418228117
 20
5.521098043424574
 30
0.0
 10
-38.84040275286
 20
5.33528160774683
 30
0.0
 10
-39.37781241026302
 20
5.171010656732576
 30
0.0
 10
-39.68498478258604
 20
5.069979954526478
 30
0.0
 10
-42.32757671933687
 20
4.412711196103252
 30
0.0
  0
SPLINE
  5
3D09
330
1F
100
AcDbEntity
  8
AM_0
100
AcDbSpline
210
0.0
220
0.0
230
1.0
 70
     8
 71
     3
 72
     8
 73
     4
 74
     0
 42
0.0000000001
 43
0.0000000001
 40
16.03460024169435
 40
16.03460024169435
 40
16.03460024169435
 40
16.03460024169435
 40
16.03905285852473
 40
16.03905285852473
 40
16.03905285852473
 40
16.03905285852473
 10
-46.01753415003346
 20
6.045083106762931
 30
0.0
 10
-46.01653806000411
 20
6.044777961778969
 30
0.0
 10
-46.0155419839945
 20
6.044472703816122
 30
0.0
 10
-46.0145459220126
 20
6.044167332899726
 30
0.0
  0
LINE
  5
3D0A
330
1F
100
AcDbEntity
  8
AM_0
100
AcDbLine
 10
-46.01454592201263
 20
6.044167332899829
 30
0.0
 11
-46.4995643750307
 21
6.044167332899831
 31
0.0
  0
SPLINE
  5
3D0B
330
1F
100
AcDbEntity
  8
AM_0
 48
0.5
100
AcDbSpline
210
0.0
220
0.0
230
1.0
 70
     8
 71
     3
 72
    16
 73
    12
 74
     0
 42
0.0000000001
 43
0.0000000001
 40
0.0
 40
0.0
 40
0.0
 40
0.0
 40
1.010743614677189
 40
2.022833924044153
 40
3.037578959561199
 40
4.056212747067873
 40
5.079857613375832
 40
6.109500119648989
 40
7.14596120163808
 40
8.18989512056258
 40
8.515371860447777
 40
8.515371860447777
 40
8.515371860447777
 40
8.515371860447777
 10
-46.49956433868705
 20
6.044167332899728
 30
0.0
 10
-46.72992309171848
 20
6.044138281585889
 30
0.0
 10
-47.19099191489357
 20
6.034218282668529
 30
0.0
 10
-47.88239079012616
 20
5.989478004836175
 30
0.0
 10
-48.57377081982375
 20
5.915262546292749
 30
0.0
 10
-49.26510513569971
 20
5.811989070468479
 30
0.0
 10
-49.95638943291975
 20
5.680334862927002
 30
0.0
 10
-50.64761191849007
 20
5.521098043424639
 30
0.0
 10
-51.33877284853835
 20
5.335281607746893
 30
0.0
 10
-51.86960330984159
 20
5.173021731125023
 30
0.0
 10
-52.17026197126368
 20
5.074283026910591
 30
0.0
 10
-54.21327173745865
 20
4.565224696679091
 30
0.0
  0
SPLINE
  5
3D0C
330
1F
100
AcDbEntity
  8
AM_0
100
AcDbSpline
210
0.0
220
0.0
230
1.0
 70
     8
 71
     3
 72
    23
 73
    19
 74
     0
 42
0.0000000001
 43
0.0000000001
 40
16.03905285852473
 40
16.03905285852473
 40
16.03905285852473
 40
16.03905285852473
 40
16.35212704903564
 40
17.38177054169784
 40
18.41822485651776
 40
19.46214173629503
 40
20.51396345435107
 40
21.57393551351153
 40
22.64208202342361
 40
23.7182574881101
 40
24.80209208578934
 40
25.89306333925047
 40
26.99048218457928
 40
28.09348763352352
 40
29.20111863782268
 40
30.31232390128032
 40
31.42594612798585
 40
32.5407912310448
 40
32.5407912310486
 40
32.5407912310486
 40
32.5407912310486
 10
-46.0145459220126
 20
6.044167332899726
 30
0.0
 10
-45.94451041018479
 20
6.022695969866874
 30
0.0
 10
-45.64443839871213
 20
5.928214266751441
 30
0.0
 10
-45.11508838754994
 20
5.74289062831867
 30
0.0
 10
-44.42829580705375
 20
5.466800667901861
 30
0.0
 10
-43.74214115181093
 20
5.156797661891131
 30
0.0
 10
-43.05658387639557
 20
4.814675749567061
 30
0.0
 10
-42.3715996491651
 20
4.442342268250047
 30
0.0
 10
-41.68714887967289
 20
4.041925633137469
 30
0.0
 10
-41.00318390536885
 20
3.61575616860648
 30
0.0
 10
-40.31966586090644
 20
3.166247247487629
 30
0.0
 10
-39.63653994616574
 20
2.696014457455321
 30
0.0
 10
-38.95375080143041
 20
2.207790994648099
 30
0.0
 10
-38.27125293440713
 20
1.704383939300605
 30
0.0
 10
-37.58898924132839
 20
1.188720534501275
 30
0.0
 10
-36.90689653012672
 20
0.6638118762138506
 30
0.0
 10
-36.22491925920098
 20
0.1326996679728602
 30
0.0
 10
-35.77038986448847
 20
-0.2233820267373737
 30
0.0
 10
-32.79955507236201
 20
-1.737594999282197
 30
0.0
  0
ELLIPSE
  5
3D0D
330
1F
100
AcDbEntity
  8
AM_0
100
AcDbEllipse
 10
-42.6331438540401
 20
-4.237804211777141
 30
0.0
 11
-0.000000000033631
 21
1.393906807390941
 31
0.0
210
0.0
220
0.0
230
1.0
 40
0.8175229962663465
 41
3.42791837151512
 42
3.631632084742463
  0
LINE
  5
3D0E
330
1F
100
AcDbEntity
  8
AM_0
100
AcDbLine
 10
-42.09680206768924
 20
-5.467668121633026
 30
0.0
 11
-40.22238250648912
 21
-4.244597797419817
 31
0.0
  0
SPLINE
  5
3D0F
330
1F
100
AcDbEntity
  8
AM_0
 48
0.5
100
AcDbSpline
210
0.0
220
0.0
230
1.0
 70
     8
 71
     3
 72
    15
 73
    11
 74
     0
 42
0.0000000001
 43
0.0000000001
 40
0.0
 40
0.0
 40
0.0
 40
0.0
 40
1.010743684496582
 40
2.022833993863546
 40
3.037578683882831
 40
4.056212471389632
 40
5.079857945358201
 40
6.109499720892564
 40
7.145961650132166
 40
7.907745354493536
 40
7.907745354493536
 40
7.907745354493536
 40
7.907745354493536
 10
-33.61812325881914
 20
-6.044170014283869
 30
0.0
 10
-33.991513189424
 20
-5.965429020542639
 30
0.0
 10
-34.45256324054819
 20
-5.957464425484581
 30
0.0
 10
-35.14396953308565
 20
-5.893223784520729
 30
0.0
 10
-35.83534778467277
 20
-5.791143575781417
 30
0.0
 10
-36.52668286624346
 20
-5.648050058637921
 30
0.0
 10
-37.21796600946501
 20
-5.465882881271395
 30
0.0
 10
-37.90919000266468
 20
-5.245504418497012
 30
0.0
 10
-38.53764594936408
 20
-5.011668164092541
 30
0.0
 10
-38.93479945816026
 20
-4.846419182633717
 30
0.0
 10
-39.10258736415004
 20
-4.773616471082601
 30
0.0
  0
LINE
  5
3D10
330
1F
100
AcDbEntity
  8
AM_0
100
AcDbLine
 10
-43.61418022238055
 20
-6.044170014283899
 30
0.0
 11
-46.11649335449733
 21
-6.04417016874998
 31
0.0
  0
ELLIPSE
  5
3D11
330
1F
100
AcDbEntity
  8
AM_0
100
AcDbEllipse
 10
-55.13151394971848
 20
-4.237804211777109
 30
0.0
 11
-0.0000000000173094
 21
1.393906807392083
 31
0.0
210
0.0
220
0.0
230
1.0
 40
0.8175229962711116
 41
3.427918371527474
 42
3.63163208475324
  0
LINE
  5
3D12
330
1F
100
AcDbEntity
  8
AM_0
100
AcDbLine
 10
-54.59517216336763
 20
-5.467668121632994
 30
0.0
 11
-52.72075260216751
 21
-4.244597797419785
 31
0.0
  0
SPLINE
  5
3D13
330
1F
100
AcDbEntity
  8
AM_0
 48
0.5
100
AcDbSpline
210
0.0
220
0.0
230
1.0
 70
     8
 71
     3
 72
    15
 73
    11
 74
     0
 42
0.0000000001
 43
0.0000000001
 40
0.0
 40
0.0
 40
0.0
 40
0.0
 40
1.010743684496582
 40
2.022833993863546
 40
3.037578683882831
 40
4.056212471389632
 40
5.079857945358201
 40
6.109499720892564
 40
7.145961650132166
 40
7.907745354493536
 40
7.907745354493536
 40
7.907745354493536
 40
7.907745354493536
 10
-46.1164933544975
 20
-6.04417016874998
 30
0.0
 10
-46.4928317962062
 20
-5.991360504481117
 30
0.0
 10
-46.95093333622655
 20
-5.957464425484604
 30
0.0
 10
-47.64233962876403
 20
-5.89322378452075
 30
0.0
 10
-48.33371788035114
 20
-5.79114357578144
 30
0.0
 10
-49.02505296192186
 20
-5.648050058637943
 30
0.0
 10
-49.71633610514341
 20
-5.465882881271364
 30
0.0
 10
-50.40756009834308
 20
-5.245504418496981
 30
0.0
 10
-51.03601604504248
 20
-5.011668164092509
 30
0.0
 10
-51.43316955383866
 20
-4.846419182633685
 30
0.0
 10
-51.60095745982846
 20
-4.773616471082569
 30
0.0
  0
LINE
  5
3D14
330
1F
100
AcDbEntity
  8
AM_0
100
AcDbLine
 10
-43.61418022238055
 20
-6.044170014283899
 30
0.0
 11
-42.31130113489285
 21
-5.574962388335649
 31
0.0
  0
SPLINE
  5
3D15
330
1F
100
AcDbEntity
  8
AM_0
 48
0.5
100
AcDbSpline
210
0.0
220
0.0
230
1.0
 70
     8
 71
     3
 72
    15
 73
    11
 74
     0
 42
0.0000000001
 43
0.0000000001
 40
7.907745354493536
 40
7.907745354493536
 40
7.907745354493536
 40
7.907745354493536
 40
8.189873411961459
 40
9.241710626092514
 40
10.30166235592959
 40
11.36982472628033
 40
12.44598212828784
 40
13.52983440361964
 40
14.62080578343036
 40
14.90544694398022
 40
14.90544694398022
 40
14.90544694398022
 40
14.90544694398022
 10
-39.10258736415004
 20
-4.773616471082601
 30
0.0
 10
-39.16472793727142
 20
-4.746653847084791
 30
0.0
 10
-39.45824646154589
 20
-4.617353278131867
 30
0.0
 10
-39.98245434240268
 20
-4.370259788090219
 30
0.0
 10
-40.67340664047006
 20
-4.013153465655945
 30
0.0
 10
-41.36429625327072
 20
-3.626935948095217
 30
0.0
 10
-42.05512266186564
 20
-3.213903282200162
 30
0.0
 10
-42.7458988080737
 20
-2.776686673054546
 30
0.0
 10
-43.2650653564444
 20
-2.431894071655507
 30
0.0
 10
-43.55436307422495
 20
-2.234821703755973
 30
0.0
 10
-44.91671740130575
 20
-1.444650782515274
 30
0.0
  0
ELLIPSE
  5
3D17
330
1F
100
AcDbEntity
  8
AM_0
100
AcDbEllipse
 10
-58.10748741468688
 20
-3.897055395125869
 30
0.0
 11
-3.438397672320529
 21
0.1293898158969574
 31
0.0
210
0.0
220
0.0
230
0.9999999999999998
 40
0.6237408155487996
 41
4.117086054514915
 42
7.877449219988902
  0
SPLINE
  5
3D18
330
1F
100
AcDbEntity
  8
AM_0
 48
0.5
100
AcDbSpline
210
0.0
220
0.0
230
1.0
 70
     8
 71
     3
 72
    15
 73
    11
 74
     0
 42
0.0000000001
 43
0.0000000001
 40
7.907745354493536
 40
7.907745354493536
 40
7.907745354493536
 40
7.907745354493536
 40
8.189873411961459
 40
9.241710626092514
 40
10.30166235592959
 40
11.36982472628033
 40
12.44598212828784
 40
13.52983440361964
 40
14.62080578343036
 40
14.90544694398022
 40
14.90544694398022
 40
14.90544694398022
 40
14.90544694398022
 10
-51.60095745982846
 20
-4.773616471082569
 30
0.0
 10
-51.66309803294981
 20
-4.746653847084759
 30
0.0
 10
-51.95661655722429
 20
-4.617353278131835
 30
0.0
 10
-52.48082443808111
 20
-4.370259788090187
 30
0.0
 10
-53.17177673614845
 20
-4.013153465655912
 30
0.0
 10
-53.86266634894914
 20
-3.626935948095185
 30
0.0
 10
-54.55349275754403
 20
-3.213903282200129
 30
0.0
 10
-55.24426890375209
 20
-2.776686673054514
 30
0.0
 10
-55.76343545212278
 20
-2.431894071655475
 30
0.0
 10
-56.05273316990333
 20
-2.234821703755941
 30
0.0
 10
-56.11255031805892
 20
-2.193871819856032
 30
0.0
  0
LINE
  5
3D19
330
1F
100
AcDbEntity
  8
AM_0
100
AcDbLine
 10
-56.11255165935617
 20
-6.044170785799791
 30
0.0
 11
-54.80967123057123
 21
-5.574962388335617
 31
0.0
  0
SPLINE
  5
3D1A
330
1F
100
AcDbEntity
  8
AM_0
100
AcDbSpline
210
0.0
220
0.0
230
1.0
 70
     8
 71
     3
 72
    23
 73
    19
 74
     0
 42
0.0000000001
 43
0.0000000001
 40
16.03905285852473
 40
16.03905285852473
 40
16.03905285852473
 40
16.03905285852473
 40
16.35212704903564
 40
17.38177054169784
 40
18.41822485651776
 40
19.46214173629503
 40
20.51396345435107
 40
21.57393551351153
 40
22.64208202342361
 40
23.7182574881101
 40
24.80209208578934
 40
25.89306333925047
 40
26.99048218457928
 40
28.09348763352352
 40
29.20111863782268
 40
30.31232390128032
 40
31.42594612798585
 40
32.5407912310448
 40
32.5407912310486
 40
32.5407912310486
 40
32.5407912310486
 10
-57.62723416540076
 20
6.044167332899726
 30
0.0
 10
-57.55719865357295
 20
6.022695969866874
 30
0.0
 10
-57.25712664210028
 20
5.928214266751441
 30
0.0
 10
-56.7277766309381
 20
5.74289062831867
 30
0.0
 10
-56.04098405044192
 20
5.466800667901861
 30
0.0
 10
-55.35482939519908
 20
5.156797661891131
 30
0.0
 10
-54.66927211978374
 20
4.814675749567062
 30
0.0
 10
-53.98428789255326
 20
4.442342268250047
 30
0.0
 10
-53.29983712306106
 20
4.041925633137468
 30
0.0
 10
-52.615872148757
 20
3.61575616860648
 30
0.0
 10
-51.93235410429459
 20
3.166247247487629
 30
0.0
 10
-51.2492281895539
 20
2.696014457455321
 30
0.0
 10
-50.56643904481856
 20
2.207790994648098
 30
0.0
 10
-49.88394117779528
 20
1.704383939300605
 30
0.0
 10
-49.20167748471654
 20
1.188720534501275
 30
0.0
 10
-48.51958477351487
 20
0.6638118762138504
 30
0.0
 10
-47.83760750258913
 20
0.1326996679728601
 30
0.0
 10
-47.38307810787663
 20
-0.2233820267373738
 30
0.0
 10
-44.41224331575017
 20
-1.737594999282198
 30
0.0
  0
ELLIPSE
  5
3D1B
330
1F
100
AcDbEntity
  8
AM_0
100
AcDbEllipse
 10
-18.56192235070898
 20
0.646582661204223
 30
0.0
 11
0.0000000000013716
 21
15.42757572819295
 31
0.0
210
0.0
220
0.0
230
1.0
 40
0.934090756624615
 41
1.725958176824646
 42
2.019377906095642
  0
LINE
  5
3D1C
330
1F
100
AcDbEntity
  8
AM_0
 48
0.5
100
AcDbLine
 10
-33.61812325881917
 20
-6.04417001428387
 30
0.0
 11
-31.55621115731463
 21
-6.044170014283875
 31
0.0
  0
LINE
  5
3D1D
330
1F
100
AcDbEntity
  8
AM_0
 48
0.5
100
AcDbLine
 10
-34.00119427974007
 20
6.044167332899821
 30
0.0
 11
-31.54692357091649
 21
6.034882608973447
 31
0.0
  0
LINE
  5
3DCF
330
1F
100
AcDbEntity
  8
AM_0
100
AcDbLine
 10
-29.76321538505349
 20
4.251174423110494
 30
0.0
 11
-31.55621010640453
 21
6.044169144461484
 31
0.0
  0
DIMENSION
  5
3E00
330
1F
100
AcDbEntity
  8
AM_5
100
AcDbDimension
  2
*D14
 10
-31.5562101064045
 20
-6.044169144461655
 30
0.0
 11
-69.19483170042965
 21
-0.0000000000001724
 31
0.0
 70
    34
  1
<>
 51
359.9999999999998
  3
AM_JIS$2
100
AcDb2LineAngularDimension
 13
-29.76321538505349
 23
4.251174423110494
 33
0.0
 14
-31.55621010640453
 24
6.044169144461484
 34
0.0
 15
-29.76086653883236
 25
-4.248825576889553
 35
0.0
 16
-66.20919166988018
 26
10.90476866643916
 36
0.0
1001
ACAD
1000
DSTYLE
1002
{
1070
   179
1070
     3
1002
}
1001
GENIUS_GENDTOL_13
1000

1000
h7
1000

1040
0.0
  0
VIEWPORT
  5
110
330
101
100
AcDbEntity
 67
     1
  8
0
100
AcDbViewport
 10
420.5
 20
297.0
 30
0.0
 40
948.9782706766916
 41
628.452
 68
     1
 69
     1
1001
ACAD
1000
MVIEW
1002
{
1070
    16
1010
0.0
1020
0.0
1030
0.0
1010
0.0
1020
0.0
1030
1.0
1040
0.0
1040
628.452
1040
420.5
1040
297.0
1040
50.0
1040
0.0
1040
0.0
1070
     0
1070
   100
1070
     1
1070
     1
1070
     0
1070
     0
1070
     0
1070
     0
1040
0.0
1040
0.0
1040
0.0
1040
10.0
1040
10.0
1040
10.0
1040
10.0
1070
     0
1002
{
1002
}
1002
}
  0
ENDSEC
  0
SECTION
  2
OBJECTS
  0
DICTIONARY
  5
C
330
0
100
AcDbDictionary
  3
ACAD_GROUP
350
D
  3
ACAD_LAYOUT
350
1A
  3
ACAD_MLINESTYLE
350
17
  3
ACAD_PLOTSETTINGS
350
19
  3
ACAD_PLOTSTYLENAME
350
E
  3
ACDBVARIABLEDICTIONARY
350
34
  3
ACMDICTIONARY
350
43
  3
AMG
350
2B
  3
AMGSNAPSETTINGS
350
6E
  3
DWGPROPS
350
3F27
  3
ACDBHEADERROUNDTRIPXREC
350
3F36
  0
DICTIONARY
  5
74
330
1F
100
AcDbDictionary
280
     1
  3
ACAD_INDEX
360
3F29
  3
ACAD_LAYOUTSELFREF
360
3F59
  0
DICTIONARY
  5
3F5E
330
101
100
AcDbDictionary
280
     1
  3
ACAD_LAYOUTSELFREF
360
3F5F
  0
DICTIONARY
  5
D
102
{ACAD_REACTORS
330
C
102
}
330
C
100
AcDbDictionary
  0
DICTIONARY
  5
1A
102
{ACAD_REACTORS
330
C
102
}
330
C
100
AcDbDictionary
  0
DICTIONARY
  5
17
102
{ACAD_REACTORS
330
C
102
}
330
C
100
AcDbDictionary
  3
STANDARD
350
18
  0
DICTIONARY
  5
19
102
{ACAD_REACTORS
330
C
102
}
330
C
100
AcDbDictionary
  0
ACDBDICTIONARYWDFLT
  5
E
102
{ACAD_REACTORS
330
C
102
}
330
C
100
AcDbDictionary
281
     1
  3
Normal
350
F
100
AcDbDictionaryWithDefault
340
F
  0
DICTIONARY
  5
34
102
{ACAD_REACTORS
330
C
102
}
330
C
100
AcDbDictionary
  3
INDEXCTL
350
35
  3
SORTENTS
350
B5E
  0
DICTIONARY
  5
43
102
{ACAD_REACTORS
330
C
102
}
330
C
100
AcDbDictionary
  3
ACMSTDDICTIONARY
350
260
  0
DICTIONARY
  5
2B
102
{ACAD_REACTORS
330
C
102
}
330
C
100
AcDbDictionary
  3
ACMGSETTINGS
350
2C
  0
DICTIONARY
  5
6E
102
{ACAD_REACTORS
330
C
102
}
330
C
100
AcDbDictionary
  0
XRECORD
  5
3F27
102
{ACAD_REACTORS
330
C
102
}
330
C
100
AcDbXrecord
  1
DWGPROPS COOKIE
  2

  3

  4

  6

  7

  8

  9

300
AmdtFileType=82
301
=
302
=
303
=
304
=
305
=
306
=
307
=
308
=
309
=
 40
0.3642134375
 41
2452800.443498622
 42
2452983.903957338
  1

 90
        1
  0
DICTIONARY
  5
3F36
102
{ACAD_REACTORS
330
C
102
}
330
C
100
AcDbDictionary
  3
TSTACKALIGN
350
3F37
  3
TSTACKSIZE
350
3F38
  3
HYPERLINKBASE
350
3F39
  3
STYLESHEET
350
3F3A
  3
LAYOUTDICT
350
3F3B
  3
PLOTSETDICT
350
3F3C
  3
PLOTSTYLNAMDICT
350
3F3D
  3
LWETCUNION
350
3F3E
  3
INSUNITS
350
3F3F
  3
CEPSNTYPE
350
3F40
  3
FINGERPRINTGUID
350
3F41
  3
VERSIONGUID
350
3F42
  3
PSVPSCALE
350
3F43
  3
DIMSTYLEDATA
350
3F44
  3
PUCSORTHOREF
350
3F45
  3
PUCSORTHOVIEW
350
3F46
  3
PUCSBASE
350
3F47
  3
PUCSORGTOP
350
3F48
  3
PUCSORGBOTTOM
350
3F49
  3
PUCSORGLEFT
350
3F4A
  3
PUCSORGRIGHT
350
3F4B
  3
PUCSORGFRONT
350
3F4C
  3
PUCSORGBACK
350
3F4D
  3
UCSORTHOREF
350
3F4E
  3
UCSORTHOVIEW
350
3F4F
  3
UCSBASE
350
3F50
  3
UCSORGTOP
350
3F51
  3
UCSORGBOTTOM
350
3F52
  3
UCSORGLEFT
350
3F53
  3
UCSORGRIGHT
350
3F54
  3
UCSORGFRONT
350
3F55
  3
UCSORGBACK
350
3F56
  0
DICTIONARY
  5
3F29
102
{ACAD_REACTORS
330
74
102
}
330
74
100
AcDbDictionary
  3
*A1
350
3F2A
  0
XRECORD
  5
3F59
102
{ACAD_REACTORS
330
74
102
}
330
74
100
AcDbXrecord
340
1F
  0
XRECORD
  5
3F5F
102
{ACAD_REACTORS
330
3F5E
102
}
330
3F5E
100
AcDbXrecord
340
101
  0
MLINESTYLE
  5
18
102
{ACAD_REACTORS
330
17
102
}
330
17
100
AcDbMlineStyle
  2
STANDARD
 70
     0
  3

 62
   256
 51
90.0
 52
90.0
 71
     2
 49
0.5
 62
   256
  6
BYLAYER
 49
-0.5
 62
   256
  6
BYLAYER
  0
ACDBPLACEHOLDER
  5
F
102
{ACAD_REACTORS
330
E
102
}
330
E
100
AcDbPlaceHolder
280
     0
  0
DICTIONARYVAR
  5
35
102
{ACAD_REACTORS
330
34
102
}
330
34
100
DictionaryVariables
280
     0
  1
1
  0
DICTIONARYVAR
  5
B5E
102
{ACAD_REACTORS
330
34
102
}
330
34
100
DictionaryVariables
280
     0
  1
96
  0
DICTIONARY
  5
260
102
{ACAD_REACTORS
330
43
102
}
330
43
100
AcDbDictionary
  0
DICTIONARY
  5
2C
102
{ACAD_REACTORS
330
2B
102
}
330
2B
100
AcDbDictionary
  3
DWGSETTINGS
350
2D
  0
XRECORD
  5
3F37
102
{ACAD_REACTORS
330
3F36
102
}
330
3F36
100
AcDbXrecord
 90
        1
  0
XRECORD
  5
3F38
102
{ACAD_REACTORS
330
3F36
102
}
330
3F36
100
AcDbXrecord
 90
       70
  0
XRECORD
  5
3F39
102
{ACAD_REACTORS
330
3F36
102
}
330
3F36
100
AcDbXrecord
  1

  0
XRECORD
  5
3F3A
102
{ACAD_REACTORS
330
3F36
102
}
330
3F36
100
AcDbXrecord
  1
ASAMI.ctb
  0
XRECORD
  5
3F3B
102
{ACAD_REACTORS
330
3F36
102
}
330
3F36
100
AcDbXrecord
340
1A
  0
XRECORD
  5
3F3C
102
{ACAD_REACTORS
330
3F36
102
}
330
3F36
100
AcDbXrecord
340
19
  0
XRECORD
  5
3F3D
102
{ACAD_REACTORS
330
3F36
102
}
330
3F36
100
AcDbXrecord
340
E
  0
XRECORD
  5
3F3E
102
{ACAD_REACTORS
330
3F36
102
}
330
3F36
100
AcDbXrecord
 90
    10781
  0
XRECORD
  5
3F3F
102
{ACAD_REACTORS
330
3F36
102
}
330
3F36
100
AcDbXrecord
 90
        4
  0
XRECORD
  5
3F40
102
{ACAD_REACTORS
330
3F36
102
}
330
3F36
100
AcDbXrecord
 90
        0
  0
XRECORD
  5
3F41
102
{ACAD_REACTORS
330
3F36
102
}
330
3F36
100
AcDbXrecord
  1
{AFB28963-8C59-40AE-9337-C84526B81ACE}
  0
XRECORD
  5
3F42
102
{ACAD_REACTORS
330
3F36
102
}
330
3F36
100
AcDbXrecord
  1
{8BF68469-DF59-4EB0-9FFF-FC6448849184}
  0
XRECORD
  5
3F43
102
{ACAD_REACTORS
330
3F36
102
}
330
3F36
100
AcDbXrecord
 40
0.0
  0
XRECORD
  5
3F44
102
{ACAD_REACTORS
330
3F36
102
}
330
3F36
100
AcDbXrecord
1000
DSTYLE
1002
{
1070
    79
 70
     2
1070
   341
340
59
1070
   342
340
59
1070
   371
 70
    -1
1070
   372
 70
    -1
1002
}
  0
XRECORD
  5
3F45
102
{ACAD_REACTORS
330
3F36
102
}
330
3F36
100
AcDbXrecord
340
0
  0
XRECORD
  5
3F46
102
{ACAD_REACTORS
330
3F36
102
}
330
3F36
100
AcDbXrecord
 70
     0
  0
XRECORD
  5
3F47
102
{ACAD_REACTORS
330
3F36
102
}
330
3F36
100
AcDbXrecord
340
0
  0
XRECORD
  5
3F48
102
{ACAD_REACTORS
330
3F36
102
}
330
3F36
100
AcDbXrecord
 10
0.0
 20
0.0
 30
0.0
  0
XRECORD
  5
3F49
102
{ACAD_REACTORS
330
3F36
102
}
330
3F36
100
AcDbXrecord
 10
0.0
 20
0.0
 30
0.0
  0
XRECORD
  5
3F4A
102
{ACAD_REACTORS
330
3F36
102
}
330
3F36
100
AcDbXrecord
 10
0.0
 20
0.0
 30
0.0
  0
XRECORD
  5
3F4B
102
{ACAD_REACTORS
330
3F36
102
}
330
3F36
100
AcDbXrecord
 10
0.0
 20
0.0
 30
0.0
  0
XRECORD
  5
3F4C
102
{ACAD_REACTORS
330
3F36
102
}
330
3F36
100
AcDbXrecord
 10
0.0
 20
0.0
 30
0.0
  0
XRECORD
  5
3F4D
102
{ACAD_REACTORS
330
3F36
102
}
330
3F36
100
AcDbXrecord
 10
0.0
 20
0.0
 30
0.0
  0
XRECORD
  5
3F4E
102
{ACAD_REACTORS
330
3F36
102
}
330
3F36
100
AcDbXrecord
340
0
  0
XRECORD
  5
3F4F
102
{ACAD_REACTORS
330
3F36
102
}
330
3F36
100
AcDbXrecord
 70
     0
  0
XRECORD
  5
3F50
102
{ACAD_REACTORS
330
3F36
102
}
330
3F36
100
AcDbXrecord
340
0
  0
XRECORD
  5
3F51
102
{ACAD_REACTORS
330
3F36
102
}
330
3F36
100
AcDbXrecord
 10
0.0
 20
0.0
 30
0.0
  0
XRECORD
  5
3F52
102
{ACAD_REACTORS
330
3F36
102
}
330
3F36
100
AcDbXrecord
 10
0.0
 20
0.0
 30
0.0
  0
XRECORD
  5
3F53
102
{ACAD_REACTORS
330
3F36
102
}
330
3F36
100
AcDbXrecord
 10
0.0
 20
0.0
 30
0.0
  0
XRECORD
  5
3F54
102
{ACAD_REACTORS
330
3F36
102
}
330
3F36
100
AcDbXrecord
 10
0.0
 20
0.0
 30
0.0
  0
XRECORD
  5
3F55
102
{ACAD_REACTORS
330
3F36
102
}
330
3F36
100
AcDbXrecord
 10
0.0
 20
0.0
 30
0.0
  0
XRECORD
  5
3F56
102
{ACAD_REACTORS
330
3F36
102
}
330
3F36
100
AcDbXrecord
 10
0.0
 20
0.0
 30
0.0
  0
LAYER_INDEX
  5
3F2A
102
{ACAD_REACTORS
330
3F29
102
}
330
3F29
100
AcDbIndex
 40
2453151.582983923
100
AcDbLayerIndex
  8
0
360
3F2B
 90
        0
  8
AM_0
360
3F2C
 90
       56
  8
PV0001_1
360
3F2D
 90
        0
  8
AM_CL
360
3F2E
 90
        0
  8
AM_7
360
3F2F
 90
        1
  8
AM_11
360
3F30
 90
        2
  8
AM_5
360
3F31
 90
        7
  8
Defpoints
360
3F32
 90
        0
  8
AM_6
360
3F33
 90
        1
  8
AM_4
360
3F34
 90
        0
  0
XRECORD
  5
2D
102
{ACAD_REACTORS
330
2C
102
}
330
2C
100
AcDbXrecord
  1
VERSION
140
15.0
  1
PRODUCT
  2
AutoCAD Mechanical 2000
  0
IDBUFFER
  5
3F2B
330
0
100
AcDbIdBuffer
  0
IDBUFFER
  5
3F2C
330
0
100
AcDbIdBuffer
330
3D17
330
3D18
330
3D19
330
3D1A
330
3D1B
330
3D1C
330
3D1D
330
3DCF
330
31FF
330
3200
330
3205
330
3225
330
3227
330
323F
330
3240
330
3241
330
3242
330
3243
330
35C6
330
35C7
330
35C8
330
35C9
330
35CC
330
35CD
330
35CE
330
35CF
330
35D0
330
35D1
330
35D2
330
35D3
330
35D4
330
35D5
330
35D6
330
35D7
330
35D8
330
35D9
330
35DA
330
35DB
330
37F7
330
3AD4
330
3D06
330
3D07
330
3D08
330
3D09
330
3D0A
330
3D0B
330
3D0C
330
3D0D
330
3D0E
330
3D0F
330
3D10
330
3D11
330
3D12
330
3D13
330
3D14
330
3D15
  0
IDBUFFER
  5
3F2D
330
0
100
AcDbIdBuffer
  0
IDBUFFER
  5
3F2E
330
0
100
AcDbIdBuffer
  0
IDBUFFER
  5
3F2F
330
0
100
AcDbIdBuffer
330
3201
  0
IDBUFFER
  5
3F30
330
0
100
AcDbIdBuffer
330
35CA
330
35CB
  0
IDBUFFER
  5
3F31
330
0
100
AcDbIdBuffer
330
31FC
330
31FD
330
31FE
330
3202
330
320B
330
323E
330
3E00
  0
IDBUFFER
  5
3F32
330
0
100
AcDbIdBuffer
  0
IDBUFFER
  5
3F33
330
0
100
AcDbIdBuffer
330
19BD
  0
IDBUFFER
  5
3F34
330
0
100
AcDbIdBuffer
  0
ENDSEC
  0
EOF
