  0
SECTION
  2
HEADER
  9
$ACADVER
  1
AC1014
  9
$ACADMAINTVER
 70
     9
  9
$DWGCODEPAGE
  3
ANSI_932
  9
$INSBASE
 10
0.0
 20
0.0
 30
0.0
  9
$EXTMIN
 10
-141.1499755686909
 20
-27.75003143075874
 30
-0.00000001
  9
$EXTMAX
 10
14.19343852413389
 20
13.85821806515034
 30
0.00000001
  9
$LIMMIN
 10
-145.817309080409
 20
-46.82451372827617
  9
$LIMMAX
 10
18.35158007092855
 20
29.5292533721153
  9
$ORTHOMODE
 70
     0
  9
$REGENMODE
 70
     1
  9
$FILLMODE
 70
     1
  9
$QTEXTMODE
 70
     0
  9
$MIRRTEXT
 70
     0
  9
$DRAGMODE
 70
     2
  9
$LTSCALE
 40
1.0
  9
$OSMODE
 70
    55
  9
$ATTMODE
 70
     1
  9
$TEXTSIZE
 40
2.5
  9
$TRACEWID
 40
1.0
  9
$TEXTSTYLE
  7
STANDARD
  9
$CLAYER
  8
AM_0
  9
$CELTYPE
  6
BYLAYER
  9
$CECOLOR
 62
   256
  9
$CELTSCALE
 40
1.0
  9
$DELOBJ
 70
     1
  9
$DISPSILH
 70
     0
  9
$DIMSCALE
 40
0.5
  9
$DIMASZ
 40
2.5
  9
$DIMEXO
 40
1.0
  9
$DIMDLI
 40
12.0
  9
$DIMRND
 40
0.0
  9
$DIMDLE
 40
0.0
  9
$DIMEXE
 40
1.0
  9
$DIMTP
 40
0.1
  9
$DIMTM
 40
0.1
  9
$DIMTXT
 40
3.2
  9
$DIMCEN
 40
0.0
  9
$DIMTSZ
 40
0.0
  9
$DIMTOL
 70
     0
  9
$DIMLIM
 70
     0
  9
$DIMTIH
 70
     0
  9
$DIMTOH
 70
     0
  9
$DIMSE1
 70
     0
  9
$DIMSE2
 70
     0
  9
$DIMTAD
 70
     3
  9
$DIMZIN
 70
     8
  9
$DIMBLK
  1
OPEN30
  9
$DIMASO
 70
     1
  9
$DIMSHO
 70
     1
  9
$DIMPOST
  1

  9
$DIMAPOST
  1
"
  9
$DIMALT
 70
     0
  9
$DIMALTD
 70
     2
  9
$DIMALTF
 40
0.0393701
  9
$DIMLFAC
 40
1.0
  9
$DIMTOFL
 70
     1
  9
$DIMTVP
 40
0.0
  9
$DIMTIX
 70
     0
  9
$DIMSOXD
 70
     0
  9
$DIMSAH
 70
     0
  9
$DIMBLK1
  1

  9
$DIMBLK2
  1

  9
$DIMSTYLE
  2
AM_JIS
  9
$DIMCLRD
 70
   256
  9
$DIMCLRE
 70
   256
  9
$DIMCLRT
 70
     2
  9
$DIMTFAC
 40
0.71
  9
$DIMGAP
 40
1.5
  9
$DIMJUST
 70
     0
  9
$DIMSD1
 70
     0
  9
$DIMSD2
 70
     0
  9
$DIMTOLJ
 70
     0
  9
$DIMTZIN
 70
     0
  9
$DIMALTZ
 70
     0
  9
$DIMALTTZ
 70
     0
  9
$DIMFIT
 70
     3
  9
$DIMUPT
 70
     0
  9
$DIMUNIT
 70
     2
  9
$DIMDEC
 70
     3
  9
$DIMTDEC
 70
     3
  9
$DIMALTU
 70
     2
  9
$DIMALTTD
 70
     2
  9
$DIMTXSTY
  7
ASAMI
  9
$DIMAUNIT
 70
     0
  9
$LUNITS
 70
     2
  9
$LUPREC
 70
     2
  9
$SKETCHINC
 40
1.0
  9
$FILLETRAD
 40
2.5
  9
$AUNITS
 70
     0
  9
$AUPREC
 70
     0
  9
$MENU
  1
.
  9
$ELEVATION
 40
0.0
  9
$PELEVATION
 40
0.0
  9
$THICKNESS
 40
0.0
  9
$LIMCHECK
 70
     0
  9
$BLIPMODE
 70
     0
  9
$CHAMFERA
 40
2.5
  9
$CHAMFERB
 40
2.5
  9
$CHAMFERC
 40
20.0
  9
$CHAMFERD
 40
0.0
  9
$SKPOLY
 70
     0
  9
$TDCREATE
 40
2452800.443498622
  9
$TDUPDATE
 40
2453151.680027291
  9
$TDINDWG
 40
0.0822334259
  9
$TDUSRTIMER
 40
0.0822334259
  9
$USRTIMER
 70
     1
  9
$ANGBASE
 50
0.0
  9
$ANGDIR
 70
     0
  9
$PDMODE
 70
     0
  9
$PDSIZE
 40
0.0
  9
$PLINEWID
 40
0.0
  9
$COORDS
 70
     1
  9
$SPLFRAME
 70
     0
  9
$SPLINETYPE
 70
     6
  9
$SPLINESEGS
 70
     8
  9
$ATTDIA
 70
     1
  9
$ATTREQ
 70
     1
  9
$HANDLING
 70
 12289
  9
$HANDSEED
  5
262A
  9
$SURFTAB1
 70
     6
  9
$SURFTAB2
 70
     6
  9
$SURFTYPE
 70
     6
  9
$SURFU
 70
     6
  9
$SURFV
 70
     6
  9
$UCSNAME
  2

  9
$UCSORG
 10
0.0
 20
0.0
 30
0.0
  9
$UCSXDIR
 10
1.0
 20
0.000000000000002
 30
0.0
  9
$UCSYDIR
 10
-0.000000000000002
 20
1.0
 30
0.0
  9
$PUCSNAME
  2

  9
$PUCSORG
 10
0.0
 20
0.0
 30
0.0
  9
$PUCSXDIR
 10
1.0
 20
0.0
 30
0.0
  9
$PUCSYDIR
 10
0.0
 20
1.0
 30
0.0
  9
$USERI1
 70
     0
  9
$USERI2
 70
     0
  9
$USERI3
 70
     0
  9
$USERI4
 70
     0
  9
$USERI5
 70
     0
  9
$USERR1
 40
0.0
  9
$USERR2
 40
0.0
  9
$USERR3
 40
0.0
  9
$USERR4
 40
0.0
  9
$USERR5
 40
0.0
  9
$WORLDVIEW
 70
     1
  9
$SHADEDGE
 70
     3
  9
$SHADEDIF
 70
    70
  9
$TILEMODE
 70
     1
  9
$MAXACTVP
 70
    64
  9
$PINSBASE
 10
0.0
 20
0.0
 30
0.0
  9
$PLIMCHECK
 70
     0
  9
$PEXTMIN
 10
1.000000000000000E+20
 20
1.000000000000000E+20
 30
1.000000000000000E+20
  9
$PEXTMAX
 10
-1.000000000000000E+20
 20
-1.000000000000000E+20
 30
-1.000000000000000E+20
  9
$PLIMMIN
 10
0.0
 20
0.0
  9
$PLIMMAX
 10
841.0
 20
594.0
  9
$UNITMODE
 70
     0
  9
$VISRETAIN
 70
     1
  9
$PLINEGEN
 70
     0
  9
$PSLTSCALE
 70
     0
  9
$TREEDEPTH
 70
  3020
  9
$PICKSTYLE
 70
     0
  9
$CMLSTYLE
  2
STANDARD
  9
$CMLJUST
 70
     0
  9
$CMLSCALE
 40
20.0
  9
$PROXYGRAPHICS
 70
     1
  9
$MEASUREMENT
 70
     1
  0
ENDSEC
  0
SECTION
  2
CLASSES
  0
CLASS
  1
ACDBDICTIONARYWDFLT
  2
AcDbDictionaryWithDefault
  3
AutoCAD 2000
 90
        0
280
     0
281
     0
  0
CLASS
  1
ACDBPLACEHOLDER
  2
AcDbPlaceHolder
  3
AutoCAD 2000
 90
        0
280
     0
281
     0
  0
CLASS
  1
LAYOUT
  2
AcDbLayout
  3
AutoCAD 2000
 90
        0
280
     0
281
     0
  0
CLASS
  1
AMGSETTINGSOBJ
  2
AmgSettingsObj
  3
"AcadM|Product Description: AutoCAD Mechanical 2000|Company: Autodesk"
 90
        0
280
     0
281
     0
  0
CLASS
  1
ACME_DOCUMENT
  2
AcMeDbDoc
  3
AcMeServices
 90
        0
280
     0
281
     0
  0
CLASS
  1
ACMESCOPE
  2
AcMeScope
  3
AcMeServices
 90
        0
280
     0
281
     0
  0
CLASS
  1
ACMECOMMANDHISTORY
  2
AcMeCommandHistory
  3
AcMeServices
 90
        0
280
     0
281
     0
  0
CLASS
  1
DICTIONARYVAR
  2
AcDbDictionaryVar
  3
AutoCAD 2000
 90
        0
280
     0
281
     0
  0
CLASS
  1
ACIMSYSVARMAN
  2
AcImSysVarManager
  3
AcMeServices
 90
        0
280
     0
281
     0
  0
CLASS
  1
ACIMREALSYSVAR
  2
AcImRealSysVar
  3
AcMeServices
 90
        0
280
     0
281
     0
  0
CLASS
  1
ACIMINTSYSVAR
  2
AcImIntSysVar
  3
AcMeServices
 90
        0
280
     0
281
     0
  0
CLASS
  1
ACMEDRAWINGMAN
  2
AcMeDrawingMan
  3
AcMeServices
 90
        0
280
     0
281
     0
  0
CLASS
  1
ACMEVIEW
  2
AcMeView
  3
AcMeServices
 90
        0
280
     0
281
     0
  0
CLASS
  1
ACDBENTITYCACHE
  2
AcMeEntityCache
  3
AcMeServices
 90
        0
280
     0
281
     0
  0
CLASS
  1
GSMANAGER
  2
AcMeGSManager
  3
AcMeServices
 90
        0
280
     0
281
     0
  0
CLASS
  1
AmdtInternalReactor
  2
AmdtInternalReactor
  3
AcMeServices
 90
        0
280
     0
281
     0
  0
CLASS
  1
ACMESTATEMGR
  2
AcMeStateMgr
  3
AcMeServices
 90
        0
280
     0
281
     0
  0
CLASS
  1
ACME_DATABASE
  2
AcMeDbDatabase
  3
AcMeServices
 90
        0
280
     0
281
     0
  0
CLASS
  1
ACRFINSADJUSTERMGR
  2
AcRfInsAdjusterMgr
  3
AcMeServices
 90
        0
280
     0
281
     0
  0
CLASS
  1
ACMDATADICTIONARY
  2
AcmDataDictionary
  3
"AcmSymBB|Product Description: AutoCAD Mechanical 2000|Company: Autodesk"
 90
        0
280
     0
281
     0
  0
CLASS
  1
ACMDATAENTRYBLOCK
  2
AcmDataEntryBlock
  3
"AcmSymBB|Product Description: AutoCAD Mechanical 2000|Company: Autodesk"
 90
        0
280
     0
281
     0
  0
CLASS
  1
AMGOBJPROPCFG
  2
AmgObjPropCfg
  3
"AmgLay|Product Description: AutoCAD Mechanical 2000|Company: Autodesk"
 90
        1
280
     0
281
     0
  0
CLASS
  1
ACAMGFILTERDAT
  2
AcAmgFilterDat
  3
"AcadM|Product Description: AutoCAD Mechanical 2000|Company: Autodesk"
 90
        0
280
     0
281
     0
  0
CLASS
  1
LAYER_INDEX
  2
AcDbLayerIndex
  3
AutoCAD 2000
 90
        0
280
     0
281
     0
  0
CLASS
  1
IDBUFFER
  2
AcDbIdBuffer
  3
AutoCAD 2000
 90
        0
280
     0
281
     0
  0
CLASS
  1
ACIMSTRSYSVAR
  2
AcImStrSysVar
  3
AcMeServices
 90
        0
280
     0
281
     0
  0
CLASS
  1
ACMSTANDARDJIS
  2
AcmStandardJIS
  3
"AcmSymBB|Product Description: AutoCAD Mechanical 2000|Company: Autodesk"
 90
        0
280
     0
281
     0
  0
CLASS
  1
ACMSURFSTANDARDJIS
  2
AcmSurfTextStdJIS
  3
"AcmSymBB|Product Description: AutoCAD Mechanical 2000|Company: Autodesk"
 90
        0
280
     0
281
     0
  0
CLASS
  1
ACMFCFSTANDARDJIS
  2
AcmFCFStdJIS
  3
"AcmSymBB|Product Description: AutoCAD Mechanical 2000|Company: Autodesk"
 90
        0
280
     0
281
     0
  0
CLASS
  1
ACMWELDSTANDARDJIS
  2
AcmWeldingStdJIS
  3
"AcmSymBB|Product Description: AutoCAD Mechanical 2000|Company: Autodesk"
 90
        0
280
     0
281
     0
  0
CLASS
  1
ACMIDSTANDARDJIS
  2
AcmIdStdJIS
  3
"AcmSymBB|Product Description: AutoCAD Mechanical 2000|Company: Autodesk"
 90
        0
280
     0
281
     0
  0
CLASS
  1
ACMDATUMSTANDARDJIS
  2
AcmDatumStdJIS
  3
"AcmSymBB|Product Description: AutoCAD Mechanical 2000|Company: Autodesk"
 90
        0
280
     0
281
     0
  0
CLASS
  1
ACMBOMSTANDARDJIS
  2
AcmBOMStdJIS
  3
"AcmSymBB|Product Description: AutoCAD Mechanical 2000|Company: Autodesk"
 90
        0
280
     0
281
     0
  0
CLASS
  1
ACMSTANDARDANSI
  2
AcmStandardANSI
  3
"AcmSymBB|Product Description: AutoCAD Mechanical 2000|Company: Autodesk"
 90
        0
280
     0
281
     0
  0
CLASS
  1
ACMSURFSTANDARDANSI
  2
AcmSurfTextStdANSI
  3
"AcmSymBB|Product Description: AutoCAD Mechanical 2000|Company: Autodesk"
 90
        0
280
     0
281
     0
  0
CLASS
  1
ACMFCFSTANDARDANSI
  2
AcmFCFStdANSI
  3
"AcmSymBB|Product Description: AutoCAD Mechanical 2000|Company: Autodesk"
 90
        0
280
     0
281
     0
  0
CLASS
  1
ACMWELDSTANDARDANSI
  2
AcmWeldingStdANSI
  3
"AcmSymBB|Product Description: AutoCAD Mechanical 2000|Company: Autodesk"
 90
        0
280
     0
281
     0
  0
CLASS
  1
ACMIDSTANDARDANSI
  2
AcmIdStdANSI
  3
"AcmSymBB|Product Description: AutoCAD Mechanical 2000|Company: Autodesk"
 90
        0
280
     0
281
     0
  0
CLASS
  1
ACMDATUMSTANDARDANSI
  2
AcmDatumStdANSI
  3
"AcmSymBB|Product Description: AutoCAD Mechanical 2000|Company: Autodesk"
 90
        0
280
     0
281
     0
  0
CLASS
  1
ACMBOMSTANDARDANSI
  2
AcmBOMStdANSI
  3
"AcmSymBB|Product Description: AutoCAD Mechanical 2000|Company: Autodesk"
 90
        0
280
     0
281
     0
  0
CLASS
  1
ACMSTANDARDBSI
  2
AcmStandardBSI
  3
"AcmSymBB|Product Description: AutoCAD Mechanical 2000|Company: Autodesk"
 90
        0
280
     0
281
     0
  0
CLASS
  1
ACMSURFSTANDARDBSI
  2
AcmSurfTextStdBSI
  3
"AcmSymBB|Product Description: AutoCAD Mechanical 2000|Company: Autodesk"
 90
        0
280
     0
281
     0
  0
CLASS
  1
ACMFCFSTANDARDBSI
  2
AcmFCFStdBSI
  3
"AcmSymBB|Product Description: AutoCAD Mechanical 2000|Company: Autodesk"
 90
        0
280
     0
281
     0
  0
CLASS
  1
ACMWELDSTANDARDBSI
  2
AcmWeldingStdBSI
  3
"AcmSymBB|Product Description: AutoCAD Mechanical 2000|Company: Autodesk"
 90
        0
280
     0
281
     0
  0
CLASS
  1
ACMIDSTANDARDBSI
  2
AcmIdStdBSI
  3
"AcmSymBB|Product Description: AutoCAD Mechanical 2000|Company: Autodesk"
 90
        0
280
     0
281
     0
  0
CLASS
  1
ACMDATUMSTANDARDBSI
  2
AcmDatumStdBSI
  3
"AcmSymBB|Product Description: AutoCAD Mechanical 2000|Company: Autodesk"
 90
        0
280
     0
281
     0
  0
CLASS
  1
ACMBOMSTANDARDBSI
  2
AcmBOMStdBSI
  3
"AcmSymBB|Product Description: AutoCAD Mechanical 2000|Company: Autodesk"
 90
        0
280
     0
281
     0
  0
CLASS
  1
LONG_TRANSACTION
  2
AcDbLongTransaction
  3
AutoCAD 2000
 90
        0
280
     0
281
     0
  0
CLASS
  1
LWPOLYLINE
  2
AcDbPolyline
  3
AutoCAD 2000
 90
        0
280
     0
281
     1
  0
CLASS
  1
HATCH
  2
AcDbHatch
  3
AutoCAD 2000
 90
        0
280
     0
281
     1
  0
CLASS
  1
XRECORD
  2
AcDbXrecord
  3
AutoCAD 2000
 90
        0
280
     0
281
     0
  0
ENDSEC
  0
SECTION
  2
TABLES
  0
TABLE
  2
VPORT
  5
8
330
0
100
AcDbSymbolTable
 70
     3
  0
VPORT
  5
25FF
330
8
100
AcDbSymbolTableRecord
100
AcDbViewportTableRecord
  2
*ACTIVE
 70
     0
 10
0.0
 20
0.0
 11
1.0
 21
1.0
 12
-60.57157415538161
 22
-6.946633599909532
 13
0.0
 23
0.0
 14
2.5
 24
2.5
 15
10.0
 25
10.0
 16
0.0
 26
0.0
 36
1.0
 17
0.0
 27
0.0
 37
0.0
 40
103.4231980924927
 41
1.56570841889117
 42
50.0
 43
0.0
 44
0.0
 50
0.0
 51
0.0
 71
     0
 72
   100
 73
     1
 74
     1
 75
     0
 76
     0
 77
     0
 78
     0
  0
ENDTAB
  0
TABLE
  2
LTYPE
  5
5
330
0
100
AcDbSymbolTable
 70
    10
  0
LTYPE
  5
14
330
5
100
AcDbSymbolTableRecord
100
AcDbLinetypeTableRecord
  2
BYBLOCK
 70
     0
  3

 72
    65
 73
     0
 40
0.0
  0
LTYPE
  5
15
330
5
100
AcDbSymbolTableRecord
100
AcDbLinetypeTableRecord
  2
BYLAYER
 70
     0
  3

 72
    65
 73
     0
 40
0.0
  0
LTYPE
  5
16
330
5
100
AcDbSymbolTableRecord
100
AcDbLinetypeTableRecord
  2
CONTINUOUS
 70
     0
  3
Solid line
 72
    65
 73
     0
 40
0.0
  0
LTYPE
  5
4B
330
5
100
AcDbSymbolTableRecord
100
AcDbLinetypeTableRecord
  2
AM_ISO02W050
 70
     0
  3
__ __ __ __ __ __ __ __ __ __ __ __ __ __ __
 72
    65
 73
     2
 40
7.5
 49
6.0
 74
     0
 49
-1.5
 74
     0
  0
LTYPE
  5
4C
330
5
100
AcDbSymbolTableRecord
100
AcDbLinetypeTableRecord
  2
AM_ISO08W050
 70
     0
  3
____ . ____ . ____ . ____ . ____ . ____ . ____
 72
    65
 73
     4
 40
18.0
 49
12.0
 74
     0
 49
-1.5
 74
     0
 49
3.0
 74
     0
 49
-1.5
 74
     0
  0
LTYPE
  5
4D
330
5
100
AcDbSymbolTableRecord
100
AcDbLinetypeTableRecord
  2
AM_ISO09W050
 70
     0
  3
_____ . . _____ . . _____ . . ____ .. ____
 72
    65
 73
     6
 40
22.5
 49
12.0
 74
     0
 49
-1.5
 74
     0
 49
3.0
 74
     0
 49
-1.5
 74
     0
 49
3.0
 74
     0
 49
-1.5
 74
     0
  0
LTYPE
  5
4E
330
5
100
AcDbSymbolTableRecord
100
AcDbLinetypeTableRecord
  2
AMCONSTR
 70
     0
  3
_______________________
 72
    65
 73
     2
 40
9999.0
 49
9999.0
 74
     0
 49
0.0
 74
     0
  0
LTYPE
  5
4F
330
5
100
AcDbSymbolTableRecord
100
AcDbLinetypeTableRecord
  2
AM_ISO02W050X2
 70
     0
  3
 _ _ _ _ _ _ _ _ _ _ _ _
 72
    65
 73
     2
 40
3.75
 49
3.0
 74
     0
 49
-0.75
 74
     0
  0
LTYPE
  5
50
330
5
100
AcDbSymbolTableRecord
100
AcDbLinetypeTableRecord
  2
AM_ISO08W050X2
 70
     0
  3
__ . __ . __ . __ . __ . __
 72
    65
 73
     4
 40
9.0
 49
6.0
 74
     0
 49
-0.75
 74
     0
 49
1.5
 74
     0
 49
-0.75
 74
     0
  0
LTYPE
  5
53
330
5
100
AcDbSymbolTableRecord
100
AcDbLinetypeTableRecord
  2
AMZIGZAG
 70
     0
  3
/\/-/\/-/\/-/\/-/\/-/\/
 72
    65
 73
     2
 40
11.00009999999999
 49
0.0001
 74
     4
 75
   135
340
52
 46
0.04
 50
0.0
 44
0.0
 45
0.0
 49
-11.0
 74
     0
  0
LTYPE
  5
166
330
5
100
AcDbSymbolTableRecord
100
AcDbLinetypeTableRecord
  2
ACJISTGL
 70
     0
  3
_ _ _ _ _
 72
    65
 73
     2
 40
3.0
 49
2.0
 74
     0
 49
-1.0
 74
     0
  0
LTYPE
  5
26A
330
5
100
AcDbSymbolTableRecord
100
AcDbLinetypeTableRecord
  2
ACJISTGB
 70
     0
  3
__ . . __ . .
 72
    65
 73
     6
 40
9.0
 49
4.0
 74
     0
 49
-1.0
 74
     0
 49
1.0
 74
     0
 49
-1.0
 74
     0
 49
1.0
 74
     0
 49
-1.0
 74
     0
  0
ENDTAB
  0
TABLE
  2
LAYER
  5
2
330
0
100
AcDbSymbolTable
 70
     8
  0
LAYER
  5
10
330
2
100
AcDbSymbolTableRecord
100
AcDbLayerTableRecord
  2
0
 70
     0
 62
     7
  6
CONTINUOUS
  0
LAYER
  5
3F9
330
2
100
AcDbSymbolTableRecord
100
AcDbLayerTableRecord
  2
AM_0
 70
     0
 62
     7
  6
CONTINUOUS
  0
LAYER
  5
C7C
330
2
100
AcDbSymbolTableRecord
100
AcDbLayerTableRecord
  2
AM_7
 70
     0
 62
     4
  6
AM_ISO08W050
  0
LAYER
  5
C97
330
2
100
AcDbSymbolTableRecord
100
AcDbLayerTableRecord
  2
AM_11
 70
     0
 62
     3
  6
AM_ISO09W050
  0
LAYER
  5
CC5
330
2
100
AcDbSymbolTableRecord
100
AcDbLayerTableRecord
  2
AM_5
 70
     0
 62
     3
  6
CONTINUOUS
  0
LAYER
  5
CC7
330
2
100
AcDbSymbolTableRecord
100
AcDbLayerTableRecord
  2
DEFPOINTS
 70
     0
 62
     7
  6
CONTINUOUS
  0
LAYER
  5
19BC
330
2
100
AcDbSymbolTableRecord
100
AcDbLayerTableRecord
  2
AM_6
 70
     0
 62
     2
  6
CONTINUOUS
  0
LAYER
  5
2482
330
2
100
AcDbSymbolTableRecord
100
AcDbLayerTableRecord
  2
AM_CL
 70
     0
 62
     1
  6
AMCONSTR
  0
ENDTAB
  0
TABLE
  2
STYLE
  5
3
330
0
100
AcDbSymbolTable
 70
     5
  0
STYLE
  5
11
330
3
100
AcDbSymbolTableRecord
100
AcDbTextStyleTableRecord
  2
STANDARD
 70
     0
 40
0.0
 41
1.0
 50
0.0
 71
     0
 42
2.5
  3
simplex.shx
  4
EXTFONT.SHX
  0
STYLE
  5
52
330
3
100
AcDbSymbolTableRecord
100
AcDbTextStyleTableRecord
  2

 70
     1
 40
0.0
 41
1.0
 50
0.0
 71
     0
 42
2.5
  3
ltypeshp.shx
  4

  0
STYLE
  5
6B
330
3
100
AcDbSymbolTableRecord
100
AcDbTextStyleTableRecord
  2
ASAMI
 70
     0
 40
0.0
 41
1.0
 50
0.0
 71
     0
 42
2.5
  3
simplex.shx
  4
EXTFONT.SHX
  0
STYLE
  5
262
330
3
100
AcDbSymbolTableRecord
100
AcDbTextStyleTableRecord
  2
ACJISTS
 70
     0
 40
1.0
 41
1.0
 50
0.0
 71
     0
 42
2.5
  3
simplex.shx
  4
bigfont.shx
  0
STYLE
  5
269
330
3
100
AcDbSymbolTableRecord
100
AcDbTextStyleTableRecord
  2
ACJISGDT
 70
     0
 40
0.0
 41
1.0
 50
0.0
 71
     0
 42
2.5
  3
amgdtans.shx
  4

  0
ENDTAB
  0
TABLE
  2
VIEW
  5
6
330
0
100
AcDbSymbolTable
 70
     0
  0
ENDTAB
  0
TABLE
  2
UCS
  5
7
330
0
100
AcDbSymbolTable
 70
     0
  0
ENDTAB
  0
TABLE
  2
APPID
  5
9
330
0
100
AcDbSymbolTable
 70
    14
  0
APPID
  5
12
330
9
100
AcDbSymbolTableRecord
100
AcDbRegAppTableRecord
  2
ACAD
 70
     0
  0
APPID
  5
30
330
9
100
AcDbSymbolTableRecord
100
AcDbRegAppTableRecord
  2
MCAD_NO_VIS
 70
     0
  0
APPID
  5
31
330
9
100
AcDbSymbolTableRecord
100
AcDbRegAppTableRecord
  2
ACAD_TEMP_GRAPHIC
 70
     0
  0
APPID
  5
2C2
330
9
100
AcDbSymbolTableRecord
100
AcDbRegAppTableRecord
  2
GENIUS_GENDTOL_13
 70
     0
  0
APPID
  5
339
330
9
100
AcDbSymbolTableRecord
100
AcDbRegAppTableRecord
  2
GENIUS_GENODEF_13
 70
     0
  0
APPID
  5
33A
330
9
100
AcDbSymbolTableRecord
100
AcDbRegAppTableRecord
  2
GENIUS_GENOBJ-N-RSBK_13
 70
     0
  0
APPID
  5
33B
330
9
100
AcDbSymbolTableRecord
100
AcDbRegAppTableRecord
  2
GENIUS_GENOBJ-N-LIB_13
 70
     0
  0
APPID
  5
33C
330
9
100
AcDbSymbolTableRecord
100
AcDbRegAppTableRecord
  2
GENIUS_GENSCALE_13
 70
     0
  0
APPID
  5
378
330
9
100
AcDbSymbolTableRecord
100
AcDbRegAppTableRecord
  2
GENIUS_GENDIMSH_14
 70
     0
  0
APPID
  5
C82
330
9
100
AcDbSymbolTableRecord
100
AcDbRegAppTableRecord
  2
GENIUS_GENOBJ-N-CRS_13
 70
     0
  0
APPID
  5
C83
330
9
100
AcDbSymbolTableRecord
100
AcDbRegAppTableRecord
  2
GENIUS_GENOENT_13
 70
     0
  0
APPID
  5
C84
330
9
100
AcDbSymbolTableRecord
100
AcDbRegAppTableRecord
  2
GENIUS_GENOREF_13
 70
     0
  0
APPID
  5
C85
330
9
100
AcDbSymbolTableRecord
100
AcDbRegAppTableRecord
  2
GENIUS_GENOLIS_13
 70
     0
  0
APPID
  5
CA0
330
9
100
AcDbSymbolTableRecord
100
AcDbRegAppTableRecord
  2
GENIUS_GENOBJ-N-CEN_13
 70
     0
  0
ENDTAB
  0
TABLE
  2
DIMSTYLE
  5
A
330
0
100
AcDbSymbolTable
 70
     9
  0
DIMSTYLE
105
58
330
A
100
AcDbSymbolTableRecord
100
AcDbDimStyleTableRecord
  2
AM_JIS
 70
     0
  3

  4
"
  5
OPEN30
  6

  7

 40
0.5
 41
2.5
 42
1.0
 43
12.0
 44
1.0
 45
0.0
 46
0.0
 47
0.1
 48
0.1
140
3.2
141
0.0
142
0.0
143
0.0393701
144
1.0
145
0.0
146
0.71
147
1.5
 71
     0
 72
     0
 73
     0
 74
     0
 75
     0
 76
     0
 77
     3
 78
     8
170
     0
171
     2
172
     1
173
     0
174
     0
175
     0
176
   256
177
   256
178
     2
270
     2
271
     3
272
     3
273
     2
274
     2
340
6B
275
     0
280
     0
281
     0
282
     0
283
     0
284
     0
285
     0
286
     0
287
     3
288
     0
  0
DIMSTYLE
105
5F
330
A
100
AcDbSymbolTableRecord
100
AcDbDimStyleTableRecord
  2
AM_JIS$3
 70
     0
  3

  4
"
  5
OPEN30
  6

  7

 40
0.5
 41
2.5
 42
1.0
 43
10.0
 44
1.0
 45
0.0
 46
0.0
 47
0.1
 48
0.1
140
3.2
141
0.0
142
0.0
143
0.0393701
144
1.0
145
0.0
146
0.71
147
1.5
 71
     0
 72
     0
 73
     0
 74
     1
 75
     0
 76
     0
 77
     3
 78
     8
170
     0
171
     2
172
     0
173
     0
174
     0
175
     0
176
   256
177
   256
178
     2
270
     2
271
     2
272
     3
273
     2
274
     2
340
6B
275
     0
280
     0
281
     0
282
     0
283
     0
284
     0
285
     0
286
     0
287
     0
288
     1
  0
DIMSTYLE
105
60
330
A
100
AcDbSymbolTableRecord
100
AcDbDimStyleTableRecord
  2
AM_JIS$4
 70
     0
  3

  4
"
  5
OPEN30
  6

  7

 40
0.5
 41
2.5
 42
1.0
 43
10.0
 44
1.0
 45
0.0
 46
0.0
 47
0.1
 48
0.1
140
3.2
141
0.0
142
0.0
143
0.0393701
144
1.0
145
0.0
146
0.71
147
1.5
 71
     0
 72
     0
 73
     0
 74
     1
 75
     0
 76
     0
 77
     3
 78
     8
170
     0
171
     2
172
     0
173
     0
174
     0
175
     0
176
   256
177
   256
178
     2
270
     2
271
     2
272
     3
273
     2
274
     2
340
6B
275
     0
280
     0
281
     0
282
     0
283
     0
284
     0
285
     0
286
     0
287
     0
288
     1
  0
DIMSTYLE
105
61
330
A
100
AcDbSymbolTableRecord
100
AcDbDimStyleTableRecord
  2
AM_JIS$6
 70
     0
  3

  4
"
  5
OPEN30
  6

  7

 40
0.5
 41
2.5
 42
1.0
 43
10.0
 44
1.0
 45
0.0
 46
0.0
 47
0.1
 48
0.1
140
3.2
141
0.0
142
0.0
143
0.0393701
144
1.0
145
0.0
146
0.71
147
1.5
 71
     0
 72
     0
 73
     0
 74
     0
 75
     0
 76
     0
 77
     0
 78
     8
170
     0
171
     2
172
     1
173
     0
174
     0
175
     0
176
   256
177
   256
178
     2
270
     2
271
     2
272
     2
273
     2
274
     2
340
6B
275
     0
280
     0
281
     0
282
     0
283
     0
284
     0
285
     0
286
     0
287
     3
288
     0
  0
DIMSTYLE
105
62
330
A
100
AcDbSymbolTableRecord
100
AcDbDimStyleTableRecord
  2
AM_JIS$7
 70
     0
  3

  4
"
  5
OPEN30
  6

  7

 40
0.5
 41
2.5
 42
1.0
 43
10.0
 44
1.0
 45
0.0
 46
0.0
 47
0.1
 48
0.1
140
3.2
141
0.0
142
0.0
143
0.0393701
144
1.0
145
0.0
146
0.71
147
1.5
 71
     0
 72
     0
 73
     0
 74
     0
 75
     0
 76
     0
 77
     3
 78
     8
170
     0
171
     2
172
     1
173
     0
174
     0
175
     0
176
   256
177
   256
178
     2
270
     2
271
     2
272
     3
273
     2
274
     2
340
6B
275
     0
280
     0
281
     0
282
     0
283
     0
284
     0
285
     0
286
     0
287
     3
288
     0
  0
DIMSTYLE
105
63
330
A
100
AcDbSymbolTableRecord
100
AcDbDimStyleTableRecord
  2
AM_JIS$SF
 70
     0
  3

  4
"
  5
OPEN30
  6

  7

 40
0.5
 41
2.5
 42
1.0
 43
10.0
 44
1.0
 45
0.0
 46
0.0
 47
0.1
 48
0.1
140
3.2
141
0.0
142
0.0
143
0.0393701
144
1.0
145
0.0
146
0.71
147
1.5
 71
     0
 72
     0
 73
     0
 74
     0
 75
     1
 76
     1
 77
     3
 78
     8
170
     0
171
     2
172
     1
173
     0
174
     0
175
     0
176
   256
177
   256
178
     2
270
     2
271
     2
272
     2
273
     2
274
     2
340
6B
275
     0
280
     0
281
     0
282
     0
283
     0
284
     0
285
     0
286
     0
287
     3
288
     0
  0
DIMSTYLE
105
68
330
A
100
AcDbSymbolTableRecord
100
AcDbDimStyleTableRecord
  2
AM_JIS$SH
 70
     0
  3

  4
"
  5

  6
GENAXEH
  7
OPEN30
 40
0.5
 41
2.5
 42
1.0
 43
10.0
 44
1.0
 45
0.0
 46
0.0
 47
0.1
 48
0.1
140
3.2
141
0.0
142
0.0
143
0.0393701
144
2.0
145
0.0
146
0.71
147
1.5
 71
     0
 72
     0
 73
     0
 74
     0
 75
     1
 76
     1
 77
     3
 78
     8
170
     0
171
     2
172
     1
173
     1
174
     0
175
     0
176
   256
177
   256
178
     2
270
     2
271
     2
272
     2
273
     2
274
     2
340
6B
275
     0
280
     0
281
     0
282
     0
283
     0
284
     0
285
     0
286
     0
287
     3
288
     0
  0
DIMSTYLE
105
B34
102
{ACAD_REACTORS
330
24DE
102
}
330
A
100
AcDbSymbolTableRecord
100
AcDbDimStyleTableRecord
  2
AM_JIS$2
 70
     0
  3

  4
"
  5
OPEN30
  6

  7

 40
0.5
 41
2.5
 42
1.0
 43
12.0
 44
1.0
 45
0.0
 46
0.0
 47
0.1
 48
0.1
140
3.2
141
0.0
142
0.0
143
0.0393701
144
1.0
145
0.0
146
0.71
147
1.5
 71
     0
 72
     0
 73
     0
 74
     0
 75
     0
 76
     0
 77
     3
 78
     8
170
     0
171
     2
172
     1
173
     0
174
     0
175
     0
176
   256
177
   256
178
     2
270
     2
271
     3
272
     3
273
     2
274
     2
340
6B
275
     0
280
     0
281
     0
282
     0
283
     0
284
     0
285
     0
286
     0
287
     3
288
     0
  0
DIMSTYLE
105
BA5
102
{ACAD_REACTORS
330
CC6
330
DF5
330
1EEB
330
237C
102
}
330
A
100
AcDbSymbolTableRecord
100
AcDbDimStyleTableRecord
  2
AM_JIS$0
 70
     0
  3

  4
"
  5
OPEN30
  6

  7

 40
0.5
 41
2.5
 42
0.0
 43
10.0
 44
1.0
 45
0.0
 46
0.0
 47
0.1
 48
0.1000000001
140
3.799999999999999
141
0.0
142
0.0
143
0.0393701
144
1.0
145
0.0
146
0.71
147
1.5
 71
     0
 72
     0
 73
     0
 74
     0
 75
     0
 76
     0
 77
     3
 78
     1
170
     0
171
     2
172
     1
173
     0
174
     0
175
     0
176
     3
177
     3
178
     2
270
     2
271
     2
272
     2
273
     2
274
     2
340
11
275
     1
280
     0
281
     0
282
     0
283
     0
284
     8
285
     0
286
     0
287
     0
288
     0
  0
ENDTAB
  0
TABLE
  2
BLOCK_RECORD
  5
1
330
0
100
AcDbSymbolTable
 70
    11
  0
BLOCK_RECORD
  5
1F
102
{ACAD_XDICTIONARY
360
74
102
}
330
1
100
AcDbSymbolTableRecord
100
AcDbBlockTableRecord
  2
*MODEL_SPACE
  0
BLOCK_RECORD
  5
101
102
{ACAD_XDICTIONARY
360
2628
102
}
330
1
100
AcDbSymbolTableRecord
100
AcDbBlockTableRecord
  2
*PAPER_SPACE
  0
BLOCK_RECORD
  5
59
330
1
100
AcDbSymbolTableRecord
100
AcDbBlockTableRecord
  2
_OPEN30
  0
BLOCK_RECORD
  5
64
330
1
100
AcDbSymbolTableRecord
100
AcDbBlockTableRecord
  2
GENAXEH
  0
BLOCK_RECORD
  5
CC8
330
1
100
AcDbSymbolTableRecord
100
AcDbBlockTableRecord
  2
*D5
  0
BLOCK_RECORD
  5
DF6
330
1
100
AcDbSymbolTableRecord
100
AcDbBlockTableRecord
  2
*D6
  0
BLOCK_RECORD
  5
1EEC
330
1
100
AcDbSymbolTableRecord
100
AcDbBlockTableRecord
  2
*D8
  0
BLOCK_RECORD
  5
237D
330
1
100
AcDbSymbolTableRecord
100
AcDbBlockTableRecord
  2
*D9
  0
BLOCK_RECORD
  5
24DF
330
1
100
AcDbSymbolTableRecord
100
AcDbBlockTableRecord
  2
*D10
  0
ENDTAB
  0
ENDSEC
  0
SECTION
  2
BLOCKS
  0
BLOCK
  5
20
330
1F
100
AcDbEntity
  8
0
100
AcDbBlockBegin
  2
*MODEL_SPACE
 70
     0
 10
0.0
 20
0.0
 30
0.0
  3
*MODEL_SPACE
  1

  0
ENDBLK
  5
21
330
1F
100
AcDbEntity
  8
0
100
AcDbBlockEnd
  0
BLOCK
  5
103
330
101
100
AcDbEntity
 67
     1
  8
0
100
AcDbBlockBegin
  2
*PAPER_SPACE
 70
     0
 10
0.0
 20
0.0
 30
0.0
  3
*PAPER_SPACE
  1

  0
ENDBLK
  5
104
330
101
100
AcDbEntity
 67
     1
  8
0
100
AcDbBlockEnd
  0
BLOCK
  5
5D
330
59
100
AcDbEntity
  8
0
100
AcDbBlockBegin
  2
_OPEN30
 70
     0
 10
0.0
 20
0.0
 30
0.0
  3
_OPEN30
  1

  0
LINE
  5
5A
330
59
100
AcDbEntity
  8
0
 62
     0
100
AcDbLine
 10
-1.0
 20
0.26794919
 30
0.0
 11
0.0
 21
0.0
 31
0.0
  0
LINE
  5
5B
330
59
100
AcDbEntity
  8
0
 62
     0
100
AcDbLine
 10
0.0
 20
0.0
 30
0.0
 11
-1.0
 21
-0.26794919
 31
0.0
  0
LINE
  5
5C
330
59
100
AcDbEntity
  8
0
 62
     0
100
AcDbLine
 10
0.0
 20
0.0
 30
0.0
 11
-1.0
 21
0.0
 31
0.0
  0
ENDBLK
  5
5E
330
59
100
AcDbEntity
  8
0
100
AcDbBlockEnd
  0
BLOCK
  5
66
330
64
100
AcDbEntity
  8
0
100
AcDbBlockBegin
  2
GENAXEH
 70
     0
 10
0.0
 20
0.0
 30
0.0
  3
GENAXEH
  1

  0
LINE
  5
65
330
64
100
AcDbEntity
  8
0
100
AcDbLine
 10
-1.0
 20
0.0
 30
0.0
 11
1.0
 21
0.0
 31
0.0
  0
ENDBLK
  5
67
330
64
100
AcDbEntity
  8
0
100
AcDbBlockEnd
  0
BLOCK
  5
CD2
330
CC8
100
AcDbEntity
  8
0
100
AcDbBlockBegin
  2
*D5
 70
     1
 10
0.0
 20
0.0
 30
0.0
  3
*D5
  1

  0
LINE
  5
25BE
330
CC8
100
AcDbEntity
  8
AM_5
 62
     3
100
AcDbLine
 10
-129.0000000000001
 20
-4.234865101779198
 30
0.0
 11
-129.0000000000001
 21
-17.00003143075871
 31
0.0
  0
LINE
  5
25BF
330
CC8
100
AcDbEntity
  8
AM_5
 62
     3
100
AcDbLine
 10
-1.999961853033421
 20
-4.450000427283649
 30
0.0
 11
-1.999961853033421
 21
-17.00003143075871
 31
0.0
  0
LINE
  5
25C0
330
CC8
100
AcDbEntity
  8
AM_5
 62
     3
100
AcDbLine
 10
-127.7500000000001
 20
-16.50003143075871
 30
0.0
 11
-3.249961853033421
 21
-16.50003143075871
 31
0.0
  0
INSERT
  5
25C1
330
CC8
100
AcDbEntity
  8
AM_5
 62
     3
100
AcDbBlockReference
  2
_OPEN30
 10
-129.0000000000001
 20
-16.50003143075871
 30
0.0
 41
1.25
 42
1.25
 43
1.25
 50
180.0
  0
INSERT
  5
25C2
330
CC8
100
AcDbEntity
  8
AM_5
 62
     3
100
AcDbBlockReference
  2
_OPEN30
 10
-1.999961853033421
 20
-16.50003143075871
 30
0.0
 41
1.25
 42
1.25
 43
1.25
  0
MTEXT
  5
25C3
330
CC8
100
AcDbEntity
  8
AM_5
 62
     2
100
AcDbMText
 10
-65.49998092651676
 20
-14.80003143075871
 30
0.0
 40
1.9
 41
0.0
 71
     5
 72
     1
  1
127
1001
ACAD
1000
MTEXTBEGIN
1070
    73
1070
     1
1070
    44
1040
1.0
1070
    74
1070
     0
1000
MTEXTEND
  0
POINT
  5
25C4
330
CC8
100
AcDbEntity
  8
DEFPOINTS
 62
     0
100
AcDbPoint
 10
-129.0000000000001
 20
-4.234865101779198
 30
0.0
  0
POINT
  5
25C5
330
CC8
100
AcDbEntity
  8
DEFPOINTS
 62
     0
100
AcDbPoint
 10
-1.999961853033421
 20
-4.450000427283649
 30
0.0
  0
POINT
  5
25C6
330
CC8
100
AcDbEntity
  8
DEFPOINTS
 62
     0
100
AcDbPoint
 10
-1.999961853033421
 20
-16.50003143075871
 30
0.0
  0
ENDBLK
  5
CD3
330
CC8
100
AcDbEntity
  8
0
100
AcDbBlockEnd
  0
BLOCK
  5
E00
330
DF6
100
AcDbEntity
  8
0
100
AcDbBlockBegin
  2
*D6
 70
     1
 10
0.0
 20
0.0
 30
0.0
  3
*D6
  1

  0
LINE
  5
25B5
330
DF6
100
AcDbEntity
  8
AM_5
 62
     3
100
AcDbLine
 10
-74.00000000000011
 20
-4.500000388439733
 30
0.0
 11
-74.00000000000011
 21
-12.00003143075863
 31
0.0
  0
LINE
  5
25B6
330
DF6
100
AcDbEntity
  8
AM_5
 62
     3
100
AcDbLine
 10
-2.000000000000113
 20
-4.29999984730938
 30
0.0
 11
-2.000000000000114
 21
-12.00003143075863
 31
0.0
  0
LINE
  5
25B7
330
DF6
100
AcDbEntity
  8
AM_5
 62
     3
100
AcDbLine
 10
-72.75000000000011
 20
-11.50003143075863
 30
0.0
 11
-3.250000000000114
 21
-11.50003143075863
 31
0.0
  0
INSERT
  5
25B8
330
DF6
100
AcDbEntity
  8
AM_5
 62
     3
100
AcDbBlockReference
  2
_OPEN30
 10
-74.00000000000011
 20
-11.50003143075863
 30
0.0
 41
1.25
 42
1.25
 43
1.25
 50
180.0
  0
INSERT
  5
25B9
330
DF6
100
AcDbEntity
  8
AM_5
 62
     3
100
AcDbBlockReference
  2
_OPEN30
 10
-2.000000000000114
 20
-11.50003143075863
 30
0.0
 41
1.25
 42
1.25
 43
1.25
  0
MTEXT
  5
25BA
330
DF6
100
AcDbEntity
  8
AM_5
 62
     2
100
AcDbMText
 10
-38.00000000000011
 20
-9.800031430758631
 30
0.0
 40
1.9
 41
0.0
 71
     5
 72
     1
  1
72
1001
ACAD
1000
MTEXTBEGIN
1070
    73
1070
     1
1070
    44
1040
1.0
1070
    74
1070
     0
1000
MTEXTEND
  0
POINT
  5
25BB
330
DF6
100
AcDbEntity
  8
DEFPOINTS
 62
     0
100
AcDbPoint
 10
-74.00000000000011
 20
-4.500000388439733
 30
0.0
  0
POINT
  5
25BC
330
DF6
100
AcDbEntity
  8
DEFPOINTS
 62
     0
100
AcDbPoint
 10
-2.000000000000113
 20
-4.29999984730938
 30
0.0
  0
POINT
  5
25BD
330
DF6
100
AcDbEntity
  8
DEFPOINTS
 62
     0
100
AcDbPoint
 10
-2.000000000000114
 20
-11.50003143075863
 30
0.0
  0
ENDBLK
  5
E01
330
DF6
100
AcDbEntity
  8
0
100
AcDbBlockEnd
  0
BLOCK
  5
1EF6
330
1EEC
100
AcDbEntity
  8
0
100
AcDbBlockBegin
  2
*D8
 70
     1
 10
0.0
 20
0.0
 30
0.0
  3
*D8
  1

  0
LINE
  5
25C7
330
1EEC
100
AcDbEntity
  8
AM_5
 62
     3
100
AcDbLine
 10
-128.7053273518917
 20
-4.500007542575746
 30
0.0
 11
-138.9999755686909
 21
-4.500007542575765
 31
0.0
  0
LINE
  5
25C8
330
1EEC
100
AcDbEntity
  8
AM_5
 62
     3
100
AcDbLine
 10
-128.7053273518917
 20
4.499981016489259
 30
0.0
 11
-138.9999755686909
 21
4.49998101648924
 31
0.0
  0
LINE
  5
25C9
330
1EEC
100
AcDbEntity
  8
AM_5
 62
     3
100
AcDbLine
 10
-138.4999755686909
 20
-3.250007542575764
 30
0.0
 11
-138.4999755686909
 21
3.249981016489241
 31
0.0
  0
INSERT
  5
25CA
330
1EEC
100
AcDbEntity
  8
AM_5
 62
     3
100
AcDbBlockReference
  2
_OPEN30
 10
-138.4999755686909
 20
-4.500007542575764
 30
0.0
 41
1.25
 42
1.25
 43
1.25
 50
270.0000000000001
  0
INSERT
  5
25CB
330
1EEC
100
AcDbEntity
  8
AM_5
 62
     3
100
AcDbBlockReference
  2
_OPEN30
 10
-138.4999755686909
 20
4.499981016489241
 30
0.0
 41
1.25
 42
1.25
 43
1.25
 50
90.0000000000001
  0
MTEXT
  5
25CC
330
1EEC
100
AcDbEntity
  8
AM_5
 62
     2
100
AcDbMText
 10
-140.1999755686909
 20
-0.0000132630432595
 30
0.0
 40
1.9
 41
0.0
 71
     5
 72
     1
  1
%%c9
 11
-0.000000000000002
 21
1.0
 31
0.0
1001
ACAD
1000
MTEXTBEGIN
1070
    73
1070
     1
1070
    44
1040
1.0
1070
    74
1070
     0
1000
MTEXTEND
  0
POINT
  5
25CD
330
1EEC
100
AcDbEntity
  8
DEFPOINTS
 62
     0
100
AcDbPoint
 10
-128.7053273518917
 20
-4.50000754257546
 30
0.0
  0
POINT
  5
25CE
330
1EEC
100
AcDbEntity
  8
DEFPOINTS
 62
     0
100
AcDbPoint
 10
-128.7053273518917
 20
4.499981016489545
 30
0.0
  0
POINT
  5
25CF
330
1EEC
100
AcDbEntity
  8
DEFPOINTS
 62
     0
100
AcDbPoint
 10
-138.4999755686909
 20
4.499981016489549
 30
0.0
  0
ENDBLK
  5
1EF7
330
1EEC
100
AcDbEntity
  8
0
100
AcDbBlockEnd
  0
BLOCK
  5
2387
330
237D
100
AcDbEntity
  8
0
100
AcDbBlockBegin
  2
*D9
 70
     1
 10
0.0
 20
0.0
 30
0.0
  3
*D9
  1

  0
LINE
  5
25DB
330
237D
100
AcDbEntity
  8
AM_5
 62
     3
100
AcDbLine
 10
-1.999961853033367
 20
4.299999895029745
 30
0.0
 11
9.819888315414893
 21
4.299999895029767
 31
0.0
  0
LINE
  5
25DC
330
237D
100
AcDbEntity
  8
AM_5
 62
     3
100
AcDbLine
 10
-1.999974568690942
 20
-4.300000104970253
 30
0.0
 11
9.819888315414909
 21
-4.300000104970231
 31
0.0
  0
LINE
  5
25DD
330
237D
100
AcDbEntity
  8
AM_5
 62
     3
100
AcDbLine
 10
9.319888315414896
 20
3.049999895029766
 30
0.0
 11
9.319888315414907
 21
-3.050000104970232
 31
0.0
  0
INSERT
  5
25DE
330
237D
100
AcDbEntity
  8
AM_5
 62
     3
100
AcDbBlockReference
  2
_OPEN30
 10
9.319888315414893
 20
4.299999895029766
 30
0.0
 41
1.25
 42
1.25
 43
1.25
 50
90.0000000000001
  0
INSERT
  5
25DF
330
237D
100
AcDbEntity
  8
AM_5
 62
     3
100
AcDbBlockReference
  2
_OPEN30
 10
9.31988831541491
 20
-4.300000104970232
 30
0.0
 41
1.25
 42
1.25
 43
1.25
 50
270.0000000000001
  0
MTEXT
  5
25E0
330
237D
100
AcDbEntity
  8
AM_5
 62
     2
100
AcDbMText
 10
7.619888315414901
 20
-0.0000001049702366
 30
0.0
 40
1.9
 41
0.0
 71
     5
 72
     1
  1
%%c8.6
 11
-0.000000000000002
 21
1.0
 31
0.0
1001
ACAD
1000
MTEXTBEGIN
1070
    73
1070
     1
1070
    44
1040
1.0
1070
    74
1070
     0
1000
MTEXTEND
  0
POINT
  5
25E1
330
237D
100
AcDbEntity
  8
DEFPOINTS
 62
     0
100
AcDbPoint
 10
-1.999961853033357
 20
4.299999895029748
 30
0.0
  0
POINT
  5
25E2
330
237D
100
AcDbEntity
  8
DEFPOINTS
 62
     0
100
AcDbPoint
 10
-1.999974568690952
 20
-4.30000010497025
 30
0.0
  0
POINT
  5
25E3
330
237D
100
AcDbEntity
  8
DEFPOINTS
 62
     0
100
AcDbPoint
 10
9.3198883154149
 20
-4.300000104970252
 30
0.0
  0
ENDBLK
  5
2388
330
237D
100
AcDbEntity
  8
0
100
AcDbBlockEnd
  0
BLOCK
  5
24EF
330
24DF
100
AcDbEntity
  8
0
100
AcDbBlockBegin
  2
*D10
 70
     1
 10
0.0
 20
0.0
 30
0.0
  3
*D10
  1

  0
LINE
  5
25D0
330
24DF
100
AcDbEntity
  8
AM_5
100
AcDbLine
 10
0.1710100716627322
 20
-0.4698463103930029
 30
0.0
 11
5.043978875684575
 21
-13.85821806515036
 31
0.0
  0
LINE
  5
25D1
330
24DF
100
AcDbEntity
  8
AM_5
100
AcDbLine
 10
0.1710100716627253
 20
0.4698463103929126
 30
0.0
 11
5.043978875684371
 21
13.85821806515034
 31
0.0
  0
ARC
  5
25D2
330
24DF
100
AcDbEntity
  8
AM_5
100
AcDbCircle
 10
-0.0000000000000959
 20
-0.0000000000000464
 30
0.0
 40
14.24760763105703
100
AcDbArc
 50
295.0284030819037
 51
64.9715969180971
  0
INSERT
  5
25D3
330
24DF
100
AcDbEntity
  8
AM_5
100
AcDbBlockReference
  2
_OPEN30
 10
4.872968804021747
 20
-13.3883717547574
 30
0.0
 41
1.25
 42
1.25
 43
1.25
 50
202.5142015409515
  0
INSERT
  5
25D4
330
24DF
100
AcDbEntity
  8
AM_5
100
AcDbBlockReference
  2
_OPEN30
 10
4.872968804021549
 20
13.38837175475738
 30
0.0
 41
1.25
 42
1.25
 43
1.25
 50
157.4857984590493
  0
MTEXT
  5
25D5
330
24DF
100
AcDbEntity
  8
AM_5
 62
     2
100
AcDbMText
 10
12.69760763105694
 20
0.0000000000000519
 30
0.0
 40
1.6
 41
0.0
 71
     5
 72
     1
  1
140°
  7
ASAMI
 11
-0.000000000000002
 21
1.0
 31
0.0
1001
ACAD
1000
MTEXTBEGIN
1070
    73
1070
     1
1070
    44
1040
1.0
1070
    74
1070
     0
1000
MTEXTEND
  0
POINT
  5
25D6
330
24DF
100
AcDbEntity
  8
DEFPOINTS
 62
     0
100
AcDbPoint
 10
13.08238281134676
 20
-5.643189097126849
 30
0.0
  0
POINT
  5
25D7
330
24DF
100
AcDbEntity
  8
DEFPOINTS
 62
     0
100
AcDbPoint
 10
-0.0000000000000959
 20
-0.0000000000000464
 30
0.0
  0
POINT
  5
25D8
330
24DF
100
AcDbEntity
  8
DEFPOINTS
 62
     0
100
AcDbPoint
 10
-0.410619134442527
 20
1.128166799876588
 30
0.0
  0
POINT
  5
25D9
330
24DF
100
AcDbEntity
  8
DEFPOINTS
 62
     0
100
AcDbPoint
 10
-0.0000000000000959
 20
-0.0000000000000464
 30
0.0
  0
POINT
  5
25DA
330
24DF
100
AcDbEntity
  8
DEFPOINTS
 62
     0
100
AcDbPoint
 10
-0.4106191344425128
 20
-1.128166799876679
 30
0.0
  0
ENDBLK
  5
24F0
330
24DF
100
AcDbEntity
  8
0
100
AcDbBlockEnd
  0
ENDSEC
  0
SECTION
  2
ENTITIES
  0
LINE
  5
C9F
330
1F
100
AcDbEntity
  8
AM_7
100
AcDbLine
 10
-131.4999745686909
 20
-0.0000000000000533
 30
0.0
 11
2.319887315414997
 21
0.0000000000000009
 31
0.0
1001
GENIUS_GENODEF_13
1002
{
1000
HIER
1070
     0
1002
}
1002
{
1000
MANEDIT
1070
     0
1002
}
1002
{
1000
NOSEL
1070
     0
1002
}
1002
{
1000
BEHIND
1070
     0
1002
}
1002
{
1000
REACTOR
1002
}
1001
GENIUS_GENOBJ-N-CEN_13
1002
{
1000
OWNER
1000
GEN
1002
}
  0
DIMENSION
  5
CC6
330
1F
100
AcDbEntity
  8
AM_5
100
AcDbDimension
  2
*D5
 10
-1.999961853033421
 20
-16.50003143075871
 30
0.0
 11
-65.49998092651676
 21
-14.80003143075871
 31
0.0
 70
    32
  1
<>
  3
AM_JIS$0
100
AcDbAlignedDimension
 13
-129.0000000000001
 23
-4.234865101779198
 33
0.0
 14
-1.999961853033421
 24
-4.450000427283649
 34
0.0
 50
0.0000000000001132
100
AcDbRotatedDimension
1001
GENIUS_GENDTOL_13
1000

1000
h7
1000

1040
0.0
1001
ACAD
1000
DSTYLE
1002
{
1070
   271
1070
     0
1002
}
  0
DIMENSION
  5
DF5
330
1F
100
AcDbEntity
  8
AM_5
100
AcDbDimension
  2
*D6
 10
-2.000000000000114
 20
-11.50003143075863
 30
0.0
 11
-38.00000000000011
 21
-9.800031430758631
 31
0.0
 70
    32
  1
<>
  3
AM_JIS$0
100
AcDbAlignedDimension
 13
-74.00000000000011
 23
-4.500000388439733
 33
0.0
 14
-2.000000000000113
 24
-4.29999984730938
 34
0.0
 50
0.0000000000001527
100
AcDbRotatedDimension
1001
GENIUS_GENDTOL_13
1000

1000
h7
1000

1040
0.0
1001
ACAD
1000
DSTYLE
1002
{
1070
   271
1070
     0
1002
}
  0
TEXT
  5
19BD
330
1F
100
AcDbEntity
  8
AM_6
100
AcDbText
 10
-76.3333142598501
 20
-27.75003143075874
 30
0.0
 40
2.5
  1
MDW086LHK
 50
0.0000000000001527
 72
     4
 11
-65.49998092651676
 21
-26.50003143075871
 31
0.0
100
AcDbText
  0
LINE
  5
1C24
330
1F
100
AcDbEntity
  8
AM_0
 48
0.5
100
AcDbLine
 10
-128.9999618530334
 20
4.234815687510544
 30
0.0
 11
-128.7053273518917
 21
4.499981016489545
 31
0.0
  0
LINE
  5
1C25
330
1F
100
AcDbEntity
  8
AM_0
 48
0.5
100
AcDbLine
 10
-128.9999618530334
 20
-4.234842213595711
 30
0.0
 11
-128.7053273518917
 21
-4.50000754257546
 31
0.0
  0
LINE
  5
1C26
330
1F
100
AcDbEntity
  8
AM_0
 48
0.5
100
AcDbLine
 10
-128.7053782145251
 20
-4.500030430758968
 30
0.0
 11
-128.7053782145251
 21
4.500029653880044
 31
0.0
  0
LINE
  5
1C27
330
1F
100
AcDbEntity
  8
AM_0
 48
0.5
100
AcDbLine
 10
-129.0000000000001
 20
-4.234865101779198
 30
0.0
 11
-129.0000000000001
 21
4.234864324900297
 31
0.0
  0
LINE
  5
1C28
330
1F
100
AcDbEntity
  8
AM_0
100
AcDbLine
 10
-80.26791127523422
 20
4.499999611560396
 30
0.0
 11
-128.7053782145251
 21
4.500015348764787
 31
0.0
  0
LINE
  5
1C2B
330
1F
100
AcDbEntity
  8
AM_0
 48
0.5
100
AcDbLine
 10
-74.00000000000011
 20
-4.500000388439733
 30
0.0
 11
-128.7053782145251
 21
-4.500018986667214
 31
0.0
  0
LINE
  5
1C2C
330
1F
100
AcDbEntity
  8
AM_0
 48
0.5
100
AcDbLine
 10
-73.99996185303348
 20
4.501278224893514
 30
0.0
 11
-128.7053782145251
 21
4.500015348764787
 31
0.0
  0
LINE
  5
1C2D
330
1F
100
AcDbEntity
  8
AM_0
 48
0.5
100
AcDbLine
 10
-74.00000000000011
 20
4.501278224012891
 30
0.0
 11
-128.7053782145251
 21
4.500015348764787
 31
0.0
  0
LINE
  5
1EDD
330
1F
100
AcDbEntity
  8
AM_0
100
AcDbLine
 10
-74.00000000000011
 20
-4.500000389320357
 30
0.0
 11
-74.00000000000011
 21
4.501278224012891
 31
0.0
  0
LINE
  5
1EDF
330
1F
100
AcDbEntity
  8
AM_0
100
AcDbLine
 10
-74.00000000000011
 20
-4.500000388439733
 30
0.0
 11
-73.86192996880776
 21
-4.420285618763813
 31
0.0
  0
DIMENSION
  5
1EEB
330
1F
100
AcDbEntity
  8
AM_5
100
AcDbDimension
  2
*D8
 10
-138.4999755686909
 20
4.499981016489549
 30
0.0
 11
-140.1999755686909
 21
-0.0000132630429761
 31
0.0
 70
    32
  1
%%c<>
 51
359.9999999999998
  3
AM_JIS$0
100
AcDbAlignedDimension
 13
-128.7053273518917
 23
-4.50000754257546
 33
0.0
 14
-128.7053273518917
 24
4.499981016489545
 34
0.0
 50
270.0000000000002
100
AcDbRotatedDimension
1001
ACAD
1000
DSTYLE
1002
{
1070
   271
1070
     0
1002
}
1001
GENIUS_GENDTOL_13
1000

1000
h7
1000

1040
0.0
  0
LINE
  5
1FEC
330
1F
100
AcDbEntity
  8
AM_0
100
AcDbLine
 10
-74.00000000000011
 20
4.501278224012891
 30
0.0
 11
-73.86189182184086
 21
4.421541430175336
 31
0.0
  0
ELLIPSE
  5
20DE
330
1F
100
AcDbEntity
  8
AM_11
 48
0.5
100
AcDbEllipse
 10
-80.73224894186003
 20
19.65550548241487
 30
0.0
 11
-24.41816012064585
 21
0.0000000000000557
 31
0.0
210
0.0
220
0.0
230
1.0
 40
0.8899999999999989
 41
1.130070686340305
 42
2.011520147323596
  0
ELLIPSE
  5
20DF
330
1F
100
AcDbEntity
  8
AM_11
 48
0.5
100
AcDbEllipse
 10
-80.7322489418602
 20
-19.65549298916291
 30
0.0
 11
-24.41816012064583
 21
0.0000000000000828
 31
0.0
210
0.0
220
0.0
230
1.0
 40
0.89
 41
4.271664206181686
 42
5.153113667164993
  0
ELLIPSE
  5
20E0
330
1F
100
AcDbEntity
  8
AM_11
 48
0.5
100
AcDbEllipse
 10
-101.565582275193
 20
19.65550548241482
 30
0.0
 11
-24.41816012064585
 21
0.0000000000000557
 31
0.0
210
0.0
220
0.0
230
1.0
 40
0.8899999999999989
 41
1.130070686340305
 42
2.011520147323596
  0
ELLIPSE
  5
20E1
330
1F
100
AcDbEntity
  8
AM_11
 48
0.5
100
AcDbEllipse
 10
-101.5655822751932
 20
-19.65549298916297
 30
0.0
 11
-24.41816012064583
 21
0.0000000000000828
 31
0.0
210
0.0
220
0.0
230
1.0
 40
0.89
 41
4.271664206181686
 42
5.153113667164993
  0
ELLIPSE
  5
20E2
330
1F
100
AcDbEntity
  8
AM_11
 48
0.5
100
AcDbEllipse
 10
-122.3989571479905
 20
19.65552291997047
 30
0.0
 11
-24.41816012064585
 21
0.0000000000000557
 31
0.0
210
0.0
220
0.0
230
1.0
 40
0.8899999999999989
 41
1.297057077869658
 42
2.011520147323596
  0
ELLIPSE
  5
20E3
330
1F
100
AcDbEntity
  8
AM_11
 48
0.5
100
AcDbEllipse
 10
-122.3989571479907
 20
-19.65547555160731
 30
0.0
 11
-24.41816012064583
 21
0.0000000000000828
 31
0.0
210
0.0
220
0.0
230
1.0
 40
0.89
 41
4.271664206181686
 42
4.986128229309925
  0
LINE
  5
22A9
330
1F
100
AcDbEntity
  8
AM_11
 48
0.5
100
AcDbLine
 10
-73.82153654872927
 20
4.301086179791833
 30
0.0
 11
-66.24120923107536
 21
4.300475876275955
 31
0.0
  0
LINE
  5
22AA
330
1F
100
AcDbEntity
  8
AM_11
100
AcDbLine
 10
-73.68277126342281
 20
-4.299389211929685
 30
0.0
 11
-59.82341580391169
 21
-4.299389211929659
 31
0.0
  0
LINE
  5
22BD
330
1F
100
AcDbEntity
  8
AM_0
 48
0.5
100
AcDbLine
 10
-4.698300679530871
 20
4.299999895029775
 30
0.0
 11
-1.999961853033357
 21
4.299999895029748
 31
0.0
  0
LINE
  5
22BE
330
1F
100
AcDbEntity
  8
AM_0
 48
0.5
100
AcDbLine
 10
-4.698300679530961
 20
-4.300000104970226
 30
0.0
 11
-1.999961853033447
 21
-4.30000010497025
 31
0.0
  0
LINE
  5
22BF
330
1F
100
AcDbEntity
  8
AM_0
 48
0.5
100
AcDbLine
 10
-34.69787979242303
 20
-4.30000010497003
 30
0.0
 11
-20.57240041097594
 21
-4.300000104970078
 31
0.0
  0
LINE
  5
22C0
330
1F
100
AcDbEntity
  8
AM_11
 48
0.5
100
AcDbLine
 10
-15.70184072298699
 20
4.299999895029876
 30
0.0
 11
-4.698300679530871
 21
4.299999895029775
 31
0.0
  0
LINE
  5
22C1
330
1F
100
AcDbEntity
  8
AM_11
 48
0.5
100
AcDbLine
 10
-20.57240041097594
 20
-4.300000104970078
 30
0.0
 11
-4.698300679530961
 21
-4.300000104970226
 31
0.0
  0
LINE
  5
22C2
330
1F
100
AcDbEntity
  8
AM_11
 48
0.5
100
AcDbLine
 10
-48.51436565967862
 20
4.300610788067094
 30
0.0
 11
-38.38412379925382
 21
4.299999895030091
 31
0.0
  0
LINE
  5
22C3
330
1F
100
AcDbEntity
  8
AM_0
 48
0.5
100
AcDbLine
 10
-60.57858911337737
 20
-4.299389211932877
 30
0.0
 11
-48.51436565967869
 21
-4.299389211932903
 31
0.0
  0
LINE
  5
22C4
330
1F
100
AcDbEntity
  8
AM_0
 48
0.5
100
AcDbLine
 10
-66.32610272022528
 20
4.300610788067259
 30
0.0
 11
-48.51436565967862
 21
4.300610788067094
 31
0.0
  0
LINE
  5
22C5
330
1F
100
AcDbEntity
  8
AM_11
 48
0.5
100
AcDbLine
 10
-48.51436565967862
 20
-4.300000104969897
 30
0.0
 11
-34.69787979242304
 21
-4.300610998006927
 31
0.0
  0
LINE
  5
22C6
330
1F
100
AcDbEntity
  8
AM_0
 48
0.5
100
AcDbLine
 10
-38.38413747152255
 20
4.299999895030091
 30
0.0
 11
-15.70184072298699
 21
4.299999895029876
 31
0.0
  0
SPLINE
  5
22C8
330
1F
100
AcDbEntity
  8
AM_0
100
AcDbSpline
210
0.0
220
0.0
230
1.0
 70
     8
 71
     3
 72
    20
 73
    16
 74
     0
 42
0.0000000001
 43
0.0000000001
 40
0.0
 40
0.0
 40
0.0
 40
0.0
 40
1.010743684496582
 40
2.022833576467832
 40
3.037578957496688
 40
4.056212745003489
 40
5.079857003664532
 40
6.109500240690281
 40
7.145961322679372
 40
8.189895241603872
 40
9.241717795325891
 40
10.30168407291828
 40
11.36983447792315
 40
12.44600489715814
 40
13.01371853178965
 40
13.01371853178965
 40
13.01371853178965
 40
13.01371853178965
 10
-60.57858911337737
 20
-4.299389211932877
 30
0.0
 10
-60.85936678688074
 20
-4.29683081610674
 30
0.0
 10
-61.42129610110449
 20
-4.291710616932244
 30
0.0
 10
-62.26398557565183
 20
-4.250436063440756
 30
0.0
 10
-63.10663907896282
 20
-4.184820305505574
 30
0.0
 10
-63.94924043029488
 20
-4.092857325204243
 30
0.0
 10
-64.79178122181297
 20
-3.975793397236689
 30
0.0
 10
-65.63424483207097
 20
-3.834149086235176
 30
0.0
 10
-66.47663407907235
 20
-3.668878558764919
 30
0.0
 10
-67.3189414925269
 20
-3.480993852460268
 30
0.0
 10
-68.16116133478605
 20
-3.271648568020102
 30
0.0
 10
-69.00329780385011
 20
-3.042156744154554
 30
0.0
 10
-69.8453531551285
 20
-2.793922886558605
 30
0.0
 10
-70.55271972471172
 20
-2.570929877982104
 30
0.0
 10
-70.979169429102
 20
-2.430495952123265
 30
0.0
 10
-71.12617994223803
 20
-2.381413455414042
 30
0.0
  0
SPLINE
  5
22C9
330
1F
100
AcDbEntity
  8
AM_0
100
AcDbSpline
210
0.0
220
0.0
230
1.0
 70
     8
 71
     3
 72
    46
 73
    42
 74
     0
 42
0.0000000001
 43
0.0000000001
 40
0.0
 40
0.0
 40
0.0
 40
0.0
 40
1.685415058684573
 40
2.531036209541122
 40
3.379897699130124
 40
4.232934581347659
 40
5.09097061220244
 40
5.954688180526682
 40
6.824620803463244
 40
7.701151815239691
 40
8.584457046566678
 40
9.474582384070743
 40
10.37139106676737
 40
11.27458944007584
 40
12.18373345430765
 40
13.09824173870457
 40
14.01741343450111
 40
14.9404441545541
 40
15.86644439743314
 40
16.79446029130534
 40
17.7234937712985
 40
18.65252725129241
 40
19.58054314516461
 40
20.5065433880429
 40
21.42957410809587
 40
22.34874580389318
 40
23.26325408828902
 40
24.17239810252112
 40
25.07560240389442
 40
25.97241108659103
 40
26.8625364240951
 40
27.74584165542184
 40
28.62236045019042
 40
29.49229307312698
 40
30.35601064145123
 40
31.2140460633447
 40
32.06708345193549
 40
32.9159575565769
 40
33.76157841950695
 40
34.60498701064691
 40
35.44727335621126
 40
35.44727335621126
 40
35.44727335621126
 40
35.44727335621126
 10
-30.28130800180121
 20
-4.299389211933078
 30
0.0
 10
-30.84326477099573
 20
-4.289593479539142
 30
0.0
 10
-31.68717139429254
 20
-4.274882946806997
 30
0.0
 10
-32.80935083257027
 20
-4.184312899243846
 30
0.0
 10
-33.65196123677963
 20
-4.092994198599545
 30
0.0
 10
-34.49449961785811
 20
-3.975756498904008
 30
0.0
 10
-35.33696375627116
 20
-3.834158752314635
 30
0.0
 10
-36.17934932411527
 20
-3.668877916690171
 30
0.0
 10
-37.02165491052119
 20
-3.480990691755051
 30
0.0
 10
-37.86387676693155
 20
-3.271650732883658
 30
0.0
 10
-38.70601657674583
 20
-3.042156444133269
 30
0.0
 10
-39.54807207486404
 20
-2.793922967870476
 30
0.0
 10
-40.39005678935823
 20
-2.528492292003063
 30
0.0
 10
-41.23197481244246
 20
-2.247496160431398
 30
0.0
 10
-42.07383388633815
 20
-1.952667336640904
 30
0.0
 10
-42.91564336631444
 20
-1.645824727005199
 30
0.0
 10
-43.75741063003235
 20
-1.328855245474151
 30
0.0
 10
-44.59914387001111
 20
-1.003708421212038
 30
0.0
 10
-45.44085201102266
 20
-0.6723853423993193
 30
0.0
 10
-46.28254274212581
 20
-0.3369234130709993
 30
0.0
 10
-47.12422639782807
 20
0.0006107879987862
 30
0.0
 10
-47.9659100533454
 20
0.3381449894787378
 30
0.0
 10
-48.80760078500319
 20
0.6736069175771455
 30
0.0
 10
-49.64930892398749
 20
1.004930000884658
 30
0.0
 10
-50.4910421714834
 20
1.330076808477204
 30
0.0
 10
-51.33280940732838
 20
1.64704635181733
 30
0.0
 10
-52.17461899052763
 20
1.953888732552261
 30
0.0
 10
-53.01647951276883
 20
2.248719043994132
 30
0.0
 10
-53.85840080714033
 20
2.529712622573501
 30
0.0
 10
-54.70038702360621
 20
2.795144659478519
 30
0.0
 10
-55.54244250211897
 20
3.043378209603981
 30
0.0
 10
-56.3845788525186
 20
3.272870389497979
 30
0.0
 10
-57.22679509737791
 20
3.482213586681206
 30
0.0
 10
-58.06909724554891
 20
3.670101579156202
 30
0.0
 10
-58.91148232586453
 20
3.835371601240688
 30
0.0
 10
-59.75394708192069
 20
3.977010416756388
 30
0.0
 10
-60.59649084014417
 20
4.094080699513453
 30
0.0
 10
-61.43909690259571
 20
4.18604226679839
 30
0.0
 10
-62.28175509667431
 20
4.251652002716875
 30
0.0
 10
-63.12444387861852
 20
4.292937694187609
 30
0.0
 10
-63.6863734281724
 20
4.298054225545048
 30
0.0
 10
-63.96715115162198
 20
4.300610788067238
 30
0.0
  0
SPLINE
  5
22CA
330
1F
100
AcDbEntity
  8
AM_0
100
AcDbSpline
210
0.0
220
0.0
230
1.0
 70
     8
 71
     3
 72
    17
 73
    13
 74
     0
 42
0.0000000001
 43
0.0000000001
 40
1.580019955310467
 40
1.580019955310467
 40
1.580019955310467
 40
1.580019955310467
 40
2.030549285115227
 40
3.082371838836284
 40
4.126290986361125
 40
5.162752068350215
 40
6.192395305374981
 40
7.216039564037012
 40
8.234688489606833
 40
9.249433870634691
 40
10.26152376260694
 40
11.27226744710342
 40
11.27226744710342
 40
11.27226744710342
 40
11.27226744710352
 10
-40.57669655008175
 20
-3.172915832271529
 30
0.0
 10
-40.69592304496425
 20
-3.205600520092188
 30
0.0
 10
-41.09417959346682
 20
-3.31272895008849
 30
0.0
 10
-41.77410228525162
 20
-3.480763725659428
 30
0.0
 10
-42.61628712304041
 20
-3.668940382961088
 30
0.0
 10
-43.45870381352654
 20
-3.834134503547561
 30
0.0
 10
-44.30115910325135
 20
-3.975791328434011
 30
0.0
 10
-45.14370617697012
 20
-4.092880439035203
 30
0.0
 10
-45.9863114598485
 20
-4.184733659426092
 30
0.0
 10
-46.82896921007678
 20
-4.25075575000408
 30
0.0
 10
-47.6716586667502
 20
-4.290521718904847
 30
0.0
 10
-48.23358798987954
 20
-4.299389236537735
 30
0.0
 10
-48.51436565967862
 20
-4.299389211932904
 30
0.0
  0
SPLINE
  5
22CB
330
1F
100
AcDbEntity
  8
AM_0
100
AcDbSpline
210
0.0
220
0.0
230
1.0
 70
     8
 71
     3
 72
    22
 73
    18
 74
     0
 42
0.0000000001
 43
0.0000000001
 40
17.17441611292
 40
17.17441611292
 40
17.17441611292
 40
17.17441611292
 40
17.38177636558528
 40
18.41823744757437
 40
19.46215659509824
 40
20.51397914882054
 40
21.57394542641293
 40
22.64209583141747
 40
23.71826625065247
 40
24.80210429862395
 40
25.8930771157021
 40
26.99048705697709
 40
28.09349309193389
 40
29.20112995599786
 40
30.31233024745139
 40
31.42594771747373
 40
32.5407895042663
 40
32.54078950426994
 40
32.54078950426994
 40
32.54078950426994
 10
-51.7307247042406
 20
-3.860820333823828
 30
0.0
 10
-51.78715239159275
 20
-3.850866255575438
 30
0.0
 10
-52.12540556031402
 20
-3.790234876956923
 30
0.0
 10
-52.74506630492123
 20
-3.668661071477177
 30
0.0
 10
-53.58736838923299
 20
-3.480773364550318
 30
0.0
 10
-54.42958464473043
 20
-3.271430075197637
 30
0.0
 10
-55.27172101741314
 20
-3.041937976138585
 30
0.0
 10
-56.11377639487749
 20
-2.793704193248724
 30
0.0
 10
-56.95576114184881
 20
-2.52827360006647
 30
0.0
 10
-57.79767915695309
 20
-2.247277447615044
 30
0.0
 10
-58.63953822993402
 20
-1.952448623769799
 30
0.0
 10
-59.48134772173075
 20
-1.645606035626172
 30
0.0
 10
-60.32311493874178
 20
-1.32863646753781
 30
0.0
 10
-61.16484835471507
 20
-1.00348996984901
 30
0.0
 10
-62.00655543088476
 20
-0.67216582547589
 30
0.0
 10
-62.84824863640913
 20
-0.3367084834725805
 30
0.0
 10
-63.40926729722768
 20
-0.1117243599546094
 30
0.0
 10
-63.68993074350218
 20
0.0008294973776813
 30
0.0
  0
SPLINE
  5
22CC
330
1F
100
AcDbEntity
  8
AM_0
100
AcDbSpline
210
0.0
220
0.0
230
1.0
 70
     8
 71
     3
 72
    11
 73
     7
 74
     0
 42
0.0000000001
 43
0.0000000001
 40
11.27226913003534
 40
11.27226913003534
 40
11.27226913003534
 40
11.2722691300354
 40
12.28301561507924
 40
13.29510212255852
 40
14.30984805882082
 40
15.18258238371378
 40
15.18258238371378
 40
15.18258238371378
 40
15.18258238371378
 10
-48.51436565967866
 20
-4.299389211932904
 30
0.0
 10
-48.79407567454727
 20
-4.278343762361065
 30
0.0
 10
-49.35296811800768
 20
-4.227393644883
 30
0.0
 10
-50.18842076681281
 20
-4.124614655448064
 30
0.0
 10
-50.98128006185302
 20
-4.001856421844714
 30
0.0
 10
-51.49405491397811
 20
-3.90748851415442
 30
0.0
 10
-51.73035616708791
 20
-3.860873374290947
 30
0.0
  0
SPLINE
  5
22CD
330
1F
100
AcDbEntity
  8
AM_0
100
AcDbSpline
210
0.0
220
0.0
230
1.0
 70
     8
 71
     3
 72
    23
 73
    19
 74
     0
 42
0.0000000001
 43
0.0000000001
 40
16.03460024169435
 40
16.03460024169435
 40
16.03460024169435
 40
16.03460024169435
 40
16.35212704903564
 40
17.38177054169784
 40
18.41822485651776
 40
19.46214173629503
 40
20.51396345435107
 40
21.57393551351153
 40
22.64208202342361
 40
23.7182574881101
 40
24.80209208578934
 40
25.89306333925047
 40
26.99048218457928
 40
28.09348763352352
 40
29.20111863782268
 40
30.31232390128032
 40
31.42594612798585
 40
32.5407912310448
 40
32.5407912310486
 40
32.5407912310486
 40
32.5407912310486
 10
-48.51436565967862
 20
4.300610788067094
 30
0.0
 10
-48.42778967241518
 20
4.286094745295437
 30
0.0
 10
-48.06084259553425
 20
4.222881464654575
 30
0.0
 10
-47.41446136785927
 20
4.099024688801653
 30
0.0
 10
-46.57739598589269
 20
3.914851017592861
 30
0.0
 10
-45.74110810962575
 20
3.708054683468393
 30
0.0
 10
-44.9055483221409
 20
3.479832518133034
 30
0.0
 10
-44.07068696794059
 20
3.231456865267747
 30
0.0
 10
-43.2364757940394
 20
2.964347544847591
 30
0.0
 10
-42.40285670914185
 20
2.680059066116834
 30
0.0
 10
-41.56978234401751
 20
2.380201338155463
 30
0.0
 10
-40.73718590807374
 20
2.066519163214065
 30
0.0
 10
-39.90499992868003
 20
1.740835797619267
 30
0.0
 10
-39.0731689596581
 20
1.40502378418802
 30
0.0
 10
-38.24162340272101
 20
1.061035823790845
 30
0.0
 10
-37.41028623913929
 20
0.7108805537472528
 30
0.0
 10
-36.57908977460031
 20
0.3565870290284434
 30
0.0
 10
-36.02510763762795
 20
0.1190525932741876
 30
0.0
 10
-35.74796549479568
 20
0.0002186043389667
 30
0.0
  0
SPLINE
  5
22CE
330
1F
100
AcDbEntity
  8
AM_0
 48
0.5
100
AcDbSpline
210
0.0
220
0.0
230
1.0
 70
     8
 71
     3
 72
    15
 73
    11
 74
     0
 42
0.0000000001
 43
0.0000000001
 40
0.0
 40
0.0
 40
0.0
 40
0.0
 40
1.010743614677189
 40
2.022833924044153
 40
3.037578959561199
 40
4.056212747067873
 40
5.079857613375832
 40
6.109500119648989
 40
7.14596120163808
 40
7.518613194161257
 40
7.518613194161257
 40
7.518613194161257
 40
7.518613194161257
 10
-4.698300679530871
 20
4.299999895029775
 30
0.0
 10
-4.979078404132425
 20
4.297443342908082
 30
0.0
 10
-5.541007955991514
 20
4.292326832365533
 30
0.0
 10
-6.383696720611683
 20
4.251040984487265
 30
0.0
 10
-7.226350792224558
 20
4.185432171471385
 30
0.0
 10
-8.06895245792541
 20
4.093469010687858
 30
0.0
 10
-8.911491682572522
 20
3.976398733685403
 30
0.0
 10
-9.753958175382139
 20
3.834764120165947
 30
0.0
 10
-10.41451770408933
 20
3.705153115989745
 30
0.0
 10
-10.79434275121721
 20
3.623754840325843
 30
0.0
 10
-10.89465881720947
 20
3.601783298550421
 30
0.0
  0
SPLINE
  5
22D1
330
1F
100
AcDbEntity
  8
AM_0
100
AcDbSpline
210
0.0
220
0.0
230
1.0
 70
     8
 71
     3
 72
    46
 73
    42
 74
     0
 42
0.0000000001
 43
0.0000000001
 40
0.0
 40
0.0
 40
0.0
 40
0.0
 40
1.685415058684571
 40
2.531036209541119
 40
3.379897699130121
 40
4.232934581347656
 40
5.090970612202441
 40
5.954688180526683
 40
6.824620803463245
 40
7.70115181523969
 40
8.584457046566678
 40
9.474582384070743
 40
10.37139106676737
 40
11.27458944007584
 40
12.18373345430765
 40
13.09824173870457
 40
14.01741343450111
 40
14.9404441545541
 40
15.86644439743314
 40
16.79446029130534
 40
17.7234937712985
 40
18.65252725129241
 40
19.58054314516461
 40
20.5065433880429
 40
21.42957410809586
 40
22.34874580389318
 40
23.26325408828901
 40
24.17239810252112
 40
25.07560240389442
 40
25.97241108659103
 40
26.8625364240951
 40
27.74584165542183
 40
28.62236045019041
 40
29.49229307312697
 40
30.35601064145122
 40
31.21404606334469
 40
32.06708345193548
 40
32.9159575565769
 40
33.76157841950694
 40
34.6049870106469
 40
35.44727335621125
 40
35.44727335621125
 40
35.44727335621125
 40
35.44727335621125
 10
-2.339342753098456
 20
-4.300000104970246
 30
0.0
 10
-2.901299522292978
 20
-4.290204372576309
 30
0.0
 10
-3.745206145589776
 20
-4.275493839844163
 30
0.0
 10
-4.867385583867528
 20
-4.184923792281019
 30
0.0
 10
-5.709995988076872
 20
-4.093605091636713
 30
0.0
 10
-6.55253436915536
 20
-3.976367391941177
 30
0.0
 10
-7.394998507568412
 20
-3.834769645351803
 30
0.0
 10
-8.237384075412522
 20
-3.66948880972734
 30
0.0
 10
-9.079689661818441
 20
-3.481601584792221
 30
0.0
 10
-9.921911518228792
 20
-3.272261625920828
 30
0.0
 10
-10.76405132804308
 20
-3.042767337170439
 30
0.0
 10
-11.60610682616127
 20
-2.794533860907644
 30
0.0
 10
-12.44809154065546
 20
-2.529103185040233
 30
0.0
 10
-13.29000956373969
 20
-2.248107053468567
 30
0.0
 10
-14.13186863763538
 20
-1.953278229678075
 30
0.0
 10
-14.9736781176117
 20
-1.646435620042366
 30
0.0
 10
-15.8154453813296
 20
-1.329466138511323
 30
0.0
 10
-16.65717862130837
 20
-1.004319314249205
 30
0.0
 10
-17.49888676231989
 20
-0.6729962354364904
 30
0.0
 10
-18.34057749342305
 20
-0.3375343061081684
 30
0.0
 10
-19.1822611491253
 20
-0.0000001050383852
 30
0.0
 10
-20.02394480464263
 20
0.3375340964415696
 30
0.0
 10
-20.86563553630043
 20
0.6729960245399762
 30
0.0
 10
-21.70734367528468
 20
1.004319107847489
 30
0.0
 10
-22.54907692278063
 20
1.329465915440035
 30
0.0
 10
-23.39084415862557
 20
1.64643545878016
 30
0.0
 10
-24.23265374182488
 20
1.953277839515092
 30
0.0
 10
-25.07451426406609
 20
2.248108150956963
 30
0.0
 10
-25.91643555843759
 20
2.52910172953633
 30
0.0
 10
-26.75842177490347
 20
2.794533766441349
 30
0.0
 10
-27.60047725341621
 20
3.042767316566812
 30
0.0
 10
-28.44261360381585
 20
3.272259496460809
 30
0.0
 10
-29.28482984867514
 20
3.481602693644036
 30
0.0
 10
-30.12713199684617
 20
3.669490686119031
 30
0.0
 10
-30.96951707716174
 20
3.834760708203517
 30
0.0
 10
-31.81198183321795
 20
3.976399523719216
 30
0.0
 10
-32.6545255914414
 20
4.093469806476282
 30
0.0
 10
-33.49713165389295
 20
4.185431373761222
 30
0.0
 10
-34.33978984797153
 20
4.251041109679706
 30
0.0
 10
-35.18247862991575
 20
4.292326801150441
 30
0.0
 10
-35.74440817946963
 20
4.297443332507879
 30
0.0
 10
-36.02518590291922
 20
4.29999989503007
 30
0.0
  0
SPLINE
  5
22D2
330
1F
100
AcDbEntity
  8
AM_0
100
AcDbSpline
210
0.0
220
0.0
230
1.0
 70
     8
 71
     3
 72
    55
 73
    51
 74
     0
 42
0.0000000001
 43
0.0000000001
 40
0.0
 40
0.0
 40
0.0
 40
0.0
 40
1.010743684496582
 40
2.022833576467832
 40
3.037578957496688
 40
4.056212745003489
 40
5.079857003664532
 40
6.109500240690281
 40
7.145961322679372
 40
8.189895241603872
 40
9.241717795325891
 40
10.30168407291828
 40
11.36983447792315
 40
12.44600489715814
 40
13.52984294512926
 40
14.62081576220742
 40
15.7182257034828
 40
16.82123173843959
 40
17.92886860250316
 40
19.0400688939571
 40
20.15368796660465
 40
21.26852814259644
 40
22.38336992938901
 40
23.49698739941135
 40
24.6081876908653
 40
25.71582455492886
 40
26.81883757994213
 40
27.91624752121713
 40
29.00722033829659
 40
30.09105838626677
 40
31.16722880550176
 40
32.23537921050758
 40
33.29534548809967
 40
34.347168041821
 40
35.39108718934584
 40
36.42754827133493
 40
37.45720575381954
 40
38.48085062012849
 40
39.49948440763516
 40
40.51422944315121
 40
41.52631975251916
 40
42.53706336719636
 40
43.54780698187354
 40
44.55989729124051
 40
45.57464232675757
 40
46.59327611426424
 40
47.6169209805722
 40
48.64656348684535
 40
49.68302456883444
 40
50.58557219878025
 40
50.58557219878025
 40
50.58557219878025
 40
50.58557219878025
 10
-4.698300679530961
 20
-4.300000104970226
 30
0.0
 10
-4.979078353034334
 20
-4.297441709144089
 30
0.0
 10
-5.541007667258088
 20
-4.292321509969592
 30
0.0
 10
-6.383697141805423
 20
-4.251046956478103
 30
0.0
 10
-7.226350645116413
 20
-4.185431198542923
 30
0.0
 10
-8.068951996448475
 20
-4.093468218241591
 30
0.0
 10
-8.911492787966523
 20
-3.97640429027404
 30
0.0
 10
-9.753956398224518
 20
-3.834759979272526
 30
0.0
 10
-10.59634564522589
 20
-3.669489451802269
 30
0.0
 10
-11.43865305868047
 20
-3.481604745497618
 30
0.0
 10
-12.28087290093965
 20
-3.27225946105745
 30
0.0
 10
-13.12300937000372
 20
-3.042767637191902
 30
0.0
 10
-13.96506472128211
 20
-2.794533779595956
 30
0.0
 10
-14.80704947558193
 20
-2.52910320708884
 30
0.0
 10
-15.64896748782304
 20
-2.248107047408797
 30
0.0
 10
-16.49082656489047
 20
-1.953278231663629
 30
0.0
 10
-17.33263604311532
 20
-1.646435618200554
 30
0.0
 10
-18.17440331066702
 20
-1.329466143914462
 30
0.0
 10
-19.01613653699279
 20
-1.004319294376379
 30
0.0
 10
-19.85784472899585
 20
-0.6729963098158393
 30
0.0
 10
-20.6995352692583
 20
-0.3375340277801036
 30
0.0
 10
-21.5412200437543
 20
-0.0000009823262675
 30
0.0
 10
-22.38290103978991
 20
0.3375381389327397
 30
0.0
 10
-23.22459440121559
 20
0.6729951969334266
 30
0.0
 10
-24.0663015541186
 20
1.004319184389779
 30
0.0
 10
-24.9080362812454
 20
1.329467272592433
 30
0.0
 10
-25.74980704085151
 20
1.646434041805372
 30
0.0
 10
-26.59161784767412
 20
1.953278211387432
 30
0.0
 10
-27.43347704627801
 20
2.248106788056826
 30
0.0
 10
-28.27539502788441
 20
2.529103006829305
 30
0.0
 10
-29.11737978434021
 20
2.794533579724693
 30
0.0
 10
-29.95943515706642
 20
3.042767377964182
 30
0.0
 10
-30.80157153921282
 20
3.272259436161995
 30
0.0
 10
-31.6437877619205
 20
3.481602872085984
 30
0.0
 10
-32.48608996667661
 20
3.669490039211527
 30
0.0
 10
-33.32847890119529
 20
3.834763890064175
 30
0.0
 10
-34.17094852692583
 20
3.97639202331914
 30
0.0
 10
-35.01349210196056
 20
4.09349218504709
 30
0.0
 10
-35.85609370307736
 20
4.185346155105177
 30
0.0
 10
-36.69874779188961
 20
4.251360373635579
 30
0.0
 10
-37.54143655193669
 20
4.291138820128698
 30
0.0
 10
-38.38414382955824
 20
4.304427482870998
 30
0.0
 10
-39.22685110593984
 20
4.291138820107877
 30
0.0
 10
-40.06953986971391
 20
4.251360373719187
 30
0.0
 10
-40.91219394480442
 20
4.185346154790202
 30
0.0
 10
-41.75479559736738
 20
4.093492186230829
 30
0.0
 10
-42.59733487143598
 20
3.976392589750293
 30
0.0
 10
-43.43980117815684
 20
3.834765338135347
 30
0.0
 10
-44.24388851595206
 20
3.676992425685162
 30
0.0
 10
-44.7655895379205
 20
3.561611603276734
 30
0.0
 10
-45.0076284051791
 20
3.505380899901629
 30
0.0
  0
SPLINE
  5
22D3
330
1F
100
AcDbEntity
  8
AM_0
100
AcDbSpline
210
0.0
220
0.0
230
1.0
 70
     8
 71
     3
 72
    11
 73
     7
 74
     0
 42
0.0000000001
 43
0.0000000001
 40
11.27226913003534
 40
11.27226913003534
 40
11.27226913003534
 40
11.2722691300354
 40
12.28301561507924
 40
13.29510212255852
 40
14.30984805882082
 40
15.18258238371378
 40
15.18258238371378
 40
15.18258238371378
 40
15.18258238371378
 10
-20.57240041097591
 20
-4.300000104970078
 30
0.0
 10
-20.8521104258445
 20
-4.278954655398234
 30
0.0
 10
-21.41100286930491
 20
-4.228004537920169
 30
0.0
 10
-22.24645551811004
 20
-4.125225548485232
 30
0.0
 10
-23.03931481315026
 20
-4.002467314881883
 30
0.0
 10
-23.55208966527535
 20
-3.90809940719159
 30
0.0
 10
-23.78839091838514
 20
-3.861484267328117
 30
0.0
  0
SPLINE
  5
22D4
330
1F
100
AcDbEntity
  8
AM_0
100
AcDbSpline
210
0.0
220
0.0
230
1.0
 70
     8
 71
     3
 72
    22
 73
    18
 74
     0
 42
0.0000000001
 43
0.0000000001
 40
17.17441611292
 40
17.17441611292
 40
17.17441611292
 40
17.17441611292
 40
17.38177636558528
 40
18.41823744757437
 40
19.46215659509824
 40
20.51397914882054
 40
21.57394542641293
 40
22.64209583141747
 40
23.71826625065247
 40
24.80210429862395
 40
25.8930771157021
 40
26.99048705697709
 40
28.09349309193389
 40
29.20112995599786
 40
30.31233024745139
 40
31.42594771747373
 40
32.5407895042663
 40
32.54078950426994
 40
32.54078950426994
 40
32.54078950426994
 10
-23.78875945553783
 20
-3.861431226860998
 30
0.0
 10
-23.84518714288998
 20
-3.851477148612608
 30
0.0
 10
-24.18344031161126
 20
-3.790845769994093
 30
0.0
 10
-24.80310105621846
 20
-3.669271964514346
 30
0.0
 10
-25.64540314053022
 20
-3.481384257587489
 30
0.0
 10
-26.48761939602767
 20
-3.272040968234807
 30
0.0
 10
-27.32975576871037
 20
-3.042548869175754
 30
0.0
 10
-28.17181114617474
 20
-2.794315086285893
 30
0.0
 10
-29.01379589314602
 20
-2.528884493103642
 30
0.0
 10
-29.8557139082503
 20
-2.247888340652212
 30
0.0
 10
-30.69757298123125
 20
-1.953059516806968
 30
0.0
 10
-31.539382473028
 20
-1.646216928663343
 30
0.0
 10
-32.38114969003901
 20
-1.329247360574979
 30
0.0
 10
-33.22288310601232
 20
-1.00410086288618
 30
0.0
 10
-34.06459018218199
 20
-0.6727767185130596
 30
0.0
 10
-34.90628338770637
 20
-0.3373193765097501
 30
0.0
 10
-35.46730204852492
 20
-0.112335252991779
 30
0.0
 10
-35.74796549479941
 20
0.0002186043405116
 30
0.0
  0
SPLINE
  5
22D5
330
1F
100
AcDbEntity
  8
AM_0
100
AcDbSpline
210
0.0
220
0.0
230
1.0
 70
     8
 71
     3
 72
    17
 73
    13
 74
     0
 42
0.0000000001
 43
0.0000000001
 40
1.580019955310467
 40
1.580019955310467
 40
1.580019955310467
 40
1.580019955310467
 40
2.030549285115227
 40
3.082371838836284
 40
4.126290986361125
 40
5.162752068350215
 40
6.192395305374981
 40
7.216039564037012
 40
8.234688489606833
 40
9.249433870634691
 40
10.26152376260694
 40
11.27226744710342
 40
11.27226744710342
 40
11.27226744710342
 40
11.27226744710352
 10
-12.63473130137898
 20
-3.173526725308701
 30
0.0
 10
-12.75395779626149
 20
-3.206211413129357
 30
0.0
 10
-13.15221434476406
 20
-3.31333984312566
 30
0.0
 10
-13.83213703654886
 20
-3.481374618696598
 30
0.0
 10
-14.67432187433765
 20
-3.669551275998259
 30
0.0
 10
-15.51673856482379
 20
-3.834745396584731
 30
0.0
 10
-16.3591938545486
 20
-3.97640222147118
 30
0.0
 10
-17.20174092826736
 20
-4.093491332072372
 30
0.0
 10
-18.04434621114574
 20
-4.18534455246326
 30
0.0
 10
-18.88700396137402
 20
-4.251366643041249
 30
0.0
 10
-19.72969341804745
 20
-4.291132611942019
 30
0.0
 10
-20.29162274117679
 20
-4.300000129574905
 30
0.0
 10
-20.57240041097587
 20
-4.300000104970078
 30
0.0
  0
ELLIPSE
  5
22D6
330
1F
100
AcDbEntity
  8
AM_11
 48
0.5
100
AcDbEllipse
 10
-39.06558227539682
 20
-18.99294797375213
 30
0.0
 11
-24.41816012064582
 21
0.000000000000213
 31
0.0
210
0.0
220
0.0
230
1.0
 40
0.8599999999999992
 41
4.271664206181686
 42
5.153113667164991
  0
ELLIPSE
  5
22D7
330
1F
100
AcDbEntity
  8
AM_11
 48
0.5
100
AcDbEllipse
 10
-39.06558227539644
 20
18.99296066170506
 30
0.0
 11
-24.41816012064585
 21
0.0000000000001208
 31
0.0
210
0.0
220
0.0
230
1.0
 40
0.8599999999999987
 41
1.130070686340301
 42
2.011520147323591
  0
ELLIPSE
  5
22D8
330
1F
100
AcDbEntity
  8
AM_11
 48
0.5
100
AcDbEllipse
 10
-18.23224894206309
 20
18.99296066170485
 30
0.0
 11
-24.41816012064585
 21
0.0000000000002184
 31
0.0
210
0.0
220
0.0
230
1.0
 40
0.8599999999999987
 41
1.130070686340306
 42
2.011520147323595
  0
ELLIPSE
  5
22D9
330
1F
100
AcDbEntity
  8
AM_11
 48
0.5
100
AcDbEllipse
 10
-18.23224894206349
 20
-18.99294797375234
 30
0.0
 11
-24.4181601206458
 21
0.0000000000001804
 31
0.0
210
0.0
220
0.0
230
1.0
 40
0.8599999999999996
 41
4.271664206181684
 42
5.153113667164991
  0
ELLIPSE
  5
22DA
330
1F
100
AcDbEntity
  8
AM_11
 48
0.5
100
AcDbEllipse
 10
2.601084391270257
 20
18.99296066170465
 30
0.0
 11
-24.41816012064641
 21
0.0000000000017745
 31
0.0
210
0.0
220
0.0
230
1.0
 40
0.8599999999999823
 41
1.130070686340371
 42
1.291800737381056
  0
ELLIPSE
  5
22DB
330
1F
100
AcDbEntity
  8
AM_11
 48
0.5
100
AcDbEllipse
 10
-59.89895714819398
 20
18.99297751147805
 30
0.0
 11
-24.41816012064585
 21
0.0000000000001587
 31
0.0
210
0.0
220
0.0
230
1.0
 40
0.8599999999999983
 41
1.130070686340303
 42
2.011520147323592
  0
ELLIPSE
  5
22DC
330
1F
100
AcDbEntity
  8
AM_11
 48
0.5
100
AcDbEllipse
 10
-59.89895714819437
 20
-18.99293112397913
 30
0.0
 11
-24.41816012064585
 21
0.0000000000002238
 31
0.0
210
0.0
220
0.0
230
1.0
 40
0.8599999999999981
 41
4.271664206181686
 42
5.153113667164993
  0
SPLINE
  5
22E5
330
1F
100
AcDbEntity
  8
AM_0
100
AcDbSpline
210
0.0
220
0.0
230
1.0
 70
     8
 71
     3
 72
    25
 73
    21
 74
     0
 42
0.0000000001
 43
0.0000000001
 40
1.604714676203542
 40
1.604714676203542
 40
1.604714676203542
 40
1.604714676203542
 40
1.685415058684573
 40
2.531036209541122
 40
3.379897699130124
 40
4.232934581347659
 40
5.09097061220244
 40
5.954688180526682
 40
6.824620803463244
 40
7.701151815239697
 40
8.58445704656667
 40
9.47458238407075
 40
10.37139106676736
 40
11.27458944007584
 40
12.18373345430765
 40
13.09824173870457
 40
14.01741343450111
 40
14.9404441545541
 40
15.86644439743314
 40
16.55140071192301
 40
16.55140071192301
 40
16.55140071192301
 40
16.55140071192301
 10
-59.82341580391169
 20
-4.299389211929659
 30
0.0
 10
-59.85025462711007
 20
-4.297880956090937
 30
0.0
 10
-60.15828520632457
 20
-4.279971587190705
 30
0.0
 10
-60.74767401771392
 20
-4.231862013265646
 30
0.0
 10
-61.59028442192329
 20
-4.139505600114023
 30
0.0
 10
-62.43282280300175
 20
-4.020935653831041
 30
0.0
 10
-63.27528694141482
 20
-3.877728841939518
 30
0.0
 10
-64.11767250925894
 20
-3.710569815001142
 30
0.0
 10
-64.95997809566485
 20
-3.520547507964487
 30
0.0
 10
-65.80219995207518
 20
-3.308828685924108
 30
0.0
 10
-66.64433976188949
 20
-3.07672650752882
 30
0.0
 10
-67.48639526000765
 20
-2.825672196308508
 30
0.0
 10
-68.32837997450184
 20
-2.557225262760775
 30
0.0
 10
-69.17029799758608
 20
-2.273035993330353
 30
0.0
 10
-70.01215707148178
 20
-1.974856841996777
 30
0.0
 10
-70.8539665514581
 20
-1.664527384524309
 30
0.0
 10
-71.69573381517601
 20
-1.343955977066774
 30
0.0
 10
-72.53746705515476
 20
-1.015114302528956
 30
0.0
 10
-73.30550512962938
 20
-0.7093546013189892
 30
0.0
 10
-73.79285365547795
 20
-0.5132299611615387
 30
0.0
 10
-73.99996185303343
 20
-0.4296425330680649
 30
0.0
  0
SPLINE
  5
22E6
330
1F
100
AcDbEntity
  8
AM_0
100
AcDbSpline
210
0.0
220
0.0
230
1.0
 70
     8
 71
     3
 72
    15
 73
    11
 74
     0
 42
0.0000000001
 43
0.0000000001
 40
9.996018264272805
 40
9.996018264272805
 40
9.996018264272805
 40
9.996018264272805
 40
10.37139106676736
 40
11.27458944007584
 40
12.18373345430765
 40
13.09824173870457
 40
14.01741343450111
 40
14.9404441545541
 40
15.86644439743314
 40
16.55140071192301
 40
16.55140071192301
 40
16.55140071192301
 40
16.55140071192301
 10
-67.97364321641445
 20
1.810313338266841
 30
0.0
 10
-68.09106853167964
 20
1.772722422614487
 30
0.0
 10
-68.49042566853785
 20
1.643241703256164
 30
0.0
 10
-69.1702979975861
 20
1.41375092719418
 30
0.0
 10
-70.0121570714818
 20
1.115571775860611
 30
0.0
 10
-70.85396655145811
 20
0.8052423183881526
 30
0.0
 10
-71.69573381517603
 20
0.484670910930624
 30
0.0
 10
-72.53746705515478
 20
0.1558292363928142
 30
0.0
 10
-73.30550512962938
 20
-0.1499304648171466
 30
0.0
 10
-73.79285365547795
 20
-0.3460551049745926
 30
0.0
 10
-73.99996185303343
 20
-0.4296425330680647
 30
0.0
  0
SPLINE
  5
22E7
330
1F
100
AcDbEntity
  8
AM_0
100
AcDbSpline
210
0.0
220
0.0
230
1.0
 70
     8
 71
     3
 72
    55
 73
    51
 74
     0
 42
0.0000000001
 43
0.0000000001
 40
0.0
 40
0.0
 40
0.0
 40
0.0
 40
1.010743684496582
 40
2.022833576467832
 40
3.037578957496688
 40
4.056212745003489
 40
5.079857003664532
 40
6.109500240690281
 40
7.145961322679372
 40
8.189895241603872
 40
9.241717795325891
 40
10.30168407291828
 40
11.36983447792315
 40
12.44600489715814
 40
13.52984294512926
 40
14.62081576220742
 40
15.7182257034828
 40
16.82123173843959
 40
17.92886860250316
 40
19.0400688939571
 40
20.15368796660465
 40
21.26852814259644
 40
22.38336992938901
 40
23.49698739941135
 40
24.6081876908653
 40
25.71582455492886
 40
26.81883757994213
 40
27.91624752121713
 40
29.00722033829659
 40
30.09105838626677
 40
31.16722880550176
 40
32.23537921050758
 40
33.29534548809967
 40
34.347168041821
 40
35.39108718934584
 40
36.42754827133493
 40
37.45720575381954
 40
38.48085062012849
 40
39.49948440763516
 40
40.51422944315121
 40
41.52631975251916
 40
42.53706336719636
 40
43.54780698187354
 40
44.55989729124051
 40
45.57464232675757
 40
46.59327611426424
 40
47.6169209805722
 40
48.64656348684535
 40
49.68302456883444
 40
50.58557219878025
 40
50.58557219878025
 40
50.58557219878025
 40
50.58557219878025
 10
-32.64026592823371
 20
-4.299389211933056
 30
0.0
 10
-32.92104360173709
 20
-4.29683081610692
 30
0.0
 10
-33.48297291596083
 20
-4.291710616932424
 30
0.0
 10
-34.32566239050817
 20
-4.250436063440934
 30
0.0
 10
-35.16831589381916
 20
-4.184820305505753
 30
0.0
 10
-36.01091724515122
 20
-4.092857325204423
 30
0.0
 10
-36.85345803666927
 20
-3.975793397236868
 30
0.0
 10
-37.69592164692728
 20
-3.834149086235358
 30
0.0
 10
-38.53831089392866
 20
-3.668878558765098
 30
0.0
 10
-39.38061830738323
 20
-3.480993852460449
 30
0.0
 10
-40.2228381496424
 20
-3.271648568020281
 30
0.0
 10
-41.06497461870649
 20
-3.042156744154733
 30
0.0
 10
-41.90702996998488
 20
-2.793922886558785
 30
0.0
 10
-42.74901472428471
 20
-2.528492314051671
 30
0.0
 10
-43.59093273652582
 20
-2.247496154371628
 30
0.0
 10
-44.43279181359326
 20
-1.95266733862646
 30
0.0
 10
-45.27460129181807
 20
-1.645824725163386
 30
0.0
 10
-46.11636855936976
 20
-1.328855250877292
 30
0.0
 10
-46.95810178569554
 20
-1.00370840133921
 30
0.0
 10
-47.79980997769861
 20
-0.6723854167786698
 30
0.0
 10
-48.64150051796106
 20
-0.3369231347429338
 30
0.0
 10
-49.48318529245707
 20
0.0006099107109021
 30
0.0
 10
-50.32486628849267
 20
0.3381490319699094
 30
0.0
 10
-51.16655964991835
 20
0.6736060899705962
 30
0.0
 10
-52.00826680282138
 20
1.004930077426948
 30
0.0
 10
-52.85000152994818
 20
1.330078165629603
 30
0.0
 10
-53.69177228955429
 20
1.647044934842542
 30
0.0
 10
-54.53358309637686
 20
1.953889104424602
 30
0.0
 10
-55.37544229498075
 20
2.248717681093997
 30
0.0
 10
-56.21736027658716
 20
2.529713899866474
 30
0.0
 10
-57.05934503304298
 20
2.795144472761862
 30
0.0
 10
-57.90140040576918
 20
3.043378271001353
 30
0.0
 10
-58.74353678791558
 20
3.272870329199166
 30
0.0
 10
-59.58575301062325
 20
3.482213765123154
 30
0.0
 10
-60.42805521537936
 20
3.670100932248696
 30
0.0
 10
-61.27044414989804
 20
3.835374783101345
 30
0.0
 10
-62.11291377562859
 20
3.97700291635631
 30
0.0
 10
-62.95545735066333
 20
4.094103078084263
 30
0.0
 10
-63.79805895178012
 20
4.185957048142351
 30
0.0
 10
-64.64071304059235
 20
4.251971266672748
 30
0.0
 10
-65.48340180063942
 20
4.291749713165867
 30
0.0
 10
-66.32610907826097
 20
4.305038375908167
 30
0.0
 10
-67.16881635464257
 20
4.291749713145045
 30
0.0
 10
-68.01150511841665
 20
4.251971266756355
 30
0.0
 10
-68.85415919350716
 20
4.185957047827372
 30
0.0
 10
-69.69676084607012
 20
4.094103079268003
 30
0.0
 10
-70.53930012013871
 20
3.977003482787461
 30
0.0
 10
-71.38176642685957
 20
3.835376231172518
 30
0.0
 10
-72.1858537646548
 20
3.677603318722331
 30
0.0
 10
-72.70755478662323
 20
3.562222496313905
 30
0.0
 10
-72.94959365388186
 20
3.505991792938799
 30
0.0
  0
SPLINE
  5
22E8
330
1F
100
AcDbEntity
  8
AM_0
100
AcDbSpline
210
0.0
220
0.0
230
1.0
 70
     8
 71
     3
 72
    20
 73
    16
 74
     0
 42
0.0000000001
 43
0.0000000001
 40
19.06958205160103
 40
19.06958205160103
 40
19.06958205160103
 40
19.06958205160103
 40
19.46214173629503
 40
20.51396345435107
 40
21.57393551351153
 40
22.64208202342361
 40
23.7182574881101
 40
24.80209208578934
 40
25.89306333925047
 40
26.99048218457928
 40
28.09348763352352
 40
29.20111863782268
 40
30.31232390128032
 40
31.42594612798585
 40
32.5407912310448
 40
32.5407912310486
 40
32.5407912310486
 40
32.5407912310486
 10
-73.86189182184086
 20
4.421541430175336
 30
0.0
 10
-73.68190109626585
 20
3.877455573294386
 30
0.0
 10
-73.51060891571733
 20
3.661559182533979
 30
0.0
 10
-72.84751357084366
 20
3.480443411170204
 30
0.0
 10
-72.01265221664337
 20
3.232067758304918
 30
0.0
 10
-71.17844104274219
 20
2.96495843788476
 30
0.0
 10
-70.34482195784464
 20
2.680669959154002
 30
0.0
 10
-69.51174759272031
 20
2.380812231192632
 30
0.0
 10
-68.67915115677654
 20
2.067130056251236
 30
0.0
 10
-67.84696517738281
 20
1.741446690656436
 30
0.0
 10
-67.01513420836086
 20
1.40563467722519
 30
0.0
 10
-66.18358865142377
 20
1.061646716828014
 30
0.0
 10
-65.35225148784205
 20
0.7114914467844228
 30
0.0
 10
-64.52105502330308
 20
0.3571979220656132
 30
0.0
 10
-63.96707288633071
 20
0.1196634863113572
 30
0.0
 10
-63.68993074349844
 20
0.0008294973761363
 30
0.0
  0
POLYLINE
  5
22E9
330
1F
100
AcDbEntity
  8
AM_0
100
AcDb2dPolyline
 66
     1
 10
0.0
 20
0.0
 30
0.0
 70
     2
  0
VERTEX
  5
22EA
330
22E9
100
AcDbEntity
  8
AM_0
100
AcDbVertex
100
AcDb2dVertex
 10
-70.99996185303346
 20
-3.75582943113742
 30
0.0
 42
-0.0359492156850201
  0
VERTEX
  5
22EB
330
22E9
100
AcDbEntity
  8
AM_0
100
AcDbVertex
100
AcDb2dVertex
 10
-71.64484518510164
 20
-3.786877109492723
 30
0.0
 42
-0.0481074754172279
 70
     1
  0
VERTEX
  5
22EC
330
22E9
100
AcDbEntity
  8
AM_0
100
AcDbVertex
100
AcDb2dVertex
 10
-72.12496185303347
 20
-3.740402582820513
 30
0.0
 42
-0.0393662058969625
  0
VERTEX
  5
22ED
330
22E9
100
AcDbEntity
  8
AM_0
100
AcDbVertex
100
AcDb2dVertex
 10
-73.11813688130555
 20
-3.488384126090644
 30
0.0
 42
-0.0705719844457379
 70
     1
  0
VERTEX
  5
22EE
330
22E9
100
AcDbEntity
  8
AM_0
100
AcDbVertex
100
AcDb2dVertex
 10
-73.62496185303341
 20
-3.246564700624483
 30
0.0
 42
-0.0827458522828334
  0
VERTEX
  5
22EF
330
22E9
100
AcDbEntity
  8
AM_0
100
AcDbVertex
100
AcDb2dVertex
 10
-73.93171075406048
 20
-2.968034267866238
 30
0.0
 42
-0.154978185678887
 70
     1
  0
VERTEX
  5
22F0
330
22E9
100
AcDbEntity
  8
AM_0
100
AcDbVertex
100
AcDb2dVertex
 10
-73.9999618530334
 20
-2.768153666745363
 30
0.0
 42
-0.1662693739572807
  0
VERTEX
  5
22F1
330
22E9
100
AcDbEntity
  8
AM_0
100
AcDbVertex
100
AcDb2dVertex
 10
-73.92054017741802
 20
-2.581852863367164
 30
0.0
 42
-0.0979726163363275
 70
     1
  0
VERTEX
  5
22F2
330
22E9
100
AcDbEntity
  8
AM_0
100
AcDbVertex
100
AcDb2dVertex
 10
-73.62496185303339
 20
-2.370106400701834
 30
0.0
 42
-0.091851179068373
  0
VERTEX
  5
22F3
330
22E9
100
AcDbEntity
  8
AM_0
100
AcDbVertex
100
AcDb2dVertex
 10
-73.16164431072675
 20
-2.239815914751095
 30
0.0
 42
-0.04285893167511
 70
     1
  0
VERTEX
  5
22F4
330
22E9
100
AcDbEntity
  8
AM_0
100
AcDbVertex
100
AcDb2dVertex
 10
-72.1249618530334
 20
-2.19772358984818
 30
0.0
 42
-0.0477012044965593
  0
VERTEX
  5
22F5
330
22E9
100
AcDbEntity
  8
AM_0
100
AcDbVertex
100
AcDb2dVertex
 10
-71.60689109416693
 20
-2.257703397148548
 30
0.0
 42
-0.0391301448542795
 70
     1
  0
VERTEX
  5
22F6
330
22E9
100
AcDbEntity
  8
AM_0
100
AcDbVertex
100
AcDb2dVertex
 10
-71.12617994223803
 20
-2.381413455414042
 30
0.0
  0
SEQEND
  5
22F7
330
22E9
100
AcDbEntity
  8
AM_0
  0
LINE
  5
22F8
330
1F
100
AcDbEntity
  8
AM_0
100
AcDbLine
 10
-73.86189182184094
 20
-0.3697537633631275
 30
0.0
 11
-73.86189182184086
 21
4.421541430175336
 31
0.0
  0
LINE
  5
22F9
330
1F
100
AcDbEntity
  8
AM_0
100
AcDbLine
 10
-73.86189182184104
 20
-4.420285618763813
 30
0.0
 11
-73.86189182184101
 21
-3.049113393430764
 31
0.0
  0
LINE
  5
22FA
330
1F
100
AcDbEntity
  8
AM_0
100
AcDbLine
 10
-73.861891821841
 20
-2.524732747595366
 30
0.0
 11
-73.86189182184096
 21
-0.4798762091198736
 31
0.0
  0
SPLINE
  5
22FB
330
1F
100
AcDbEntity
  8
AM_0
100
AcDbSpline
210
0.0
220
0.0
230
1.0
 70
     8
 71
     3
 72
    14
 73
    10
 74
     0
 42
0.0000000001
 43
0.0000000001
 40
1.580019955310467
 40
1.580019955310467
 40
1.580019955310467
 40
1.580019955310467
 40
2.030549285115227
 40
3.082371838836284
 40
4.126290986361125
 40
5.162752068350215
 40
6.192395305374981
 40
7.216039564037012
 40
8.092146932806128
 40
8.092146932806128
 40
8.092146932806128
 40
8.092146932806128
 10
-68.51539061115499
 20
-3.17352672530834
 30
0.0
 10
-68.6346171060375
 20
-3.206211413128997
 30
0.0
 10
-69.03287365454007
 20
-3.313339843125302
 30
0.0
 10
-69.71279634632489
 20
-3.481374618696239
 30
0.0
 10
-70.55498118411371
 20
-3.669551275997899
 30
0.0
 10
-71.39739787459984
 20
-3.834745396584371
 30
0.0
 10
-72.23985316432465
 20
-3.976402221470824
 30
0.0
 10
-73.04330503713538
 20
-4.088058256050643
 30
0.0
 10
-73.6100793698259
 20
-4.217922287431774
 30
0.0
 10
-73.86189182184104
 20
-4.420285618763813
 30
0.0
  0
DIMENSION
  5
237C
330
1F
100
AcDbEntity
  8
AM_5
100
AcDbDimension
  2
*D9
 10
9.3198883154149
 20
-4.300000104970252
 30
0.0
 11
7.619888315414901
 21
-0.000000104970252
 31
0.0
 70
    32
  1
%%c<>
 51
359.9999999999998
  3
AM_JIS$0
100
AcDbAlignedDimension
 13
-1.999961853033357
 23
4.299999895029748
 33
0.0
 14
-1.999974568690952
 24
-4.30000010497025
 34
0.0
 50
89.99999999999943
100
AcDbRotatedDimension
1001
ACAD
1000
DSTYLE
1002
{
1070
   271
1070
     1
1002
}
1001
GENIUS_GENDTOL_13
1000

1000
h7
1000

1040
0.0
  0
ELLIPSE
  5
246D
330
1F
100
AcDbEntity
  8
AM_0
 48
0.5
100
AcDbEllipse
 10
-6.596056439213327
 20
7.216959425978387
 30
0.0
 11
7.77047980093998
 21
8.969171787337526
 31
0.0
210
0.0
220
0.0
230
0.9999999999999998
 40
0.8358243761330363
 41
4.335410045535479
 42
4.395340564733358
  0
ELLIPSE
  5
246E
330
1F
100
AcDbEntity
  8
AM_0
 48
0.5
100
AcDbEllipse
 10
4.271378944736145
 20
-2.089641445000518
 30
0.0
 11
6.746230348949421
 21
0.7273233685581167
 31
0.0
210
0.0
220
0.0
230
1.0
 40
0.7486438606827895
 41
3.00518452738922
 42
3.446585120518987
  0
ELLIPSE
  5
246F
330
1F
100
AcDbEntity
  8
AM_0
 48
0.5
100
AcDbEllipse
 10
-1.612248883126746
 20
-1.528512315805832
 30
0.0
 11
-0.1058268332894799
 21
0.7068882143161649
 31
0.0
210
0.0
220
0.0
230
1.0
 40
0.4534573216539381
 41
1.826014466327523
 42
4.9613563560395
  0
ELLIPSE
  5
2470
330
1F
100
AcDbEntity
  8
AM_0
 48
0.5
100
AcDbEllipse
 10
-1.612248883126746
 20
-1.528512315805832
 30
0.0
 11
-0.5483304795906412
 21
0.3775754444443529
 31
0.0
210
0.0
220
0.0
230
1.0
 40
0.5226858805480259
 41
4.548284319219733
 42
7.691724660549244
  0
ELLIPSE
  5
2471
330
1F
100
AcDbEntity
  8
AM_0
 48
0.5
100
AcDbEllipse
 10
-6.83607579166971
 20
8.179073813906864
 30
0.0
 11
-5.440262112648789
 21
9.526202807101544
 31
0.0
210
0.0
220
0.0
230
1.0
 40
0.5872369277719513
 41
3.153793563415282
 42
3.437756101354965
  0
ELLIPSE
  5
2472
330
1F
100
AcDbEntity
  8
AM_0
 48
0.5
100
AcDbEllipse
 10
7.647781752127393
 20
7.122815828269775
 30
0.0
 11
-7.101888545390178
 21
7.101888545390121
 31
0.0
210
0.0
220
0.0
230
1.0
 40
0.999999999999998
 41
1.171329590070667
 42
1.424984195904709
  0
ELLIPSE
  5
2473
330
1F
100
AcDbEntity
  8
AM_0
 48
0.5
100
AcDbEllipse
 10
7.64778175212945
 20
-7.122815828268134
 30
0.0
 11
-7.101888545388129
 21
-7.101888545392175
 31
0.0
210
0.0
220
0.0
230
-1.0
 40
0.9999999999999978
 41
1.171329590070667
 42
1.424984195904709
  0
LINE
  5
2474
330
1F
100
AcDbEntity
  8
AM_0
 48
0.5
100
AcDbLine
 10
-1.657081687715166
 20
3.342186490690014
 30
0.0
 11
-1.999961853033357
 21
4.299999895029748
 31
0.0
  0
LINE
  5
2475
330
1F
100
AcDbEntity
  8
AM_0
 48
0.5
100
AcDbLine
 10
-0.0000000000000462
 20
-0.0000000000000606
 30
0.0
 11
-1.787544445176951
 21
1.628138413352566
 31
0.0
  0
LINE
  5
2476
330
1F
100
AcDbEntity
  8
AM_0
100
AcDbLine
 10
-0.0000000000000959
 20
-0.0000000000000464
 30
0.0
 11
-0.4106191344425128
 21
-1.128166799876679
 31
0.0
  0
LINE
  5
2477
330
1F
100
AcDbEntity
  8
AM_0
100
AcDbLine
 10
-0.410619134442527
 20
1.128166799876588
 30
0.0
 11
-0.0000000000000959
 21
-0.0000000000000464
 31
0.0
  0
LINE
  5
2478
330
1F
100
AcDbEntity
  8
AM_0
 48
0.5
100
AcDbLine
 10
-1.657081687714175
 20
-3.342186490691079
 30
0.0
 11
-2.000000000000113
 21
-4.29999984730938
 31
0.0
  0
SPLINE
  5
2479
330
1F
100
AcDbEntity
  8
AM_0
 48
0.5
100
AcDbSpline
210
0.0
220
0.0
230
1.0
 70
     8
 71
     3
 72
    10
 73
     6
 74
     0
 42
0.0000000001
 43
0.0000000001
 40
0.0
 40
0.0
 40
0.0
 40
0.0
 40
2.69986029516136
 40
4.147722969032201
 40
6.285750005020438
 40
6.285750005020438
 40
6.285750005020438
 40
6.285750005020438
 10
-4.14879734102622
 20
0.7782776327656825
 30
0.0
 10
-3.683491520764118
 20
0.378777918426447
 30
0.0
 10
-2.968654667248291
 20
-0.234962779289033
 30
0.0
 10
-1.278161534446166
 20
0.0621598443049505
 30
0.0
 10
-1.596530562377139
 20
1.062908155744569
 30
0.0
 10
-1.806888474603166
 20
1.672895073785426
 30
0.0
  0
SPLINE
  5
247A
330
1F
100
AcDbEntity
  8
AM_0
 48
0.5
100
AcDbSpline
210
0.0
220
0.0
230
1.0
 70
     8
 71
     3
 72
    25
 73
    21
 74
     0
 42
0.0000000001
 43
0.0000000001
 40
6.846175049578289
 40
6.846175049578289
 40
6.846175049578289
 40
6.846175049578289
 40
7.604337694224321
 40
8.711974558287883
 40
9.814980593243754
 40
10.91239053451967
 40
12.0033633515982
 40
13.08720139956839
 40
14.16337181880432
 40
15.23152222380919
 40
16.29148850140128
 40
17.34331105512262
 40
18.38723020264746
 40
19.42369128463655
 40
20.45333379090873
 40
21.47697865721768
 40
22.49561244472435
 40
23.5103574802404
 40
24.52244778960836
 40
25.53320666051913
 40
25.53320666051913
 40
25.53320666051913
 40
25.53320666051913
 10
-4.148901865469508
 20
0.7783287049600406
 30
0.0
 10
-4.297417470322784
 20
0.8538290574382026
 30
0.0
 10
-4.663219339161503
 20
1.038876052189672
 30
0.0
 10
-5.246851092463288
 20
1.329466447674721
 30
0.0
 10
-5.8999118893888
 20
1.646436105329843
 30
0.0
 10
-6.553005529165915
 20
1.953278669623315
 30
0.0
 10
-7.206137623086181
 20
2.248107499912517
 30
0.0
 10
-7.859315448652917
 20
2.529103650256366
 30
0.0
 10
-8.512545045709334
 20
2.794534245463473
 30
0.0
 10
-9.165829438364436
 20
3.042768022404981
 30
0.0
 10
-9.81917667340603
 20
3.272260143010164
 30
0.0
 10
-10.47258586612395
 20
3.481603352973159
 30
0.0
 10
-11.12606170981934
 20
3.669491352855625
 30
0.0
 10
-11.7796018983459
 20
3.834761333120276
 30
0.0
 10
-12.43320387864534
 20
3.976400307033233
 30
0.0
 10
-13.08686401372984
 20
4.093469425777943
 30
0.0
 10
-13.74057213291018
 20
4.18543289529574
 30
0.0
 10
-14.39432103165943
 20
4.251041623504676
 30
0.0
 10
-15.04810009766299
 20
4.292327710915575
 30
0.0
 10
-15.4840602360418
 20
4.297444061833015
 30
0.0
 10
-15.70189683084375
 20
4.300000553501742
 30
0.0
  0
ELLIPSE
  5
247B
330
1F
100
AcDbEntity
  8
AM_0
 48
0.5
100
AcDbEllipse
 10
3.661871761947777
 20
4.241365089922652
 30
0.0
 11
-0.0000000000002285
 21
9.325082031960247
 31
0.0
210
0.0
220
0.0
230
0.9999999999999998
 40
0.9021176470588192
 41
1.951257656000312
 42
2.322034022628298
  0
DIMENSION
  5
24DE
330
1F
100
AcDbEntity
  8
AM_5
100
AcDbDimension
  2
*D10
 10
-0.4106191344425128
 20
-1.128166799876679
 30
0.0
 11
12.69760763105694
 21
0.0000000000000242
 31
0.0
 70
    34
  1
<>
 51
359.9999999999998
  3
AM_JIS$2
100
AcDb2LineAngularDimension
 13
-0.410619134442527
 23
1.128166799876588
 33
0.0
 14
-0.0000000000000959
 24
-0.0000000000000464
 34
0.0
 15
-0.0000000000000959
 25
-0.0000000000000464
 35
0.0
 16
13.08238281134676
 26
-5.643189097126849
 36
0.0
1001
ACAD
1000
DSTYLE
1002
{
1070
   179
1070
     3
1002
}
1001
GENIUS_GENDTOL_13
1000

1000
h7
1000

1040
0.0
  0
VIEWPORT
  5
110
330
101
100
AcDbEntity
 67
     1
  8
0
100
AcDbViewport
 10
420.5
 20
297.0
 30
0.0
 40
948.9782706766916
 41
628.452
 68
     1
 69
     1
1001
ACAD
1000
MVIEW
1002
{
1070
    16
1010
0.0
1020
0.0
1030
0.0
1010
0.0
1020
0.0
1030
1.0
1040
0.0
1040
628.452
1040
420.5
1040
297.0
1040
50.0
1040
0.0
1040
0.0
1070
     0
1070
   100
1070
     1
1070
     1
1070
     0
1070
     0
1070
     0
1070
     0
1040
0.0
1040
0.0
1040
0.0
1040
10.0
1040
10.0
1040
10.0
1040
10.0
1070
     0
1002
{
1002
}
1002
}
  0
ENDSEC
  0
SECTION
  2
OBJECTS
  0
DICTIONARY
  5
C
330
0
100
AcDbDictionary
  3
ACAD_GROUP
350
D
  3
ACAD_LAYOUT
350
1A
  3
ACAD_MLINESTYLE
350
17
  3
ACAD_PLOTSETTINGS
350
19
  3
ACAD_PLOTSTYLENAME
350
E
  3
ACDBVARIABLEDICTIONARY
350
34
  3
ACMDICTIONARY
350
43
  3
AMG
350
2B
  3
AMGSNAPSETTINGS
350
6E
  3
DWGPROPS
350
25F3
  3
ACDBHEADERROUNDTRIPXREC
350
2600
  0
DICTIONARY
  5
74
330
1F
100
AcDbDictionary
280
     1
  3
ACAD_INDEX
360
25F5
  3
ACAD_LAYOUTSELFREF
360
2623
  0
DICTIONARY
  5
2628
330
101
100
AcDbDictionary
280
     1
  3
ACAD_LAYOUTSELFREF
360
2629
  0
DICTIONARY
  5
D
102
{ACAD_REACTORS
330
C
102
}
330
C
100
AcDbDictionary
  0
DICTIONARY
  5
1A
102
{ACAD_REACTORS
330
C
102
}
330
C
100
AcDbDictionary
  0
DICTIONARY
  5
17
102
{ACAD_REACTORS
330
C
102
}
330
C
100
AcDbDictionary
  3
STANDARD
350
18
  0
DICTIONARY
  5
19
102
{ACAD_REACTORS
330
C
102
}
330
C
100
AcDbDictionary
  0
ACDBDICTIONARYWDFLT
  5
E
102
{ACAD_REACTORS
330
C
102
}
330
C
100
AcDbDictionary
281
     1
  3
Normal
350
F
100
AcDbDictionaryWithDefault
340
F
  0
DICTIONARY
  5
34
102
{ACAD_REACTORS
330
C
102
}
330
C
100
AcDbDictionary
  3
INDEXCTL
350
35
  3
SORTENTS
350
B5E
  0
DICTIONARY
  5
43
102
{ACAD_REACTORS
330
C
102
}
330
C
100
AcDbDictionary
  3
ACMSTDDICTIONARY
350
260
  0
DICTIONARY
  5
2B
102
{ACAD_REACTORS
330
C
102
}
330
C
100
AcDbDictionary
  3
ACMGSETTINGS
350
2C
  0
DICTIONARY
  5
6E
102
{ACAD_REACTORS
330
C
102
}
330
C
100
AcDbDictionary
  0
XRECORD
  5
25F3
102
{ACAD_REACTORS
330
C
102
}
330
C
100
AcDbXrecord
  1
DWGPROPS COOKIE
  2

  3

  4

  6

  7

  8

  9

300
AmdtFileType=82
301
=
302
=
303
=
304
=
305
=
306
=
307
=
308
=
309
=
 40
0.082075
 41
2452800.443498622
 42
2452948.569469757
  1

 90
        1
  0
DICTIONARY
  5
2600
102
{ACAD_REACTORS
330
C
102
}
330
C
100
AcDbDictionary
  3
TSTACKALIGN
350
2601
  3
TSTACKSIZE
350
2602
  3
HYPERLINKBASE
350
2603
  3
STYLESHEET
350
2604
  3
LAYOUTDICT
350
2605
  3
PLOTSETDICT
350
2606
  3
PLOTSTYLNAMDICT
350
2607
  3
LWETCUNION
350
2608
  3
INSUNITS
350
2609
  3
CEPSNTYPE
350
260A
  3
FINGERPRINTGUID
350
260B
  3
VERSIONGUID
350
260C
  3
PSVPSCALE
350
260D
  3
DIMSTYLEDATA
350
260E
  3
PUCSORTHOREF
350
260F
  3
PUCSORTHOVIEW
350
2610
  3
PUCSBASE
350
2611
  3
PUCSORGTOP
350
2612
  3
PUCSORGBOTTOM
350
2613
  3
PUCSORGLEFT
350
2614
  3
PUCSORGRIGHT
350
2615
  3
PUCSORGFRONT
350
2616
  3
PUCSORGBACK
350
2617
  3
UCSORTHOREF
350
2618
  3
UCSORTHOVIEW
350
2619
  3
UCSBASE
350
261A
  3
UCSORGTOP
350
261B
  3
UCSORGBOTTOM
350
261C
  3
UCSORGLEFT
350
261D
  3
UCSORGRIGHT
350
261E
  3
UCSORGFRONT
350
261F
  3
UCSORGBACK
350
2620
  0
DICTIONARY
  5
25F5
102
{ACAD_REACTORS
330
74
102
}
330
74
100
AcDbDictionary
  3
*A1
350
25F6
  0
XRECORD
  5
2623
102
{ACAD_REACTORS
330
74
102
}
330
74
100
AcDbXrecord
340
1F
  0
XRECORD
  5
2629
102
{ACAD_REACTORS
330
2628
102
}
330
2628
100
AcDbXrecord
340
101
  0
MLINESTYLE
  5
18
102
{ACAD_REACTORS
330
17
102
}
330
17
100
AcDbMlineStyle
  2
STANDARD
 70
     0
  3

 62
   256
 51
90.0
 52
90.0
 71
     2
 49
0.5
 62
   256
  6
BYLAYER
 49
-0.5
 62
   256
  6
BYLAYER
  0
ACDBPLACEHOLDER
  5
F
102
{ACAD_REACTORS
330
E
102
}
330
E
100
AcDbPlaceHolder
280
     0
  0
DICTIONARYVAR
  5
35
102
{ACAD_REACTORS
330
34
102
}
330
34
100
DictionaryVariables
280
     0
  1
1
  0
DICTIONARYVAR
  5
B5E
102
{ACAD_REACTORS
330
34
102
}
330
34
100
DictionaryVariables
280
     0
  1
96
  0
DICTIONARY
  5
260
102
{ACAD_REACTORS
330
43
102
}
330
43
100
AcDbDictionary
  0
DICTIONARY
  5
2C
102
{ACAD_REACTORS
330
2B
102
}
330
2B
100
AcDbDictionary
  3
DWGSETTINGS
350
2D
  0
XRECORD
  5
2601
102
{ACAD_REACTORS
330
2600
102
}
330
2600
100
AcDbXrecord
 90
        1
  0
XRECORD
  5
2602
102
{ACAD_REACTORS
330
2600
102
}
330
2600
100
AcDbXrecord
 90
       70
  0
XRECORD
  5
2603
102
{ACAD_REACTORS
330
2600
102
}
330
2600
100
AcDbXrecord
  1

  0
XRECORD
  5
2604
102
{ACAD_REACTORS
330
2600
102
}
330
2600
100
AcDbXrecord
  1
ASAMI.ctb
  0
XRECORD
  5
2605
102
{ACAD_REACTORS
330
2600
102
}
330
2600
100
AcDbXrecord
340
1A
  0
XRECORD
  5
2606
102
{ACAD_REACTORS
330
2600
102
}
330
2600
100
AcDbXrecord
340
19
  0
XRECORD
  5
2607
102
{ACAD_REACTORS
330
2600
102
}
330
2600
100
AcDbXrecord
340
E
  0
XRECORD
  5
2608
102
{ACAD_REACTORS
330
2600
102
}
330
2600
100
AcDbXrecord
 90
    10781
  0
XRECORD
  5
2609
102
{ACAD_REACTORS
330
2600
102
}
330
2600
100
AcDbXrecord
 90
        4
  0
XRECORD
  5
260A
102
{ACAD_REACTORS
330
2600
102
}
330
2600
100
AcDbXrecord
 90
        0
  0
XRECORD
  5
260B
102
{ACAD_REACTORS
330
2600
102
}
330
2600
100
AcDbXrecord
  1
{AFB28963-8C59-40AE-9337-C84526B81ACE}
  0
XRECORD
  5
260C
102
{ACAD_REACTORS
330
2600
102
}
330
2600
100
AcDbXrecord
  1
{8373D580-FF4A-4470-B67E-5BF4DDADD370}
  0
XRECORD
  5
260D
102
{ACAD_REACTORS
330
2600
102
}
330
2600
100
AcDbXrecord
 40
0.0
  0
XRECORD
  5
260E
102
{ACAD_REACTORS
330
2600
102
}
330
2600
100
AcDbXrecord
1000
DSTYLE
1002
{
1070
    79
 70
     2
1070
   341
340
59
1070
   342
340
59
1070
   371
 70
    -1
1070
   372
 70
    -1
1002
}
  0
XRECORD
  5
260F
102
{ACAD_REACTORS
330
2600
102
}
330
2600
100
AcDbXrecord
340
0
  0
XRECORD
  5
2610
102
{ACAD_REACTORS
330
2600
102
}
330
2600
100
AcDbXrecord
 70
     0
  0
XRECORD
  5
2611
102
{ACAD_REACTORS
330
2600
102
}
330
2600
100
AcDbXrecord
340
0
  0
XRECORD
  5
2612
102
{ACAD_REACTORS
330
2600
102
}
330
2600
100
AcDbXrecord
 10
0.0
 20
0.0
 30
0.0
  0
XRECORD
  5
2613
102
{ACAD_REACTORS
330
2600
102
}
330
2600
100
AcDbXrecord
 10
0.0
 20
0.0
 30
0.0
  0
XRECORD
  5
2614
102
{ACAD_REACTORS
330
2600
102
}
330
2600
100
AcDbXrecord
 10
0.0
 20
0.0
 30
0.0
  0
XRECORD
  5
2615
102
{ACAD_REACTORS
330
2600
102
}
330
2600
100
AcDbXrecord
 10
0.0
 20
0.0
 30
0.0
  0
XRECORD
  5
2616
102
{ACAD_REACTORS
330
2600
102
}
330
2600
100
AcDbXrecord
 10
0.0
 20
0.0
 30
0.0
  0
XRECORD
  5
2617
102
{ACAD_REACTORS
330
2600
102
}
330
2600
100
AcDbXrecord
 10
0.0
 20
0.0
 30
0.0
  0
XRECORD
  5
2618
102
{ACAD_REACTORS
330
2600
102
}
330
2600
100
AcDbXrecord
340
0
  0
XRECORD
  5
2619
102
{ACAD_REACTORS
330
2600
102
}
330
2600
100
AcDbXrecord
 70
     0
  0
XRECORD
  5
261A
102
{ACAD_REACTORS
330
2600
102
}
330
2600
100
AcDbXrecord
340
0
  0
XRECORD
  5
261B
102
{ACAD_REACTORS
330
2600
102
}
330
2600
100
AcDbXrecord
 10
0.0
 20
0.0
 30
0.0
  0
XRECORD
  5
261C
102
{ACAD_REACTORS
330
2600
102
}
330
2600
100
AcDbXrecord
 10
0.0
 20
0.0
 30
0.0
  0
XRECORD
  5
261D
102
{ACAD_REACTORS
330
2600
102
}
330
2600
100
AcDbXrecord
 10
0.0
 20
0.0
 30
0.0
  0
XRECORD
  5
261E
102
{ACAD_REACTORS
330
2600
102
}
330
2600
100
AcDbXrecord
 10
0.0
 20
0.0
 30
0.0
  0
XRECORD
  5
261F
102
{ACAD_REACTORS
330
2600
102
}
330
2600
100
AcDbXrecord
 10
0.0
 20
0.0
 30
0.0
  0
XRECORD
  5
2620
102
{ACAD_REACTORS
330
2600
102
}
330
2600
100
AcDbXrecord
 10
0.0
 20
0.0
 30
0.0
  0
LAYER_INDEX
  5
25F6
102
{ACAD_REACTORS
330
25F5
102
}
330
25F5
100
AcDbIndex
 40
2453151.680027291
100
AcDbLayerIndex
  8
0
360
25F7
 90
        0
  8
AM_0
360
25F8
 90
       53
  8
AM_7
360
25F9
 90
        1
  8
AM_11
360
25FA
 90
       19
  8
AM_5
360
25FB
 90
        5
  8
Defpoints
360
25FC
 90
        0
  8
AM_6
360
25FD
 90
        1
  8
AM_CL
360
25FE
 90
        0
  0
XRECORD
  5
2D
102
{ACAD_REACTORS
330
2C
102
}
330
2C
100
AcDbXrecord
  1
VERSION
140
15.0
  1
PRODUCT
  2
AutoCAD Mechanical 2000
  0
IDBUFFER
  5
25F7
330
0
100
AcDbIdBuffer
  0
IDBUFFER
  5
25F8
330
0
100
AcDbIdBuffer
330
2477
330
2478
330
2479
330
247A
330
247B
330
1C24
330
1C25
330
1C26
330
1C27
330
1C28
330
1C2B
330
1C2C
330
1C2D
330
1EDD
330
1EDF
330
1FEC
330
22BD
330
22BE
330
22BF
330
22C3
330
22C4
330
22C6
330
22C8
330
22C9
330
22CA
330
22CB
330
22CC
330
22CD
330
22CE
330
22D1
330
22D2
330
22D3
330
22D4
330
22D5
330
22E5
330
22E6
330
22E7
330
22E8
330
22E9
330
22F8
330
22F9
330
22FA
330
22FB
330
246D
330
246E
330
246F
330
2470
330
2471
330
2472
330
2473
330
2474
330
2475
330
2476
  0
IDBUFFER
  5
25F9
330
0
100
AcDbIdBuffer
330
C9F
  0
IDBUFFER
  5
25FA
330
0
100
AcDbIdBuffer
330
22DA
330
22DB
330
22DC
330
20DE
330
20DF
330
20E0
330
20E1
330
20E2
330
20E3
330
22A9
330
22AA
330
22C0
330
22C1
330
22C2
330
22C5
330
22D6
330
22D7
330
22D8
330
22D9
  0
IDBUFFER
  5
25FB
330
0
100
AcDbIdBuffer
330
CC6
330
DF5
330
1EEB
330
237C
330
24DE
  0
IDBUFFER
  5
25FC
330
0
100
AcDbIdBuffer
  0
IDBUFFER
  5
25FD
330
0
100
AcDbIdBuffer
330
19BD
  0
IDBUFFER
  5
25FE
330
0
100
AcDbIdBuffer
  0
ENDSEC
  0
EOF
