  0
SECTION
  2
HEADER
  9
$ACADVER
  1
AC1014
  9
$ACADMAINTVER
 70
     9
  9
$DWGCODEPAGE
  3
ANSI_932
  9
$INSBASE
 10
0.0
 20
0.0
 30
0.0
  9
$EXTMIN
 10
-113.6500009999999
 20
-27.75000236965382
 30
-0.00000001
  9
$EXTMAX
 10
12.90545646716395
 20
12.59699751422014
 30
0.00000001
  9
$LIMMIN
 10
-138.8290064717842
 20
-45.22474571374511
  9
$LIMMAX
 10
23.05023987897198
 20
30.30997914579825
  9
$ORTHOMODE
 70
     0
  9
$REGENMODE
 70
     1
  9
$FILLMODE
 70
     1
  9
$QTEXTMODE
 70
     0
  9
$MIRRTEXT
 70
     0
  9
$DRAGMODE
 70
     2
  9
$LTSCALE
 40
1.0
  9
$OSMODE
 70
    55
  9
$ATTMODE
 70
     1
  9
$TEXTSIZE
 40
2.5
  9
$TRACEWID
 40
1.0
  9
$TEXTSTYLE
  7
STANDARD
  9
$CLAYER
  8
AM_0
  9
$CELTYPE
  6
BYLAYER
  9
$CECOLOR
 62
   256
  9
$CELTSCALE
 40
1.0
  9
$DELOBJ
 70
     1
  9
$DISPSILH
 70
     0
  9
$DIMSCALE
 40
0.5
  9
$DIMASZ
 40
2.5
  9
$DIMEXO
 40
1.0
  9
$DIMDLI
 40
12.0
  9
$DIMRND
 40
0.0
  9
$DIMDLE
 40
0.0
  9
$DIMEXE
 40
1.0
  9
$DIMTP
 40
0.1
  9
$DIMTM
 40
0.1
  9
$DIMTXT
 40
3.2
  9
$DIMCEN
 40
0.0
  9
$DIMTSZ
 40
0.0
  9
$DIMTOL
 70
     0
  9
$DIMLIM
 70
     0
  9
$DIMTIH
 70
     0
  9
$DIMTOH
 70
     0
  9
$DIMSE1
 70
     0
  9
$DIMSE2
 70
     0
  9
$DIMTAD
 70
     3
  9
$DIMZIN
 70
     8
  9
$DIMBLK
  1
OPEN30
  9
$DIMASO
 70
     1
  9
$DIMSHO
 70
     1
  9
$DIMPOST
  1

  9
$DIMAPOST
  1
"
  9
$DIMALT
 70
     0
  9
$DIMALTD
 70
     2
  9
$DIMALTF
 40
0.0393701
  9
$DIMLFAC
 40
1.0
  9
$DIMTOFL
 70
     1
  9
$DIMTVP
 40
0.0
  9
$DIMTIX
 70
     0
  9
$DIMSOXD
 70
     0
  9
$DIMSAH
 70
     0
  9
$DIMBLK1
  1

  9
$DIMBLK2
  1

  9
$DIMSTYLE
  2
AM_JIS
  9
$DIMCLRD
 70
   256
  9
$DIMCLRE
 70
   256
  9
$DIMCLRT
 70
     2
  9
$DIMTFAC
 40
0.71
  9
$DIMGAP
 40
1.5
  9
$DIMJUST
 70
     0
  9
$DIMSD1
 70
     0
  9
$DIMSD2
 70
     0
  9
$DIMTOLJ
 70
     0
  9
$DIMTZIN
 70
     0
  9
$DIMALTZ
 70
     0
  9
$DIMALTTZ
 70
     0
  9
$DIMFIT
 70
     3
  9
$DIMUPT
 70
     0
  9
$DIMUNIT
 70
     2
  9
$DIMDEC
 70
     3
  9
$DIMTDEC
 70
     3
  9
$DIMALTU
 70
     2
  9
$DIMALTTD
 70
     2
  9
$DIMTXSTY
  7
ASAMI
  9
$DIMAUNIT
 70
     0
  9
$LUNITS
 70
     2
  9
$LUPREC
 70
     2
  9
$SKETCHINC
 40
1.0
  9
$FILLETRAD
 40
2.5
  9
$AUNITS
 70
     0
  9
$AUPREC
 70
     0
  9
$MENU
  1
.
  9
$ELEVATION
 40
0.0
  9
$PELEVATION
 40
0.0
  9
$THICKNESS
 40
0.0
  9
$LIMCHECK
 70
     0
  9
$BLIPMODE
 70
     0
  9
$CHAMFERA
 40
0.5
  9
$CHAMFERB
 40
0.5
  9
$CHAMFERC
 40
20.0
  9
$CHAMFERD
 40
0.0
  9
$SKPOLY
 70
     0
  9
$TDCREATE
 40
2452800.443498622
  9
$TDUPDATE
 40
2453151.571239132
  9
$TDINDWG
 40
0.0554679977
  9
$TDUSRTIMER
 40
0.0554679977
  9
$USRTIMER
 70
     1
  9
$ANGBASE
 50
0.0
  9
$ANGDIR
 70
     0
  9
$PDMODE
 70
     3
  9
$PDSIZE
 40
0.0
  9
$PLINEWID
 40
0.0
  9
$COORDS
 70
     1
  9
$SPLFRAME
 70
     0
  9
$SPLINETYPE
 70
     6
  9
$SPLINESEGS
 70
     8
  9
$ATTDIA
 70
     1
  9
$ATTREQ
 70
     1
  9
$HANDLING
 70
 12289
  9
$HANDSEED
  5
323F
  9
$SURFTAB1
 70
     6
  9
$SURFTAB2
 70
     6
  9
$SURFTYPE
 70
     6
  9
$SURFU
 70
     6
  9
$SURFV
 70
     6
  9
$UCSNAME
  2

  9
$UCSORG
 10
0.0
 20
0.0
 30
0.0
  9
$UCSXDIR
 10
1.0
 20
0.0000000000000027
 30
0.0
  9
$UCSYDIR
 10
-0.0000000000000027
 20
1.0
 30
0.0
  9
$PUCSNAME
  2

  9
$PUCSORG
 10
0.0
 20
0.0
 30
0.0
  9
$PUCSXDIR
 10
1.0
 20
0.0
 30
0.0
  9
$PUCSYDIR
 10
0.0
 20
1.0
 30
0.0
  9
$USERI1
 70
     0
  9
$USERI2
 70
     0
  9
$USERI3
 70
     0
  9
$USERI4
 70
     0
  9
$USERI5
 70
     0
  9
$USERR1
 40
0.0
  9
$USERR2
 40
0.0
  9
$USERR3
 40
0.0
  9
$USERR4
 40
0.0
  9
$USERR5
 40
0.0
  9
$WORLDVIEW
 70
     1
  9
$SHADEDGE
 70
     3
  9
$SHADEDIF
 70
    70
  9
$TILEMODE
 70
     1
  9
$MAXACTVP
 70
    64
  9
$PINSBASE
 10
0.0
 20
0.0
 30
0.0
  9
$PLIMCHECK
 70
     0
  9
$PEXTMIN
 10
1.000000000000000E+20
 20
1.000000000000000E+20
 30
1.000000000000000E+20
  9
$PEXTMAX
 10
-1.000000000000000E+20
 20
-1.000000000000000E+20
 30
-1.000000000000000E+20
  9
$PLIMMIN
 10
0.0
 20
0.0
  9
$PLIMMAX
 10
841.0
 20
594.0
  9
$UNITMODE
 70
     0
  9
$VISRETAIN
 70
     1
  9
$PLINEGEN
 70
     0
  9
$PSLTSCALE
 70
     0
  9
$TREEDEPTH
 70
  3020
  9
$PICKSTYLE
 70
     0
  9
$CMLSTYLE
  2
STANDARD
  9
$CMLJUST
 70
     0
  9
$CMLSCALE
 40
20.0
  9
$PROXYGRAPHICS
 70
     1
  9
$MEASUREMENT
 70
     1
  0
ENDSEC
  0
SECTION
  2
CLASSES
  0
CLASS
  1
ACDBDICTIONARYWDFLT
  2
AcDbDictionaryWithDefault
  3
AutoCAD 2000
 90
        0
280
     0
281
     0
  0
CLASS
  1
ACDBPLACEHOLDER
  2
AcDbPlaceHolder
  3
AutoCAD 2000
 90
        0
280
     0
281
     0
  0
CLASS
  1
LAYOUT
  2
AcDbLayout
  3
AutoCAD 2000
 90
        0
280
     0
281
     0
  0
CLASS
  1
AMGSETTINGSOBJ
  2
AmgSettingsObj
  3
"AcadM|Product Description: AutoCAD Mechanical 2000|Company: Autodesk"
 90
        0
280
     0
281
     0
  0
CLASS
  1
ACME_DOCUMENT
  2
AcMeDbDoc
  3
AcMeServices
 90
        0
280
     0
281
     0
  0
CLASS
  1
ACMESCOPE
  2
AcMeScope
  3
AcMeServices
 90
        0
280
     0
281
     0
  0
CLASS
  1
ACMECOMMANDHISTORY
  2
AcMeCommandHistory
  3
AcMeServices
 90
        0
280
     0
281
     0
  0
CLASS
  1
DICTIONARYVAR
  2
AcDbDictionaryVar
  3
AutoCAD 2000
 90
        0
280
     0
281
     0
  0
CLASS
  1
ACIMSYSVARMAN
  2
AcImSysVarManager
  3
AcMeServices
 90
        0
280
     0
281
     0
  0
CLASS
  1
ACIMREALSYSVAR
  2
AcImRealSysVar
  3
AcMeServices
 90
        0
280
     0
281
     0
  0
CLASS
  1
ACIMINTSYSVAR
  2
AcImIntSysVar
  3
AcMeServices
 90
        0
280
     0
281
     0
  0
CLASS
  1
ACMEDRAWINGMAN
  2
AcMeDrawingMan
  3
AcMeServices
 90
        0
280
     0
281
     0
  0
CLASS
  1
ACMEVIEW
  2
AcMeView
  3
AcMeServices
 90
        0
280
     0
281
     0
  0
CLASS
  1
ACDBENTITYCACHE
  2
AcMeEntityCache
  3
AcMeServices
 90
        0
280
     0
281
     0
  0
CLASS
  1
GSMANAGER
  2
AcMeGSManager
  3
AcMeServices
 90
        0
280
     0
281
     0
  0
CLASS
  1
AmdtInternalReactor
  2
AmdtInternalReactor
  3
AcMeServices
 90
        0
280
     0
281
     0
  0
CLASS
  1
ACMESTATEMGR
  2
AcMeStateMgr
  3
AcMeServices
 90
        0
280
     0
281
     0
  0
CLASS
  1
ACME_DATABASE
  2
AcMeDbDatabase
  3
AcMeServices
 90
        0
280
     0
281
     0
  0
CLASS
  1
ACRFINSADJUSTERMGR
  2
AcRfInsAdjusterMgr
  3
AcMeServices
 90
        0
280
     0
281
     0
  0
CLASS
  1
ACMDATADICTIONARY
  2
AcmDataDictionary
  3
"AcmSymBB|Product Description: AutoCAD Mechanical 2000|Company: Autodesk"
 90
        0
280
     0
281
     0
  0
CLASS
  1
ACMDATAENTRYBLOCK
  2
AcmDataEntryBlock
  3
"AcmSymBB|Product Description: AutoCAD Mechanical 2000|Company: Autodesk"
 90
        0
280
     0
281
     0
  0
CLASS
  1
AMGOBJPROPCFG
  2
AmgObjPropCfg
  3
"AmgLay|Product Description: AutoCAD Mechanical 2000|Company: Autodesk"
 90
        1
280
     0
281
     0
  0
CLASS
  1
ACAMGFILTERDAT
  2
AcAmgFilterDat
  3
"AcadM|Product Description: AutoCAD Mechanical 2000|Company: Autodesk"
 90
        0
280
     0
281
     0
  0
CLASS
  1
LAYER_INDEX
  2
AcDbLayerIndex
  3
AutoCAD 2000
 90
        0
280
     0
281
     0
  0
CLASS
  1
IDBUFFER
  2
AcDbIdBuffer
  3
AutoCAD 2000
 90
        0
280
     0
281
     0
  0
CLASS
  1
ACIMSTRSYSVAR
  2
AcImStrSysVar
  3
AcMeServices
 90
        0
280
     0
281
     0
  0
CLASS
  1
ACMSTANDARDJIS
  2
AcmStandardJIS
  3
"AcmSymBB|Product Description: AutoCAD Mechanical 2000|Company: Autodesk"
 90
        0
280
     0
281
     0
  0
CLASS
  1
ACMSURFSTANDARDJIS
  2
AcmSurfTextStdJIS
  3
"AcmSymBB|Product Description: AutoCAD Mechanical 2000|Company: Autodesk"
 90
        0
280
     0
281
     0
  0
CLASS
  1
ACMFCFSTANDARDJIS
  2
AcmFCFStdJIS
  3
"AcmSymBB|Product Description: AutoCAD Mechanical 2000|Company: Autodesk"
 90
        0
280
     0
281
     0
  0
CLASS
  1
ACMWELDSTANDARDJIS
  2
AcmWeldingStdJIS
  3
"AcmSymBB|Product Description: AutoCAD Mechanical 2000|Company: Autodesk"
 90
        0
280
     0
281
     0
  0
CLASS
  1
ACMIDSTANDARDJIS
  2
AcmIdStdJIS
  3
"AcmSymBB|Product Description: AutoCAD Mechanical 2000|Company: Autodesk"
 90
        0
280
     0
281
     0
  0
CLASS
  1
ACMDATUMSTANDARDJIS
  2
AcmDatumStdJIS
  3
"AcmSymBB|Product Description: AutoCAD Mechanical 2000|Company: Autodesk"
 90
        0
280
     0
281
     0
  0
CLASS
  1
ACMBOMSTANDARDJIS
  2
AcmBOMStdJIS
  3
"AcmSymBB|Product Description: AutoCAD Mechanical 2000|Company: Autodesk"
 90
        0
280
     0
281
     0
  0
CLASS
  1
ACMSTANDARDANSI
  2
AcmStandardANSI
  3
"AcmSymBB|Product Description: AutoCAD Mechanical 2000|Company: Autodesk"
 90
        0
280
     0
281
     0
  0
CLASS
  1
ACMSURFSTANDARDANSI
  2
AcmSurfTextStdANSI
  3
"AcmSymBB|Product Description: AutoCAD Mechanical 2000|Company: Autodesk"
 90
        0
280
     0
281
     0
  0
CLASS
  1
ACMFCFSTANDARDANSI
  2
AcmFCFStdANSI
  3
"AcmSymBB|Product Description: AutoCAD Mechanical 2000|Company: Autodesk"
 90
        0
280
     0
281
     0
  0
CLASS
  1
ACMWELDSTANDARDANSI
  2
AcmWeldingStdANSI
  3
"AcmSymBB|Product Description: AutoCAD Mechanical 2000|Company: Autodesk"
 90
        0
280
     0
281
     0
  0
CLASS
  1
ACMIDSTANDARDANSI
  2
AcmIdStdANSI
  3
"AcmSymBB|Product Description: AutoCAD Mechanical 2000|Company: Autodesk"
 90
        0
280
     0
281
     0
  0
CLASS
  1
ACMDATUMSTANDARDANSI
  2
AcmDatumStdANSI
  3
"AcmSymBB|Product Description: AutoCAD Mechanical 2000|Company: Autodesk"
 90
        0
280
     0
281
     0
  0
CLASS
  1
ACMBOMSTANDARDANSI
  2
AcmBOMStdANSI
  3
"AcmSymBB|Product Description: AutoCAD Mechanical 2000|Company: Autodesk"
 90
        0
280
     0
281
     0
  0
CLASS
  1
ACMSTANDARDBSI
  2
AcmStandardBSI
  3
"AcmSymBB|Product Description: AutoCAD Mechanical 2000|Company: Autodesk"
 90
        0
280
     0
281
     0
  0
CLASS
  1
ACMSURFSTANDARDBSI
  2
AcmSurfTextStdBSI
  3
"AcmSymBB|Product Description: AutoCAD Mechanical 2000|Company: Autodesk"
 90
        0
280
     0
281
     0
  0
CLASS
  1
ACMFCFSTANDARDBSI
  2
AcmFCFStdBSI
  3
"AcmSymBB|Product Description: AutoCAD Mechanical 2000|Company: Autodesk"
 90
        0
280
     0
281
     0
  0
CLASS
  1
ACMWELDSTANDARDBSI
  2
AcmWeldingStdBSI
  3
"AcmSymBB|Product Description: AutoCAD Mechanical 2000|Company: Autodesk"
 90
        0
280
     0
281
     0
  0
CLASS
  1
ACMIDSTANDARDBSI
  2
AcmIdStdBSI
  3
"AcmSymBB|Product Description: AutoCAD Mechanical 2000|Company: Autodesk"
 90
        0
280
     0
281
     0
  0
CLASS
  1
ACMDATUMSTANDARDBSI
  2
AcmDatumStdBSI
  3
"AcmSymBB|Product Description: AutoCAD Mechanical 2000|Company: Autodesk"
 90
        0
280
     0
281
     0
  0
CLASS
  1
ACMBOMSTANDARDBSI
  2
AcmBOMStdBSI
  3
"AcmSymBB|Product Description: AutoCAD Mechanical 2000|Company: Autodesk"
 90
        0
280
     0
281
     0
  0
CLASS
  1
LONG_TRANSACTION
  2
AcDbLongTransaction
  3
AutoCAD 2000
 90
        0
280
     0
281
     0
  0
CLASS
  1
LWPOLYLINE
  2
AcDbPolyline
  3
AutoCAD 2000
 90
        0
280
     0
281
     1
  0
CLASS
  1
HATCH
  2
AcDbHatch
  3
AutoCAD 2000
 90
        0
280
     0
281
     1
  0
CLASS
  1
XRECORD
  2
AcDbXrecord
  3
AutoCAD 2000
 90
        0
280
     0
281
     0
  0
ENDSEC
  0
SECTION
  2
TABLES
  0
TABLE
  2
VPORT
  5
8
330
0
100
AcDbSymbolTable
 70
     3
  0
VPORT
  5
3209
330
8
100
AcDbSymbolTableRecord
100
AcDbViewportTableRecord
  2
*ACTIVE
 70
     0
 10
0.0
 20
0.0
 11
1.0
 21
1.0
 12
-48.0276359356546
 22
-7.577356301661282
 13
0.0
 23
0.0
 14
2.5
 24
2.5
 15
10.0
 25
10.0
 16
0.0
 26
0.0
 36
1.0
 17
0.0
 27
0.0
 37
0.0
 40
84.24558344811764
 41
1.56570841889117
 42
50.0
 43
0.0
 44
0.0
 50
0.0
 51
0.0
 71
     0
 72
   100
 73
     1
 74
     1
 75
     0
 76
     0
 77
     0
 78
     0
  0
ENDTAB
  0
TABLE
  2
LTYPE
  5
5
330
0
100
AcDbSymbolTable
 70
    10
  0
LTYPE
  5
14
330
5
100
AcDbSymbolTableRecord
100
AcDbLinetypeTableRecord
  2
BYBLOCK
 70
     0
  3

 72
    65
 73
     0
 40
0.0
  0
LTYPE
  5
15
330
5
100
AcDbSymbolTableRecord
100
AcDbLinetypeTableRecord
  2
BYLAYER
 70
     0
  3

 72
    65
 73
     0
 40
0.0
  0
LTYPE
  5
16
330
5
100
AcDbSymbolTableRecord
100
AcDbLinetypeTableRecord
  2
CONTINUOUS
 70
     0
  3
Solid line
 72
    65
 73
     0
 40
0.0
  0
LTYPE
  5
4B
330
5
100
AcDbSymbolTableRecord
100
AcDbLinetypeTableRecord
  2
AM_ISO02W050
 70
     0
  3
__ __ __ __ __ __ __ __ __ __ __ __ __ __ __
 72
    65
 73
     2
 40
7.5
 49
6.0
 74
     0
 49
-1.5
 74
     0
  0
LTYPE
  5
4C
330
5
100
AcDbSymbolTableRecord
100
AcDbLinetypeTableRecord
  2
AM_ISO08W050
 70
     0
  3
____ . ____ . ____ . ____ . ____ . ____ . ____
 72
    65
 73
     4
 40
18.0
 49
12.0
 74
     0
 49
-1.5
 74
     0
 49
3.0
 74
     0
 49
-1.5
 74
     0
  0
LTYPE
  5
4D
330
5
100
AcDbSymbolTableRecord
100
AcDbLinetypeTableRecord
  2
AM_ISO09W050
 70
     0
  3
_____ . . _____ . . _____ . . ____ .. ____
 72
    65
 73
     6
 40
22.5
 49
12.0
 74
     0
 49
-1.5
 74
     0
 49
3.0
 74
     0
 49
-1.5
 74
     0
 49
3.0
 74
     0
 49
-1.5
 74
     0
  0
LTYPE
  5
4E
330
5
100
AcDbSymbolTableRecord
100
AcDbLinetypeTableRecord
  2
AMCONSTR
 70
     0
  3
_______________________
 72
    65
 73
     2
 40
9999.0
 49
9999.0
 74
     0
 49
0.0
 74
     0
  0
LTYPE
  5
4F
330
5
100
AcDbSymbolTableRecord
100
AcDbLinetypeTableRecord
  2
AM_ISO02W050X2
 70
     0
  3
 _ _ _ _ _ _ _ _ _ _ _ _
 72
    65
 73
     2
 40
3.75
 49
3.0
 74
     0
 49
-0.75
 74
     0
  0
LTYPE
  5
50
330
5
100
AcDbSymbolTableRecord
100
AcDbLinetypeTableRecord
  2
AM_ISO08W050X2
 70
     0
  3
__ . __ . __ . __ . __ . __
 72
    65
 73
     4
 40
9.0
 49
6.0
 74
     0
 49
-0.75
 74
     0
 49
1.5
 74
     0
 49
-0.75
 74
     0
  0
LTYPE
  5
53
330
5
100
AcDbSymbolTableRecord
100
AcDbLinetypeTableRecord
  2
AMZIGZAG
 70
     0
  3
/\/-/\/-/\/-/\/-/\/-/\/
 72
    65
 73
     2
 40
11.00009999999999
 49
0.0001
 74
     4
 75
   135
340
52
 46
0.04
 50
0.0
 44
0.0
 45
0.0
 49
-11.0
 74
     0
  0
LTYPE
  5
166
330
5
100
AcDbSymbolTableRecord
100
AcDbLinetypeTableRecord
  2
ACJISTGL
 70
     0
  3
_ _ _ _ _
 72
    65
 73
     2
 40
3.0
 49
2.0
 74
     0
 49
-1.0
 74
     0
  0
LTYPE
  5
26A
330
5
100
AcDbSymbolTableRecord
100
AcDbLinetypeTableRecord
  2
ACJISTGB
 70
     0
  3
__ . . __ . .
 72
    65
 73
     6
 40
9.0
 49
4.0
 74
     0
 49
-1.0
 74
     0
 49
1.0
 74
     0
 49
-1.0
 74
     0
 49
1.0
 74
     0
 49
-1.0
 74
     0
  0
ENDTAB
  0
TABLE
  2
LAYER
  5
2
330
0
100
AcDbSymbolTable
 70
     7
  0
LAYER
  5
10
330
2
100
AcDbSymbolTableRecord
100
AcDbLayerTableRecord
  2
0
 70
     0
 62
     7
  6
CONTINUOUS
  0
LAYER
  5
3F9
330
2
100
AcDbSymbolTableRecord
100
AcDbLayerTableRecord
  2
AM_0
 70
     0
 62
     7
  6
CONTINUOUS
  0
LAYER
  5
C7C
330
2
100
AcDbSymbolTableRecord
100
AcDbLayerTableRecord
  2
AM_7
 70
     0
 62
     4
  6
AM_ISO08W050
  0
LAYER
  5
C97
330
2
100
AcDbSymbolTableRecord
100
AcDbLayerTableRecord
  2
AM_11
 70
     0
 62
     3
  6
AM_ISO09W050
  0
LAYER
  5
CC5
330
2
100
AcDbSymbolTableRecord
100
AcDbLayerTableRecord
  2
AM_5
 70
     0
 62
     3
  6
CONTINUOUS
  0
LAYER
  5
CC7
330
2
100
AcDbSymbolTableRecord
100
AcDbLayerTableRecord
  2
DEFPOINTS
 70
     0
 62
     7
  6
CONTINUOUS
  0
LAYER
  5
19BC
330
2
100
AcDbSymbolTableRecord
100
AcDbLayerTableRecord
  2
AM_6
 70
     0
 62
     2
  6
CONTINUOUS
  0
ENDTAB
  0
TABLE
  2
STYLE
  5
3
330
0
100
AcDbSymbolTable
 70
     5
  0
STYLE
  5
11
330
3
100
AcDbSymbolTableRecord
100
AcDbTextStyleTableRecord
  2
STANDARD
 70
     0
 40
0.0
 41
1.0
 50
0.0
 71
     0
 42
2.5
  3
simplex.shx
  4
EXTFONT.SHX
  0
STYLE
  5
52
330
3
100
AcDbSymbolTableRecord
100
AcDbTextStyleTableRecord
  2

 70
     1
 40
0.0
 41
1.0
 50
0.0
 71
     0
 42
2.5
  3
ltypeshp.shx
  4

  0
STYLE
  5
6B
330
3
100
AcDbSymbolTableRecord
100
AcDbTextStyleTableRecord
  2
ASAMI
 70
     0
 40
0.0
 41
1.0
 50
0.0
 71
     0
 42
2.5
  3
simplex.shx
  4
EXTFONT.SHX
  0
STYLE
  5
262
330
3
100
AcDbSymbolTableRecord
100
AcDbTextStyleTableRecord
  2
ACJISTS
 70
     0
 40
1.0
 41
1.0
 50
0.0
 71
     0
 42
2.5
  3
simplex.shx
  4
bigfont.shx
  0
STYLE
  5
269
330
3
100
AcDbSymbolTableRecord
100
AcDbTextStyleTableRecord
  2
ACJISGDT
 70
     0
 40
0.0
 41
1.0
 50
0.0
 71
     0
 42
2.5
  3
amgdtans.shx
  4

  0
ENDTAB
  0
TABLE
  2
VIEW
  5
6
330
0
100
AcDbSymbolTable
 70
     0
  0
ENDTAB
  0
TABLE
  2
UCS
  5
7
330
0
100
AcDbSymbolTable
 70
     0
  0
ENDTAB
  0
TABLE
  2
APPID
  5
9
330
0
100
AcDbSymbolTable
 70
    16
  0
APPID
  5
12
330
9
100
AcDbSymbolTableRecord
100
AcDbRegAppTableRecord
  2
ACAD
 70
     0
  0
APPID
  5
30
330
9
100
AcDbSymbolTableRecord
100
AcDbRegAppTableRecord
  2
MCAD_NO_VIS
 70
     0
  0
APPID
  5
31
330
9
100
AcDbSymbolTableRecord
100
AcDbRegAppTableRecord
  2
ACAD_TEMP_GRAPHIC
 70
     0
  0
APPID
  5
2C2
330
9
100
AcDbSymbolTableRecord
100
AcDbRegAppTableRecord
  2
GENIUS_GENDTOL_13
 70
     0
  0
APPID
  5
339
330
9
100
AcDbSymbolTableRecord
100
AcDbRegAppTableRecord
  2
GENIUS_GENODEF_13
 70
     0
  0
APPID
  5
33A
330
9
100
AcDbSymbolTableRecord
100
AcDbRegAppTableRecord
  2
GENIUS_GENOBJ-N-RSBK_13
 70
     0
  0
APPID
  5
33B
330
9
100
AcDbSymbolTableRecord
100
AcDbRegAppTableRecord
  2
GENIUS_GENOBJ-N-LIB_13
 70
     0
  0
APPID
  5
33C
330
9
100
AcDbSymbolTableRecord
100
AcDbRegAppTableRecord
  2
GENIUS_GENSCALE_13
 70
     0
  0
APPID
  5
378
330
9
100
AcDbSymbolTableRecord
100
AcDbRegAppTableRecord
  2
GENIUS_GENDIMSH_14
 70
     0
  0
APPID
  5
C82
330
9
100
AcDbSymbolTableRecord
100
AcDbRegAppTableRecord
  2
GENIUS_GENOBJ-N-CRS_13
 70
     0
  0
APPID
  5
C83
330
9
100
AcDbSymbolTableRecord
100
AcDbRegAppTableRecord
  2
GENIUS_GENOENT_13
 70
     0
  0
APPID
  5
C84
330
9
100
AcDbSymbolTableRecord
100
AcDbRegAppTableRecord
  2
GENIUS_GENOREF_13
 70
     0
  0
APPID
  5
C85
330
9
100
AcDbSymbolTableRecord
100
AcDbRegAppTableRecord
  2
GENIUS_GENOLIS_13
 70
     0
  0
APPID
  5
CA0
330
9
100
AcDbSymbolTableRecord
100
AcDbRegAppTableRecord
  2
GENIUS_GENOBJ-N-CEN_13
 70
     0
  0
APPID
  5
1E1E
330
9
100
AcDbSymbolTableRecord
100
AcDbRegAppTableRecord
  2
GENIUS_GENFIL_13
 70
     0
  0
APPID
  5
1E1F
330
9
100
AcDbSymbolTableRecord
100
AcDbRegAppTableRecord
  2
GENIUS_GENOBJ-N-CHA_13
 70
     0
  0
ENDTAB
  0
TABLE
  2
DIMSTYLE
  5
A
330
0
100
AcDbSymbolTable
 70
     9
  0
DIMSTYLE
105
58
330
A
100
AcDbSymbolTableRecord
100
AcDbDimStyleTableRecord
  2
AM_JIS
 70
     0
  3

  4
"
  5
OPEN30
  6

  7

 40
0.5
 41
2.5
 42
1.0
 43
12.0
 44
1.0
 45
0.0
 46
0.0
 47
0.1
 48
0.1
140
3.2
141
0.0
142
0.0
143
0.0393701
144
1.0
145
0.0
146
0.71
147
1.5
 71
     0
 72
     0
 73
     0
 74
     0
 75
     0
 76
     0
 77
     3
 78
     8
170
     0
171
     2
172
     1
173
     0
174
     0
175
     0
176
   256
177
   256
178
     2
270
     2
271
     3
272
     3
273
     2
274
     2
340
6B
275
     0
280
     0
281
     0
282
     0
283
     0
284
     0
285
     0
286
     0
287
     3
288
     0
  0
DIMSTYLE
105
5F
330
A
100
AcDbSymbolTableRecord
100
AcDbDimStyleTableRecord
  2
AM_JIS$3
 70
     0
  3

  4
"
  5
OPEN30
  6

  7

 40
0.5
 41
2.5
 42
1.0
 43
10.0
 44
1.0
 45
0.0
 46
0.0
 47
0.1
 48
0.1
140
3.2
141
0.0
142
0.0
143
0.0393701
144
1.0
145
0.0
146
0.71
147
1.5
 71
     0
 72
     0
 73
     0
 74
     1
 75
     0
 76
     0
 77
     3
 78
     8
170
     0
171
     2
172
     0
173
     0
174
     0
175
     0
176
   256
177
   256
178
     2
270
     2
271
     2
272
     3
273
     2
274
     2
340
6B
275
     0
280
     0
281
     0
282
     0
283
     0
284
     0
285
     0
286
     0
287
     0
288
     1
  0
DIMSTYLE
105
60
330
A
100
AcDbSymbolTableRecord
100
AcDbDimStyleTableRecord
  2
AM_JIS$4
 70
     0
  3

  4
"
  5
OPEN30
  6

  7

 40
0.5
 41
2.5
 42
1.0
 43
10.0
 44
1.0
 45
0.0
 46
0.0
 47
0.1
 48
0.1
140
3.2
141
0.0
142
0.0
143
0.0393701
144
1.0
145
0.0
146
0.71
147
1.5
 71
     0
 72
     0
 73
     0
 74
     1
 75
     0
 76
     0
 77
     3
 78
     8
170
     0
171
     2
172
     0
173
     0
174
     0
175
     0
176
   256
177
   256
178
     2
270
     2
271
     2
272
     3
273
     2
274
     2
340
6B
275
     0
280
     0
281
     0
282
     0
283
     0
284
     0
285
     0
286
     0
287
     0
288
     1
  0
DIMSTYLE
105
61
330
A
100
AcDbSymbolTableRecord
100
AcDbDimStyleTableRecord
  2
AM_JIS$6
 70
     0
  3

  4
"
  5
OPEN30
  6

  7

 40
0.5
 41
2.5
 42
1.0
 43
10.0
 44
1.0
 45
0.0
 46
0.0
 47
0.1
 48
0.1
140
3.2
141
0.0
142
0.0
143
0.0393701
144
1.0
145
0.0
146
0.71
147
1.5
 71
     0
 72
     0
 73
     0
 74
     0
 75
     0
 76
     0
 77
     0
 78
     8
170
     0
171
     2
172
     1
173
     0
174
     0
175
     0
176
   256
177
   256
178
     2
270
     2
271
     2
272
     2
273
     2
274
     2
340
6B
275
     0
280
     0
281
     0
282
     0
283
     0
284
     0
285
     0
286
     0
287
     3
288
     0
  0
DIMSTYLE
105
62
330
A
100
AcDbSymbolTableRecord
100
AcDbDimStyleTableRecord
  2
AM_JIS$7
 70
     0
  3

  4
"
  5
OPEN30
  6

  7

 40
0.5
 41
2.5
 42
1.0
 43
10.0
 44
1.0
 45
0.0
 46
0.0
 47
0.1
 48
0.1
140
3.2
141
0.0
142
0.0
143
0.0393701
144
1.0
145
0.0
146
0.71
147
1.5
 71
     0
 72
     0
 73
     0
 74
     0
 75
     0
 76
     0
 77
     3
 78
     8
170
     0
171
     2
172
     1
173
     0
174
     0
175
     0
176
   256
177
   256
178
     2
270
     2
271
     2
272
     3
273
     2
274
     2
340
6B
275
     0
280
     0
281
     0
282
     0
283
     0
284
     0
285
     0
286
     0
287
     3
288
     0
  0
DIMSTYLE
105
63
330
A
100
AcDbSymbolTableRecord
100
AcDbDimStyleTableRecord
  2
AM_JIS$SF
 70
     0
  3

  4
"
  5
OPEN30
  6

  7

 40
0.5
 41
2.5
 42
1.0
 43
10.0
 44
1.0
 45
0.0
 46
0.0
 47
0.1
 48
0.1
140
3.2
141
0.0
142
0.0
143
0.0393701
144
1.0
145
0.0
146
0.71
147
1.5
 71
     0
 72
     0
 73
     0
 74
     0
 75
     1
 76
     1
 77
     3
 78
     8
170
     0
171
     2
172
     1
173
     0
174
     0
175
     0
176
   256
177
   256
178
     2
270
     2
271
     2
272
     2
273
     2
274
     2
340
6B
275
     0
280
     0
281
     0
282
     0
283
     0
284
     0
285
     0
286
     0
287
     3
288
     0
  0
DIMSTYLE
105
68
330
A
100
AcDbSymbolTableRecord
100
AcDbDimStyleTableRecord
  2
AM_JIS$SH
 70
     0
  3

  4
"
  5

  6
GENAXEH
  7
OPEN30
 40
0.5
 41
2.5
 42
1.0
 43
10.0
 44
1.0
 45
0.0
 46
0.0
 47
0.1
 48
0.1
140
3.2
141
0.0
142
0.0
143
0.0393701
144
2.0
145
0.0
146
0.71
147
1.5
 71
     0
 72
     0
 73
     0
 74
     0
 75
     1
 76
     1
 77
     3
 78
     8
170
     0
171
     2
172
     1
173
     1
174
     0
175
     0
176
   256
177
   256
178
     2
270
     2
271
     2
272
     2
273
     2
274
     2
340
6B
275
     0
280
     0
281
     0
282
     0
283
     0
284
     0
285
     0
286
     0
287
     3
288
     0
  0
DIMSTYLE
105
B34
102
{ACAD_REACTORS
330
2BA8
102
}
330
A
100
AcDbSymbolTableRecord
100
AcDbDimStyleTableRecord
  2
AM_JIS$2
 70
     0
  3

  4
"
  5
OPEN30
  6

  7

 40
0.5
 41
2.5
 42
1.0
 43
12.0
 44
1.0
 45
0.0
 46
0.0
 47
0.1
 48
0.1
140
3.2
141
0.0
142
0.0
143
0.0393701
144
1.0
145
0.0
146
0.71
147
1.5
 71
     0
 72
     0
 73
     0
 74
     0
 75
     0
 76
     0
 77
     3
 78
     8
170
     0
171
     2
172
     1
173
     0
174
     0
175
     0
176
   256
177
   256
178
     2
270
     2
271
     3
272
     3
273
     2
274
     2
340
6B
275
     0
280
     0
281
     0
282
     0
283
     0
284
     0
285
     0
286
     0
287
     3
288
     0
  0
DIMSTYLE
105
BA5
102
{ACAD_REACTORS
330
CC6
330
DF5
330
228A
330
2D88
102
}
330
A
100
AcDbSymbolTableRecord
100
AcDbDimStyleTableRecord
  2
AM_JIS$0
 70
     0
  3

  4
"
  5
OPEN30
  6

  7

 40
0.5
 41
2.5
 42
0.0
 43
10.0
 44
1.0
 45
0.0
 46
0.0
 47
0.1
 48
0.1000000001
140
3.799999999999999
141
0.0
142
0.0
143
0.0393701
144
1.0
145
0.0
146
0.71
147
1.5
 71
     0
 72
     0
 73
     0
 74
     0
 75
     0
 76
     0
 77
     3
 78
     1
170
     0
171
     2
172
     1
173
     0
174
     0
175
     0
176
     3
177
     3
178
     2
270
     2
271
     2
272
     2
273
     2
274
     2
340
11
275
     1
280
     0
281
     0
282
     0
283
     0
284
     8
285
     0
286
     0
287
     0
288
     0
  0
ENDTAB
  0
TABLE
  2
BLOCK_RECORD
  5
1
330
0
100
AcDbSymbolTable
 70
    10
  0
BLOCK_RECORD
  5
1F
102
{ACAD_XDICTIONARY
360
74
102
}
330
1
100
AcDbSymbolTableRecord
100
AcDbBlockTableRecord
  2
*MODEL_SPACE
  0
BLOCK_RECORD
  5
101
102
{ACAD_XDICTIONARY
360
3232
102
}
330
1
100
AcDbSymbolTableRecord
100
AcDbBlockTableRecord
  2
*PAPER_SPACE
  0
BLOCK_RECORD
  5
59
330
1
100
AcDbSymbolTableRecord
100
AcDbBlockTableRecord
  2
_OPEN30
  0
BLOCK_RECORD
  5
64
330
1
100
AcDbSymbolTableRecord
100
AcDbBlockTableRecord
  2
GENAXEH
  0
BLOCK_RECORD
  5
CC8
330
1
100
AcDbSymbolTableRecord
100
AcDbBlockTableRecord
  2
*D5
  0
BLOCK_RECORD
  5
DF6
330
1
100
AcDbSymbolTableRecord
100
AcDbBlockTableRecord
  2
*D6
  0
BLOCK_RECORD
  5
228B
330
1
100
AcDbSymbolTableRecord
100
AcDbBlockTableRecord
  2
*D7
  0
BLOCK_RECORD
  5
2BA9
330
1
100
AcDbSymbolTableRecord
100
AcDbBlockTableRecord
  2
*D8
  0
BLOCK_RECORD
  5
2D89
330
1
100
AcDbSymbolTableRecord
100
AcDbBlockTableRecord
  2
*D9
  0
ENDTAB
  0
ENDSEC
  0
SECTION
  2
BLOCKS
  0
BLOCK
  5
20
330
1F
100
AcDbEntity
  8
0
100
AcDbBlockBegin
  2
*MODEL_SPACE
 70
     0
 10
0.0
 20
0.0
 30
0.0
  3
*MODEL_SPACE
  1

  0
ENDBLK
  5
21
330
1F
100
AcDbEntity
  8
0
100
AcDbBlockEnd
  0
BLOCK
  5
103
330
101
100
AcDbEntity
 67
     1
  8
0
100
AcDbBlockBegin
  2
*PAPER_SPACE
 70
     0
 10
0.0
 20
0.0
 30
0.0
  3
*PAPER_SPACE
  1

  0
ENDBLK
  5
104
330
101
100
AcDbEntity
 67
     1
  8
0
100
AcDbBlockEnd
  0
BLOCK
  5
5D
330
59
100
AcDbEntity
  8
0
100
AcDbBlockBegin
  2
_OPEN30
 70
     0
 10
0.0
 20
0.0
 30
0.0
  3
_OPEN30
  1

  0
LINE
  5
5A
330
59
100
AcDbEntity
  8
0
 62
     0
100
AcDbLine
 10
-1.0
 20
0.26794919
 30
0.0
 11
0.0
 21
0.0
 31
0.0
  0
LINE
  5
5B
330
59
100
AcDbEntity
  8
0
 62
     0
100
AcDbLine
 10
0.0
 20
0.0
 30
0.0
 11
-1.0
 21
-0.26794919
 31
0.0
  0
LINE
  5
5C
330
59
100
AcDbEntity
  8
0
 62
     0
100
AcDbLine
 10
0.0
 20
0.0
 30
0.0
 11
-1.0
 21
0.0
 31
0.0
  0
ENDBLK
  5
5E
330
59
100
AcDbEntity
  8
0
100
AcDbBlockEnd
  0
BLOCK
  5
66
330
64
100
AcDbEntity
  8
0
100
AcDbBlockBegin
  2
GENAXEH
 70
     0
 10
0.0
 20
0.0
 30
0.0
  3
GENAXEH
  1

  0
LINE
  5
65
330
64
100
AcDbEntity
  8
0
100
AcDbLine
 10
-1.0
 20
0.0
 30
0.0
 11
1.0
 21
0.0
 31
0.0
  0
ENDBLK
  5
67
330
64
100
AcDbEntity
  8
0
100
AcDbBlockEnd
  0
BLOCK
  5
CD2
330
CC8
100
AcDbEntity
  8
0
100
AcDbBlockBegin
  2
*D5
 70
     1
 10
0.0
 20
0.0
 30
0.0
  3
*D5
  1

  0
LINE
  5
31B7
330
CC8
100
AcDbEntity
  8
AM_5
 62
     3
100
AcDbLine
 10
-101.9999999999999
 20
-4.000000000000023
 30
0.0
 11
-101.9999999999999
 21
-17.00000236965379
 31
0.0
  0
LINE
  5
31B8
330
CC8
100
AcDbEntity
  8
AM_5
 62
     3
100
AcDbLine
 10
-1.999998253225045
 20
-4.299999463483334
 30
0.0
 11
-1.999998253225046
 21
-17.00000236965379
 31
0.0
  0
LINE
  5
31B9
330
CC8
100
AcDbEntity
  8
AM_5
 62
     3
100
AcDbLine
 10
-100.7499999999999
 20
-16.5000023696538
 30
0.0
 11
-3.249998253225046
 21
-16.5000023696538
 31
0.0
  0
INSERT
  5
31BA
330
CC8
100
AcDbEntity
  8
AM_5
 62
     3
100
AcDbBlockReference
  2
_OPEN30
 10
-101.9999999999999
 20
-16.5000023696538
 30
0.0
 41
1.25
 42
1.25
 43
1.25
 50
180.0
  0
INSERT
  5
31BB
330
CC8
100
AcDbEntity
  8
AM_5
 62
     3
100
AcDbBlockReference
  2
_OPEN30
 10
-1.999998253225046
 20
-16.5000023696538
 30
0.0
 41
1.25
 42
1.25
 43
1.25
  0
MTEXT
  5
31BC
330
CC8
100
AcDbEntity
  8
AM_5
 62
     2
100
AcDbMText
 10
-51.99999912661251
 20
-14.8000023696538
 30
0.0
 40
1.9
 41
0.0
 71
     5
 72
     1
  1
100
1001
ACAD
1000
MTEXTBEGIN
1070
    73
1070
     1
1070
    44
1040
1.0
1070
    74
1070
     0
1000
MTEXTEND
  0
POINT
  5
31BD
330
CC8
100
AcDbEntity
  8
DEFPOINTS
 62
     0
100
AcDbPoint
 10
-101.9999999999999
 20
-4.000000000000023
 30
0.0
  0
POINT
  5
31BE
330
CC8
100
AcDbEntity
  8
DEFPOINTS
 62
     0
100
AcDbPoint
 10
-1.999998253225045
 20
-4.299999463483334
 30
0.0
  0
POINT
  5
31BF
330
CC8
100
AcDbEntity
  8
DEFPOINTS
 62
     0
100
AcDbPoint
 10
-1.999998253225046
 20
-16.5000023696538
 30
0.0
  0
ENDBLK
  5
CD3
330
CC8
100
AcDbEntity
  8
0
100
AcDbBlockEnd
  0
BLOCK
  5
E00
330
DF6
100
AcDbEntity
  8
0
100
AcDbBlockBegin
  2
*D6
 70
     1
 10
0.0
 20
0.0
 30
0.0
  3
*D6
  1

  0
LINE
  5
31DD
330
DF6
100
AcDbEntity
  8
AM_5
 62
     3
100
AcDbLine
 10
-47.0
 20
-4.500001369653893
 30
0.0
 11
-47.0
 21
-12.00000236965377
 31
0.0
  0
LINE
  5
31DE
330
DF6
100
AcDbEntity
  8
AM_5
 62
     3
100
AcDbLine
 10
-1.999998253225045
 20
-4.299999463483334
 30
0.0
 11
-1.999998253225046
 21
-12.00000236965377
 31
0.0
  0
LINE
  5
31DF
330
DF6
100
AcDbEntity
  8
AM_5
 62
     3
100
AcDbLine
 10
-45.75
 20
-11.50000236965377
 30
0.0
 11
-3.249998253225046
 21
-11.50000236965377
 31
0.0
  0
INSERT
  5
31E0
330
DF6
100
AcDbEntity
  8
AM_5
 62
     3
100
AcDbBlockReference
  2
_OPEN30
 10
-47.0
 20
-11.50000236965377
 30
0.0
 41
1.25
 42
1.25
 43
1.25
 50
180.0
  0
INSERT
  5
31E1
330
DF6
100
AcDbEntity
  8
AM_5
 62
     3
100
AcDbBlockReference
  2
_OPEN30
 10
-1.999998253225046
 20
-11.50000236965377
 30
0.0
 41
1.25
 42
1.25
 43
1.25
  0
MTEXT
  5
31E2
330
DF6
100
AcDbEntity
  8
AM_5
 62
     2
100
AcDbMText
 10
-24.49999912661252
 20
-9.800002369653773
 30
0.0
 40
1.9
 41
0.0
 71
     5
 72
     1
  1
45
1001
ACAD
1000
MTEXTBEGIN
1070
    73
1070
     1
1070
    44
1040
1.0
1070
    74
1070
     0
1000
MTEXTEND
  0
POINT
  5
31E3
330
DF6
100
AcDbEntity
  8
DEFPOINTS
 62
     0
100
AcDbPoint
 10
-47.0
 20
-4.500001369653893
 30
0.0
  0
POINT
  5
31E4
330
DF6
100
AcDbEntity
  8
DEFPOINTS
 62
     0
100
AcDbPoint
 10
-1.999998253225045
 20
-4.299999463483334
 30
0.0
  0
POINT
  5
31E5
330
DF6
100
AcDbEntity
  8
DEFPOINTS
 62
     0
100
AcDbPoint
 10
-1.999998253225046
 20
-11.50000236965377
 30
0.0
  0
ENDBLK
  5
E01
330
DF6
100
AcDbEntity
  8
0
100
AcDbBlockEnd
  0
BLOCK
  5
2297
330
228B
100
AcDbEntity
  8
0
100
AcDbBlockBegin
  2
*D7
 70
     1
 10
0.0
 20
0.0
 30
0.0
  3
*D7
  1

  0
LINE
  5
31C0
330
228B
100
AcDbEntity
  8
AM_5
 62
     3
100
AcDbLine
 10
-101.4999999999999
 20
-4.500000000000331
 30
0.0
 11
-111.5000009999999
 21
-4.500000000000358
 31
0.0
  0
LINE
  5
31C1
330
228B
100
AcDbEntity
  8
AM_5
 62
     3
100
AcDbLine
 10
-101.5
 20
4.499999999999691
 30
0.0
 11
-111.5000009999999
 21
4.499999999999664
 31
0.0
  0
LINE
  5
31C2
330
228B
100
AcDbEntity
  8
AM_5
 62
     3
100
AcDbLine
 10
-111.0000009999999
 20
-3.250000000000357
 30
0.0
 11
-111.0000009999999
 21
3.249999999999665
 31
0.0
  0
INSERT
  5
31C3
330
228B
100
AcDbEntity
  8
AM_5
 62
     3
100
AcDbBlockReference
  2
_OPEN30
 10
-111.0000009999999
 20
-4.500000000000357
 30
0.0
 41
1.25
 42
1.25
 43
1.25
 50
270.0000000000001
  0
INSERT
  5
31C4
330
228B
100
AcDbEntity
  8
AM_5
 62
     3
100
AcDbBlockReference
  2
_OPEN30
 10
-111.0000009999999
 20
4.499999999999665
 30
0.0
 41
1.25
 42
1.25
 43
1.25
 50
90.00000000000015
  0
MTEXT
  5
31C5
330
228B
100
AcDbEntity
  8
AM_5
 62
     2
100
AcDbMText
 10
-112.7000009999999
 20
-0.0000000000003448
 30
0.0
 40
1.9
 41
0.0
 71
     5
 72
     1
  1
%%c9
 11
-0.0000000000000028
 21
1.0
 31
0.0
1001
ACAD
1000
MTEXTBEGIN
1070
    73
1070
     1
1070
    44
1040
1.0
1070
    74
1070
     0
1000
MTEXTEND
  0
POINT
  5
31C6
330
228B
100
AcDbEntity
  8
DEFPOINTS
 62
     0
100
AcDbPoint
 10
-101.5
 20
-4.500000000000015
 30
0.0
  0
POINT
  5
31C7
330
228B
100
AcDbEntity
  8
DEFPOINTS
 62
     0
100
AcDbPoint
 10
-101.4999999999999
 20
4.500000000000007
 30
0.0
  0
POINT
  5
31C8
330
228B
100
AcDbEntity
  8
DEFPOINTS
 62
     0
100
AcDbPoint
 10
-111.0000009999999
 20
4.50000000000001
 30
0.0
  0
ENDBLK
  5
2298
330
228B
100
AcDbEntity
  8
0
100
AcDbBlockEnd
  0
BLOCK
  5
2BB7
330
2BA9
100
AcDbEntity
  8
0
100
AcDbBlockBegin
  2
*D8
 70
     1
 10
0.0
 20
0.0
 30
0.0
  3
*D8
  1

  0
LINE
  5
3234
330
2BA9
100
AcDbEntity
  8
AM_5
100
AcDbLine
 10
0.1710101364597383
 20
-0.4698462868088126
 30
0.0
 11
4.58493787951248
 21
-12.59700788815584
 31
0.0
  0
LINE
  5
3235
330
2BA9
100
AcDbEntity
  8
AM_5
100
AcDbLine
 10
0.1710111995358646
 20
0.4698458998792
 30
0.0
 11
4.584966381553946
 21
12.59699751422014
 31
0.0
  0
ARC
  5
3236
330
2BA9
100
AcDbEntity
  8
AM_5
100
AcDbCircle
 10
-0.0000000000000033
 20
-0.0000000000000089
 30
0.0
 40
12.90545646717219
100
AcDbArc
 50
295.5517487548053
 51
64.44812160747662
  0
INSERT
  5
3237
330
2BA9
100
AcDbEntity
  8
AM_5
100
AcDbBlockReference
  2
_OPEN30
 10
4.413927743052738
 20
-12.12716160134704
 30
0.0
 41
1.25
 42
1.25
 43
1.25
 50
202.7758783282578
  0
INSERT
  5
3238
330
2BA9
100
AcDbEntity
  8
AM_5
100
AcDbBlockReference
  2
_OPEN30
 10
4.413955182018078
 20
12.12715161434093
 30
0.0
 41
1.25
 42
1.25
 43
1.25
 50
157.2239920340242
  0
MTEXT
  5
3239
330
2BA9
100
AcDbEntity
  8
AM_5
 62
     2
100
AcDbMText
 10
11.35545646716492
 20
-0.0000128464563697
 30
0.0
 40
1.6
 41
0.0
 71
     5
 72
     1
  1
140°
  7
ASAMI
 11
0.0000011313025075
 21
0.9999999999993601
 31
0.0
  0
POINT
  5
323A
330
2BA9
100
AcDbEntity
  8
DEFPOINTS
 62
     0
100
AcDbPoint
 10
11.84999437460812
 20
-5.111598570685327
 30
0.0
  0
POINT
  5
323B
330
2BA9
100
AcDbEntity
  8
DEFPOINTS
 62
     0
100
AcDbPoint
 10
-0.0000000000000033
 20
-0.0000000000000089
 30
0.0
  0
POINT
  5
323C
330
2BA9
100
AcDbEntity
  8
DEFPOINTS
 62
     0
100
AcDbPoint
 10
-0.0000000000000033
 20
-0.0000000000000089
 30
0.0
  0
POINT
  5
323D
330
2BA9
100
AcDbEntity
  8
DEFPOINTS
 62
     0
100
AcDbPoint
 10
-0.5059335634320981
 20
1.390040444804143
 30
0.0
  0
POINT
  5
323E
330
2BA9
100
AcDbEntity
  8
DEFPOINTS
 62
     0
100
AcDbPoint
 10
-0.5059401244912135
 20
-1.390048685242471
 30
0.0
  0
ENDBLK
  5
2BB8
330
2BA9
100
AcDbEntity
  8
0
100
AcDbBlockEnd
  0
BLOCK
  5
2D93
330
2D89
100
AcDbEntity
  8
0
100
AcDbBlockBegin
  2
*D9
 70
     1
 10
0.0
 20
0.0
 30
0.0
  3
*D9
  1

  0
LINE
  5
31C9
330
2D89
100
AcDbEntity
  8
AM_5
 62
     3
100
AcDbLine
 10
-1.949998217510229
 20
4.300003071471326
 30
0.0
 11
9.055921024858038
 21
4.300003071471357
 31
0.0
  0
LINE
  5
31CA
330
2D89
100
AcDbEntity
  8
AM_5
 62
     3
100
AcDbLine
 10
-1.999998253225045
 20
-4.299999463483334
 30
0.0
 11
9.055921024858063
 21
-4.299999463483304
 31
0.0
  0
LINE
  5
31CB
330
2D89
100
AcDbEntity
  8
AM_5
 62
     3
100
AcDbLine
 10
8.555921024858042
 20
3.050003071471356
 30
0.0
 11
8.55592102485806
 21
-3.049999463483305
 31
0.0
  0
INSERT
  5
31CC
330
2D89
100
AcDbEntity
  8
AM_5
 62
     3
100
AcDbBlockReference
  2
_OPEN30
 10
8.555921024858038
 20
4.300003071471356
 30
0.0
 41
1.25
 42
1.25
 43
1.25
 50
90.00000000000017
  0
INSERT
  5
31CD
330
2D89
100
AcDbEntity
  8
AM_5
 62
     3
100
AcDbBlockReference
  2
_OPEN30
 10
8.555921024858063
 20
-4.299999463483305
 30
0.0
 41
1.25
 42
1.25
 43
1.25
 50
270.0000000000001
  0
MTEXT
  5
31CE
330
2D89
100
AcDbEntity
  8
AM_5
 62
     2
100
AcDbMText
 10
6.855921024858051
 20
0.00000180399402
 30
0.0
 40
1.9
 41
0.0
 71
     5
 72
     1
  1
%%c8.6
 11
-0.0000000000000028
 21
1.0
 31
0.0
1001
ACAD
1000
MTEXTBEGIN
1070
    73
1070
     1
1070
    44
1040
1.0
1070
    74
1070
     0
1000
MTEXTEND
  0
POINT
  5
31CF
330
2D89
100
AcDbEntity
  8
DEFPOINTS
 62
     0
100
AcDbPoint
 10
-1.949998217510215
 20
4.300003071471332
 30
0.0
  0
POINT
  5
31D0
330
2D89
100
AcDbEntity
  8
DEFPOINTS
 62
     0
100
AcDbPoint
 10
-1.999998253225058
 20
-4.299999463483329
 30
0.0
  0
POINT
  5
31D1
330
2D89
100
AcDbEntity
  8
DEFPOINTS
 62
     0
100
AcDbPoint
 10
8.555921024858049
 20
-4.299999463483332
 30
0.0
  0
ENDBLK
  5
2D94
330
2D89
100
AcDbEntity
  8
0
100
AcDbBlockEnd
  0
ENDSEC
  0
SECTION
  2
ENTITIES
  0
LINE
  5
C1D
330
1F
100
AcDbEntity
  8
AM_0
 48
0.5
100
AcDbLine
 10
-0.0000000000000033
 20
-0.0000000000000089
 30
0.0
 11
-0.5059335634320981
 21
1.390040444804143
 31
0.0
  0
LINE
  5
C20
330
1F
100
AcDbEntity
  8
AM_0
 48
0.5
100
AcDbLine
 10
-0.0000000000000033
 20
-0.0000000000000089
 30
0.0
 11
-0.5059401244912135
 21
-1.390048685242471
 31
0.0
  0
LINE
  5
C30
330
1F
100
AcDbEntity
  8
AM_0
 48
0.5
100
AcDbLine
 10
-101.9999999999999
 20
-4.000000000000023
 30
0.0
 11
-102.0
 21
3.999999999999981
 31
0.0
  0
LINE
  5
C9F
330
1F
100
AcDbEntity
  8
AM_7
100
AcDbLine
 10
-103.9999999999999
 20
-0.0000000000000178
 30
0.0
 11
1.555920024858057
 21
-0.0000000000000056
 31
0.0
1001
GENIUS_GENODEF_13
1002
{
1000
HIER
1070
     0
1002
}
1002
{
1000
MANEDIT
1070
     0
1002
}
1002
{
1000
NOSEL
1070
     0
1002
}
1002
{
1000
BEHIND
1070
     0
1002
}
1002
{
1000
REACTOR
1002
}
1001
GENIUS_GENOBJ-N-CEN_13
1002
{
1000
OWNER
1000
GEN
1002
}
  0
DIMENSION
  5
CC6
330
1F
100
AcDbEntity
  8
AM_5
100
AcDbDimension
  2
*D5
 10
-1.999998253225046
 20
-16.5000023696538
 30
0.0
 11
-51.99999912661251
 21
-14.8000023696538
 31
0.0
 70
    32
  1
<>
  3
AM_JIS$0
100
AcDbAlignedDimension
 13
-101.9999999999999
 23
-4.000000000000023
 33
0.0
 14
-1.999998253225045
 24
-4.299999463483334
 34
0.0
 50
0.0000000000001132
100
AcDbRotatedDimension
1001
GENIUS_GENDTOL_13
1000

1000
h7
1000

1040
0.0
1001
ACAD
1000
DSTYLE
1002
{
1070
   271
1070
     0
1002
}
  0
DIMENSION
  5
DF5
330
1F
100
AcDbEntity
  8
AM_5
100
AcDbDimension
  2
*D6
 10
-1.999998253225046
 20
-11.50000236965377
 30
0.0
 11
-24.49999912661252
 21
-9.800002369653773
 31
0.0
 70
    32
  1
<>
  3
AM_JIS$0
100
AcDbAlignedDimension
 13
-47.0
 23
-4.500001369653893
 33
0.0
 14
-1.999998253225045
 24
-4.299999463483334
 34
0.0
 50
0.0000000000001527
100
AcDbRotatedDimension
1001
GENIUS_GENDTOL_13
1000

1000
h7
1000

1040
0.0
1001
ACAD
1000
DSTYLE
1002
{
1070
   271
1070
     0
1002
}
  0
TEXT
  5
19BD
330
1F
100
AcDbEntity
  8
AM_6
100
AcDbText
 10
-63.24999999999997
 20
-27.75000236965382
 30
0.0
 40
2.5
  1
MDW086MHK
 50
0.0000000000001527
 72
     4
 11
-51.99999999999997
 21
-26.5000023696538
 31
0.0
100
AcDbText
  0
ARC
  5
1BE8
330
1F
100
AcDbEntity
  8
AM_11
 48
0.5
100
AcDbCircle
 10
-65.18578898111988
 20
17.66787048062784
 30
0.0
 40
19.53452809651666
100
AcDbArc
 50
244.7482808787518
 51
295.2516148471758
  0
ARC
  5
1BE9
330
1F
100
AcDbEntity
  8
AM_11
 48
0.5
100
AcDbCircle
 10
-65.18578898111991
 20
-17.66785848258815
 30
0.0
 40
19.53452809651666
100
AcDbArc
 50
64.74833051131179
 51
115.2516644797366
  0
LINE
  5
1E12
330
1F
100
AcDbEntity
  8
AM_0
 48
0.5
100
AcDbLine
 10
-101.5
 20
4.499999999999983
 30
0.0
 11
-47.0
 21
4.499999999999896
 31
0.0
1001
GENIUS_GENODEF_13
1002
{
1000
HIER
1070
     0
1002
}
1002
{
1000
MANEDIT
1070
     0
1002
}
1002
{
1000
NOSEL
1070
     0
1002
}
1002
{
1000
BEHIND
1070
     0
1002
}
1002
{
1000
REACTOR
1002
}
1001
GENIUS_GENOBJ-N-CEN_13
1002
{
1000
OWNER
1000
GEN
1002
}
  0
LINE
  5
1E16
330
1F
100
AcDbEntity
  8
AM_0
 48
0.5
100
AcDbLine
 10
-101.4999999999999
 20
-4.500000000000015
 30
0.0
 11
-47.0
 21
-4.500000000000103
 31
0.0
1001
GENIUS_GENODEF_13
1002
{
1000
HIER
1070
     0
1002
}
1002
{
1000
MANEDIT
1070
     0
1002
}
1002
{
1000
NOSEL
1070
     0
1002
}
1002
{
1000
BEHIND
1070
     0
1002
}
1002
{
1000
REACTOR
1002
}
1001
GENIUS_GENOBJ-N-CEN_13
1002
{
1000
OWNER
1000
GEN
1002
}
  0
LINE
  5
1E22
330
1F
100
AcDbEntity
  8
AM_0
100
AcDbLine
 10
-101.5
 20
-4.500000000000007
 30
0.0
 11
-101.4999999999999
 21
4.500000000000007
 31
0.0
  0
ARC
  5
1F66
330
1F
100
AcDbEntity
  8
AM_11
 48
0.5
100
AcDbCircle
 10
-81.85241919041599
 20
17.66787048062778
 30
0.0
 40
19.53452809651666
100
AcDbArc
 50
244.7482808787518
 51
295.2516148471758
  0
ARC
  5
1F67
330
1F
100
AcDbEntity
  8
AM_11
 48
0.5
100
AcDbCircle
 10
-81.85241919041601
 20
-17.66785848258821
 30
0.0
 40
19.53452809651666
100
AcDbArc
 50
64.74833051131179
 51
115.2516644797366
  0
ELLIPSE
  5
222E
330
1F
100
AcDbEntity
  8
AM_11
 48
0.5
100
AcDbEllipse
 10
-15.18578898112439
 20
16.72558433296425
 30
0.0
 11
-19.53452809651665
 21
0.000000000000166
 31
0.0
210
0.0
220
0.0
230
1.0
 40
0.9466666666666663
 41
1.130070686340305
 42
2.011520147323594
  0
ELLIPSE
  5
222F
330
1F
100
AcDbEntity
  8
AM_11
 48
0.5
100
AcDbEllipse
 10
-15.18578898112476
 20
-16.72557241888021
 30
0.0
 11
-19.53452809651663
 21
0.0000000000000489
 31
0.0
210
0.0
220
0.0
230
1.0
 40
0.9466666666666668
 41
4.271664206181679
 42
5.153113667164986
  0
ELLIPSE
  5
2230
330
1F
100
AcDbEntity
  8
AM_11
 48
0.5
100
AcDbEllipse
 10
-48.51912231445306
 20
16.72558433296459
 30
0.0
 11
-19.53452809651663
 21
0.000000000000114
 31
0.0
210
0.0
220
0.0
230
1.0
 40
0.946666666666667
 41
1.130070686340299
 42
2.011520147323592
  0
ELLIPSE
  5
2231
330
1F
100
AcDbEntity
  8
AM_11
 48
0.5
100
AcDbEllipse
 10
-48.51912231445343
 20
-16.72557241887987
 30
0.0
 11
-19.53452809651663
 21
0.0000000000000055
 31
0.0
210
0.0
220
0.0
230
1.0
 40
0.946666666666667
 41
4.271664206181676
 42
5.153113667164983
  0
ELLIPSE
  5
2232
330
1F
100
AcDbEntity
  8
AM_11
 48
0.5
100
AcDbEllipse
 10
-31.85245564779143
 20
-16.72557241888004
 30
0.0
 11
-19.53452809651665
 21
0.0000000000000576
 31
0.0
210
0.0
220
0.0
230
1.0
 40
0.9466666666666657
 41
4.271664206181679
 42
5.153113667164985
  0
ELLIPSE
  5
2233
330
1F
100
AcDbEntity
  8
AM_11
 48
0.5
100
AcDbEllipse
 10
-31.85245564779106
 20
16.72558433296443
 30
0.0
 11
19.53452809651663
 21
0.0000000000000446
 31
0.0
210
0.0
220
0.0
230
1.0
 40
0.9466666666666672
 41
4.271663339930084
 42
5.153112800913377
  0
DIMENSION
  5
228A
330
1F
100
AcDbEntity
  8
AM_5
100
AcDbDimension
  2
*D7
 10
-111.0000009999999
 20
4.50000000000001
 30
0.0
 11
-111.0000009999999
 21
-0.0000000000000171
 31
0.0
 70
   160
  1
%%c<>
 51
359.9999999999998
  3
AM_JIS$0
100
AcDbAlignedDimension
 13
-101.5
 23
-4.500000000000015
 33
0.0
 14
-101.4999999999999
 24
4.500000000000007
 34
0.0
 50
270.0000000000002
100
AcDbRotatedDimension
1001
ACAD
1000
DSTYLE
1002
{
1070
   271
1070
     0
1002
}
1001
GENIUS_GENDTOL_13
1000

1000
h7
1000

1040
0.0
  0
LINE
  5
24F9
330
1F
100
AcDbEntity
  8
AM_0
 48
0.5
100
AcDbLine
 10
-101.5
 20
4.499999999999983
 30
0.0
 11
-102.0
 21
3.999999999999984
 31
0.0
1001
GENIUS_GENFIL_13
1070
     0
1040
0.5
1040
0.5
1040
20.0
1040
0.0
1002
{
1002
}
1001
GENIUS_GENODEF_13
1002
{
1000
HIER
1070
     0
1002
}
1002
{
1000
MANEDIT
1070
     0
1002
}
1002
{
1000
NOSEL
1070
     0
1002
}
1002
{
1000
BEHIND
1070
     0
1002
}
1002
{
1000
REACTOR
1002
}
1001
GENIUS_GENOBJ-N-CHA_13
1002
{
1000
OWNER
1000
GEN
1002
}
  0
LINE
  5
24FC
330
1F
100
AcDbEntity
  8
AM_0
 48
0.5
100
AcDbLine
 10
-101.9999999999999
 20
-4.000000000000015
 30
0.0
 11
-101.4999999999999
 21
-4.500000000000015
 31
0.0
1001
GENIUS_GENFIL_13
1070
     0
1040
0.5
1040
0.5
1040
20.0
1040
0.0
1002
{
1002
}
1001
GENIUS_GENODEF_13
1002
{
1000
HIER
1070
     0
1002
}
1002
{
1000
MANEDIT
1070
     0
1002
}
1002
{
1000
NOSEL
1070
     0
1002
}
1002
{
1000
BEHIND
1070
     0
1002
}
1002
{
1000
REACTOR
1002
}
1001
GENIUS_GENOBJ-N-CHA_13
1002
{
1000
OWNER
1000
GEN
1002
}
  0
ELLIPSE
  5
2541
330
1F
100
AcDbEntity
  8
AM_0
 48
0.5
100
AcDbEllipse
 10
6.103455813051642
 20
-5.995169608223529
 30
0.0
 11
-7.397222288058633
 21
3.406917701414937
 31
0.0
210
0.0
220
0.0
230
-1.0
 40
0.7639059874992274
 41
-0.1617760152509138
 42
0.2299315428291684
  0
LINE
  5
2542
330
1F
100
AcDbEntity
  8
AM_0
 48
0.5
100
AcDbLine
 10
-1.616377741131772
 20
-3.542915580519091
 30
0.0
 11
-1.999998253225058
 21
-4.299999463483329
 31
0.0
  0
ARC
  5
290C
330
1F
100
AcDbEntity
  8
AM_11
 48
0.5
100
AcDbCircle
 10
-98.51907483729785
 20
-17.66785848258827
 30
0.0
 40
19.53452809651666
100
AcDbArc
 50
64.74833051131179
 51
100.2645516450266
  0
ARC
  5
290D
330
1F
100
AcDbEntity
  8
AM_11
 48
0.5
100
AcDbCircle
 10
-98.51907483729782
 20
17.66787048062772
 30
0.0
 40
19.53452809651666
100
AcDbArc
 50
259.7354483549732
 51
295.2516148471758
  0
ELLIPSE
  5
2B8E
330
1F
100
AcDbEntity
  8
AM_0
 48
0.5
100
AcDbEllipse
 10
6.103455813051641
 20
5.995169608223519
 30
0.0
 11
-7.397222288058633
 21
-3.406917701414938
 31
0.0
210
0.0
220
0.0
230
1.0
 40
0.7639059874992274
 41
-0.1617760152509138
 42
0.2299315428291684
  0
LINE
  5
2B8F
330
1F
100
AcDbEntity
  8
AM_0
 48
0.5
100
AcDbLine
 10
-1.616377741131772
 20
3.54291558051908
 30
0.0
 11
-1.949998217510215
 21
4.300003071471332
 31
0.0
  0
DIMENSION
  5
2BA8
330
1F
100
AcDbEntity
  8
AM_5
100
AcDbDimension
  2
*D8
 10
-0.5059401244912135
 20
-1.390048685242471
 30
0.0
 11
11.35545646716491
 21
-0.0000128464564033
 31
0.0
 70
    34
  1
<>
 51
359.9999999999998
  3
AM_JIS$2
100
AcDb2LineAngularDimension
 13
-0.0000000000000033
 23
-0.0000000000000089
 33
0.0
 14
-0.5059335634320981
 24
1.390040444804143
 34
0.0
 15
-0.0000000000000033
 25
-0.0000000000000089
 35
0.0
 16
11.84999437460812
 26
-5.111598570685327
 36
0.0
1001
GENIUS_GENDTOL_13
1000

1000
h7
1000

1040
0.0
1001
ACAD
1000
DSTYLE
1002
{
1070
   271
1070
     1
1070
   179
1070
     1
1002
}
  0
DIMENSION
  5
2D88
330
1F
100
AcDbEntity
  8
AM_5
100
AcDbDimension
  2
*D9
 10
8.555921024858049
 20
-4.299999463483332
 30
0.0
 11
6.855921024858051
 21
0.0000018039940001
 31
0.0
 70
    32
  1
%%c<>
 51
359.9999999999998
  3
AM_JIS$0
100
AcDbAlignedDimension
 13
-1.949998217510215
 23
4.300003071471332
 33
0.0
 14
-1.999998253225058
 24
-4.299999463483329
 34
0.0
 50
90.0
100
AcDbRotatedDimension
1001
ACAD
1000
DSTYLE
1002
{
1070
   271
1070
     1
1002
}
1001
GENIUS_GENDTOL_13
1000

1000
h7
1000

1040
0.0
  0
ELLIPSE
  5
2E9D
330
1F
100
AcDbEntity
  8
AM_11
 48
0.5
100
AcDbEllipse
 10
1.480877685542335
 20
16.92709739721666
 30
0.0
 11
19.53452809651624
 21
0.0000000000037185
 31
0.0
210
0.0
220
0.0
230
1.0
 40
0.9580722891566427
 41
4.271663339929894
 42
4.433393390970589
  0
LINE
  5
2F7C
330
1F
100
AcDbEntity
  8
AM_0
 48
0.5
100
AcDbLine
 10
-4.750268456053075
 20
4.299983816121661
 30
0.0
 11
-1.999998253224994
 21
4.300003071471331
 31
0.0
  0
LINE
  5
2F7D
330
1F
100
AcDbEntity
  8
AM_0
 48
0.5
100
AcDbLine
 10
-0.0000000000000068
 20
-0.0000000000000092
 30
0.0
 11
-2.389738150086976
 21
1.65107029345456
 31
0.0
  0
LINE
  5
2F7E
330
1F
100
AcDbEntity
  8
AM_0
 48
0.5
100
AcDbLine
 10
-5.124229360843985
 20
-4.30001618387846
 30
0.0
 11
-1.999998253225082
 21
-4.299999463483329
 31
0.0
  0
SPLINE
  5
2F8E
330
1F
100
AcDbEntity
  8
AM_0
 48
0.5
100
AcDbSpline
210
0.0
220
0.0
230
1.0
 70
     8
 71
     3
 72
    10
 73
     6
 74
     0
 42
0.0000000001
 43
0.0000000001
 40
0.0
 40
0.0
 40
0.0
 40
0.0
 40
2.69986029516136
 40
4.147722969032201
 40
6.285750005020438
 40
6.285750005020438
 40
6.285750005020438
 40
6.285750005020438
 10
-5.622748258393398
 20
0.77827798591907
 30
0.0
 10
-4.451689271741263
 20
0.3787782715798281
 30
0.0
 10
-3.674263218616706
 20
-0.2349624261356529
 30
0.0
 10
-1.835755036498441
 20
0.062160197458309
 30
0.0
 10
-2.181999603498791
 20
1.062908508897934
 30
0.0
 10
-2.410775890900667
 20
1.672895426938782
 30
0.0
  0
ELLIPSE
  5
2F94
330
1F
100
AcDbEntity
  8
AM_0
 48
0.5
100
AcDbEllipse
 10
-8.77183554586808
 20
11.69504836852321
 30
0.0
 11
0.0070919586015681
 21
14.72121147338645
 31
0.0
210
0.0
220
0.0
230
0.9999999999999998
 40
0.9811128255630485
 41
3.687605606029805
 42
3.794784732448314
  0
ELLIPSE
  5
2F95
330
1F
100
AcDbEntity
  8
AM_0
 48
0.5
100
AcDbEllipse
 10
1.908137783126967
 20
-2.249932835269328
 30
0.0
 11
-4.434583780475258
 21
1.17279105638861
 31
0.0
210
0.0
220
0.0
230
1.0
 40
0.9221157106689561
 41
0.1800734840370466
 42
0.7821368861715321
  0
ELLIPSE
  5
2F96
330
1F
100
AcDbEntity
  8
AM_0
 48
0.5
100
AcDbEllipse
 10
-1.573346145597203
 20
-1.12064099245446
 30
0.0
 11
-0.1206310486261601
 21
0.7060341448755642
 31
0.0
210
0.0
220
0.0
230
1.0
 40
0.4910981614350406
 41
1.810085076053255
 42
4.945426965765231
  0
ELLIPSE
  5
2F97
330
1F
100
AcDbEntity
  8
AM_0
 48
0.5
100
AcDbEllipse
 10
-1.573346145597203
 20
-1.12064099245446
 30
0.0
 11
-0.6069210958029066
 21
0.3617828517342665
 31
0.0
210
0.0
220
0.0
230
0.9999999999999998
 40
0.5046754704575004
 41
4.495024797598292
 42
7.6384651389278
  0
ELLIPSE
  5
2F98
330
1F
100
AcDbEntity
  8
AM_0
 48
0.5
100
AcDbEllipse
 10
-30.50659994266767
 20
-30.61449946839632
 30
0.0
 11
-28.32589408069237
 21
28.32589408069237
 31
0.0
210
0.0
220
0.0
230
1.0
 40
0.9999999999999767
 41
-1.554417559981275
 42
-1.455647109117726
  0
ELLIPSE
  5
2F99
330
1F
100
AcDbEntity
  8
AM_0
 48
0.5
100
AcDbEllipse
 10
-7.619270570722018
 20
7.2169597791318
 30
0.0
 11
0.0000000000585825
 21
10.36775558789607
 31
0.0
210
0.0
220
0.0
230
1.0
 40
0.9811046511628827
 41
3.652175978823827
 42
3.740670756503302
  0
LINE
  5
301D
330
1F
100
AcDbEntity
  8
AM_0
 48
0.5
100
AcDbLine
 10
-36.98030021995183
 20
2.136124005978812
 30
0.0
 11
-47.0027767636174
 21
-0.2397644629682905
 31
0.0
  0
LINE
  5
301E
330
1F
100
AcDbEntity
  8
AM_0
 48
0.5
100
AcDbLine
 10
-35.66441552078423
 20
-4.300014448635573
 30
0.0
 11
-19.08334221452234
 21
-4.300016183878264
 31
0.0
  0
LINE
  5
301F
330
1F
100
AcDbEntity
  8
AM_0
100
AcDbLine
 10
-45.34982048546179
 20
-4.299999093343433
 30
0.0
 11
-46.65359140886191
 21
-4.299999093343405
 31
0.0
  0
LINE
  5
3020
330
1F
100
AcDbEntity
  8
AM_11
 48
0.5
100
AcDbLine
 10
-45.34982048546179
 20
-4.299999093343433
 30
0.0
 11
-35.66441552078423
 21
-4.300014448635573
 31
0.0
  0
LINE
  5
3021
330
1F
100
AcDbEntity
  8
AM_11
 48
0.5
100
AcDbLine
 10
-19.08334221452234
 20
-4.300016183878264
 30
0.0
 11
-5.124229360845329
 21
-4.300016183878458
 31
0.0
  0
ELLIPSE
  5
3022
330
1F
100
AcDbEntity
  8
AM_0
 48
0.5
100
AcDbEllipse
 10
-45.90393273543955
 20
-2.802340439022064
 30
0.0
 11
-1.099205080117516
 21
0.0000000000009236
 31
0.0
210
0.0
220
0.0
230
1.0
 40
0.977979468476504
 41
4.317028824483883
 42
6.257553905070176
  0
ELLIPSE
  5
3023
330
1F
100
AcDbEntity
  8
AM_0
 48
0.5
100
AcDbEllipse
 10
-45.53726268145217
 20
-2.758669657568673
 30
0.0
 11
-0.7440844199193947
 21
1.385047386031333
 31
0.0
210
0.0
220
0.0
230
1.0
 40
0.9158774757741745
 41
1.123985094072895
 42
2.738908468948483
  0
SPLINE
  5
3024
330
1F
100
AcDbEntity
  8
AM_0
100
AcDbSpline
210
0.0
220
0.0
230
1.0
 70
     8
 71
     3
 72
    13
 73
     9
 74
     0
 42
0.0000000001
 43
0.0000000001
 40
16.03460056234195
 40
16.03460056234195
 40
16.03460056234195
 40
16.03460056234195
 40
16.35212717791071
 40
17.38177067057215
 40
18.41822498539278
 40
19.46214186516937
 40
20.5139635832251
 40
21.34083983469381
 40
21.34083983469381
 40
21.34083983469381
 40
21.34083983469381
 10
-45.34982048546183
 20
-4.299999093343447
 30
0.0
 10
-45.12954389630715
 20
-4.26523876595563
 30
0.0
 10
-44.906871809051
 20
-4.212582742820714
 30
0.0
 10
-44.33829633005355
 20
-4.047439352293652
 30
0.0
 10
-43.51924218771659
 20
-3.850223324190253
 30
0.0
 10
-42.79608746572375
 20
-3.599839040546202
 30
0.0
 10
-42.28440845961185
 20
-3.388474485198593
 30
0.0
 10
-41.85026891137733
 20
-3.242934946807062
 30
0.0
 10
-41.65981449354765
 20
-3.177149749297576
 30
0.0
  0
SPLINE
  5
3025
330
1F
100
AcDbEntity
  8
AM_0
 48
0.5
100
AcDbSpline
210
0.0
220
0.0
230
1.0
 70
     8
 71
     3
 72
    21
 73
    17
 74
     0
 42
0.0000000001
 43
0.0000000001
 40
1.493459168545878
 40
1.493459168545878
 40
1.493459168545878
 40
1.493459168545878
 40
2.022833993863546
 40
3.037578683882831
 40
4.056212471389632
 40
5.079857945358201
 40
6.109499720892564
 40
7.145961650132166
 40
8.189873411961459
 40
9.241710626092514
 40
10.30166235592959
 40
11.36982472628033
 40
12.44598212828784
 40
13.52983440361964
 40
14.62080578343036
 40
14.90544694398022
 40
14.90544694398022
 40
14.90544694398022
 40
14.90544694398022
 10
-35.66441552078423
 20
-4.300014448635573
 30
0.0
 10
-35.80276820061432
 20
-4.290396393131509
 30
0.0
 10
-36.23563994006688
 20
-4.249689380621365
 30
0.0
 10
-37.25231830624525
 20
-4.077435926559258
 30
0.0
 10
-37.99327204895451
 20
-3.985472861481341
 30
0.0
 10
-38.73417012558341
 20
-3.868398011958583
 30
0.0
 10
-39.47500480686155
 20
-3.726765607371116
 30
0.0
 10
-40.21576523693129
 20
-3.56149114252392
 30
0.0
 10
-40.95645650951992
 20
-3.37359991281098
 30
0.0
 10
-41.69707195361247
 20
-3.164265079659499
 30
0.0
 10
-42.4376154395924
 20
-2.934760678444209
 30
0.0
 10
-43.17809174124422
 20
-2.68654715060075
 30
0.0
 10
-43.9185003023834
 20
-2.421100115044449
 30
0.0
 10
-44.65885499369214
 20
-2.140110589573857
 30
0.0
 10
-45.2152832834742
 20
-1.918519946798084
 30
0.0
 10
-45.52534454386879
 20
-1.791865858227041
 30
0.0
 10
-45.48058424619524
 20
-1.810268181940844
 30
0.0
  0
SPLINE
  5
3026
330
1F
100
AcDbEntity
  8
AM_0
 48
0.5
100
AcDbSpline
210
0.0
220
0.0
230
1.0
 70
     8
 71
     3
 72
    25
 73
    21
 74
     0
 42
0.0000000001
 43
0.0000000001
 40
0.3890952502805152
 40
0.3890952502805152
 40
0.3890952502805152
 40
0.3890952502805152
 40
0.5057083941171959
 40
0.7593947393741639
 40
1.01405318625086
 40
1.26996425091637
 40
1.527375060172565
 40
1.786490330669834
 40
2.047470117551047
 40
2.310425755981314
 40
2.575417325379407
 40
2.842456731169063
 40
3.111495753801943
 40
3.382458822635121
 40
3.655202026904655
 40
3.929554512223505
 40
4.205306020962704
 40
4.482215236978595
 40
4.76001530984208
 40
5.029821427366006
 40
5.029821427366006
 40
5.029821427366006
 40
5.029821427366006
 10
-33.62766357046111
 20
-4.30001618387743
 30
0.0
 10
-33.7414294564027
 20
-4.293687449598396
 30
0.0
 10
-34.10251809650736
 20
-4.270387969892461
 30
0.0
 10
-34.71075719302872
 20
-4.216528175117034
 30
0.0
 10
-35.45171053534041
 20
-4.124565170769669
 30
0.0
 10
-36.19261065402652
 20
-4.007501333224792
 30
0.0
 10
-37.40062080389024
 20
-3.726762596173143
 30
0.0
 10
-38.14138445927355
 20
-3.561494137011858
 30
0.0
 10
-38.8820745845924
 20
-3.373605627539358
 30
0.0
 10
-39.62268942878351
 20
-3.164262884564229
 30
0.0
 10
-40.36323508713475
 20
-2.934768874731271
 30
0.0
 10
-41.10370849106685
 20
-2.68654064957737
 30
0.0
 10
-41.84411803035181
 20
-2.421100902589763
 30
0.0
 10
-42.58447360477566
 20
-2.140112848638684
 30
0.0
 10
-43.3247768139685
 20
-1.845281033670993
 30
0.0
 10
-44.06503317650178
 20
-1.538437180264898
 30
0.0
 10
-44.8052562863126
 20
-1.221474448747933
 30
0.0
 10
-45.54543391039246
 20
-0.8963017191195268
 30
0.0
 10
-46.27800830214794
 20
-0.5684945357483459
 30
0.0
 10
-46.76336639900124
 20
-0.3482713705273711
 30
0.0
 10
-47.00277676361744
 20
-0.2397644629682862
 30
0.0
  0
SPLINE
  5
3027
330
1F
100
AcDbEntity
  8
AM_0
100
AcDbSpline
210
0.0
220
0.0
230
1.0
 70
     8
 71
     3
 72
    17
 73
    13
 74
     0
 42
0.0000000001
 43
0.0000000001
 40
1.580019955310467
 40
1.580019955310467
 40
1.580019955310467
 40
1.580019955310467
 40
2.030549285115227
 40
3.082371838836284
 40
4.126290986361125
 40
5.162752068350215
 40
6.192395305374981
 40
7.216039564037012
 40
8.234688489606833
 40
9.249433870634691
 40
10.26152376260694
 40
11.27226744710342
 40
11.27226744710342
 40
11.27226744710342
 40
11.27226744710352
 10
-12.10324124687371
 20
-3.173545538070638
 30
0.0
 10
-12.20808474196126
 20
-3.206230225891284
 30
0.0
 10
-12.55829723900454
 20
-3.313358655887583
 30
0.0
 10
-13.15619682052217
 20
-3.481393431458494
 30
0.0
 10
-13.89678390219847
 20
-3.669570088760122
 30
0.0
 10
-14.63757486680495
 20
-3.834764209346565
 30
0.0
 10
-15.37839977419491
 20
-3.976421034232993
 30
0.0
 10
-16.11930539313071
 20
-4.093510144834157
 30
0.0
 10
-16.86026219910976
 20
-4.185363365225018
 30
0.0
 10
-17.60126514299082
 20
-4.251385455802991
 30
0.0
 10
-18.34229596838031
 20
-4.291151424703734
 30
0.0
 10
-18.83643642170091
 20
-4.30001894233659
 30
0.0
 10
-19.08334221452228
 20
-4.300016183878264
 30
0.0
  0
SPLINE
  5
3028
330
1F
100
AcDbEntity
  8
AM_0
100
AcDbSpline
210
0.0
220
0.0
230
1.0
 70
     8
 71
     3
 72
    22
 73
    18
 74
     0
 42
0.0000000001
 43
0.0000000001
 40
17.17441611292
 40
17.17441611292
 40
17.17441611292
 40
17.17441611292
 40
17.38177636558528
 40
18.41823744757437
 40
19.46215659509824
 40
20.51397914882054
 40
21.57394542641293
 40
22.64209583141747
 40
23.71826625065247
 40
24.80210429862395
 40
25.8930771157021
 40
26.99048705697709
 40
28.09349309193389
 40
29.20112995599786
 40
30.31233024745139
 40
31.42594771747373
 40
32.5407895042663
 40
32.54078950426994
 40
32.54078950426994
 40
32.54078950426994
 10
-21.91169277553378
 20
-3.861450039622568
 30
0.0
 10
-21.96131325601119
 20
-3.851495961374172
 30
0.0
 10
-22.25876093715061
 20
-3.790864582755657
 30
0.0
 10
-22.80366832788792
 20
-3.669290777275884
 30
0.0
 10
-23.54435851194315
 20
-3.481403070349007
 30
0.0
 10
-24.28497322122342
 20
-3.2720597809963
 30
0.0
 10
-25.02551768442707
 20
-3.042567681937208
 30
0.0
 10
-25.76599092334635
 20
-2.794333899047332
 30
0.0
 10
-26.50640205234815
 20
-2.528903305865044
 30
0.0
 10
-27.24675449974419
 20
-2.247907153413592
 30
0.0
 10
-27.98705511555512
 20
-1.953078329568321
 30
0.0
 10
-28.72731213145442
 20
-1.646235741424662
 30
0.0
 10
-29.46753197242629
 20
-1.329266173336269
 30
0.0
 10
-30.20772208998032
 20
-1.004119675647455
 30
0.0
 10
-30.94788904525755
 20
-0.6727955312742987
 30
0.0
 10
-31.68804380318781
 20
-0.3373381892709658
 30
0.0
 10
-32.18138345279775
 20
-0.1123540657529813
 30
0.0
 10
-32.42818880155633
 20
0.0001997915793186
 30
0.0
  0
SPLINE
  5
3029
330
1F
100
AcDbEntity
  8
AM_0
100
AcDbSpline
210
0.0
220
0.0
230
1.0
 70
     8
 71
     3
 72
    11
 73
     7
 74
     0
 42
0.0000000001
 43
0.0000000001
 40
11.27226913003534
 40
11.27226913003534
 40
11.27226913003534
 40
11.2722691300354
 40
12.28301561507924
 40
13.29510212255852
 40
14.30984805882082
 40
15.18258238371378
 40
15.18258238371378
 40
15.18258238371378
 40
15.18258238371378
 10
-19.08334221452234
 20
-4.300016183878264
 30
0.0
 10
-19.32930914996496
 20
-4.278973468159898
 30
0.0
 10
-19.82077908043773
 20
-4.228023350681825
 30
0.0
 10
-20.55544611704912
 20
-4.125244361246857
 30
0.0
 10
-21.25265808899036
 20
-4.002486127643498
 30
0.0
 10
-21.70357386692027
 20
-3.908118219953169
 30
0.0
 10
-21.91136869720542
 20
-3.861503080089683
 30
0.0
  0
LINE
  5
302A
330
1F
100
AcDbEntity
  8
AM_11
 48
0.5
100
AcDbLine
 10
-43.65131396174227
 20
4.299983816122076
 30
0.0
 11
-34.74633168175637
 21
4.299983816121948
 31
0.0
  0
LINE
  5
302B
330
1F
100
AcDbEntity
  8
AM_0
100
AcDbLine
 10
-43.65131396174226
 20
4.300000906656482
 30
0.0
 11
-46.65359140886162
 21
4.30000090665657
 31
0.0
  0
LINE
  5
302D
330
1F
100
AcDbEntity
  8
AM_0
100
AcDbLine
 10
-34.74633168175637
 20
4.299983816121948
 30
0.0
 11
-18.84335011528632
 21
4.299983816121989
 31
0.0
  0
LINE
  5
302E
330
1F
100
AcDbEntity
  8
AM_11
 48
0.5
100
AcDbLine
 10
-18.84308354181867
 20
4.299981082268291
 30
0.0
 11
-4.750535019225941
 21
4.299981082267604
 31
0.0
  0
SPLINE
  5
302F
330
1F
100
AcDbEntity
  8
AM_0
 48
0.5
100
AcDbSpline
210
0.0
220
0.0
230
1.0
 70
     8
 71
     3
 72
    17
 73
    13
 74
     0
 42
0.0000000001
 43
0.0000000001
 40
0.0
 40
0.0
 40
0.0
 40
0.0
 40
1.010743614677189
 40
2.022833924044153
 40
3.037578959561199
 40
4.056212747067873
 40
5.079857613375832
 40
6.109500119648989
 40
7.14596120163808
 40
8.18989512056258
 40
9.241717674284874
 40
9.693948937866434
 40
9.693948937866434
 40
9.693948937866434
 40
9.693948937866434
 10
-4.750268456053075
 20
4.299983816121661
 30
0.0
 10
-4.999543909014033
 20
4.297427263999984
 30
0.0
 10
-5.498426944591725
 20
4.292310753457428
 30
0.0
 10
-6.24656899825321
 20
4.251024905579173
 30
0.0
 10
-6.994680251340626
 20
4.185416092563305
 30
0.0
 10
-7.742744978274701
 20
4.093452931779784
 30
0.0
 10
-8.490754269821357
 20
3.976382654777344
 30
0.0
 10
-9.238698989786454
 20
3.834748041257892
 30
0.0
 10
-9.986569099494857
 20
3.669460840068885
 30
0.0
 10
-10.7343936193088
 20
3.481633807216793
 30
0.0
 10
-11.33805707218229
 20
3.312430042841265
 30
0.0
 10
-11.69256364514961
 20
3.206653357540569
 30
0.0
 10
-11.79896749884164
 20
3.174275822270233
 30
0.0
  0
SPLINE
  5
3030
330
1F
100
AcDbEntity
  8
AM_0
100
AcDbSpline
210
0.0
220
0.0
230
1.0
 70
     8
 71
     3
 72
    46
 73
    42
 74
     0
 42
0.0000000001
 43
0.0000000001
 40
0.0
 40
0.0
 40
0.0
 40
0.0
 40
0.5056245176053715
 40
0.759310862862336
 40
1.013969309739036
 40
1.269880374404297
 40
1.527291183660732
 40
1.786406454158005
 40
2.047386241038974
 40
2.310345544571907
 40
2.575337113970003
 40
2.842374715221223
 40
3.111417320030211
 40
3.382376832022752
 40
3.655120036292296
 40
3.929472521611371
 40
4.205224030350333
 40
4.482133246366229
 40
4.759933319229942
 40
5.038338087391601
 40
5.317048131389549
 40
5.595758175387723
 40
5.874162943549383
 40
6.151963016412869
 40
6.428872232428759
 40
6.704623741167955
 40
6.978976226486705
 40
7.251719430756336
 40
7.522680721168327
 40
7.791723325977311
 40
8.058760927228529
 40
8.32375249662655
 40
8.586708135057122
 40
8.84768792193809
 40
9.106803192435362
 40
9.364213819003406
 40
9.620125035580644
 40
9.87478726697307
 40
10.12847352585208
 40
10.38149610319407
 40
10.63418200686337
 40
10.63418200686337
 40
10.63418200686337
 40
10.63418200686337
 10
-3.049846531630897
 20
-4.300018917732525
 30
0.0
 10
-3.544011120034906
 20
-4.290223185338566
 30
0.0
 10
-4.286112278013051
 20
-4.275512652606401
 30
0.0
 10
-5.272916549499679
 20
-4.184942605043199
 30
0.0
 10
-6.013877858993101
 20
-4.093623904398866
 30
0.0
 10
-6.754775833933459
 20
-3.976386204703311
 30
0.0
 10
-7.495608522541831
 20
-3.834788458113922
 30
0.0
 10
-8.236372119015346
 20
-3.669507622489422
 30
0.0
 10
-8.977065382686335
 20
-3.48162039755427
 30
0.0
 10
-9.717685017208111
 20
-3.272280438682853
 30
0.0
 10
-10.45823250290172
 20
-3.042786149932435
 30
0.0
 10
-11.19870584791967
 20
-2.794552673669621
 30
0.0
 10
-11.93911694836234
 20
-2.529121997802185
 30
0.0
 10
-12.67946940277563
 20
-2.248125866230483
 30
0.0
 10
-13.41977001939094
 20
-1.953297042439976
 30
0.0
 10
-14.16002702489579
 20
-1.646454432804229
 30
0.0
 10
-14.90024690694005
 20
-1.329484951273166
 30
0.0
 10
-15.6404368697308
 20
-1.00433812701101
 30
0.0
 10
-16.38060476139168
 20
-0.6730150481982756
 30
0.0
 10
-17.12075734340478
 20
-0.337553118869924
 30
0.0
 10
-17.8609037035646
 20
-0.0000189178001064
 30
0.0
 10
-18.60105006356183
 20
0.3375152836798489
 30
0.0
 10
-19.34120264606268
 20
0.6729772117783126
 30
0.0
 10
-20.08137053594083
 20
1.004300295085847
 30
0.0
 10
-20.82156050534191
 20
1.329447102678403
 30
0.0
 10
-21.56178036287574
 20
1.646416646018567
 30
0.0
 10
-22.30203745915115
 20
1.953259026753511
 30
0.0
 10
-23.04233934938945
 20
2.248089338195419
 30
0.0
 10
-23.78269468045524
 20
2.529082916774821
 30
0.0
 10
-24.52310710167778
 20
2.794514953679857
 30
0.0
 10
-25.26358042945542
 20
3.042748503805353
 30
0.0
 10
-26.00412487306411
 20
3.272240683699376
 30
0.0
 10
-26.74473957298956
 20
3.481583880882629
 30
0.0
 10
-27.48542981320034
 20
3.669471873357661
 30
0.0
 10
-28.22619298095882
 20
3.834741895442174
 30
0.0
 10
-28.96702621270033
 20
3.976380710957898
 30
0.0
 10
-29.70792891610875
 20
4.093450993714991
 30
0.0
 10
-30.44888640761638
 20
4.185412560999965
 30
0.0
 10
-31.18988974180345
 20
4.251022296918478
 30
0.0
 10
-31.93091997386037
 20
4.29230798838922
 30
0.0
 10
-32.42506062629056
 20
4.297424519746698
 30
0.0
 10
-32.67196646629024
 20
4.299981082268891
 30
0.0
  0
SPLINE
  5
3031
330
1F
100
AcDbEntity
  8
AM_0
100
AcDbSpline
210
0.0
220
0.0
230
1.0
 70
     8
 71
     3
 72
    23
 73
    19
 74
     0
 42
0.0000000001
 43
0.0000000001
 40
16.03460024169435
 40
16.03460024169435
 40
16.03460024169435
 40
16.03460024169435
 40
16.35212704903564
 40
17.38177054169784
 40
18.41822485651776
 40
19.46214173629503
 40
20.51396345435107
 40
21.57393551351153
 40
22.64208202342361
 40
23.7182574881101
 40
24.80209208578934
 40
25.89306333925047
 40
26.99048218457928
 40
28.09348763352352
 40
29.20111863782268
 40
30.31232390128032
 40
31.42594612798585
 40
32.5407912310448
 40
32.5407912310486
 40
32.5407912310486
 40
32.5407912310486
 10
-43.65131396182029
 20
4.29998381612208
 30
0.0
 10
-43.57837052238181
 20
4.286075932534665
 30
0.0
 10
-43.25569044954838
 20
4.222862651893792
 30
0.0
 10
-42.68728602622608
 20
4.099005876040846
 30
0.0
 10
-41.95120081002751
 20
3.914832204832032
 30
0.0
 10
-41.21579930440091
 20
3.708035870707514
 30
0.0
 10
-40.48103805388477
 20
3.479813705372153
 30
0.0
 10
-39.74689098050013
 20
3.231438052506833
 30
0.0
 10
-39.01331565230572
 20
2.964328732086643
 30
0.0
 10
-38.2802609859039
 20
2.680040253355853
 30
0.0
 10
-37.54768532649563
 20
2.380182525394469
 30
0.0
 10
-36.81552994083396
 20
2.066500350453041
 30
0.0
 10
-36.08373549591223
 20
1.740816984858222
 30
0.0
 10
-35.35225323435389
 20
1.405004971426937
 30
0.0
 10
-34.62102195392646
 20
1.06101701102973
 30
0.0
 10
-33.88997392712679
 20
0.7108617409861258
 30
0.0
 10
-33.15904962600927
 20
0.3565682162672846
 30
0.0
 10
-32.67189764260574
 20
0.1190337805129969
 30
0.0
 10
-32.42818880155304
 20
0.0001997915777867
 30
0.0
  0
SPLINE
  5
3032
330
1F
100
AcDbEntity
  8
AM_0
 48
0.5
100
AcDbSpline
210
0.0
220
0.0
230
1.0
 70
     8
 71
     3
 72
    25
 73
    21
 74
     0
 42
0.0000000001
 43
0.0000000001
 40
6.846175049578289
 40
6.846175049578289
 40
6.846175049578289
 40
6.846175049578289
 40
7.604337694224321
 40
8.711974558287883
 40
9.814980593243754
 40
10.91239053451967
 40
12.0033633515982
 40
13.08720139956839
 40
14.16337181880432
 40
15.23152222380919
 40
16.29148850140128
 40
17.34331105512262
 40
18.38723020264746
 40
19.42369128463655
 40
20.45333379090873
 40
21.47697865721768
 40
22.49561244472435
 40
23.5103574802404
 40
24.52244778960836
 40
25.53320666051913
 40
25.53320666051913
 40
25.53320666051913
 40
25.53320666051913
 10
-5.622791128775307
 20
0.7783119675802889
 30
0.0
 10
-5.792743536810182
 20
0.8538123200584472
 30
0.0
 10
-6.211345397094263
 20
1.038859314809917
 30
0.0
 10
-6.879218796507371
 20
1.32944971029498
 30
0.0
 10
-7.626542656113302
 20
1.646419367950094
 30
0.0
 10
-8.373904099121519
 20
1.95326193224357
 30
0.0
 10
-9.121309546759638
 20
2.248090762532758
 30
0.0
 10
-9.868767326968768
 20
2.529086912876611
 30
0.0
 10
-10.61628435138561
 20
2.794517508083732
 30
0.0
 10
-11.36386408062026
 20
3.042751285025228
 30
0.0
 10
-12.11151572293719
 20
3.272243405630423
 30
0.0
 10
-12.85923826592679
 20
3.481586615593404
 30
0.0
 10
-13.60703708032325
 20
3.669474615475864
 30
0.0
 10
-14.35490952711012
 20
3.834744595740536
 30
0.0
 10
-15.10285268471963
 20
3.976383569653482
 30
0.0
 10
-15.85086239119973
 20
4.093452688398199
 30
0.0
 10
-16.59892700781966
 20
4.185416157916003
 30
0.0
 10
-17.34703829014818
 20
4.251024886124919
 30
0.0
 10
-18.09518409408484
 20
4.292310973535829
 30
0.0
 10
-18.59407089724533
 20
4.297427324453267
 30
0.0
 10
-18.8433501152863
 20
4.299983816121993
 30
0.0
  0
SPLINE
  5
3033
330
1F
100
AcDbEntity
  8
AM_0
100
AcDbSpline
210
0.0
220
0.0
230
1.0
 70
     8
 71
     3
 72
    55
 73
    51
 74
     0
 42
0.0000000001
 43
0.0000000001
 40
0.0
 40
0.0
 40
0.0
 40
0.0
 40
1.010743684496582
 40
2.022833576467832
 40
3.037578957496688
 40
4.056212745003489
 40
5.079857003664532
 40
6.109500240690281
 40
7.145961322679372
 40
8.189895241603872
 40
9.241717795325891
 40
10.30168407291828
 40
11.36983447792315
 40
12.44600489715814
 40
13.52984294512926
 40
14.62081576220742
 40
15.7182257034828
 40
16.82123173843959
 40
17.92886860250316
 40
19.0400688939571
 40
20.15368796660465
 40
21.26852814259644
 40
22.38336992938901
 40
23.49698739941135
 40
24.6081876908653
 40
25.71582455492886
 40
26.81883757994213
 40
27.91624752121713
 40
29.00722033829659
 40
30.09105838626677
 40
31.16722880550176
 40
32.23537921050758
 40
33.29534548809967
 40
34.347168041821
 40
35.39108718934584
 40
36.42754827133493
 40
37.45720575381954
 40
38.48085062012849
 40
39.49948440763516
 40
40.51422944315121
 40
41.52631975251916
 40
42.53706336719636
 40
43.54780698187354
 40
44.55989729124051
 40
45.57464232675757
 40
46.59327611426424
 40
47.6169209805722
 40
48.64656348684535
 40
49.68302456883444
 40
50.58557219878025
 40
50.58557219878025
 40
50.58557219878025
 40
50.58557219878025
 10
-5.124229360845329
 20
-4.300016183878446
 30
0.0
 10
-5.371135156924096
 20
-4.297460521906274
 30
0.0
 10
-5.865275602413468
 20
-4.292340322731764
 30
0.0
 10
-6.606306443520644
 20
-4.251065769240239
 30
0.0
 10
-7.347305652815271
 20
-4.185450011305028
 30
0.0
 10
-8.088259001533698
 20
-4.093487031003682
 30
0.0
 10
-8.829159096128009
 20
-3.976423103036099
 30
0.0
 10
-9.569991320295798
 20
-3.834778792034548
 30
0.0
 10
-10.31075815208803
 20
-3.669508264564274
 30
0.0
 10
-11.05145302239991
 20
-3.481623558259597
 30
0.0
 10
-11.79207088574955
 20
-3.272278273819388
 30
0.0
 10
-12.53261543370751
 20
-3.042786449953814
 30
0.0
 10
-13.27308864959976
 20
-2.794552592357849
 30
0.0
 10
-14.01349978504605
 20
-2.52912201985071
 30
0.0
 10
-14.75385222992431
 20
-2.248125860170642
 30
0.0
 10
-15.49415284932877
 20
-1.953297044425441
 30
0.0
 10
-16.23440985329341
 20
-1.646454430962349
 30
0.0
 10
-16.97462973870895
 20
-1.329484956676233
 30
0.0
 10
-17.71481968949377
 20
-1.004338107138116
 30
0.0
 10
-18.45498762599474
 20
-0.6730151225775404
 30
0.0
 10
-19.19514004018942
 20
-0.3375528405417864
 30
0.0
 10
-19.93528738417626
 20
-0.0000197950879234
 30
0.0
 10
-20.67543140552083
 20
0.3375193261710932
 30
0.0
 10
-21.41558630054503
 20
0.6729763841718405
 30
0.0
 10
-22.15575332329882
 20
1.00430037162821
 30
0.0
 10
-22.89594459383409
 20
1.32944845983089
 30
0.0
 10
-23.63616755003681
 20
1.646415229043859
 30
0.0
 10
-24.37642572232263
 20
1.953259398625951
 30
0.0
 10
-25.11672644860181
 20
2.248087975295359
 30
0.0
 10
-25.85707886654102
 20
2.529084194067862
 30
0.0
 10
-26.5974900038832
 20
2.794514766963284
 30
0.0
 10
-27.33796323863593
 20
3.042748565202806
 30
0.0
 10
-28.07850771016161
 20
3.272240623400656
 30
0.0
 10
-28.8191223906077
 20
3.48158405932466
 30
0.0
 10
-29.55981268057739
 20
3.66947122645023
 30
0.0
 10
-30.30057923758357
 20
3.834745077302907
 30
0.0
 10
-31.0414167515417
 20
3.976373210557895
 30
0.0
 10
-31.78231929386053
 20
4.093473372285873
 30
0.0
 10
-32.52327286223074
 20
4.185327342343986
 30
0.0
 10
-33.26427258639407
 20
4.251341560874413
 30
0.0
 10
-34.00530279919539
 20
4.291120007367571
 30
0.0
 10
-34.74634929568627
 20
4.304408670109885
 30
0.0
 10
-35.48739579108679
 20
4.291120007346795
 30
0.0
 10
-36.2284260071655
 20
4.251341560958145
 30
0.0
 10
-36.96942571926247
 20
4.185327342029171
 30
0.0
 10
-37.7103793328726
 20
4.093473373469834
 30
0.0
 10
-38.45127809307638
 20
3.976373776989337
 30
0.0
 10
-39.19211268841675
 20
3.83474652537442
 30
0.0
 10
-39.89919819766685
 20
3.676973612924243
 30
0.0
 10
-40.357963328587
 20
3.561592790515845
 30
0.0
 10
-40.57080361056826
 20
3.505362087140733
 30
0.0
  0
LINE
  5
3098
330
1F
100
AcDbEntity
  8
AM_0
100
AcDbLine
 10
-46.6535914088619
 20
-4.300002276310771
 30
0.0
 11
-46.65359140886187
 21
-3.675166945897354
 31
0.0
  0
LINE
  5
3099
330
1F
100
AcDbEntity
  8
AM_0
 48
0.5
100
AcDbLine
 10
-46.99999999999998
 20
-4.500000000000146
 30
0.0
 11
-47.0
 21
4.499999999999853
 31
0.0
  0
LINE
  5
309A
330
1F
100
AcDbEntity
  8
AM_0
100
AcDbLine
 10
-46.99999999999998
 20
-4.500001369653936
 30
0.0
 11
-46.6535858958007
 21
-4.299999093343406
 31
0.0
  0
LINE
  5
309B
330
1F
100
AcDbEntity
  8
AM_0
100
AcDbLine
 10
-47.0
 20
4.499999999999896
 30
0.0
 11
-46.65359140886162
 21
4.300000906656574
 31
0.0
  0
LINE
  5
3146
330
1F
100
AcDbEntity
  8
AM_0
100
AcDbLine
 10
-46.65359140886176
 20
-0.1569879701249656
 30
0.0
 11
-46.65359140886162
 21
4.300004005282568
 31
0.0
  0
LINE
  5
3147
330
1F
100
AcDbEntity
  8
AM_0
100
AcDbLine
 10
-46.65359140886183
 20
-2.016137591344245
 30
0.0
 11
-46.65359140886177
 21
-0.3980113548180282
 31
0.0
  0
VIEWPORT
  5
110
330
101
100
AcDbEntity
 67
     1
  8
0
100
AcDbViewport
 10
420.5
 20
297.0
 30
0.0
 40
948.9782706766916
 41
628.452
 68
     1
 69
     1
1001
ACAD
1000
MVIEW
1002
{
1070
    16
1010
0.0
1020
0.0
1030
0.0
1010
0.0
1020
0.0
1030
1.0
1040
0.0
1040
628.452
1040
420.5
1040
297.0
1040
50.0
1040
0.0
1040
0.0
1070
     0
1070
   100
1070
     1
1070
     1
1070
     0
1070
     0
1070
     0
1070
     0
1040
0.0
1040
0.0
1040
0.0
1040
10.0
1040
10.0
1040
10.0
1040
10.0
1070
     0
1002
{
1002
}
1002
}
  0
ENDSEC
  0
SECTION
  2
OBJECTS
  0
DICTIONARY
  5
C
330
0
100
AcDbDictionary
  3
ACAD_GROUP
350
D
  3
ACAD_LAYOUT
350
1A
  3
ACAD_MLINESTYLE
350
17
  3
ACAD_PLOTSETTINGS
350
19
  3
ACAD_PLOTSTYLENAME
350
E
  3
ACDBVARIABLEDICTIONARY
350
34
  3
ACMDICTIONARY
350
43
  3
AMG
350
2B
  3
AMGSNAPSETTINGS
350
6E
  3
DWGPROPS
350
31FE
  3
ACDBHEADERROUNDTRIPXREC
350
320A
  0
DICTIONARY
  5
74
330
1F
100
AcDbDictionary
280
     1
  3
ACAD_INDEX
360
3200
  3
ACAD_LAYOUTSELFREF
360
322D
  0
DICTIONARY
  5
3232
330
101
100
AcDbDictionary
280
     1
  3
ACAD_LAYOUTSELFREF
360
3233
  0
DICTIONARY
  5
D
102
{ACAD_REACTORS
330
C
102
}
330
C
100
AcDbDictionary
  0
DICTIONARY
  5
1A
102
{ACAD_REACTORS
330
C
102
}
330
C
100
AcDbDictionary
  0
DICTIONARY
  5
17
102
{ACAD_REACTORS
330
C
102
}
330
C
100
AcDbDictionary
  3
STANDARD
350
18
  0
DICTIONARY
  5
19
102
{ACAD_REACTORS
330
C
102
}
330
C
100
AcDbDictionary
  0
ACDBDICTIONARYWDFLT
  5
E
102
{ACAD_REACTORS
330
C
102
}
330
C
100
AcDbDictionary
281
     1
  3
Normal
350
F
100
AcDbDictionaryWithDefault
340
F
  0
DICTIONARY
  5
34
102
{ACAD_REACTORS
330
C
102
}
330
C
100
AcDbDictionary
  3
INDEXCTL
350
35
  3
SORTENTS
350
B5E
  0
DICTIONARY
  5
43
102
{ACAD_REACTORS
330
C
102
}
330
C
100
AcDbDictionary
  3
ACMSTDDICTIONARY
350
260
  0
DICTIONARY
  5
2B
102
{ACAD_REACTORS
330
C
102
}
330
C
100
AcDbDictionary
  3
ACMGSETTINGS
350
2C
  0
DICTIONARY
  5
6E
102
{ACAD_REACTORS
330
C
102
}
330
C
100
AcDbDictionary
  0
XRECORD
  5
31FE
102
{ACAD_REACTORS
330
C
102
}
330
C
100
AcDbXrecord
  1
DWGPROPS COOKIE
  2

  3

  4

  6

  7

  8

  9

300
AmdtFileType=82
301
=
302
=
303
=
304
=
305
=
306
=
307
=
308
=
309
=
 40
0.0553857175925926
 41
2452800.443498622
 42
2452946.614588935
  1

 90
        1
  0
DICTIONARY
  5
320A
102
{ACAD_REACTORS
330
C
102
}
330
C
100
AcDbDictionary
  3
TSTACKALIGN
350
320B
  3
TSTACKSIZE
350
320C
  3
HYPERLINKBASE
350
320D
  3
STYLESHEET
350
320E
  3
LAYOUTDICT
350
320F
  3
PLOTSETDICT
350
3210
  3
PLOTSTYLNAMDICT
350
3211
  3
LWETCUNION
350
3212
  3
INSUNITS
350
3213
  3
CEPSNTYPE
350
3214
  3
FINGERPRINTGUID
350
3215
  3
VERSIONGUID
350
3216
  3
PSVPSCALE
350
3217
  3
DIMSTYLEDATA
350
3218
  3
PUCSORTHOREF
350
3219
  3
PUCSORTHOVIEW
350
321A
  3
PUCSBASE
350
321B
  3
PUCSORGTOP
350
321C
  3
PUCSORGBOTTOM
350
321D
  3
PUCSORGLEFT
350
321E
  3
PUCSORGRIGHT
350
321F
  3
PUCSORGFRONT
350
3220
  3
PUCSORGBACK
350
3221
  3
UCSORTHOREF
350
3222
  3
UCSORTHOVIEW
350
3223
  3
UCSBASE
350
3224
  3
UCSORGTOP
350
3225
  3
UCSORGBOTTOM
350
3226
  3
UCSORGLEFT
350
3227
  3
UCSORGRIGHT
350
3228
  3
UCSORGFRONT
350
3229
  3
UCSORGBACK
350
322A
  0
DICTIONARY
  5
3200
102
{ACAD_REACTORS
330
74
102
}
330
74
100
AcDbDictionary
  3
*A1
350
3201
  0
XRECORD
  5
322D
102
{ACAD_REACTORS
330
74
102
}
330
74
100
AcDbXrecord
340
1F
  0
XRECORD
  5
3233
102
{ACAD_REACTORS
330
3232
102
}
330
3232
100
AcDbXrecord
340
101
  0
MLINESTYLE
  5
18
102
{ACAD_REACTORS
330
17
102
}
330
17
100
AcDbMlineStyle
  2
STANDARD
 70
     0
  3

 62
   256
 51
90.0
 52
90.0
 71
     2
 49
0.5
 62
   256
  6
BYLAYER
 49
-0.5
 62
   256
  6
BYLAYER
  0
ACDBPLACEHOLDER
  5
F
102
{ACAD_REACTORS
330
E
102
}
330
E
100
AcDbPlaceHolder
280
     0
  0
DICTIONARYVAR
  5
35
102
{ACAD_REACTORS
330
34
102
}
330
34
100
DictionaryVariables
280
     0
  1
1
  0
DICTIONARYVAR
  5
B5E
102
{ACAD_REACTORS
330
34
102
}
330
34
100
DictionaryVariables
280
     0
  1
96
  0
DICTIONARY
  5
260
102
{ACAD_REACTORS
330
43
102
}
330
43
100
AcDbDictionary
  0
DICTIONARY
  5
2C
102
{ACAD_REACTORS
330
2B
102
}
330
2B
100
AcDbDictionary
  3
DWGSETTINGS
350
2D
  0
XRECORD
  5
320B
102
{ACAD_REACTORS
330
320A
102
}
330
320A
100
AcDbXrecord
 90
        1
  0
XRECORD
  5
320C
102
{ACAD_REACTORS
330
320A
102
}
330
320A
100
AcDbXrecord
 90
       70
  0
XRECORD
  5
320D
102
{ACAD_REACTORS
330
320A
102
}
330
320A
100
AcDbXrecord
  1

  0
XRECORD
  5
320E
102
{ACAD_REACTORS
330
320A
102
}
330
320A
100
AcDbXrecord
  1
ASAMI.ctb
  0
XRECORD
  5
320F
102
{ACAD_REACTORS
330
320A
102
}
330
320A
100
AcDbXrecord
340
1A
  0
XRECORD
  5
3210
102
{ACAD_REACTORS
330
320A
102
}
330
320A
100
AcDbXrecord
340
19
  0
XRECORD
  5
3211
102
{ACAD_REACTORS
330
320A
102
}
330
320A
100
AcDbXrecord
340
E
  0
XRECORD
  5
3212
102
{ACAD_REACTORS
330
320A
102
}
330
320A
100
AcDbXrecord
 90
    10781
  0
XRECORD
  5
3213
102
{ACAD_REACTORS
330
320A
102
}
330
320A
100
AcDbXrecord
 90
        4
  0
XRECORD
  5
3214
102
{ACAD_REACTORS
330
320A
102
}
330
320A
100
AcDbXrecord
 90
        0
  0
XRECORD
  5
3215
102
{ACAD_REACTORS
330
320A
102
}
330
320A
100
AcDbXrecord
  1
{AFB28963-8C59-40AE-9337-C84526B81ACE}
  0
XRECORD
  5
3216
102
{ACAD_REACTORS
330
320A
102
}
330
320A
100
AcDbXrecord
  1
{3DD3FDD7-C4C0-437A-B533-3FF548528926}
  0
XRECORD
  5
3217
102
{ACAD_REACTORS
330
320A
102
}
330
320A
100
AcDbXrecord
 40
0.0
  0
XRECORD
  5
3218
102
{ACAD_REACTORS
330
320A
102
}
330
320A
100
AcDbXrecord
1000
DSTYLE
1002
{
1070
    79
 70
     2
1070
   341
340
59
1070
   342
340
59
1070
   371
 70
    -1
1070
   372
 70
    -1
1002
}
  0
XRECORD
  5
3219
102
{ACAD_REACTORS
330
320A
102
}
330
320A
100
AcDbXrecord
340
0
  0
XRECORD
  5
321A
102
{ACAD_REACTORS
330
320A
102
}
330
320A
100
AcDbXrecord
 70
     0
  0
XRECORD
  5
321B
102
{ACAD_REACTORS
330
320A
102
}
330
320A
100
AcDbXrecord
340
0
  0
XRECORD
  5
321C
102
{ACAD_REACTORS
330
320A
102
}
330
320A
100
AcDbXrecord
 10
0.0
 20
0.0
 30
0.0
  0
XRECORD
  5
321D
102
{ACAD_REACTORS
330
320A
102
}
330
320A
100
AcDbXrecord
 10
0.0
 20
0.0
 30
0.0
  0
XRECORD
  5
321E
102
{ACAD_REACTORS
330
320A
102
}
330
320A
100
AcDbXrecord
 10
0.0
 20
0.0
 30
0.0
  0
XRECORD
  5
321F
102
{ACAD_REACTORS
330
320A
102
}
330
320A
100
AcDbXrecord
 10
0.0
 20
0.0
 30
0.0
  0
XRECORD
  5
3220
102
{ACAD_REACTORS
330
320A
102
}
330
320A
100
AcDbXrecord
 10
0.0
 20
0.0
 30
0.0
  0
XRECORD
  5
3221
102
{ACAD_REACTORS
330
320A
102
}
330
320A
100
AcDbXrecord
 10
0.0
 20
0.0
 30
0.0
  0
XRECORD
  5
3222
102
{ACAD_REACTORS
330
320A
102
}
330
320A
100
AcDbXrecord
340
0
  0
XRECORD
  5
3223
102
{ACAD_REACTORS
330
320A
102
}
330
320A
100
AcDbXrecord
 70
     0
  0
XRECORD
  5
3224
102
{ACAD_REACTORS
330
320A
102
}
330
320A
100
AcDbXrecord
340
0
  0
XRECORD
  5
3225
102
{ACAD_REACTORS
330
320A
102
}
330
320A
100
AcDbXrecord
 10
0.0
 20
0.0
 30
0.0
  0
XRECORD
  5
3226
102
{ACAD_REACTORS
330
320A
102
}
330
320A
100
AcDbXrecord
 10
0.0
 20
0.0
 30
0.0
  0
XRECORD
  5
3227
102
{ACAD_REACTORS
330
320A
102
}
330
320A
100
AcDbXrecord
 10
0.0
 20
0.0
 30
0.0
  0
XRECORD
  5
3228
102
{ACAD_REACTORS
330
320A
102
}
330
320A
100
AcDbXrecord
 10
0.0
 20
0.0
 30
0.0
  0
XRECORD
  5
3229
102
{ACAD_REACTORS
330
320A
102
}
330
320A
100
AcDbXrecord
 10
0.0
 20
0.0
 30
0.0
  0
XRECORD
  5
322A
102
{ACAD_REACTORS
330
320A
102
}
330
320A
100
AcDbXrecord
 10
0.0
 20
0.0
 30
0.0
  0
LAYER_INDEX
  5
3201
102
{ACAD_REACTORS
330
3200
102
}
330
3200
100
AcDbIndex
 40
2453151.571239132
100
AcDbLayerIndex
  8
0
360
3202
 90
        0
  8
AM_0
360
3203
 90
       46
  8
AM_7
360
3204
 90
        1
  8
AM_11
360
3205
 90
       17
  8
AM_5
360
3206
 90
        5
  8
Defpoints
360
3207
 90
        0
  8
AM_6
360
3208
 90
        1
  0
XRECORD
  5
2D
102
{ACAD_REACTORS
330
2C
102
}
330
2C
100
AcDbXrecord
  1
VERSION
140
15.0
  1
PRODUCT
  2
AutoCAD Mechanical 2000
  0
IDBUFFER
  5
3202
330
0
100
AcDbIdBuffer
  0
IDBUFFER
  5
3203
330
0
100
AcDbIdBuffer
330
2F94
330
2F95
330
2F96
330
2F97
330
2F98
330
2F99
330
301D
330
301E
330
301F
330
3022
330
3023
330
3024
330
3025
330
3026
330
3027
330
3028
330
3029
330
302B
330
302D
330
302F
330
3030
330
3031
330
3032
330
3033
330
3098
330
3099
330
309A
330
309B
330
3146
330
3147
330
C1D
330
C20
330
C30
330
1E12
330
1E16
330
1E22
330
24F9
330
24FC
330
2541
330
2542
330
2B8E
330
2B8F
330
2F7C
330
2F7D
330
2F7E
330
2F8E
  0
IDBUFFER
  5
3204
330
0
100
AcDbIdBuffer
330
C9F
  0
IDBUFFER
  5
3205
330
0
100
AcDbIdBuffer
330
302E
330
1BE8
330
1BE9
330
1F66
330
1F67
330
222E
330
222F
330
2230
330
2231
330
2232
330
2233
330
290C
330
290D
330
2E9D
330
3020
330
3021
330
302A
  0
IDBUFFER
  5
3206
330
0
100
AcDbIdBuffer
330
CC6
330
DF5
330
228A
330
2BA8
330
2D88
  0
IDBUFFER
  5
3207
330
0
100
AcDbIdBuffer
  0
IDBUFFER
  5
3208
330
0
100
AcDbIdBuffer
330
19BD
  0
ENDSEC
  0
EOF
