  0
SECTION
  2
HEADER
  9
$ACADVER
  1
AC1014
  9
$ACADMAINTVER
 70
     9
  9
$DWGCODEPAGE
  3
ANSI_932
  9
$INSBASE
 10
0.0
 20
0.0
 30
0.0
  9
$EXTMIN
 10
-113.6500009999999
 20
-27.75000236965382
 30
-0.00000001
  9
$EXTMAX
 10
12.90545646716395
 20
12.59699751422015
 30
0.00000001
  9
$LIMMIN
 10
-138.8290064717842
 20
-45.22474571374511
  9
$LIMMAX
 10
23.05023987897198
 20
30.30997914579825
  9
$ORTHOMODE
 70
     0
  9
$REGENMODE
 70
     1
  9
$FILLMODE
 70
     1
  9
$QTEXTMODE
 70
     0
  9
$MIRRTEXT
 70
     0
  9
$DRAGMODE
 70
     2
  9
$LTSCALE
 40
1.0
  9
$OSMODE
 70
    55
  9
$ATTMODE
 70
     1
  9
$TEXTSIZE
 40
2.5
  9
$TRACEWID
 40
1.0
  9
$TEXTSTYLE
  7
STANDARD
  9
$CLAYER
  8
AM_0
  9
$CELTYPE
  6
BYLAYER
  9
$CECOLOR
 62
   256
  9
$CELTSCALE
 40
1.0
  9
$DELOBJ
 70
     1
  9
$DISPSILH
 70
     0
  9
$DIMSCALE
 40
0.5
  9
$DIMASZ
 40
2.5
  9
$DIMEXO
 40
1.0
  9
$DIMDLI
 40
12.0
  9
$DIMRND
 40
0.0
  9
$DIMDLE
 40
0.0
  9
$DIMEXE
 40
1.0
  9
$DIMTP
 40
0.1
  9
$DIMTM
 40
0.1
  9
$DIMTXT
 40
3.2
  9
$DIMCEN
 40
0.0
  9
$DIMTSZ
 40
0.0
  9
$DIMTOL
 70
     0
  9
$DIMLIM
 70
     0
  9
$DIMTIH
 70
     0
  9
$DIMTOH
 70
     0
  9
$DIMSE1
 70
     0
  9
$DIMSE2
 70
     0
  9
$DIMTAD
 70
     3
  9
$DIMZIN
 70
     8
  9
$DIMBLK
  1
OPEN30
  9
$DIMASO
 70
     1
  9
$DIMSHO
 70
     1
  9
$DIMPOST
  1

  9
$DIMAPOST
  1
"
  9
$DIMALT
 70
     0
  9
$DIMALTD
 70
     2
  9
$DIMALTF
 40
0.0393701
  9
$DIMLFAC
 40
1.0
  9
$DIMTOFL
 70
     1
  9
$DIMTVP
 40
0.0
  9
$DIMTIX
 70
     0
  9
$DIMSOXD
 70
     0
  9
$DIMSAH
 70
     0
  9
$DIMBLK1
  1

  9
$DIMBLK2
  1

  9
$DIMSTYLE
  2
AM_JIS
  9
$DIMCLRD
 70
   256
  9
$DIMCLRE
 70
   256
  9
$DIMCLRT
 70
     2
  9
$DIMTFAC
 40
0.71
  9
$DIMGAP
 40
1.5
  9
$DIMJUST
 70
     0
  9
$DIMSD1
 70
     0
  9
$DIMSD2
 70
     0
  9
$DIMTOLJ
 70
     0
  9
$DIMTZIN
 70
     0
  9
$DIMALTZ
 70
     0
  9
$DIMALTTZ
 70
     0
  9
$DIMFIT
 70
     3
  9
$DIMUPT
 70
     0
  9
$DIMUNIT
 70
     2
  9
$DIMDEC
 70
     3
  9
$DIMTDEC
 70
     3
  9
$DIMALTU
 70
     2
  9
$DIMALTTD
 70
     2
  9
$DIMTXSTY
  7
ASAMI
  9
$DIMAUNIT
 70
     0
  9
$LUNITS
 70
     2
  9
$LUPREC
 70
     2
  9
$SKETCHINC
 40
1.0
  9
$FILLETRAD
 40
2.5
  9
$AUNITS
 70
     0
  9
$AUPREC
 70
     0
  9
$MENU
  1
.
  9
$ELEVATION
 40
0.0
  9
$PELEVATION
 40
0.0
  9
$THICKNESS
 40
0.0
  9
$LIMCHECK
 70
     0
  9
$BLIPMODE
 70
     0
  9
$CHAMFERA
 40
0.5
  9
$CHAMFERB
 40
0.5
  9
$CHAMFERC
 40
20.0
  9
$CHAMFERD
 40
0.0
  9
$SKPOLY
 70
     0
  9
$TDCREATE
 40
2452800.443498622
  9
$TDUPDATE
 40
2453151.571577858
  9
$TDINDWG
 40
0.0580734259
  9
$TDUSRTIMER
 40
0.0580734259
  9
$USRTIMER
 70
     1
  9
$ANGBASE
 50
0.0
  9
$ANGDIR
 70
     0
  9
$PDMODE
 70
     3
  9
$PDSIZE
 40
0.0
  9
$PLINEWID
 40
0.0
  9
$COORDS
 70
     1
  9
$SPLFRAME
 70
     0
  9
$SPLINETYPE
 70
     6
  9
$SPLINESEGS
 70
     8
  9
$ATTDIA
 70
     1
  9
$ATTREQ
 70
     1
  9
$HANDLING
 70
 12289
  9
$HANDSEED
  5
339A
  9
$SURFTAB1
 70
     6
  9
$SURFTAB2
 70
     6
  9
$SURFTYPE
 70
     6
  9
$SURFU
 70
     6
  9
$SURFV
 70
     6
  9
$UCSNAME
  2

  9
$UCSORG
 10
0.0
 20
0.0
 30
0.0
  9
$UCSXDIR
 10
1.0
 20
0.0000000000000027
 30
0.0
  9
$UCSYDIR
 10
-0.0000000000000027
 20
1.0
 30
0.0
  9
$PUCSNAME
  2

  9
$PUCSORG
 10
0.0
 20
0.0
 30
0.0
  9
$PUCSXDIR
 10
1.0
 20
0.0
 30
0.0
  9
$PUCSYDIR
 10
0.0
 20
1.0
 30
0.0
  9
$USERI1
 70
     0
  9
$USERI2
 70
     0
  9
$USERI3
 70
     0
  9
$USERI4
 70
     0
  9
$USERI5
 70
     0
  9
$USERR1
 40
0.0
  9
$USERR2
 40
0.0
  9
$USERR3
 40
0.0
  9
$USERR4
 40
0.0
  9
$USERR5
 40
0.0
  9
$WORLDVIEW
 70
     1
  9
$SHADEDGE
 70
     3
  9
$SHADEDIF
 70
    70
  9
$TILEMODE
 70
     1
  9
$MAXACTVP
 70
    64
  9
$PINSBASE
 10
0.0
 20
0.0
 30
0.0
  9
$PLIMCHECK
 70
     0
  9
$PEXTMIN
 10
1.000000000000000E+20
 20
1.000000000000000E+20
 30
1.000000000000000E+20
  9
$PEXTMAX
 10
-1.000000000000000E+20
 20
-1.000000000000000E+20
 30
-1.000000000000000E+20
  9
$PLIMMIN
 10
0.0
 20
0.0
  9
$PLIMMAX
 10
841.0
 20
594.0
  9
$UNITMODE
 70
     0
  9
$VISRETAIN
 70
     1
  9
$PLINEGEN
 70
     0
  9
$PSLTSCALE
 70
     0
  9
$TREEDEPTH
 70
  3020
  9
$PICKSTYLE
 70
     0
  9
$CMLSTYLE
  2
STANDARD
  9
$CMLJUST
 70
     0
  9
$CMLSCALE
 40
20.0
  9
$PROXYGRAPHICS
 70
     1
  9
$MEASUREMENT
 70
     1
  0
ENDSEC
  0
SECTION
  2
CLASSES
  0
CLASS
  1
ACDBDICTIONARYWDFLT
  2
AcDbDictionaryWithDefault
  3
AutoCAD 2000
 90
        0
280
     0
281
     0
  0
CLASS
  1
ACDBPLACEHOLDER
  2
AcDbPlaceHolder
  3
AutoCAD 2000
 90
        0
280
     0
281
     0
  0
CLASS
  1
LAYOUT
  2
AcDbLayout
  3
AutoCAD 2000
 90
        0
280
     0
281
     0
  0
CLASS
  1
AMGSETTINGSOBJ
  2
AmgSettingsObj
  3
"AcadM|Product Description: AutoCAD Mechanical 2000|Company: Autodesk"
 90
        0
280
     0
281
     0
  0
CLASS
  1
ACME_DOCUMENT
  2
AcMeDbDoc
  3
AcMeServices
 90
        0
280
     0
281
     0
  0
CLASS
  1
ACMESCOPE
  2
AcMeScope
  3
AcMeServices
 90
        0
280
     0
281
     0
  0
CLASS
  1
ACMECOMMANDHISTORY
  2
AcMeCommandHistory
  3
AcMeServices
 90
        0
280
     0
281
     0
  0
CLASS
  1
DICTIONARYVAR
  2
AcDbDictionaryVar
  3
AutoCAD 2000
 90
        0
280
     0
281
     0
  0
CLASS
  1
ACIMSYSVARMAN
  2
AcImSysVarManager
  3
AcMeServices
 90
        0
280
     0
281
     0
  0
CLASS
  1
ACIMREALSYSVAR
  2
AcImRealSysVar
  3
AcMeServices
 90
        0
280
     0
281
     0
  0
CLASS
  1
ACIMINTSYSVAR
  2
AcImIntSysVar
  3
AcMeServices
 90
        0
280
     0
281
     0
  0
CLASS
  1
ACMEDRAWINGMAN
  2
AcMeDrawingMan
  3
AcMeServices
 90
        0
280
     0
281
     0
  0
CLASS
  1
ACMEVIEW
  2
AcMeView
  3
AcMeServices
 90
        0
280
     0
281
     0
  0
CLASS
  1
ACDBENTITYCACHE
  2
AcMeEntityCache
  3
AcMeServices
 90
        0
280
     0
281
     0
  0
CLASS
  1
GSMANAGER
  2
AcMeGSManager
  3
AcMeServices
 90
        0
280
     0
281
     0
  0
CLASS
  1
AmdtInternalReactor
  2
AmdtInternalReactor
  3
AcMeServices
 90
        0
280
     0
281
     0
  0
CLASS
  1
ACMESTATEMGR
  2
AcMeStateMgr
  3
AcMeServices
 90
        0
280
     0
281
     0
  0
CLASS
  1
ACME_DATABASE
  2
AcMeDbDatabase
  3
AcMeServices
 90
        0
280
     0
281
     0
  0
CLASS
  1
ACRFINSADJUSTERMGR
  2
AcRfInsAdjusterMgr
  3
AcMeServices
 90
        0
280
     0
281
     0
  0
CLASS
  1
ACMDATADICTIONARY
  2
AcmDataDictionary
  3
"AcmSymBB|Product Description: AutoCAD Mechanical 2000|Company: Autodesk"
 90
        0
280
     0
281
     0
  0
CLASS
  1
ACMDATAENTRYBLOCK
  2
AcmDataEntryBlock
  3
"AcmSymBB|Product Description: AutoCAD Mechanical 2000|Company: Autodesk"
 90
        0
280
     0
281
     0
  0
CLASS
  1
AMGOBJPROPCFG
  2
AmgObjPropCfg
  3
"AmgLay|Product Description: AutoCAD Mechanical 2000|Company: Autodesk"
 90
        1
280
     0
281
     0
  0
CLASS
  1
ACAMGFILTERDAT
  2
AcAmgFilterDat
  3
"AcadM|Product Description: AutoCAD Mechanical 2000|Company: Autodesk"
 90
        0
280
     0
281
     0
  0
CLASS
  1
LAYER_INDEX
  2
AcDbLayerIndex
  3
AutoCAD 2000
 90
        0
280
     0
281
     0
  0
CLASS
  1
IDBUFFER
  2
AcDbIdBuffer
  3
AutoCAD 2000
 90
        0
280
     0
281
     0
  0
CLASS
  1
ACIMSTRSYSVAR
  2
AcImStrSysVar
  3
AcMeServices
 90
        0
280
     0
281
     0
  0
CLASS
  1
ACMSTANDARDJIS
  2
AcmStandardJIS
  3
"AcmSymBB|Product Description: AutoCAD Mechanical 2000|Company: Autodesk"
 90
        0
280
     0
281
     0
  0
CLASS
  1
ACMSURFSTANDARDJIS
  2
AcmSurfTextStdJIS
  3
"AcmSymBB|Product Description: AutoCAD Mechanical 2000|Company: Autodesk"
 90
        0
280
     0
281
     0
  0
CLASS
  1
ACMFCFSTANDARDJIS
  2
AcmFCFStdJIS
  3
"AcmSymBB|Product Description: AutoCAD Mechanical 2000|Company: Autodesk"
 90
        0
280
     0
281
     0
  0
CLASS
  1
ACMWELDSTANDARDJIS
  2
AcmWeldingStdJIS
  3
"AcmSymBB|Product Description: AutoCAD Mechanical 2000|Company: Autodesk"
 90
        0
280
     0
281
     0
  0
CLASS
  1
ACMIDSTANDARDJIS
  2
AcmIdStdJIS
  3
"AcmSymBB|Product Description: AutoCAD Mechanical 2000|Company: Autodesk"
 90
        0
280
     0
281
     0
  0
CLASS
  1
ACMDATUMSTANDARDJIS
  2
AcmDatumStdJIS
  3
"AcmSymBB|Product Description: AutoCAD Mechanical 2000|Company: Autodesk"
 90
        0
280
     0
281
     0
  0
CLASS
  1
ACMBOMSTANDARDJIS
  2
AcmBOMStdJIS
  3
"AcmSymBB|Product Description: AutoCAD Mechanical 2000|Company: Autodesk"
 90
        0
280
     0
281
     0
  0
CLASS
  1
ACMSTANDARDANSI
  2
AcmStandardANSI
  3
"AcmSymBB|Product Description: AutoCAD Mechanical 2000|Company: Autodesk"
 90
        0
280
     0
281
     0
  0
CLASS
  1
ACMSURFSTANDARDANSI
  2
AcmSurfTextStdANSI
  3
"AcmSymBB|Product Description: AutoCAD Mechanical 2000|Company: Autodesk"
 90
        0
280
     0
281
     0
  0
CLASS
  1
ACMFCFSTANDARDANSI
  2
AcmFCFStdANSI
  3
"AcmSymBB|Product Description: AutoCAD Mechanical 2000|Company: Autodesk"
 90
        0
280
     0
281
     0
  0
CLASS
  1
ACMWELDSTANDARDANSI
  2
AcmWeldingStdANSI
  3
"AcmSymBB|Product Description: AutoCAD Mechanical 2000|Company: Autodesk"
 90
        0
280
     0
281
     0
  0
CLASS
  1
ACMIDSTANDARDANSI
  2
AcmIdStdANSI
  3
"AcmSymBB|Product Description: AutoCAD Mechanical 2000|Company: Autodesk"
 90
        0
280
     0
281
     0
  0
CLASS
  1
ACMDATUMSTANDARDANSI
  2
AcmDatumStdANSI
  3
"AcmSymBB|Product Description: AutoCAD Mechanical 2000|Company: Autodesk"
 90
        0
280
     0
281
     0
  0
CLASS
  1
ACMBOMSTANDARDANSI
  2
AcmBOMStdANSI
  3
"AcmSymBB|Product Description: AutoCAD Mechanical 2000|Company: Autodesk"
 90
        0
280
     0
281
     0
  0
CLASS
  1
ACMSTANDARDBSI
  2
AcmStandardBSI
  3
"AcmSymBB|Product Description: AutoCAD Mechanical 2000|Company: Autodesk"
 90
        0
280
     0
281
     0
  0
CLASS
  1
ACMSURFSTANDARDBSI
  2
AcmSurfTextStdBSI
  3
"AcmSymBB|Product Description: AutoCAD Mechanical 2000|Company: Autodesk"
 90
        0
280
     0
281
     0
  0
CLASS
  1
ACMFCFSTANDARDBSI
  2
AcmFCFStdBSI
  3
"AcmSymBB|Product Description: AutoCAD Mechanical 2000|Company: Autodesk"
 90
        0
280
     0
281
     0
  0
CLASS
  1
ACMWELDSTANDARDBSI
  2
AcmWeldingStdBSI
  3
"AcmSymBB|Product Description: AutoCAD Mechanical 2000|Company: Autodesk"
 90
        0
280
     0
281
     0
  0
CLASS
  1
ACMIDSTANDARDBSI
  2
AcmIdStdBSI
  3
"AcmSymBB|Product Description: AutoCAD Mechanical 2000|Company: Autodesk"
 90
        0
280
     0
281
     0
  0
CLASS
  1
ACMDATUMSTANDARDBSI
  2
AcmDatumStdBSI
  3
"AcmSymBB|Product Description: AutoCAD Mechanical 2000|Company: Autodesk"
 90
        0
280
     0
281
     0
  0
CLASS
  1
ACMBOMSTANDARDBSI
  2
AcmBOMStdBSI
  3
"AcmSymBB|Product Description: AutoCAD Mechanical 2000|Company: Autodesk"
 90
        0
280
     0
281
     0
  0
CLASS
  1
LONG_TRANSACTION
  2
AcDbLongTransaction
  3
AutoCAD 2000
 90
        0
280
     0
281
     0
  0
CLASS
  1
LWPOLYLINE
  2
AcDbPolyline
  3
AutoCAD 2000
 90
        0
280
     0
281
     1
  0
CLASS
  1
HATCH
  2
AcDbHatch
  3
AutoCAD 2000
 90
        0
280
     0
281
     1
  0
CLASS
  1
XRECORD
  2
AcDbXrecord
  3
AutoCAD 2000
 90
        0
280
     0
281
     0
  0
ENDSEC
  0
SECTION
  2
TABLES
  0
TABLE
  2
VPORT
  5
8
330
0
100
AcDbSymbolTable
 70
     3
  0
VPORT
  5
3364
330
8
100
AcDbSymbolTableRecord
100
AcDbViewportTableRecord
  2
*ACTIVE
 70
     0
 10
0.0
 20
0.0
 11
1.0
 21
1.0
 12
-48.0276359356546
 22
-7.577356301661282
 13
0.0
 23
0.0
 14
2.5
 24
2.5
 15
10.0
 25
10.0
 16
0.0
 26
0.0
 36
1.0
 17
0.0
 27
0.0
 37
0.0
 40
84.24558344811764
 41
1.56570841889117
 42
50.0
 43
0.0
 44
0.0
 50
0.0
 51
0.0
 71
     0
 72
   100
 73
     1
 74
     1
 75
     0
 76
     0
 77
     0
 78
     0
  0
ENDTAB
  0
TABLE
  2
LTYPE
  5
5
330
0
100
AcDbSymbolTable
 70
    10
  0
LTYPE
  5
14
330
5
100
AcDbSymbolTableRecord
100
AcDbLinetypeTableRecord
  2
BYBLOCK
 70
     0
  3

 72
    65
 73
     0
 40
0.0
  0
LTYPE
  5
15
330
5
100
AcDbSymbolTableRecord
100
AcDbLinetypeTableRecord
  2
BYLAYER
 70
     0
  3

 72
    65
 73
     0
 40
0.0
  0
LTYPE
  5
16
330
5
100
AcDbSymbolTableRecord
100
AcDbLinetypeTableRecord
  2
CONTINUOUS
 70
     0
  3
Solid line
 72
    65
 73
     0
 40
0.0
  0
LTYPE
  5
4B
330
5
100
AcDbSymbolTableRecord
100
AcDbLinetypeTableRecord
  2
AM_ISO02W050
 70
     0
  3
__ __ __ __ __ __ __ __ __ __ __ __ __ __ __
 72
    65
 73
     2
 40
7.5
 49
6.0
 74
     0
 49
-1.5
 74
     0
  0
LTYPE
  5
4C
330
5
100
AcDbSymbolTableRecord
100
AcDbLinetypeTableRecord
  2
AM_ISO08W050
 70
     0
  3
____ . ____ . ____ . ____ . ____ . ____ . ____
 72
    65
 73
     4
 40
18.0
 49
12.0
 74
     0
 49
-1.5
 74
     0
 49
3.0
 74
     0
 49
-1.5
 74
     0
  0
LTYPE
  5
4D
330
5
100
AcDbSymbolTableRecord
100
AcDbLinetypeTableRecord
  2
AM_ISO09W050
 70
     0
  3
_____ . . _____ . . _____ . . ____ .. ____
 72
    65
 73
     6
 40
22.5
 49
12.0
 74
     0
 49
-1.5
 74
     0
 49
3.0
 74
     0
 49
-1.5
 74
     0
 49
3.0
 74
     0
 49
-1.5
 74
     0
  0
LTYPE
  5
4E
330
5
100
AcDbSymbolTableRecord
100
AcDbLinetypeTableRecord
  2
AMCONSTR
 70
     0
  3
_______________________
 72
    65
 73
     2
 40
9999.0
 49
9999.0
 74
     0
 49
0.0
 74
     0
  0
LTYPE
  5
4F
330
5
100
AcDbSymbolTableRecord
100
AcDbLinetypeTableRecord
  2
AM_ISO02W050X2
 70
     0
  3
 _ _ _ _ _ _ _ _ _ _ _ _
 72
    65
 73
     2
 40
3.75
 49
3.0
 74
     0
 49
-0.75
 74
     0
  0
LTYPE
  5
50
330
5
100
AcDbSymbolTableRecord
100
AcDbLinetypeTableRecord
  2
AM_ISO08W050X2
 70
     0
  3
__ . __ . __ . __ . __ . __
 72
    65
 73
     4
 40
9.0
 49
6.0
 74
     0
 49
-0.75
 74
     0
 49
1.5
 74
     0
 49
-0.75
 74
     0
  0
LTYPE
  5
53
330
5
100
AcDbSymbolTableRecord
100
AcDbLinetypeTableRecord
  2
AMZIGZAG
 70
     0
  3
/\/-/\/-/\/-/\/-/\/-/\/
 72
    65
 73
     2
 40
11.00009999999999
 49
0.0001
 74
     4
 75
   135
340
52
 46
0.04
 50
0.0
 44
0.0
 45
0.0
 49
-11.0
 74
     0
  0
LTYPE
  5
166
330
5
100
AcDbSymbolTableRecord
100
AcDbLinetypeTableRecord
  2
ACJISTGL
 70
     0
  3
_ _ _ _ _
 72
    65
 73
     2
 40
3.0
 49
2.0
 74
     0
 49
-1.0
 74
     0
  0
LTYPE
  5
26A
330
5
100
AcDbSymbolTableRecord
100
AcDbLinetypeTableRecord
  2
ACJISTGB
 70
     0
  3
__ . . __ . .
 72
    65
 73
     6
 40
9.0
 49
4.0
 74
     0
 49
-1.0
 74
     0
 49
1.0
 74
     0
 49
-1.0
 74
     0
 49
1.0
 74
     0
 49
-1.0
 74
     0
  0
ENDTAB
  0
TABLE
  2
LAYER
  5
2
330
0
100
AcDbSymbolTable
 70
     7
  0
LAYER
  5
10
330
2
100
AcDbSymbolTableRecord
100
AcDbLayerTableRecord
  2
0
 70
     0
 62
     7
  6
CONTINUOUS
  0
LAYER
  5
3F9
330
2
100
AcDbSymbolTableRecord
100
AcDbLayerTableRecord
  2
AM_0
 70
     0
 62
     7
  6
CONTINUOUS
  0
LAYER
  5
C7C
330
2
100
AcDbSymbolTableRecord
100
AcDbLayerTableRecord
  2
AM_7
 70
     0
 62
     4
  6
AM_ISO08W050
  0
LAYER
  5
C97
330
2
100
AcDbSymbolTableRecord
100
AcDbLayerTableRecord
  2
AM_11
 70
     0
 62
     3
  6
AM_ISO09W050
  0
LAYER
  5
CC5
330
2
100
AcDbSymbolTableRecord
100
AcDbLayerTableRecord
  2
AM_5
 70
     0
 62
     3
  6
CONTINUOUS
  0
LAYER
  5
CC7
330
2
100
AcDbSymbolTableRecord
100
AcDbLayerTableRecord
  2
DEFPOINTS
 70
     0
 62
     7
  6
CONTINUOUS
  0
LAYER
  5
19BC
330
2
100
AcDbSymbolTableRecord
100
AcDbLayerTableRecord
  2
AM_6
 70
     0
 62
     2
  6
CONTINUOUS
  0
ENDTAB
  0
TABLE
  2
STYLE
  5
3
330
0
100
AcDbSymbolTable
 70
     5
  0
STYLE
  5
11
330
3
100
AcDbSymbolTableRecord
100
AcDbTextStyleTableRecord
  2
STANDARD
 70
     0
 40
0.0
 41
1.0
 50
0.0
 71
     0
 42
2.5
  3
simplex.shx
  4
EXTFONT.SHX
  0
STYLE
  5
52
330
3
100
AcDbSymbolTableRecord
100
AcDbTextStyleTableRecord
  2

 70
     1
 40
0.0
 41
1.0
 50
0.0
 71
     0
 42
2.5
  3
ltypeshp.shx
  4

  0
STYLE
  5
6B
330
3
100
AcDbSymbolTableRecord
100
AcDbTextStyleTableRecord
  2
ASAMI
 70
     0
 40
0.0
 41
1.0
 50
0.0
 71
     0
 42
2.5
  3
simplex.shx
  4
EXTFONT.SHX
  0
STYLE
  5
262
330
3
100
AcDbSymbolTableRecord
100
AcDbTextStyleTableRecord
  2
ACJISTS
 70
     0
 40
1.0
 41
1.0
 50
0.0
 71
     0
 42
2.5
  3
simplex.shx
  4
bigfont.shx
  0
STYLE
  5
269
330
3
100
AcDbSymbolTableRecord
100
AcDbTextStyleTableRecord
  2
ACJISGDT
 70
     0
 40
0.0
 41
1.0
 50
0.0
 71
     0
 42
2.5
  3
amgdtans.shx
  4

  0
ENDTAB
  0
TABLE
  2
VIEW
  5
6
330
0
100
AcDbSymbolTable
 70
     0
  0
ENDTAB
  0
TABLE
  2
UCS
  5
7
330
0
100
AcDbSymbolTable
 70
     0
  0
ENDTAB
  0
TABLE
  2
APPID
  5
9
330
0
100
AcDbSymbolTable
 70
    16
  0
APPID
  5
12
330
9
100
AcDbSymbolTableRecord
100
AcDbRegAppTableRecord
  2
ACAD
 70
     0
  0
APPID
  5
30
330
9
100
AcDbSymbolTableRecord
100
AcDbRegAppTableRecord
  2
MCAD_NO_VIS
 70
     0
  0
APPID
  5
31
330
9
100
AcDbSymbolTableRecord
100
AcDbRegAppTableRecord
  2
ACAD_TEMP_GRAPHIC
 70
     0
  0
APPID
  5
2C2
330
9
100
AcDbSymbolTableRecord
100
AcDbRegAppTableRecord
  2
GENIUS_GENDTOL_13
 70
     0
  0
APPID
  5
339
330
9
100
AcDbSymbolTableRecord
100
AcDbRegAppTableRecord
  2
GENIUS_GENODEF_13
 70
     0
  0
APPID
  5
33A
330
9
100
AcDbSymbolTableRecord
100
AcDbRegAppTableRecord
  2
GENIUS_GENOBJ-N-RSBK_13
 70
     0
  0
APPID
  5
33B
330
9
100
AcDbSymbolTableRecord
100
AcDbRegAppTableRecord
  2
GENIUS_GENOBJ-N-LIB_13
 70
     0
  0
APPID
  5
33C
330
9
100
AcDbSymbolTableRecord
100
AcDbRegAppTableRecord
  2
GENIUS_GENSCALE_13
 70
     0
  0
APPID
  5
378
330
9
100
AcDbSymbolTableRecord
100
AcDbRegAppTableRecord
  2
GENIUS_GENDIMSH_14
 70
     0
  0
APPID
  5
C82
330
9
100
AcDbSymbolTableRecord
100
AcDbRegAppTableRecord
  2
GENIUS_GENOBJ-N-CRS_13
 70
     0
  0
APPID
  5
C83
330
9
100
AcDbSymbolTableRecord
100
AcDbRegAppTableRecord
  2
GENIUS_GENOENT_13
 70
     0
  0
APPID
  5
C84
330
9
100
AcDbSymbolTableRecord
100
AcDbRegAppTableRecord
  2
GENIUS_GENOREF_13
 70
     0
  0
APPID
  5
C85
330
9
100
AcDbSymbolTableRecord
100
AcDbRegAppTableRecord
  2
GENIUS_GENOLIS_13
 70
     0
  0
APPID
  5
CA0
330
9
100
AcDbSymbolTableRecord
100
AcDbRegAppTableRecord
  2
GENIUS_GENOBJ-N-CEN_13
 70
     0
  0
APPID
  5
1E1E
330
9
100
AcDbSymbolTableRecord
100
AcDbRegAppTableRecord
  2
GENIUS_GENFIL_13
 70
     0
  0
APPID
  5
1E1F
330
9
100
AcDbSymbolTableRecord
100
AcDbRegAppTableRecord
  2
GENIUS_GENOBJ-N-CHA_13
 70
     0
  0
ENDTAB
  0
TABLE
  2
DIMSTYLE
  5
A
330
0
100
AcDbSymbolTable
 70
     9
  0
DIMSTYLE
105
58
330
A
100
AcDbSymbolTableRecord
100
AcDbDimStyleTableRecord
  2
AM_JIS
 70
     0
  3

  4
"
  5
OPEN30
  6

  7

 40
0.5
 41
2.5
 42
1.0
 43
12.0
 44
1.0
 45
0.0
 46
0.0
 47
0.1
 48
0.1
140
3.2
141
0.0
142
0.0
143
0.0393701
144
1.0
145
0.0
146
0.71
147
1.5
 71
     0
 72
     0
 73
     0
 74
     0
 75
     0
 76
     0
 77
     3
 78
     8
170
     0
171
     2
172
     1
173
     0
174
     0
175
     0
176
   256
177
   256
178
     2
270
     2
271
     3
272
     3
273
     2
274
     2
340
6B
275
     0
280
     0
281
     0
282
     0
283
     0
284
     0
285
     0
286
     0
287
     3
288
     0
  0
DIMSTYLE
105
5F
330
A
100
AcDbSymbolTableRecord
100
AcDbDimStyleTableRecord
  2
AM_JIS$3
 70
     0
  3

  4
"
  5
OPEN30
  6

  7

 40
0.5
 41
2.5
 42
1.0
 43
10.0
 44
1.0
 45
0.0
 46
0.0
 47
0.1
 48
0.1
140
3.2
141
0.0
142
0.0
143
0.0393701
144
1.0
145
0.0
146
0.71
147
1.5
 71
     0
 72
     0
 73
     0
 74
     1
 75
     0
 76
     0
 77
     3
 78
     8
170
     0
171
     2
172
     0
173
     0
174
     0
175
     0
176
   256
177
   256
178
     2
270
     2
271
     2
272
     3
273
     2
274
     2
340
6B
275
     0
280
     0
281
     0
282
     0
283
     0
284
     0
285
     0
286
     0
287
     0
288
     1
  0
DIMSTYLE
105
60
330
A
100
AcDbSymbolTableRecord
100
AcDbDimStyleTableRecord
  2
AM_JIS$4
 70
     0
  3

  4
"
  5
OPEN30
  6

  7

 40
0.5
 41
2.5
 42
1.0
 43
10.0
 44
1.0
 45
0.0
 46
0.0
 47
0.1
 48
0.1
140
3.2
141
0.0
142
0.0
143
0.0393701
144
1.0
145
0.0
146
0.71
147
1.5
 71
     0
 72
     0
 73
     0
 74
     1
 75
     0
 76
     0
 77
     3
 78
     8
170
     0
171
     2
172
     0
173
     0
174
     0
175
     0
176
   256
177
   256
178
     2
270
     2
271
     2
272
     3
273
     2
274
     2
340
6B
275
     0
280
     0
281
     0
282
     0
283
     0
284
     0
285
     0
286
     0
287
     0
288
     1
  0
DIMSTYLE
105
61
330
A
100
AcDbSymbolTableRecord
100
AcDbDimStyleTableRecord
  2
AM_JIS$6
 70
     0
  3

  4
"
  5
OPEN30
  6

  7

 40
0.5
 41
2.5
 42
1.0
 43
10.0
 44
1.0
 45
0.0
 46
0.0
 47
0.1
 48
0.1
140
3.2
141
0.0
142
0.0
143
0.0393701
144
1.0
145
0.0
146
0.71
147
1.5
 71
     0
 72
     0
 73
     0
 74
     0
 75
     0
 76
     0
 77
     0
 78
     8
170
     0
171
     2
172
     1
173
     0
174
     0
175
     0
176
   256
177
   256
178
     2
270
     2
271
     2
272
     2
273
     2
274
     2
340
6B
275
     0
280
     0
281
     0
282
     0
283
     0
284
     0
285
     0
286
     0
287
     3
288
     0
  0
DIMSTYLE
105
62
330
A
100
AcDbSymbolTableRecord
100
AcDbDimStyleTableRecord
  2
AM_JIS$7
 70
     0
  3

  4
"
  5
OPEN30
  6

  7

 40
0.5
 41
2.5
 42
1.0
 43
10.0
 44
1.0
 45
0.0
 46
0.0
 47
0.1
 48
0.1
140
3.2
141
0.0
142
0.0
143
0.0393701
144
1.0
145
0.0
146
0.71
147
1.5
 71
     0
 72
     0
 73
     0
 74
     0
 75
     0
 76
     0
 77
     3
 78
     8
170
     0
171
     2
172
     1
173
     0
174
     0
175
     0
176
   256
177
   256
178
     2
270
     2
271
     2
272
     3
273
     2
274
     2
340
6B
275
     0
280
     0
281
     0
282
     0
283
     0
284
     0
285
     0
286
     0
287
     3
288
     0
  0
DIMSTYLE
105
63
330
A
100
AcDbSymbolTableRecord
100
AcDbDimStyleTableRecord
  2
AM_JIS$SF
 70
     0
  3

  4
"
  5
OPEN30
  6

  7

 40
0.5
 41
2.5
 42
1.0
 43
10.0
 44
1.0
 45
0.0
 46
0.0
 47
0.1
 48
0.1
140
3.2
141
0.0
142
0.0
143
0.0393701
144
1.0
145
0.0
146
0.71
147
1.5
 71
     0
 72
     0
 73
     0
 74
     0
 75
     1
 76
     1
 77
     3
 78
     8
170
     0
171
     2
172
     1
173
     0
174
     0
175
     0
176
   256
177
   256
178
     2
270
     2
271
     2
272
     2
273
     2
274
     2
340
6B
275
     0
280
     0
281
     0
282
     0
283
     0
284
     0
285
     0
286
     0
287
     3
288
     0
  0
DIMSTYLE
105
68
330
A
100
AcDbSymbolTableRecord
100
AcDbDimStyleTableRecord
  2
AM_JIS$SH
 70
     0
  3

  4
"
  5

  6
GENAXEH
  7
OPEN30
 40
0.5
 41
2.5
 42
1.0
 43
10.0
 44
1.0
 45
0.0
 46
0.0
 47
0.1
 48
0.1
140
3.2
141
0.0
142
0.0
143
0.0393701
144
2.0
145
0.0
146
0.71
147
1.5
 71
     0
 72
     0
 73
     0
 74
     0
 75
     1
 76
     1
 77
     3
 78
     8
170
     0
171
     2
172
     1
173
     1
174
     0
175
     0
176
   256
177
   256
178
     2
270
     2
271
     2
272
     2
273
     2
274
     2
340
6B
275
     0
280
     0
281
     0
282
     0
283
     0
284
     0
285
     0
286
     0
287
     3
288
     0
  0
DIMSTYLE
105
B34
102
{ACAD_REACTORS
330
2BA8
102
}
330
A
100
AcDbSymbolTableRecord
100
AcDbDimStyleTableRecord
  2
AM_JIS$2
 70
     0
  3

  4
"
  5
OPEN30
  6

  7

 40
0.5
 41
2.5
 42
1.0
 43
12.0
 44
1.0
 45
0.0
 46
0.0
 47
0.1
 48
0.1
140
3.2
141
0.0
142
0.0
143
0.0393701
144
1.0
145
0.0
146
0.71
147
1.5
 71
     0
 72
     0
 73
     0
 74
     0
 75
     0
 76
     0
 77
     3
 78
     8
170
     0
171
     2
172
     1
173
     0
174
     0
175
     0
176
   256
177
   256
178
     2
270
     2
271
     3
272
     3
273
     2
274
     2
340
6B
275
     0
280
     0
281
     0
282
     0
283
     0
284
     0
285
     0
286
     0
287
     3
288
     0
  0
DIMSTYLE
105
BA5
102
{ACAD_REACTORS
330
CC6
330
DF5
330
228A
330
2D88
102
}
330
A
100
AcDbSymbolTableRecord
100
AcDbDimStyleTableRecord
  2
AM_JIS$0
 70
     0
  3

  4
"
  5
OPEN30
  6

  7

 40
0.5
 41
2.5
 42
0.0
 43
10.0
 44
1.0
 45
0.0
 46
0.0
 47
0.1
 48
0.1000000001
140
3.799999999999999
141
0.0
142
0.0
143
0.0393701
144
1.0
145
0.0
146
0.71
147
1.5
 71
     0
 72
     0
 73
     0
 74
     0
 75
     0
 76
     0
 77
     3
 78
     1
170
     0
171
     2
172
     1
173
     0
174
     0
175
     0
176
     3
177
     3
178
     2
270
     2
271
     2
272
     2
273
     2
274
     2
340
11
275
     1
280
     0
281
     0
282
     0
283
     0
284
     8
285
     0
286
     0
287
     0
288
     0
  0
ENDTAB
  0
TABLE
  2
BLOCK_RECORD
  5
1
330
0
100
AcDbSymbolTable
 70
    10
  0
BLOCK_RECORD
  5
1F
102
{ACAD_XDICTIONARY
360
74
102
}
330
1
100
AcDbSymbolTableRecord
100
AcDbBlockTableRecord
  2
*MODEL_SPACE
  0
BLOCK_RECORD
  5
101
102
{ACAD_XDICTIONARY
360
338D
102
}
330
1
100
AcDbSymbolTableRecord
100
AcDbBlockTableRecord
  2
*PAPER_SPACE
  0
BLOCK_RECORD
  5
59
330
1
100
AcDbSymbolTableRecord
100
AcDbBlockTableRecord
  2
_OPEN30
  0
BLOCK_RECORD
  5
64
330
1
100
AcDbSymbolTableRecord
100
AcDbBlockTableRecord
  2
GENAXEH
  0
BLOCK_RECORD
  5
CC8
330
1
100
AcDbSymbolTableRecord
100
AcDbBlockTableRecord
  2
*D5
  0
BLOCK_RECORD
  5
DF6
330
1
100
AcDbSymbolTableRecord
100
AcDbBlockTableRecord
  2
*D6
  0
BLOCK_RECORD
  5
228B
330
1
100
AcDbSymbolTableRecord
100
AcDbBlockTableRecord
  2
*D7
  0
BLOCK_RECORD
  5
2BA9
330
1
100
AcDbSymbolTableRecord
100
AcDbBlockTableRecord
  2
*D8
  0
BLOCK_RECORD
  5
2D89
330
1
100
AcDbSymbolTableRecord
100
AcDbBlockTableRecord
  2
*D9
  0
ENDTAB
  0
ENDSEC
  0
SECTION
  2
BLOCKS
  0
BLOCK
  5
20
330
1F
100
AcDbEntity
  8
0
100
AcDbBlockBegin
  2
*MODEL_SPACE
 70
     0
 10
0.0
 20
0.0
 30
0.0
  3
*MODEL_SPACE
  1

  0
ENDBLK
  5
21
330
1F
100
AcDbEntity
  8
0
100
AcDbBlockEnd
  0
BLOCK
  5
103
330
101
100
AcDbEntity
 67
     1
  8
0
100
AcDbBlockBegin
  2
*PAPER_SPACE
 70
     0
 10
0.0
 20
0.0
 30
0.0
  3
*PAPER_SPACE
  1

  0
ENDBLK
  5
104
330
101
100
AcDbEntity
 67
     1
  8
0
100
AcDbBlockEnd
  0
BLOCK
  5
5D
330
59
100
AcDbEntity
  8
0
100
AcDbBlockBegin
  2
_OPEN30
 70
     0
 10
0.0
 20
0.0
 30
0.0
  3
_OPEN30
  1

  0
LINE
  5
5A
330
59
100
AcDbEntity
  8
0
 62
     0
100
AcDbLine
 10
-1.0
 20
0.26794919
 30
0.0
 11
0.0
 21
0.0
 31
0.0
  0
LINE
  5
5B
330
59
100
AcDbEntity
  8
0
 62
     0
100
AcDbLine
 10
0.0
 20
0.0
 30
0.0
 11
-1.0
 21
-0.26794919
 31
0.0
  0
LINE
  5
5C
330
59
100
AcDbEntity
  8
0
 62
     0
100
AcDbLine
 10
0.0
 20
0.0
 30
0.0
 11
-1.0
 21
0.0
 31
0.0
  0
ENDBLK
  5
5E
330
59
100
AcDbEntity
  8
0
100
AcDbBlockEnd
  0
BLOCK
  5
66
330
64
100
AcDbEntity
  8
0
100
AcDbBlockBegin
  2
GENAXEH
 70
     0
 10
0.0
 20
0.0
 30
0.0
  3
GENAXEH
  1

  0
LINE
  5
65
330
64
100
AcDbEntity
  8
0
100
AcDbLine
 10
-1.0
 20
0.0
 30
0.0
 11
1.0
 21
0.0
 31
0.0
  0
ENDBLK
  5
67
330
64
100
AcDbEntity
  8
0
100
AcDbBlockEnd
  0
BLOCK
  5
CD2
330
CC8
100
AcDbEntity
  8
0
100
AcDbBlockBegin
  2
*D5
 70
     1
 10
0.0
 20
0.0
 30
0.0
  3
*D5
  1

  0
LINE
  5
3312
330
CC8
100
AcDbEntity
  8
AM_5
 62
     3
100
AcDbLine
 10
-101.9999999999999
 20
-4.000000000000016
 30
0.0
 11
-101.9999999999999
 21
-17.00000236965379
 31
0.0
  0
LINE
  5
3313
330
CC8
100
AcDbEntity
  8
AM_5
 62
     3
100
AcDbLine
 10
-1.999998253225078
 20
-4.449999444767611
 30
0.0
 11
-1.999998253225079
 21
-17.00000236965379
 31
0.0
  0
LINE
  5
3314
330
CC8
100
AcDbEntity
  8
AM_5
 62
     3
100
AcDbLine
 10
-100.7499999999999
 20
-16.50000236965379
 30
0.0
 11
-3.249998253225079
 21
-16.50000236965379
 31
0.0
  0
INSERT
  5
3315
330
CC8
100
AcDbEntity
  8
AM_5
 62
     3
100
AcDbBlockReference
  2
_OPEN30
 10
-101.9999999999999
 20
-16.50000236965379
 30
0.0
 41
1.25
 42
1.25
 43
1.25
 50
180.0
  0
INSERT
  5
3316
330
CC8
100
AcDbEntity
  8
AM_5
 62
     3
100
AcDbBlockReference
  2
_OPEN30
 10
-1.999998253225079
 20
-16.50000236965379
 30
0.0
 41
1.25
 42
1.25
 43
1.25
  0
MTEXT
  5
3317
330
CC8
100
AcDbEntity
  8
AM_5
 62
     2
100
AcDbMText
 10
-51.99999912661253
 20
-14.80000236965379
 30
0.0
 40
1.9
 41
0.0
 71
     5
 72
     1
  1
100
1001
ACAD
1000
MTEXTBEGIN
1070
    73
1070
     1
1070
    44
1040
1.0
1070
    74
1070
     0
1000
MTEXTEND
  0
POINT
  5
3318
330
CC8
100
AcDbEntity
  8
DEFPOINTS
 62
     0
100
AcDbPoint
 10
-101.9999999999999
 20
-4.000000000000016
 30
0.0
  0
POINT
  5
3319
330
CC8
100
AcDbEntity
  8
DEFPOINTS
 62
     0
100
AcDbPoint
 10
-1.999998253225078
 20
-4.449999444767611
 30
0.0
  0
POINT
  5
331A
330
CC8
100
AcDbEntity
  8
DEFPOINTS
 62
     0
100
AcDbPoint
 10
-1.999998253225079
 20
-16.50000236965379
 30
0.0
  0
ENDBLK
  5
CD3
330
CC8
100
AcDbEntity
  8
0
100
AcDbBlockEnd
  0
BLOCK
  5
E00
330
DF6
100
AcDbEntity
  8
0
100
AcDbBlockBegin
  2
*D6
 70
     1
 10
0.0
 20
0.0
 30
0.0
  3
*D6
  1

  0
LINE
  5
3338
330
DF6
100
AcDbEntity
  8
AM_5
 62
     3
100
AcDbLine
 10
-47.0
 20
-4.500001369653887
 30
0.0
 11
-47.0
 21
-12.00000236965376
 31
0.0
  0
LINE
  5
3339
330
DF6
100
AcDbEntity
  8
AM_5
 62
     3
100
AcDbLine
 10
-1.999998253225078
 20
-4.449999444767611
 30
0.0
 11
-1.999998253225079
 21
-12.00000236965376
 31
0.0
  0
LINE
  5
333A
330
DF6
100
AcDbEntity
  8
AM_5
 62
     3
100
AcDbLine
 10
-45.75
 20
-11.50000236965376
 30
0.0
 11
-3.249998253225078
 21
-11.50000236965376
 31
0.0
  0
INSERT
  5
333B
330
DF6
100
AcDbEntity
  8
AM_5
 62
     3
100
AcDbBlockReference
  2
_OPEN30
 10
-47.0
 20
-11.50000236965376
 30
0.0
 41
1.25
 42
1.25
 43
1.25
 50
180.0
  0
INSERT
  5
333C
330
DF6
100
AcDbEntity
  8
AM_5
 62
     3
100
AcDbBlockReference
  2
_OPEN30
 10
-1.999998253225079
 20
-11.50000236965376
 30
0.0
 41
1.25
 42
1.25
 43
1.25
  0
MTEXT
  5
333D
330
DF6
100
AcDbEntity
  8
AM_5
 62
     2
100
AcDbMText
 10
-24.49999912661254
 20
-9.800002369653768
 30
0.0
 40
1.9
 41
0.0
 71
     5
 72
     1
  1
45
1001
ACAD
1000
MTEXTBEGIN
1070
    73
1070
     1
1070
    44
1040
1.0
1070
    74
1070
     0
1000
MTEXTEND
  0
POINT
  5
333E
330
DF6
100
AcDbEntity
  8
DEFPOINTS
 62
     0
100
AcDbPoint
 10
-47.0
 20
-4.500001369653887
 30
0.0
  0
POINT
  5
333F
330
DF6
100
AcDbEntity
  8
DEFPOINTS
 62
     0
100
AcDbPoint
 10
-1.999998253225078
 20
-4.449999444767611
 30
0.0
  0
POINT
  5
3340
330
DF6
100
AcDbEntity
  8
DEFPOINTS
 62
     0
100
AcDbPoint
 10
-1.999998253225079
 20
-11.50000236965376
 30
0.0
  0
ENDBLK
  5
E01
330
DF6
100
AcDbEntity
  8
0
100
AcDbBlockEnd
  0
BLOCK
  5
2297
330
228B
100
AcDbEntity
  8
0
100
AcDbBlockBegin
  2
*D7
 70
     1
 10
0.0
 20
0.0
 30
0.0
  3
*D7
  1

  0
LINE
  5
331B
330
228B
100
AcDbEntity
  8
AM_5
 62
     3
100
AcDbLine
 10
-101.4999999999999
 20
-4.500000000000325
 30
0.0
 11
-111.5000009999999
 21
-4.500000000000352
 31
0.0
  0
LINE
  5
331C
330
228B
100
AcDbEntity
  8
AM_5
 62
     3
100
AcDbLine
 10
-101.5
 20
4.499999999999698
 30
0.0
 11
-111.5000009999999
 21
4.49999999999967
 31
0.0
  0
LINE
  5
331D
330
228B
100
AcDbEntity
  8
AM_5
 62
     3
100
AcDbLine
 10
-111.0000009999999
 20
-3.250000000000351
 30
0.0
 11
-111.0000009999999
 21
3.249999999999671
 31
0.0
  0
INSERT
  5
331E
330
228B
100
AcDbEntity
  8
AM_5
 62
     3
100
AcDbBlockReference
  2
_OPEN30
 10
-111.0000009999999
 20
-4.500000000000351
 30
0.0
 41
1.25
 42
1.25
 43
1.25
 50
270.0000000000001
  0
INSERT
  5
331F
330
228B
100
AcDbEntity
  8
AM_5
 62
     3
100
AcDbBlockReference
  2
_OPEN30
 10
-111.0000009999999
 20
4.499999999999671
 30
0.0
 41
1.25
 42
1.25
 43
1.25
 50
90.00000000000015
  0
MTEXT
  5
3320
330
228B
100
AcDbEntity
  8
AM_5
 62
     2
100
AcDbMText
 10
-112.7000009999999
 20
-0.000000000000339
 30
0.0
 40
1.9
 41
0.0
 71
     5
 72
     1
  1
%%c9
 11
-0.0000000000000028
 21
1.0
 31
0.0
1001
ACAD
1000
MTEXTBEGIN
1070
    73
1070
     1
1070
    44
1040
1.0
1070
    74
1070
     0
1000
MTEXTEND
  0
POINT
  5
3321
330
228B
100
AcDbEntity
  8
DEFPOINTS
 62
     0
100
AcDbPoint
 10
-101.5
 20
-4.500000000000009
 30
0.0
  0
POINT
  5
3322
330
228B
100
AcDbEntity
  8
DEFPOINTS
 62
     0
100
AcDbPoint
 10
-101.4999999999999
 20
4.500000000000013
 30
0.0
  0
POINT
  5
3323
330
228B
100
AcDbEntity
  8
DEFPOINTS
 62
     0
100
AcDbPoint
 10
-111.0000009999999
 20
4.500000000000016
 30
0.0
  0
ENDBLK
  5
2298
330
228B
100
AcDbEntity
  8
0
100
AcDbBlockEnd
  0
BLOCK
  5
2BB7
330
2BA9
100
AcDbEntity
  8
0
100
AcDbBlockBegin
  2
*D8
 70
     1
 10
0.0
 20
0.0
 30
0.0
  3
*D8
  1

  0
LINE
  5
338F
330
2BA9
100
AcDbEntity
  8
AM_5
100
AcDbLine
 10
0.1710101364597399
 20
-0.4698462868088068
 30
0.0
 11
4.584937879512482
 21
-12.59700788815584
 31
0.0
  0
LINE
  5
3390
330
2BA9
100
AcDbEntity
  8
AM_5
100
AcDbLine
 10
0.1710111995358663
 20
0.4698458998792058
 30
0.0
 11
4.584966381553948
 21
12.59699751422015
 31
0.0
  0
ARC
  5
3391
330
2BA9
100
AcDbEntity
  8
AM_5
100
AcDbCircle
 10
-0.0000000000000016
 20
-0.0000000000000031
 30
0.0
 40
12.90545646717219
100
AcDbArc
 50
295.5517487548053
 51
64.44812160747662
  0
INSERT
  5
3392
330
2BA9
100
AcDbEntity
  8
AM_5
100
AcDbBlockReference
  2
_OPEN30
 10
4.41392774305274
 20
-12.12716160134703
 30
0.0
 41
1.25
 42
1.25
 43
1.25
 50
202.7758783282578
  0
INSERT
  5
3393
330
2BA9
100
AcDbEntity
  8
AM_5
100
AcDbBlockReference
  2
_OPEN30
 10
4.41395518201808
 20
12.12715161434094
 30
0.0
 41
1.25
 42
1.25
 43
1.25
 50
157.2239920340242
  0
MTEXT
  5
3394
330
2BA9
100
AcDbEntity
  8
AM_5
 62
     2
100
AcDbMText
 10
11.35545646716492
 20
-0.0000128464563639
 30
0.0
 40
1.6
 41
0.0
 71
     5
 72
     1
  1
140°
  7
ASAMI
 11
0.0000011313025075
 21
0.9999999999993601
 31
0.0
  0
POINT
  5
3395
330
2BA9
100
AcDbEntity
  8
DEFPOINTS
 62
     0
100
AcDbPoint
 10
11.84999437460812
 20
-5.111598570685321
 30
0.0
  0
POINT
  5
3396
330
2BA9
100
AcDbEntity
  8
DEFPOINTS
 62
     0
100
AcDbPoint
 10
-0.0000000000000016
 20
-0.0000000000000031
 30
0.0
  0
POINT
  5
3397
330
2BA9
100
AcDbEntity
  8
DEFPOINTS
 62
     0
100
AcDbPoint
 10
-0.0000000000000016
 20
-0.0000000000000031
 30
0.0
  0
POINT
  5
3398
330
2BA9
100
AcDbEntity
  8
DEFPOINTS
 62
     0
100
AcDbPoint
 10
-0.5059335634320963
 20
1.390040444804149
 30
0.0
  0
POINT
  5
3399
330
2BA9
100
AcDbEntity
  8
DEFPOINTS
 62
     0
100
AcDbPoint
 10
-0.5059401244912117
 20
-1.390048685242466
 30
0.0
  0
ENDBLK
  5
2BB8
330
2BA9
100
AcDbEntity
  8
0
100
AcDbBlockEnd
  0
BLOCK
  5
2D93
330
2D89
100
AcDbEntity
  8
0
100
AcDbBlockBegin
  2
*D9
 70
     1
 10
0.0
 20
0.0
 30
0.0
  3
*D9
  1

  0
LINE
  5
3324
330
2D89
100
AcDbEntity
  8
AM_5
 62
     3
100
AcDbLine
 10
-1.999998253224971
 20
4.450003178615701
 30
0.0
 11
9.05592102485804
 21
4.450003178615731
 31
0.0
  0
LINE
  5
3325
330
2D89
100
AcDbEntity
  8
AM_5
 62
     3
100
AcDbLine
 10
-1.999998253225077
 20
-4.449999444767612
 30
0.0
 11
9.055921024858065
 21
-4.449999444767581
 31
0.0
  0
LINE
  5
3326
330
2D89
100
AcDbEntity
  8
AM_5
 62
     3
100
AcDbLine
 10
8.555921024858044
 20
3.20000317861573
 30
0.0
 11
8.555921024858061
 21
-3.199999444767582
 31
0.0
  0
INSERT
  5
3327
330
2D89
100
AcDbEntity
  8
AM_5
 62
     3
100
AcDbBlockReference
  2
_OPEN30
 10
8.55592102485804
 20
4.45000317861573
 30
0.0
 41
1.25
 42
1.25
 43
1.25
 50
90.00000000000017
  0
INSERT
  5
3328
330
2D89
100
AcDbEntity
  8
AM_5
 62
     3
100
AcDbBlockReference
  2
_OPEN30
 10
8.555921024858065
 20
-4.449999444767582
 30
0.0
 41
1.25
 42
1.25
 43
1.25
 50
270.0000000000001
  0
MTEXT
  5
3329
330
2D89
100
AcDbEntity
  8
AM_5
 62
     2
100
AcDbMText
 10
6.855921024858052
 20
0.0000018669240688
 30
0.0
 40
1.9
 41
0.0
 71
     5
 72
     1
  1
%%c8.9
 11
-0.0000000000000028
 21
1.0
 31
0.0
1001
ACAD
1000
MTEXTBEGIN
1070
    73
1070
     1
1070
    44
1040
1.0
1070
    74
1070
     0
1000
MTEXTEND
  0
POINT
  5
332A
330
2D89
100
AcDbEntity
  8
DEFPOINTS
 62
     0
100
AcDbPoint
 10
-1.999998253224957
 20
4.450003178615706
 30
0.0
  0
POINT
  5
332B
330
2D89
100
AcDbEntity
  8
DEFPOINTS
 62
     0
100
AcDbPoint
 10
-1.999998253225091
 20
-4.449999444767606
 30
0.0
  0
POINT
  5
332C
330
2D89
100
AcDbEntity
  8
DEFPOINTS
 62
     0
100
AcDbPoint
 10
8.555921024858051
 20
-4.449999444767609
 30
0.0
  0
ENDBLK
  5
2D94
330
2D89
100
AcDbEntity
  8
0
100
AcDbBlockEnd
  0
ENDSEC
  0
SECTION
  2
ENTITIES
  0
LINE
  5
C1D
330
1F
100
AcDbEntity
  8
AM_0
 48
0.5
100
AcDbLine
 10
-0.0000000000000016
 20
-0.0000000000000031
 30
0.0
 11
-0.5059335634320964
 21
1.390040444804149
 31
0.0
  0
LINE
  5
C20
330
1F
100
AcDbEntity
  8
AM_0
 48
0.5
100
AcDbLine
 10
-0.0000000000000016
 20
-0.0000000000000031
 30
0.0
 11
-0.5059401244912118
 21
-1.390048685242466
 31
0.0
  0
LINE
  5
C30
330
1F
100
AcDbEntity
  8
AM_0
 48
0.5
100
AcDbLine
 10
-101.5559199015253
 20
-4.000002543131338
 30
0.0
 11
-101.5559199015253
 21
3.999997456868666
 31
0.0
  0
LINE
  5
C9F
330
1F
100
AcDbEntity
  8
AM_7
100
AcDbLine
 10
-103.9999999999999
 20
-0.000000000000012
 30
0.0
 11
1.555920024858059
 21
0.0000000000000002
 31
0.0
1001
GENIUS_GENODEF_13
1002
{
1000
HIER
1070
     0
1002
}
1002
{
1000
MANEDIT
1070
     0
1002
}
1002
{
1000
NOSEL
1070
     0
1002
}
1002
{
1000
BEHIND
1070
     0
1002
}
1002
{
1000
REACTOR
1002
}
1001
GENIUS_GENOBJ-N-CEN_13
1002
{
1000
OWNER
1000
GEN
1002
}
  0
DIMENSION
  5
CC6
330
1F
100
AcDbEntity
  8
AM_5
100
AcDbDimension
  2
*D5
 10
-1.999998253225079
 20
-16.50000236965379
 30
0.0
 11
-51.99999912661253
 21
-14.80000236965379
 31
0.0
 70
    32
  1
<>
  3
AM_JIS$0
100
AcDbAlignedDimension
 13
-101.9999999999999
 23
-4.000000000000016
 33
0.0
 14
-1.999998253225078
 24
-4.449999444767611
 34
0.0
 50
0.0000000000001132
100
AcDbRotatedDimension
1001
GENIUS_GENDTOL_13
1000

1000
h7
1000

1040
0.0
1001
ACAD
1000
DSTYLE
1002
{
1070
   271
1070
     0
1002
}
  0
DIMENSION
  5
DF5
330
1F
100
AcDbEntity
  8
AM_5
100
AcDbDimension
  2
*D6
 10
-1.999998253225079
 20
-11.50000236965376
 30
0.0
 11
-24.49999912661254
 21
-9.800002369653768
 31
0.0
 70
    32
  1
<>
  3
AM_JIS$0
100
AcDbAlignedDimension
 13
-47.0
 23
-4.500001369653887
 33
0.0
 14
-1.999998253225078
 24
-4.449999444767611
 34
0.0
 50
0.0000000000001527
100
AcDbRotatedDimension
1001
GENIUS_GENDTOL_13
1000

1000
h7
1000

1040
0.0
1001
ACAD
1000
DSTYLE
1002
{
1070
   271
1070
     0
1002
}
  0
TEXT
  5
19BD
330
1F
100
AcDbEntity
  8
AM_6
100
AcDbText
 10
-63.24999999999997
 20
-27.75000236965382
 30
0.0
 40
2.5
  1
MDW089MHK
 50
0.0000000000001527
 72
     4
 11
-51.99999999999997
 21
-26.50000236965379
 31
0.0
100
AcDbText
  0
ARC
  5
1BE8
330
1F
100
AcDbEntity
  8
AM_11
 48
0.5
100
AcDbCircle
 10
-65.18578898111988
 20
17.66787048062784
 30
0.0
 40
19.53452809651666
100
AcDbArc
 50
244.7482808787518
 51
295.2516148471758
  0
ARC
  5
1BE9
330
1F
100
AcDbEntity
  8
AM_11
 48
0.5
100
AcDbCircle
 10
-65.18578898111991
 20
-17.66785848258815
 30
0.0
 40
19.53452809651666
100
AcDbArc
 50
64.74833051131179
 51
115.2516644797366
  0
LINE
  5
1E12
330
1F
100
AcDbEntity
  8
AM_0
 48
0.5
100
AcDbLine
 10
-101.5
 20
4.499999999999989
 30
0.0
 11
-47.0
 21
4.499999999999902
 31
0.0
1001
GENIUS_GENODEF_13
1002
{
1000
HIER
1070
     0
1002
}
1002
{
1000
MANEDIT
1070
     0
1002
}
1002
{
1000
NOSEL
1070
     0
1002
}
1002
{
1000
BEHIND
1070
     0
1002
}
1002
{
1000
REACTOR
1002
}
1001
GENIUS_GENOBJ-N-CEN_13
1002
{
1000
OWNER
1000
GEN
1002
}
  0
LINE
  5
1E16
330
1F
100
AcDbEntity
  8
AM_0
 48
0.5
100
AcDbLine
 10
-101.4999999999999
 20
-4.500000000000009
 30
0.0
 11
-47.0
 21
-4.500000000000097
 31
0.0
1001
GENIUS_GENODEF_13
1002
{
1000
HIER
1070
     0
1002
}
1002
{
1000
MANEDIT
1070
     0
1002
}
1002
{
1000
NOSEL
1070
     0
1002
}
1002
{
1000
BEHIND
1070
     0
1002
}
1002
{
1000
REACTOR
1002
}
1001
GENIUS_GENOBJ-N-CEN_13
1002
{
1000
OWNER
1000
GEN
1002
}
  0
LINE
  5
1E22
330
1F
100
AcDbEntity
  8
AM_0
100
AcDbLine
 10
-101.5
 20
-4.5
 30
0.0
 11
-101.4999999999999
 21
4.500000000000013
 31
0.0
  0
ARC
  5
1F66
330
1F
100
AcDbEntity
  8
AM_11
 48
0.5
100
AcDbCircle
 10
-81.85241919041599
 20
17.66787048062778
 30
0.0
 40
19.53452809651666
100
AcDbArc
 50
244.7482808787518
 51
295.2516148471758
  0
ARC
  5
1F67
330
1F
100
AcDbEntity
  8
AM_11
 48
0.5
100
AcDbCircle
 10
-81.85241919041601
 20
-17.66785848258821
 30
0.0
 40
19.53452809651666
100
AcDbArc
 50
64.74833051131179
 51
115.2516644797366
  0
ELLIPSE
  5
222E
330
1F
100
AcDbEntity
  8
AM_11
 48
0.5
100
AcDbEllipse
 10
-15.18578898112439
 20
16.72558433296425
 30
0.0
 11
-19.53452809651665
 21
0.000000000000166
 31
0.0
210
0.0
220
0.0
230
1.0
 40
0.9466666666666663
 41
1.130070686340305
 42
2.011520147323594
  0
ELLIPSE
  5
222F
330
1F
100
AcDbEntity
  8
AM_11
 48
0.5
100
AcDbEllipse
 10
-15.18578898112476
 20
-16.72557241888021
 30
0.0
 11
-19.53452809651663
 21
0.0000000000000489
 31
0.0
210
0.0
220
0.0
230
1.0
 40
0.9466666666666668
 41
4.271664206181679
 42
5.153113667164986
  0
ELLIPSE
  5
2230
330
1F
100
AcDbEntity
  8
AM_11
 48
0.5
100
AcDbEllipse
 10
-48.51912231445306
 20
16.7255843329646
 30
0.0
 11
-19.53452809651663
 21
0.000000000000114
 31
0.0
210
0.0
220
0.0
230
1.0
 40
0.946666666666667
 41
1.130070686340299
 42
2.011520147323592
  0
ELLIPSE
  5
2231
330
1F
100
AcDbEntity
  8
AM_11
 48
0.5
100
AcDbEllipse
 10
-48.51912231445343
 20
-16.72557241887987
 30
0.0
 11
-19.53452809651663
 21
0.0000000000000055
 31
0.0
210
0.0
220
0.0
230
1.0
 40
0.946666666666667
 41
4.271664206181676
 42
5.153113667164983
  0
ELLIPSE
  5
2232
330
1F
100
AcDbEntity
  8
AM_11
 48
0.5
100
AcDbEllipse
 10
-31.85245564779143
 20
-16.72557241888004
 30
0.0
 11
-19.53452809651665
 21
0.0000000000000576
 31
0.0
210
0.0
220
0.0
230
1.0
 40
0.9466666666666657
 41
4.271664206181679
 42
5.153113667164985
  0
ELLIPSE
  5
2233
330
1F
100
AcDbEntity
  8
AM_11
 48
0.5
100
AcDbEllipse
 10
-31.85245564779106
 20
16.72558433296443
 30
0.0
 11
19.53452809651663
 21
0.0000000000000446
 31
0.0
210
0.0
220
0.0
230
1.0
 40
0.9466666666666672
 41
4.271663339930084
 42
5.153112800913377
  0
DIMENSION
  5
228A
330
1F
100
AcDbEntity
  8
AM_5
100
AcDbDimension
  2
*D7
 10
-111.0000009999999
 20
4.500000000000016
 30
0.0
 11
-111.0000009999999
 21
-0.0000000000000113
 31
0.0
 70
   160
  1
%%c<>
 51
359.9999999999998
  3
AM_JIS$0
100
AcDbAlignedDimension
 13
-101.5
 23
-4.500000000000009
 33
0.0
 14
-101.4999999999999
 24
4.500000000000013
 34
0.0
 50
270.0000000000002
100
AcDbRotatedDimension
1001
ACAD
1000
DSTYLE
1002
{
1070
   271
1070
     0
1002
}
1001
GENIUS_GENDTOL_13
1000

1000
h7
1000

1040
0.0
  0
LINE
  5
24F9
330
1F
100
AcDbEntity
  8
AM_0
 48
0.5
100
AcDbLine
 10
-101.5
 20
4.499999999999989
 30
0.0
 11
-102.0
 21
3.999999999999989
 31
0.0
1001
GENIUS_GENFIL_13
1070
     0
1040
0.5
1040
0.5
1040
20.0
1040
0.0
1002
{
1002
}
1001
GENIUS_GENODEF_13
1002
{
1000
HIER
1070
     0
1002
}
1002
{
1000
MANEDIT
1070
     0
1002
}
1002
{
1000
NOSEL
1070
     0
1002
}
1002
{
1000
BEHIND
1070
     0
1002
}
1002
{
1000
REACTOR
1002
}
1001
GENIUS_GENOBJ-N-CHA_13
1002
{
1000
OWNER
1000
GEN
1002
}
  0
LINE
  5
24FC
330
1F
100
AcDbEntity
  8
AM_0
 48
0.5
100
AcDbLine
 10
-101.9999999999999
 20
-4.000000000000008
 30
0.0
 11
-101.4999999999999
 21
-4.500000000000009
 31
0.0
1001
GENIUS_GENFIL_13
1070
     0
1040
0.5
1040
0.5
1040
20.0
1040
0.0
1002
{
1002
}
1001
GENIUS_GENODEF_13
1002
{
1000
HIER
1070
     0
1002
}
1002
{
1000
MANEDIT
1070
     0
1002
}
1002
{
1000
NOSEL
1070
     0
1002
}
1002
{
1000
BEHIND
1070
     0
1002
}
1002
{
1000
REACTOR
1002
}
1001
GENIUS_GENOBJ-N-CHA_13
1002
{
1000
OWNER
1000
GEN
1002
}
  0
ELLIPSE
  5
2541
330
1F
100
AcDbEntity
  8
AM_0
 48
0.5
100
AcDbEllipse
 10
6.103455813051644
 20
-5.995169608223523
 30
0.0
 11
-7.397222288058633
 21
3.406917701414937
 31
0.0
210
0.0
220
0.0
230
-1.0
 40
0.7639059874992274
 41
-0.1617760152509138
 42
0.2299315428291684
  0
LINE
  5
2542
330
1F
100
AcDbEntity
  8
AM_0
 48
0.5
100
AcDbLine
 10
-1.616377741131771
 20
-3.542915580519085
 30
0.0
 11
-1.999998253225091
 21
-4.449999444767606
 31
0.0
  0
ARC
  5
290C
330
1F
100
AcDbEntity
  8
AM_11
 48
0.5
100
AcDbCircle
 10
-98.51907483729785
 20
-17.66785848258827
 30
0.0
 40
19.53452809651666
100
AcDbArc
 50
64.74833051131179
 51
100.2645516450266
  0
ARC
  5
290D
330
1F
100
AcDbEntity
  8
AM_11
 48
0.5
100
AcDbCircle
 10
-98.51907483729782
 20
17.66787048062773
 30
0.0
 40
19.53452809651666
100
AcDbArc
 50
259.7354483549732
 51
295.2516148471758
  0
ELLIPSE
  5
2B8E
330
1F
100
AcDbEntity
  8
AM_0
 48
0.5
100
AcDbEllipse
 10
6.103455813051643
 20
5.995169608223525
 30
0.0
 11
-7.397222288058633
 21
-3.406917701414938
 31
0.0
210
0.0
220
0.0
230
1.0
 40
0.7639059874992274
 41
-0.1617760152509138
 42
0.2299315428291684
  0
LINE
  5
2B8F
330
1F
100
AcDbEntity
  8
AM_0
 48
0.5
100
AcDbLine
 10
-1.616377741131771
 20
3.542915580519085
 30
0.0
 11
-1.999998253224957
 21
4.450003178615706
 31
0.0
  0
DIMENSION
  5
2BA8
330
1F
100
AcDbEntity
  8
AM_5
100
AcDbDimension
  2
*D8
 10
-0.5059401244912117
 20
-1.390048685242466
 30
0.0
 11
11.35545646716492
 21
-0.0000128464563975
 31
0.0
 70
    34
  1
<>
 51
359.9999999999998
  3
AM_JIS$2
100
AcDb2LineAngularDimension
 13
-0.0000000000000016
 23
-0.0000000000000031
 33
0.0
 14
-0.5059335634320963
 24
1.390040444804149
 34
0.0
 15
-0.0000000000000016
 25
-0.0000000000000031
 35
0.0
 16
11.84999437460812
 26
-5.111598570685321
 36
0.0
1001
GENIUS_GENDTOL_13
1000

1000
h7
1000

1040
0.0
1001
ACAD
1000
DSTYLE
1002
{
1070
   271
1070
     1
1070
   179
1070
     1
1002
}
  0
DIMENSION
  5
2D88
330
1F
100
AcDbEntity
  8
AM_5
100
AcDbDimension
  2
*D9
 10
8.555921024858051
 20
-4.449999444767609
 30
0.0
 11
6.855921024858052
 21
0.0000018669240488
 31
0.0
 70
    32
  1
%%c<>
 51
359.9999999999998
  3
AM_JIS$0
100
AcDbAlignedDimension
 13
-1.999998253224957
 23
4.450003178615706
 33
0.0
 14
-1.999998253225091
 24
-4.449999444767606
 34
0.0
 50
90.0
100
AcDbRotatedDimension
1001
ACAD
1000
DSTYLE
1002
{
1070
   271
1070
     1
1002
}
1001
GENIUS_GENDTOL_13
1000

1000
h7
1000

1040
0.0
  0
ELLIPSE
  5
2E9D
330
1F
100
AcDbEntity
  8
AM_11
 48
0.5
100
AcDbEllipse
 10
1.480877685542336
 20
16.92709739721667
 30
0.0
 11
19.53452809651624
 21
0.0000000000037185
 31
0.0
210
0.0
220
0.0
230
1.0
 40
0.9580722891566427
 41
4.271663339929894
 42
4.433393390970589
  0
LINE
  5
3098
330
1F
100
AcDbEntity
  8
AM_0
100
AcDbLine
 10
-46.91339346215483
 20
-4.449999061715451
 30
0.0
 11
-46.91339346215478
 21
-3.307507011001892
 31
0.0
  0
LINE
  5
3099
330
1F
100
AcDbEntity
  8
AM_0
 48
0.5
100
AcDbLine
 10
-46.99999999999998
 20
-4.50000000000014
 30
0.0
 11
-47.0
 21
4.499999999999859
 31
0.0
  0
LINE
  5
309A
330
1F
100
AcDbEntity
  8
AM_0
100
AcDbLine
 10
-46.99999999999998
 20
-4.500001369653929
 30
0.0
 11
-46.91339346215483
 21
-4.449999061715447
 31
0.0
  0
LINE
  5
309B
330
1F
100
AcDbEntity
  8
AM_0
100
AcDbLine
 10
-47.0
 20
4.499999999999902
 30
0.0
 11
-46.91339346215456
 21
4.449997692061255
 31
0.0
  0
LINE
  5
3146
330
1F
100
AcDbEntity
  8
AM_0
100
AcDbLine
 10
-46.91339346215468
 20
-0.2262003433276422
 30
0.0
 11
-46.91339346215455
 21
4.449997692061248
 31
0.0
  0
LINE
  5
3147
330
1F
100
AcDbEntity
  8
AM_0
100
AcDbLine
 10
-46.91339346215476
 20
-2.459816724588727
 30
0.0
 11
-46.91339346215469
 21
-0.2900564306125033
 31
0.0
  0
LINE
  5
32BD
330
1F
100
AcDbEntity
  8
AM_0
100
AcDbLine
 10
-45.34982048546185
 20
-4.4499990617155
 30
0.0
 11
-46.91339346215483
 21
-4.449999061715451
 31
0.0
  0
ELLIPSE
  5
32BE
330
1F
100
AcDbEntity
  8
AM_0
 48
0.5
100
AcDbEllipse
 10
-45.53726268145219
 20
-2.85490232004162
 30
0.0
 11
-0.5726512852899845
 21
1.51296296091535
 31
0.0
210
0.0
220
0.0
230
0.9999999999999998
 40
0.8953216249638193
 41
1.254508700093996
 42
2.869432074969583
  0
ELLIPSE
  5
32BF
330
1F
100
AcDbEntity
  8
AM_0
 48
0.5
100
AcDbEllipse
 10
-45.90393273543957
 20
-2.900096500848033
 30
0.0
 11
-0.0000000000017704
 21
1.112500000000005
 31
0.0
210
0.0
220
0.0
230
1.0
 40
0.9880495102179814
 41
-0.3953601559032549
 42
1.545164924683047
  0
LINE
  5
32C0
330
1F
100
AcDbEntity
  8
AM_11
 48
0.5
100
AcDbLine
 10
-45.34982048546185
 20
-4.4499990617155
 30
0.0
 11
-35.66441552078427
 21
-4.450014952657444
 31
0.0
  0
SPLINE
  5
32C1
330
1F
100
AcDbEntity
  8
AM_0
 48
0.5
100
AcDbSpline
210
0.0
220
0.0
230
1.0
 70
     8
 71
     3
 72
    25
 73
    21
 74
     0
 42
0.0000000001
 43
0.0000000001
 40
0.3890952502805152
 40
0.3890952502805152
 40
0.3890952502805152
 40
0.3890952502805152
 40
0.5057083941171959
 40
0.7593947393741639
 40
1.01405318625086
 40
1.26996425091637
 40
1.527375060172565
 40
1.786490330669834
 40
2.047470117551047
 40
2.310425755981314
 40
2.575417325379407
 40
2.842456731169063
 40
3.111495753801943
 40
3.382458822635121
 40
3.655202026904655
 40
3.929554512223505
 40
4.205306020962704
 40
4.482215236978595
 40
4.76001530984208
 40
5.029821427366006
 40
5.029821427366006
 40
5.029821427366006
 40
5.029821427366006
 10
-33.62766357046115
 20
-4.450016748431009
 30
0.0
 10
-33.74142945640275
 20
-4.443467244351546
 30
0.0
 10
-34.10251809650741
 20
-4.419354992097725
 30
0.0
 10
-34.71075719302877
 20
-4.363616367271987
 30
0.0
 10
-35.45171053534046
 20
-4.268445351145058
 30
0.0
 10
-36.19261065402656
 20
-4.147297891360238
 30
0.0
 10
-37.40062080389026
 20
-3.856765942550963
 30
0.0
 10
-38.14138445927357
 20
-3.685732304581721
 30
0.0
 10
-38.88207458459242
 20
-3.491289544778778
 30
0.0
 10
-39.62268942878353
 20
-3.27464414797893
 30
0.0
 10
-40.36323508713477
 20
-3.037144533151792
 30
0.0
 10
-41.10370849106687
 20
-2.78025718386461
 30
0.0
 10
-41.84411803035183
 20
-2.505557910819291
 30
0.0
 10
-42.58447360477568
 20
-2.214767948009445
 30
0.0
 10
-43.32477681396853
 20
-1.909651302287061
 30
0.0
 10
-44.0650331765018
 20
-1.592103593529586
 30
0.0
 10
-44.8052562863126
 20
-1.264084022541093
 30
0.0
 10
-45.54543391039247
 20
-0.9275680581582006
 30
0.0
 10
-46.27800830214794
 20
-0.5883257404833678
 30
0.0
 10
-46.76336639900124
 20
-0.3604203718244479
 30
0.0
 10
-47.00277676361745
 20
-0.2481283395830673
 30
0.0
  0
SPLINE
  5
32C2
330
1F
100
AcDbEntity
  8
AM_0
100
AcDbSpline
210
0.0
220
0.0
230
1.0
 70
     8
 71
     3
 72
    13
 73
     9
 74
     0
 42
0.0000000001
 43
0.0000000001
 40
16.03460056234195
 40
16.03460056234195
 40
16.03460056234195
 40
16.03460056234195
 40
16.35212717791071
 40
17.38177067057215
 40
18.41822498539278
 40
19.46214186516937
 40
20.5139635832251
 40
21.34083983469381
 40
21.34083983469381
 40
21.34083983469381
 40
21.34083983469381
 10
-45.34982048546187
 20
-4.449999061715513
 30
0.0
 10
-45.1295438963072
 20
-4.414026164767659
 30
0.0
 10
-44.90687180905105
 20
-4.359533303616411
 30
0.0
 10
-44.33829633005361
 20
-4.188629097140734
 30
0.0
 10
-43.51924218771662
 20
-3.984533440150017
 30
0.0
 10
-42.79608746572377
 20
-3.725414821030015
 30
0.0
 10
-42.28440845961187
 20
-3.506677083519122
 30
0.0
 10
-41.85026891137734
 20
-3.35606058448603
 30
0.0
 10
-41.65981449354767
 20
-3.287980554505284
 30
0.0
  0
SPLINE
  5
32C3
330
1F
100
AcDbEntity
  8
AM_0
 48
0.5
100
AcDbSpline
210
0.0
220
0.0
230
1.0
 70
     8
 71
     3
 72
    21
 73
    17
 74
     0
 42
0.0000000001
 43
0.0000000001
 40
1.493459168545878
 40
1.493459168545878
 40
1.493459168545878
 40
1.493459168545878
 40
2.022833993863546
 40
3.037578683882831
 40
4.056212471389632
 40
5.079857945358201
 40
6.109499720892564
 40
7.145961650132166
 40
8.189873411961459
 40
9.241710626092514
 40
10.30166235592959
 40
11.36982472628033
 40
12.44598212828784
 40
13.52983440361964
 40
14.62080578343036
 40
14.90544694398022
 40
14.90544694398022
 40
14.90544694398022
 40
14.90544694398022
 10
-35.66441552078427
 20
-4.450014952657444
 30
0.0
 10
-35.80276820061436
 20
-4.440061383589283
 30
0.0
 10
-36.23563994006693
 20
-4.397934359014831
 30
0.0
 10
-37.2523183062453
 20
-4.219672063531943
 30
0.0
 10
-37.99327204895455
 20
-4.124500984555954
 30
0.0
 10
-38.73417012558343
 20
-4.003342128654488
 30
0.0
 10
-39.47500480686157
 20
-3.85676905879071
 30
0.0
 10
-40.21576523693131
 20
-3.685729205634884
 30
0.0
 10
-40.95645650951994
 20
-3.491283630699393
 30
0.0
 10
-41.69707195361248
 20
-3.274646419647273
 30
0.0
 10
-42.43761543959243
 20
-3.037136050947723
 30
0.0
 10
-43.17809174124425
 20
-2.780263911667859
 30
0.0
 10
-43.91850030238343
 20
-2.505557095801448
 30
0.0
 10
-44.65885499369217
 20
-2.214765610140016
 30
0.0
 10
-45.21528328347423
 20
-1.985445061220896
 30
0.0
 10
-45.52534454386882
 20
-1.854372806769466
 30
0.0
 10
-45.48058424619527
 20
-1.873417072008169
 30
0.0
  0
LINE
  5
32C4
330
1F
100
AcDbEntity
  8
AM_0
 48
0.5
100
AcDbLine
 10
-36.98030021995182
 20
2.210639959676057
 30
0.0
 11
-47.0027767636174
 21
-0.2481283395830717
 31
0.0
  0
LINE
  5
32C5
330
1F
100
AcDbEntity
  8
AM_0
100
AcDbLine
 10
-43.65131396174223
 20
4.450000938284401
 30
0.0
 11
-46.9133990847782
 21
4.45000093828453
 31
0.0
  0
LINE
  5
32C6
330
1F
100
AcDbEntity
  8
AM_0
 48
0.5
100
AcDbLine
 10
-4.750268456053039
 20
4.449983251567814
 30
0.0
 11
-1.999998253224957
 21
4.450003178615706
 31
0.0
  0
LINE
  5
32C7
330
1F
100
AcDbEntity
  8
AM_0
 48
0.5
100
AcDbLine
 10
-0.0000000000000052
 20
-0.0000000000000022
 30
0.0
 11
-2.38973815008696
 21
1.708665768807653
 31
0.0
  0
LINE
  5
32C8
330
1F
100
AcDbEntity
  8
AM_0
 48
0.5
100
AcDbLine
 10
-5.124229360844018
 20
-4.450016748432311
 30
0.0
 11
-1.999998253225115
 21
-4.449999444767606
 31
0.0
  0
LINE
  5
32C9
330
1F
100
AcDbEntity
  8
AM_11
 48
0.5
100
AcDbLine
 10
-43.65131396174223
 20
4.449983251568562
 30
0.0
 11
-34.74633168175633
 21
4.449983251568356
 31
0.0
  0
LINE
  5
32CA
330
1F
100
AcDbEntity
  8
AM_0
100
AcDbLine
 10
-34.74633168175633
 20
4.449983251568356
 30
0.0
 11
-18.84335011528629
 21
4.449983251568268
 31
0.0
  0
LINE
  5
32CB
330
1F
100
AcDbEntity
  8
AM_0
 48
0.5
100
AcDbLine
 10
-35.66441552078427
 20
-4.450014952657444
 30
0.0
 11
-19.08334221452237
 21
-4.450016748431993
 31
0.0
  0
LINE
  5
32CC
330
1F
100
AcDbEntity
  8
AM_11
 48
0.5
100
AcDbLine
 10
-19.08334221452237
 20
-4.450016748431993
 30
0.0
 11
-5.124229360845362
 21
-4.450016748432309
 31
0.0
  0
LINE
  5
32CD
330
1F
100
AcDbEntity
  8
AM_11
 48
0.5
100
AcDbLine
 10
-18.84308354181864
 20
4.44998042234758
 30
0.0
 11
-4.750535019225904
 21
4.449980422346754
 31
0.0
  0
ELLIPSE
  5
32CE
330
1F
100
AcDbEntity
  8
AM_0
 48
0.5
100
AcDbEllipse
 10
-8.771835545867983
 20
12.10301517207642
 30
0.0
 11
0.0026217329658373
 21
15.23474360514751
 31
0.0
210
0.0
220
0.0
230
1.0
 40
0.9480416121149399
 41
3.687296101567923
 42
3.794475227986422
  0
ELLIPSE
  5
32CF
330
1F
100
AcDbEntity
  8
AM_0
 48
0.5
100
AcDbEllipse
 10
-1.573346145597211
 20
-1.159733120098201
 30
0.0
 11
-0.1182028137061471
 21
0.7310742009731145
 31
0.0
210
0.0
220
0.0
230
1.0
 40
0.4754200939104824
 41
1.817079824700686
 42
4.952421714412663
  0
ELLIPSE
  5
32D0
330
1F
100
AcDbEntity
  8
AM_0
 48
0.5
100
AcDbEllipse
 10
-1.573346145597211
 20
-1.159733120098201
 30
0.0
 11
-0.6029572971456812
 21
0.3809704824595799
 31
0.0
210
0.0
220
0.0
230
1.0
 40
0.5125719506501149
 41
4.516004405106574
 42
7.659444746436081
  0
ELLIPSE
  5
32D1
330
1F
100
AcDbEntity
  8
AM_0
 48
0.5
100
AcDbEllipse
 10
-7.619270570721957
 20
7.468714190031819
 30
0.0
 11
0.0000000000167551
 21
10.72942148049692
 31
0.0
210
0.0
220
0.0
230
1.0
 40
0.9480337078652384
 41
3.652175978819724
 42
3.740670756499206
  0
SPLINE
  5
32D2
330
1F
100
AcDbEntity
  8
AM_0
100
AcDbSpline
210
0.0
220
0.0
230
1.0
 70
     8
 71
     3
 72
    17
 73
    13
 74
     0
 42
0.0000000001
 43
0.0000000001
 40
1.580019955310467
 40
1.580019955310467
 40
1.580019955310467
 40
1.580019955310467
 40
2.030549285115227
 40
3.082371838836284
 40
4.126290986361125
 40
5.162752068350215
 40
6.192395305374981
 40
7.216039564037012
 40
8.234688489606833
 40
9.249433870634691
 40
10.26152376260694
 40
11.27226744710342
 40
11.27226744710342
 40
11.27226744710342
 40
11.27226744710352
 10
-12.10324124687373
 20
-3.284250614979974
 30
0.0
 10
-12.20808474196129
 20
-3.318075466329245
 30
0.0
 10
-12.55829723900456
 20
-3.428940934581226
 30
0.0
 10
-13.15619682052219
 20
-3.602837388369724
 30
0.0
 10
-13.8967839021985
 20
-3.797578347670238
 30
0.0
 10
-14.63757486680498
 20
-3.968535053858528
 30
0.0
 10
-15.37839977419494
 20
-4.11513339589215
 30
0.0
 10
-16.11930539313074
 20
-4.236307010351488
 30
0.0
 10
-16.86026219910979
 20
-4.331364412849002
 30
0.0
 10
-17.60126514299086
 20
-4.399689599609922
 30
0.0
 10
-18.34229596838035
 20
-4.44084275347231
 30
0.0
 10
-18.83643642170095
 20
-4.450019603115612
 30
0.0
 10
-19.08334221452231
 20
-4.450016748431993
 30
0.0
  0
SPLINE
  5
32D3
330
1F
100
AcDbEntity
  8
AM_0
100
AcDbSpline
210
0.0
220
0.0
230
1.0
 70
     8
 71
     3
 72
    22
 73
    18
 74
     0
 42
0.0000000001
 43
0.0000000001
 40
17.17441611292
 40
17.17441611292
 40
17.17441611292
 40
17.17441611292
 40
17.38177636558528
 40
18.41823744757437
 40
19.46215659509824
 40
20.51397914882054
 40
21.57394542641293
 40
22.64209583141747
 40
23.71826625065247
 40
24.80210429862395
 40
25.8930771157021
 40
26.99048705697709
 40
28.09349309193389
 40
29.20112995599786
 40
30.31233024745139
 40
31.42594771747373
 40
32.5407895042663
 40
32.54078950426994
 40
32.54078950426994
 40
32.54078950426994
 10
-21.91169277553382
 20
-3.996151785190612
 30
0.0
 10
-21.96131325601123
 20
-3.98585047165448
 30
0.0
 10
-22.25876093715065
 20
-3.923104044944619
 30
0.0
 10
-22.80366832788795
 20
-3.79728929276206
 30
0.0
 10
-23.54435851194318
 20
-3.602847363500517
 30
0.0
 10
-24.28497322122344
 20
-3.386201401263408
 30
0.0
 10
-25.02551768442709
 20
-3.14870376386504
 30
0.0
 10
-25.76599092334638
 20
-2.89181066296737
 30
0.0
 10
-26.50640205234818
 20
-2.617120863046159
 30
0.0
 10
-27.24675449974422
 20
-2.326322519230116
 30
0.0
 10
-27.98705511555513
 20
-2.021208968971631
 30
0.0
 10
-28.72731213145444
 20
-1.703662569613653
 30
0.0
 10
-29.4675319724263
 20
-1.375635923568682
 30
0.0
 10
-30.20772208998034
 20
-1.039147106193043
 30
0.0
 10
-30.94788904525756
 20
-0.6962651428301188
 30
0.0
 10
-31.68804380318781
 20
-0.3491058005243377
 30
0.0
 10
-32.18138345279775
 20
-0.1162733936278148
 30
0.0
 10
-32.42818880155632
 20
0.0002067610532884
 30
0.0
  0
SPLINE
  5
32D4
330
1F
100
AcDbEntity
  8
AM_0
100
AcDbSpline
210
0.0
220
0.0
230
1.0
 70
     8
 71
     3
 72
    11
 73
     7
 74
     0
 42
0.0000000001
 43
0.0000000001
 40
11.27226913003534
 40
11.27226913003534
 40
11.27226913003534
 40
11.2722691300354
 40
12.28301561507924
 40
13.29510212255852
 40
14.30984805882082
 40
15.18258238371378
 40
15.18258238371378
 40
15.18258238371378
 40
15.18258238371378
 10
-19.08334221452237
 20
-4.450016748431993
 30
0.0
 10
-19.32930914996499
 20
-4.428239984490891
 30
0.0
 10
-19.82077908043777
 20
-4.375512537333347
 30
0.0
 10
-20.55544611704915
 20
-4.269148234313433
 30
0.0
 10
-21.2526580889904
 20
-4.142107736747161
 30
0.0
 10
-21.7035738669203
 20
-4.044447925300188
 30
0.0
 10
-21.91136869720545
 20
-3.996206675906579
 30
0.0
  0
SPLINE
  5
32D5
330
1F
100
AcDbEntity
  8
AM_0
 48
0.5
100
AcDbSpline
210
0.0
220
0.0
230
1.0
 70
     8
 71
     3
 72
    17
 73
    13
 74
     0
 42
0.0000000001
 43
0.0000000001
 40
0.0
 40
0.0
 40
0.0
 40
0.0
 40
1.010743614677189
 40
2.022833924044153
 40
3.037578959561199
 40
4.056212747067873
 40
5.079857613375832
 40
6.109500119648989
 40
7.14596120163808
 40
8.18989512056258
 40
9.241717674284874
 40
9.693948937866434
 40
9.693948937866434
 40
9.693948937866434
 40
9.693948937866434
 10
-4.750268456053039
 20
4.449983251567814
 30
0.0
 10
-4.999543909013996
 20
4.447337517395384
 30
0.0
 10
-5.498426944591689
 20
4.442042523926928
 30
0.0
 10
-6.246568998253174
 20
4.399316472052925
 30
0.0
 10
-6.994680251340589
 20
4.331418979513255
 30
0.0
 10
-7.742744978274666
 20
4.236247801493106
 30
0.0
 10
-8.490754269821323
 20
4.115093677618491
 30
0.0
 10
-9.238698989786421
 20
3.968518321766973
 30
0.0
 10
-9.986569099494824
 20
3.797465287978354
 30
0.0
 10
-10.73439361930877
 20
3.603086149329103
 30
0.0
 10
-11.33805707218226
 20
3.427979928056758
 30
0.0
 10
-11.69256364514958
 20
3.31851335838511
 30
0.0
 10
-11.79896749884161
 20
3.285006374209997
 30
0.0
  0
SPLINE
  5
32D6
330
1F
100
AcDbEntity
  8
AM_0
100
AcDbSpline
210
0.0
220
0.0
230
1.0
 70
     8
 71
     3
 72
    46
 73
    42
 74
     0
 42
0.0000000001
 43
0.0000000001
 40
0.0
 40
0.0
 40
0.0
 40
0.0
 40
0.5056245176053715
 40
0.759310862862336
 40
1.013969309739036
 40
1.269880374404297
 40
1.527291183660732
 40
1.786406454158005
 40
2.047386241038974
 40
2.310345544571907
 40
2.575337113970003
 40
2.842374715221223
 40
3.111417320030211
 40
3.382376832022752
 40
3.655120036292296
 40
3.929472521611371
 40
4.205224030350333
 40
4.482133246366229
 40
4.759933319229942
 40
5.038338087391601
 40
5.317048131389549
 40
5.595758175387723
 40
5.874162943549383
 40
6.151963016412869
 40
6.428872232428759
 40
6.704623741167955
 40
6.978976226486705
 40
7.251719430756336
 40
7.522680721168327
 40
7.791723325977311
 40
8.058760927228529
 40
8.32375249662655
 40
8.586708135057122
 40
8.84768792193809
 40
9.106803192435362
 40
9.364213819003406
 40
9.620125035580644
 40
9.87478726697307
 40
10.12847352585208
 40
10.38149610319407
 40
10.63418200686337
 40
10.63418200686337
 40
10.63418200686337
 40
10.63418200686337
 10
-3.04984653163093
 20
-4.450019577653394
 30
0.0
 10
-3.544011120034939
 20
-4.439882133664294
 30
0.0
 10
-4.286112278013084
 20
-4.424658442813557
 30
0.0
 10
-5.272916549499712
 20
-4.330928974986517
 30
0.0
 10
-6.013877858993132
 20
-4.236424738273188
 30
0.0
 10
-6.754775833933489
 20
-4.115097351378945
 30
0.0
 10
-7.495608522541862
 20
-3.968560148513178
 30
0.0
 10
-8.236372119015372
 20
-3.79751370234363
 30
0.0
 10
-8.97706538268636
 20
-3.603072271887478
 30
0.0
 10
-9.717685017208136
 20
-3.386429756311237
 30
0.0
 10
-10.45823250290175
 20
-3.148929852836963
 30
0.0
 10
-11.19870584791969
 20
-2.892037069262648
 30
0.0
 10
-11.93911694836236
 20
-2.617347183771925
 30
0.0
 10
-12.67946940277565
 20
-2.326548861563994
 30
0.0
 10
-13.41977001939095
 20
-2.021435311362184
 30
0.0
 10
-14.1600270248958
 20
-1.703888889762393
 30
0.0
 10
-14.90024690694006
 20
-1.375862333294195
 30
0.0
 10
-15.64043686973081
 20
-1.039373177953119
 30
0.0
 10
-16.38060476139168
 20
-0.6964923173213303
 30
0.0
 10
-17.12075734340478
 20
-0.3493282276675648
 30
0.0
 10
-17.8609037035646
 20
-0.0000195777232125
 30
0.0
 10
-18.60105006356183
 20
0.3492890726455847
 30
0.0
 10
-19.34120264606267
 20
0.6964531610265589
 30
0.0
 10
-20.08137053594082
 20
1.039334026309944
 30
0.0
 10
-20.8215605053419
 20
1.375823164399921
 30
0.0
 10
-21.56178036287573
 20
1.703849784833352
 30
0.0
 10
-22.30203745915115
 20
2.021395969547428
 30
0.0
 10
-23.04233934938943
 20
2.326511059295455
 30
0.0
 10
-23.78269468045522
 20
2.617306739453215
 30
0.0
 10
-24.52310710167775
 20
2.891998033459594
 30
0.0
 10
-25.2635804294554
 20
3.148890893473197
 30
0.0
 10
-26.00412487306408
 20
3.386388614526318
 30
0.0
 10
-26.74473957298953
 20
3.603034481378762
 30
0.0
 10
-27.48542981320031
 20
3.79747670614944
 30
0.0
 10
-28.22619298095879
 20
3.968511961562489
 30
0.0
 10
-28.96702621270031
 20
4.115091665991561
 30
0.0
 10
-29.70792891610872
 20
4.236245795821582
 30
0.0
 10
-30.44888640761636
 20
4.331415324756036
 30
0.0
 10
-31.18988974180342
 20
4.399313772392642
 30
0.0
 10
-31.93091997386034
 20
4.442039662403066
 30
0.0
 10
-32.42506062629054
 20
4.447334677412555
 30
0.0
 10
-32.6719664662902
 20
4.449980422348316
 30
0.0
  0
SPLINE
  5
32D7
330
1F
100
AcDbEntity
  8
AM_0
100
AcDbSpline
210
0.0
220
0.0
230
1.0
 70
     8
 71
     3
 72
    23
 73
    19
 74
     0
 42
0.0000000001
 43
0.0000000001
 40
16.03460024169435
 40
16.03460024169435
 40
16.03460024169435
 40
16.03460024169435
 40
16.35212704903564
 40
17.38177054169784
 40
18.41822485651776
 40
19.46214173629503
 40
20.51396345435107
 40
21.57393551351153
 40
22.64208202342361
 40
23.7182574881101
 40
24.80209208578934
 40
25.89306333925047
 40
26.99048218457928
 40
28.09348763352352
 40
29.20111863782268
 40
30.31232390128032
 40
31.42594612798585
 40
32.5407912310448
 40
32.5407912310486
 40
32.5407912310486
 40
32.5407912310486
 10
-43.65131396182024
 20
4.449983251568566
 30
0.0
 10
-43.57837052238177
 20
4.435590209251356
 30
0.0
 10
-43.25569044954835
 20
4.370171814169519
 30
0.0
 10
-42.68728602622604
 20
4.241994453112398
 30
0.0
 10
-41.95120081002748
 20
4.051396118954433
 30
0.0
 10
-41.21579930440089
 20
3.837385959220913
 30
0.0
 10
-40.48103805388475
 20
3.601202555559893
 30
0.0
 10
-39.74689098050012
 20
3.344162635734149
 30
0.0
 10
-39.0133156523057
 20
3.06773554832255
 30
0.0
 10
-38.28026098590388
 20
2.773530029636029
 30
0.0
 10
-37.54768532649562
 20
2.463212148373661
 30
0.0
 10
-36.81552994083395
 20
2.138587571980781
 30
0.0
 10
-36.08373549591221
 20
1.801543158748928
 30
0.0
 10
-35.35225323435387
 20
1.454016772756081
 30
0.0
 10
-34.62102195392647
 20
1.098029232345011
 30
0.0
 10
-33.88997392712679
 20
0.7356592435789496
 30
0.0
 10
-33.15904962600928
 20
0.369006642416422
 30
0.0
 10
-32.67189764260575
 20
0.1231861216939574
 30
0.0
 10
-32.42818880155304
 20
0.0002067610517029
 30
0.0
  0
SPLINE
  5
32D8
330
1F
100
AcDbEntity
  8
AM_0
 48
0.5
100
AcDbSpline
210
0.0
220
0.0
230
1.0
 70
     8
 71
     3
 72
    25
 73
    21
 74
     0
 42
0.0000000001
 43
0.0000000001
 40
6.846175049578289
 40
6.846175049578289
 40
6.846175049578289
 40
6.846175049578289
 40
7.604337694224321
 40
8.711974558287883
 40
9.814980593243754
 40
10.91239053451967
 40
12.0033633515982
 40
13.08720139956839
 40
14.16337181880432
 40
15.23152222380919
 40
16.29148850140128
 40
17.34331105512262
 40
18.38723020264746
 40
19.42369128463655
 40
20.45333379090873
 40
21.47697865721768
 40
22.49561244472435
 40
23.5103574802404
 40
24.52244778960836
 40
25.53320666051913
 40
25.53320666051913
 40
25.53320666051913
 40
25.53320666051913
 10
-5.6227911287753
 20
0.8054623850540732
 30
0.0
 10
-5.792743536810172
 20
0.8835964707582151
 30
0.0
 10
-6.211345397094254
 20
1.075098593233577
 30
0.0
 10
-6.879218796507359
 20
1.375825862979752
 30
0.0
 10
-7.626542656113287
 20
1.703852601715864
 30
0.0
 10
-8.373904099121501
 20
2.021398976391678
 30
0.0
 10
-9.12130954675962
 20
2.326512533318867
 30
0.0
 10
-9.868767326968745
 20
2.617310874953791
 30
0.0
 10
-10.61628435138559
 20
2.892000676970468
 30
0.0
 10
-11.36386408062023
 20
3.148893771712256
 30
0.0
 10
-12.11151572293716
 20
3.386391431408336
 30
0.0
 10
-12.85923826592676
 20
3.60303731148631
 30
0.0
 10
-13.60703708032321
 20
3.797479543922816
 30
0.0
 10
-14.35490952711009
 20
3.968514756057191
 30
0.0
 10
-15.1028526847196
 20
4.115094624408969
 30
0.0
 10
-15.8508623911997
 20
4.236247549621531
 30
0.0
 10
-16.59892700781964
 20
4.331419047145776
 30
0.0
 10
-17.34703829014815
 20
4.399316451920126
 30
0.0
 10
-18.09518409408482
 20
4.442042751682586
 30
0.0
 10
-18.5940708972453
 20
4.44733757995761
 30
0.0
 10
-18.84335011528627
 20
4.449983251568271
 30
0.0
  0
SPLINE
  5
32D9
330
1F
100
AcDbEntity
  8
AM_0
100
AcDbSpline
210
0.0
220
0.0
230
1.0
 70
     8
 71
     3
 72
    55
 73
    51
 74
     0
 42
0.0000000001
 43
0.0000000001
 40
0.0
 40
0.0
 40
0.0
 40
0.0
 40
1.010743684496582
 40
2.022833576467832
 40
3.037578957496688
 40
4.056212745003489
 40
5.079857003664532
 40
6.109500240690281
 40
7.145961322679372
 40
8.189895241603872
 40
9.241717795325891
 40
10.30168407291828
 40
11.36983447792315
 40
12.44600489715814
 40
13.52984294512926
 40
14.62081576220742
 40
15.7182257034828
 40
16.82123173843959
 40
17.92886860250316
 40
19.0400688939571
 40
20.15368796660465
 40
21.26852814259644
 40
22.38336992938901
 40
23.49698739941135
 40
24.6081876908653
 40
25.71582455492886
 40
26.81883757994213
 40
27.91624752121713
 40
29.00722033829659
 40
30.09105838626677
 40
31.16722880550176
 40
32.23537921050758
 40
33.29534548809967
 40
34.347168041821
 40
35.39108718934584
 40
36.42754827133493
 40
37.45720575381954
 40
38.48085062012849
 40
39.49948440763516
 40
40.51422944315121
 40
41.52631975251916
 40
42.53706336719636
 40
43.54780698187354
 40
44.55989729124051
 40
45.57464232675757
 40
46.59327611426424
 40
47.6169209805722
 40
48.64656348684535
 40
49.68302456883444
 40
50.58557219878025
 40
50.58557219878025
 40
50.58557219878025
 40
50.58557219878025
 10
-5.124229360845362
 20
-4.450016748432295
 30
0.0
 10
-5.371135156924129
 20
-4.447371935461092
 30
0.0
 10
-5.865275602413501
 20
-4.442073124687468
 30
0.0
 10
-6.606306443520677
 20
-4.39935876119042
 30
0.0
 10
-7.347305652815304
 20
-4.331454081466763
 30
0.0
 10
-8.08825900153373
 20
-4.236283090224667
 30
0.0
 10
-8.829159096128039
 20
-4.11513553686286
 30
0.0
 10
-9.569991320295828
 20
-3.968550145244971
 30
0.0
 10
-10.31075815208806
 20
-3.797514366816426
 30
0.0
 10
-11.05145302239993
 20
-3.60307554284995
 30
0.0
 10
-11.79207088574958
 20
-3.386427515929264
 30
0.0
 10
-12.53261543370753
 20
-3.148930163324186
 30
0.0
 10
-13.27308864959977
 20
-2.892036985114403
 30
0.0
 10
-14.01349978504607
 20
-2.617347206589567
 30
0.0
 10
-14.75385222992433
 20
-2.326548855292746
 30
0.0
 10
-15.49415284932879
 20
-2.021435313416892
 30
0.0
 10
-16.23440985329342
 20
-1.703888887856245
 30
0.0
 10
-16.97462973870897
 20
-1.375862338885723
 30
0.0
 10
-17.71481968949378
 20
-1.039373157386969
 30
0.0
 10
-18.45498762599475
 20
-0.6964923942952037
 30
0.0
 10
-19.19514004018942
 20
-0.3493279396302891
 30
0.0
 10
-19.93528738417626
 20
-0.0000204856140759
 30
0.0
 10
-20.67543140552083
 20
0.3492932561539824
 30
0.0
 10
-21.41558630054503
 20
0.6964523045501104
 30
0.0
 10
-22.15575332329881
 20
1.039334105522406
 30
0.0
 10
-22.89594459383408
 20
1.375824568894953
 30
0.0
 10
-23.6361675500368
 20
1.70384831842931
 30
0.0
 10
-24.37642572232262
 20
2.02139635439218
 30
0.0
 10
-25.11672644860178
 20
2.326509648852387
 30
0.0
 10
-25.857078866541
 20
2.617308061303006
 30
0.0
 10
-26.59749000388318
 20
2.891997840229671
 30
0.0
 10
-27.3379632386359
 20
3.148890957012437
 30
0.0
 10
-28.07850771016159
 20
3.386388552124173
 30
0.0
 10
-28.81912239060768
 20
3.603034666045532
 30
0.0
 10
-29.55981268057736
 20
3.797476036675488
 30
0.0
 10
-30.30057923758354
 20
3.968515254418381
 30
0.0
 10
-31.04141675154167
 20
4.115083903949714
 30
0.0
 10
-31.7823192938605
 20
4.2362689550403
 30
0.0
 10
-32.52327286223071
 20
4.33132713335626
 30
0.0
 10
-33.26427258639404
 20
4.399644173463336
 30
0.0
 10
-34.00530279919534
 20
4.440810240183008
 30
0.0
 10
-34.74634929568622
 20
4.454562460927966
 30
0.0
 10
-35.48739579108675
 20
4.440810240161518
 30
0.0
 10
-36.22842600716547
 20
4.399644173550014
 30
0.0
 10
-36.96942571926243
 20
4.331327133030501
 30
0.0
 10
-37.71037933287256
 20
4.236268956265612
 30
0.0
 10
-38.45127809307635
 20
4.115084490140452
 30
0.0
 10
-39.19211268841673
 20
3.968516753004088
 30
0.0
 10
-39.89919819766684
 20
3.805240134305656
 30
0.0
 10
-40.357963328587
 20
3.685834399487665
 30
0.0
 10
-40.57080361056824
 20
3.627642159948308
 30
0.0
  0
ELLIPSE
  5
32DA
330
1F
100
AcDbEntity
  8
AM_0
 48
0.5
100
AcDbEllipse
 10
-30.50659994266792
 20
-31.68244712427035
 30
0.0
 11
-0.0000000000385098
 21
41.45626579300072
 31
0.0
210
0.0
220
0.0
230
1.0
 40
0.9662921348314675
 41
-0.7690193965847617
 42
-0.6702489457212164
  0
SPLINE
  5
32DB
330
1F
100
AcDbEntity
  8
AM_0
 48
0.5
100
AcDbSpline
210
0.0
220
0.0
230
1.0
 70
     8
 71
     3
 72
    10
 73
     6
 74
     0
 42
0.0000000001
 43
0.0000000001
 40
0.0
 40
0.0
 40
0.0
 40
0.0
 40
2.69986029516136
 40
4.147722969032201
 40
6.285750005020438
 40
6.285750005020438
 40
6.285750005020438
 40
6.285750005020438
 10
-5.622748258393391
 20
0.8054272179860674
 30
0.0
 10
-4.451689271741258
 20
0.3919914671000985
 30
0.0
 10
-3.674263218616705
 20
-0.243158789838022
 30
0.0
 10
-1.835755036498439
 20
0.0643285764394352
 30
0.0
 10
-2.181999603498781
 20
1.099986712696725
 30
0.0
 10
-2.410775890900652
 20
1.731252244157605
 30
0.0
  0
ELLIPSE
  5
32DC
330
1F
100
AcDbEntity
  8
AM_0
 48
0.5
100
AcDbEllipse
 10
1.90813778312695
 20
-2.328418864406638
 30
0.0
 11
-4.206421792527033
 21
1.870670348156093
 31
0.0
210
0.0
220
0.0
230
1.0
 40
0.9474194815934017
 41
0.3396368686323052
 42
0.9417002707667885
  0
VIEWPORT
  5
110
330
101
100
AcDbEntity
 67
     1
  8
0
100
AcDbViewport
 10
420.5
 20
297.0
 30
0.0
 40
948.9782706766916
 41
628.452
 68
     1
 69
     1
1001
ACAD
1000
MVIEW
1002
{
1070
    16
1010
0.0
1020
0.0
1030
0.0
1010
0.0
1020
0.0
1030
1.0
1040
0.0
1040
628.452
1040
420.5
1040
297.0
1040
50.0
1040
0.0
1040
0.0
1070
     0
1070
   100
1070
     1
1070
     1
1070
     0
1070
     0
1070
     0
1070
     0
1040
0.0
1040
0.0
1040
0.0
1040
10.0
1040
10.0
1040
10.0
1040
10.0
1070
     0
1002
{
1002
}
1002
}
  0
ENDSEC
  0
SECTION
  2
OBJECTS
  0
DICTIONARY
  5
C
330
0
100
AcDbDictionary
  3
ACAD_GROUP
350
D
  3
ACAD_LAYOUT
350
1A
  3
ACAD_MLINESTYLE
350
17
  3
ACAD_PLOTSETTINGS
350
19
  3
ACAD_PLOTSTYLENAME
350
E
  3
ACDBVARIABLEDICTIONARY
350
34
  3
ACMDICTIONARY
350
43
  3
AMG
350
2B
  3
AMGSNAPSETTINGS
350
6E
  3
DWGPROPS
350
3359
  3
ACDBHEADERROUNDTRIPXREC
350
3365
  0
DICTIONARY
  5
74
330
1F
100
AcDbDictionary
280
     1
  3
ACAD_INDEX
360
335B
  3
ACAD_LAYOUTSELFREF
360
3388
  0
DICTIONARY
  5
338D
330
101
100
AcDbDictionary
280
     1
  3
ACAD_LAYOUTSELFREF
360
338E
  0
DICTIONARY
  5
D
102
{ACAD_REACTORS
330
C
102
}
330
C
100
AcDbDictionary
  0
DICTIONARY
  5
1A
102
{ACAD_REACTORS
330
C
102
}
330
C
100
AcDbDictionary
  0
DICTIONARY
  5
17
102
{ACAD_REACTORS
330
C
102
}
330
C
100
AcDbDictionary
  3
STANDARD
350
18
  0
DICTIONARY
  5
19
102
{ACAD_REACTORS
330
C
102
}
330
C
100
AcDbDictionary
  0
ACDBDICTIONARYWDFLT
  5
E
102
{ACAD_REACTORS
330
C
102
}
330
C
100
AcDbDictionary
281
     1
  3
Normal
350
F
100
AcDbDictionaryWithDefault
340
F
  0
DICTIONARY
  5
34
102
{ACAD_REACTORS
330
C
102
}
330
C
100
AcDbDictionary
  3
INDEXCTL
350
35
  3
SORTENTS
350
B5E
  0
DICTIONARY
  5
43
102
{ACAD_REACTORS
330
C
102
}
330
C
100
AcDbDictionary
  3
ACMSTDDICTIONARY
350
260
  0
DICTIONARY
  5
2B
102
{ACAD_REACTORS
330
C
102
}
330
C
100
AcDbDictionary
  3
ACMGSETTINGS
350
2C
  0
DICTIONARY
  5
6E
102
{ACAD_REACTORS
330
C
102
}
330
C
100
AcDbDictionary
  0
XRECORD
  5
3359
102
{ACAD_REACTORS
330
C
102
}
330
C
100
AcDbXrecord
  1
DWGPROPS COOKIE
  2

  3

  4

  6

  7

  8

  9

300
AmdtFileType=82
301
=
302
=
303
=
304
=
305
=
306
=
307
=
308
=
309
=
 40
0.0579909606481482
 41
2452800.443498622
 42
2452946.616080359
  1

 90
        1
  0
DICTIONARY
  5
3365
102
{ACAD_REACTORS
330
C
102
}
330
C
100
AcDbDictionary
  3
TSTACKALIGN
350
3366
  3
TSTACKSIZE
350
3367
  3
HYPERLINKBASE
350
3368
  3
STYLESHEET
350
3369
  3
LAYOUTDICT
350
336A
  3
PLOTSETDICT
350
336B
  3
PLOTSTYLNAMDICT
350
336C
  3
LWETCUNION
350
336D
  3
INSUNITS
350
336E
  3
CEPSNTYPE
350
336F
  3
FINGERPRINTGUID
350
3370
  3
VERSIONGUID
350
3371
  3
PSVPSCALE
350
3372
  3
DIMSTYLEDATA
350
3373
  3
PUCSORTHOREF
350
3374
  3
PUCSORTHOVIEW
350
3375
  3
PUCSBASE
350
3376
  3
PUCSORGTOP
350
3377
  3
PUCSORGBOTTOM
350
3378
  3
PUCSORGLEFT
350
3379
  3
PUCSORGRIGHT
350
337A
  3
PUCSORGFRONT
350
337B
  3
PUCSORGBACK
350
337C
  3
UCSORTHOREF
350
337D
  3
UCSORTHOVIEW
350
337E
  3
UCSBASE
350
337F
  3
UCSORGTOP
350
3380
  3
UCSORGBOTTOM
350
3381
  3
UCSORGLEFT
350
3382
  3
UCSORGRIGHT
350
3383
  3
UCSORGFRONT
350
3384
  3
UCSORGBACK
350
3385
  0
DICTIONARY
  5
335B
102
{ACAD_REACTORS
330
74
102
}
330
74
100
AcDbDictionary
  3
*A1
350
335C
  0
XRECORD
  5
3388
102
{ACAD_REACTORS
330
74
102
}
330
74
100
AcDbXrecord
340
1F
  0
XRECORD
  5
338E
102
{ACAD_REACTORS
330
338D
102
}
330
338D
100
AcDbXrecord
340
101
  0
MLINESTYLE
  5
18
102
{ACAD_REACTORS
330
17
102
}
330
17
100
AcDbMlineStyle
  2
STANDARD
 70
     0
  3

 62
   256
 51
90.0
 52
90.0
 71
     2
 49
0.5
 62
   256
  6
BYLAYER
 49
-0.5
 62
   256
  6
BYLAYER
  0
ACDBPLACEHOLDER
  5
F
102
{ACAD_REACTORS
330
E
102
}
330
E
100
AcDbPlaceHolder
280
     0
  0
DICTIONARYVAR
  5
35
102
{ACAD_REACTORS
330
34
102
}
330
34
100
DictionaryVariables
280
     0
  1
1
  0
DICTIONARYVAR
  5
B5E
102
{ACAD_REACTORS
330
34
102
}
330
34
100
DictionaryVariables
280
     0
  1
96
  0
DICTIONARY
  5
260
102
{ACAD_REACTORS
330
43
102
}
330
43
100
AcDbDictionary
  0
DICTIONARY
  5
2C
102
{ACAD_REACTORS
330
2B
102
}
330
2B
100
AcDbDictionary
  3
DWGSETTINGS
350
2D
  0
XRECORD
  5
3366
102
{ACAD_REACTORS
330
3365
102
}
330
3365
100
AcDbXrecord
 90
        1
  0
XRECORD
  5
3367
102
{ACAD_REACTORS
330
3365
102
}
330
3365
100
AcDbXrecord
 90
       70
  0
XRECORD
  5
3368
102
{ACAD_REACTORS
330
3365
102
}
330
3365
100
AcDbXrecord
  1

  0
XRECORD
  5
3369
102
{ACAD_REACTORS
330
3365
102
}
330
3365
100
AcDbXrecord
  1
ASAMI.ctb
  0
XRECORD
  5
336A
102
{ACAD_REACTORS
330
3365
102
}
330
3365
100
AcDbXrecord
340
1A
  0
XRECORD
  5
336B
102
{ACAD_REACTORS
330
3365
102
}
330
3365
100
AcDbXrecord
340
19
  0
XRECORD
  5
336C
102
{ACAD_REACTORS
330
3365
102
}
330
3365
100
AcDbXrecord
340
E
  0
XRECORD
  5
336D
102
{ACAD_REACTORS
330
3365
102
}
330
3365
100
AcDbXrecord
 90
    10781
  0
XRECORD
  5
336E
102
{ACAD_REACTORS
330
3365
102
}
330
3365
100
AcDbXrecord
 90
        4
  0
XRECORD
  5
336F
102
{ACAD_REACTORS
330
3365
102
}
330
3365
100
AcDbXrecord
 90
        0
  0
XRECORD
  5
3370
102
{ACAD_REACTORS
330
3365
102
}
330
3365
100
AcDbXrecord
  1
{AFB28963-8C59-40AE-9337-C84526B81ACE}
  0
XRECORD
  5
3371
102
{ACAD_REACTORS
330
3365
102
}
330
3365
100
AcDbXrecord
  1
{9EFF24B9-D5FD-49FC-B8B9-DED05E0378EB}
  0
XRECORD
  5
3372
102
{ACAD_REACTORS
330
3365
102
}
330
3365
100
AcDbXrecord
 40
0.0
  0
XRECORD
  5
3373
102
{ACAD_REACTORS
330
3365
102
}
330
3365
100
AcDbXrecord
1000
DSTYLE
1002
{
1070
    79
 70
     2
1070
   341
340
59
1070
   342
340
59
1070
   371
 70
    -1
1070
   372
 70
    -1
1002
}
  0
XRECORD
  5
3374
102
{ACAD_REACTORS
330
3365
102
}
330
3365
100
AcDbXrecord
340
0
  0
XRECORD
  5
3375
102
{ACAD_REACTORS
330
3365
102
}
330
3365
100
AcDbXrecord
 70
     0
  0
XRECORD
  5
3376
102
{ACAD_REACTORS
330
3365
102
}
330
3365
100
AcDbXrecord
340
0
  0
XRECORD
  5
3377
102
{ACAD_REACTORS
330
3365
102
}
330
3365
100
AcDbXrecord
 10
0.0
 20
0.0
 30
0.0
  0
XRECORD
  5
3378
102
{ACAD_REACTORS
330
3365
102
}
330
3365
100
AcDbXrecord
 10
0.0
 20
0.0
 30
0.0
  0
XRECORD
  5
3379
102
{ACAD_REACTORS
330
3365
102
}
330
3365
100
AcDbXrecord
 10
0.0
 20
0.0
 30
0.0
  0
XRECORD
  5
337A
102
{ACAD_REACTORS
330
3365
102
}
330
3365
100
AcDbXrecord
 10
0.0
 20
0.0
 30
0.0
  0
XRECORD
  5
337B
102
{ACAD_REACTORS
330
3365
102
}
330
3365
100
AcDbXrecord
 10
0.0
 20
0.0
 30
0.0
  0
XRECORD
  5
337C
102
{ACAD_REACTORS
330
3365
102
}
330
3365
100
AcDbXrecord
 10
0.0
 20
0.0
 30
0.0
  0
XRECORD
  5
337D
102
{ACAD_REACTORS
330
3365
102
}
330
3365
100
AcDbXrecord
340
0
  0
XRECORD
  5
337E
102
{ACAD_REACTORS
330
3365
102
}
330
3365
100
AcDbXrecord
 70
     0
  0
XRECORD
  5
337F
102
{ACAD_REACTORS
330
3365
102
}
330
3365
100
AcDbXrecord
340
0
  0
XRECORD
  5
3380
102
{ACAD_REACTORS
330
3365
102
}
330
3365
100
AcDbXrecord
 10
0.0
 20
0.0
 30
0.0
  0
XRECORD
  5
3381
102
{ACAD_REACTORS
330
3365
102
}
330
3365
100
AcDbXrecord
 10
0.0
 20
0.0
 30
0.0
  0
XRECORD
  5
3382
102
{ACAD_REACTORS
330
3365
102
}
330
3365
100
AcDbXrecord
 10
0.0
 20
0.0
 30
0.0
  0
XRECORD
  5
3383
102
{ACAD_REACTORS
330
3365
102
}
330
3365
100
AcDbXrecord
 10
0.0
 20
0.0
 30
0.0
  0
XRECORD
  5
3384
102
{ACAD_REACTORS
330
3365
102
}
330
3365
100
AcDbXrecord
 10
0.0
 20
0.0
 30
0.0
  0
XRECORD
  5
3385
102
{ACAD_REACTORS
330
3365
102
}
330
3365
100
AcDbXrecord
 10
0.0
 20
0.0
 30
0.0
  0
LAYER_INDEX
  5
335C
102
{ACAD_REACTORS
330
335B
102
}
330
335B
100
AcDbIndex
 40
2453151.571577858
100
AcDbLayerIndex
  8
0
360
335D
 90
        0
  8
AM_0
360
335E
 90
       46
  8
AM_7
360
335F
 90
        1
  8
AM_11
360
3360
 90
       17
  8
AM_5
360
3361
 90
        5
  8
Defpoints
360
3362
 90
        0
  8
AM_6
360
3363
 90
        1
  0
XRECORD
  5
2D
102
{ACAD_REACTORS
330
2C
102
}
330
2C
100
AcDbXrecord
  1
VERSION
140
15.0
  1
PRODUCT
  2
AutoCAD Mechanical 2000
  0
IDBUFFER
  5
335D
330
0
100
AcDbIdBuffer
  0
IDBUFFER
  5
335E
330
0
100
AcDbIdBuffer
330
3146
330
3147
330
32BD
330
32BE
330
32BF
330
32C1
330
32C2
330
32C3
330
32C4
330
32C5
330
32C6
330
32C7
330
32C8
330
32CA
330
32CB
330
32CE
330
32CF
330
32D0
330
32D1
330
32D2
330
32D3
330
32D4
330
32D5
330
32D6
330
32D7
330
32D8
330
32D9
330
32DA
330
32DB
330
32DC
330
C1D
330
C20
330
C30
330
1E12
330
1E16
330
1E22
330
24F9
330
24FC
330
2541
330
2542
330
2B8E
330
2B8F
330
3098
330
3099
330
309A
330
309B
  0
IDBUFFER
  5
335F
330
0
100
AcDbIdBuffer
330
C9F
  0
IDBUFFER
  5
3360
330
0
100
AcDbIdBuffer
330
32CD
330
1BE8
330
1BE9
330
1F66
330
1F67
330
222E
330
222F
330
2230
330
2231
330
2232
330
2233
330
290C
330
290D
330
2E9D
330
32C0
330
32C9
330
32CC
  0
IDBUFFER
  5
3361
330
0
100
AcDbIdBuffer
330
CC6
330
DF5
330
228A
330
2BA8
330
2D88
  0
IDBUFFER
  5
3362
330
0
100
AcDbIdBuffer
  0
IDBUFFER
  5
3363
330
0
100
AcDbIdBuffer
330
19BD
  0
ENDSEC
  0
EOF
