  0
SECTION
  2
HEADER
  9
$ACADVER
  1
AC1014
  9
$ACADMAINTVER
 70
     9
  9
$DWGCODEPAGE
  3
ANSI_932
  9
$INSBASE
 10
0.0
 20
0.0
 30
0.0
  9
$EXTMIN
 10
-120.150001
 20
-28.25000402524005
 30
-0.00000001
  9
$EXTMAX
 10
13.73115421205166
 20
13.37289982946269
 30
0.00000001
  9
$LIMMIN
 10
-156.1444050923396
 20
-44.51020785580943
  9
$LIMMAX
 10
20.31336096277607
 20
28.16015358894219
  9
$ORTHOMODE
 70
     0
  9
$REGENMODE
 70
     1
  9
$FILLMODE
 70
     1
  9
$QTEXTMODE
 70
     0
  9
$MIRRTEXT
 70
     0
  9
$DRAGMODE
 70
     2
  9
$LTSCALE
 40
1.0
  9
$OSMODE
 70
    55
  9
$ATTMODE
 70
     1
  9
$TEXTSIZE
 40
2.5
  9
$TRACEWID
 40
1.0
  9
$TEXTSTYLE
  7
STANDARD
  9
$CLAYER
  8
AM_0
  9
$CELTYPE
  6
BYLAYER
  9
$CECOLOR
 62
   256
  9
$CELTSCALE
 40
1.0
  9
$DELOBJ
 70
     1
  9
$DISPSILH
 70
     0
  9
$DIMSCALE
 40
0.5
  9
$DIMASZ
 40
2.5
  9
$DIMEXO
 40
1.0
  9
$DIMDLI
 40
12.0
  9
$DIMRND
 40
0.0
  9
$DIMDLE
 40
0.0
  9
$DIMEXE
 40
1.0
  9
$DIMTP
 40
0.1
  9
$DIMTM
 40
0.1
  9
$DIMTXT
 40
3.2
  9
$DIMCEN
 40
0.0
  9
$DIMTSZ
 40
0.0
  9
$DIMTOL
 70
     0
  9
$DIMLIM
 70
     0
  9
$DIMTIH
 70
     0
  9
$DIMTOH
 70
     0
  9
$DIMSE1
 70
     0
  9
$DIMSE2
 70
     0
  9
$DIMTAD
 70
     3
  9
$DIMZIN
 70
     8
  9
$DIMBLK
  1
OPEN30
  9
$DIMASO
 70
     1
  9
$DIMSHO
 70
     1
  9
$DIMPOST
  1

  9
$DIMAPOST
  1
"
  9
$DIMALT
 70
     0
  9
$DIMALTD
 70
     2
  9
$DIMALTF
 40
0.0393701
  9
$DIMLFAC
 40
1.0
  9
$DIMTOFL
 70
     1
  9
$DIMTVP
 40
0.0
  9
$DIMTIX
 70
     0
  9
$DIMSOXD
 70
     0
  9
$DIMSAH
 70
     0
  9
$DIMBLK1
  1

  9
$DIMBLK2
  1

  9
$DIMSTYLE
  2
AM_JIS
  9
$DIMCLRD
 70
   256
  9
$DIMCLRE
 70
   256
  9
$DIMCLRT
 70
     2
  9
$DIMTFAC
 40
0.71
  9
$DIMGAP
 40
1.5
  9
$DIMJUST
 70
     0
  9
$DIMSD1
 70
     0
  9
$DIMSD2
 70
     0
  9
$DIMTOLJ
 70
     0
  9
$DIMTZIN
 70
     0
  9
$DIMALTZ
 70
     0
  9
$DIMALTTZ
 70
     0
  9
$DIMFIT
 70
     3
  9
$DIMUPT
 70
     0
  9
$DIMUNIT
 70
     2
  9
$DIMDEC
 70
     3
  9
$DIMTDEC
 70
     3
  9
$DIMALTU
 70
     2
  9
$DIMALTTD
 70
     2
  9
$DIMTXSTY
  7
ASAMI
  9
$DIMAUNIT
 70
     0
  9
$LUNITS
 70
     2
  9
$LUPREC
 70
     2
  9
$SKETCHINC
 40
1.0
  9
$FILLETRAD
 40
2.5
  9
$AUNITS
 70
     0
  9
$AUPREC
 70
     0
  9
$MENU
  1
.
  9
$ELEVATION
 40
0.0
  9
$PELEVATION
 40
0.0
  9
$THICKNESS
 40
0.0
  9
$LIMCHECK
 70
     0
  9
$BLIPMODE
 70
     0
  9
$CHAMFERA
 40
0.5
  9
$CHAMFERB
 40
0.5
  9
$CHAMFERC
 40
20.0
  9
$CHAMFERD
 40
0.0
  9
$SKPOLY
 70
     0
  9
$TDCREATE
 40
2452800.443498622
  9
$TDUPDATE
 40
2453151.571916574
  9
$TDINDWG
 40
0.0518131481
  9
$TDUSRTIMER
 40
0.0518131481
  9
$USRTIMER
 70
     1
  9
$ANGBASE
 50
0.0
  9
$ANGDIR
 70
     0
  9
$PDMODE
 70
     0
  9
$PDSIZE
 40
0.0
  9
$PLINEWID
 40
0.0
  9
$COORDS
 70
     1
  9
$SPLFRAME
 70
     0
  9
$SPLINETYPE
 70
     6
  9
$SPLINESEGS
 70
     8
  9
$ATTDIA
 70
     1
  9
$ATTREQ
 70
     1
  9
$HANDLING
 70
 12289
  9
$HANDSEED
  5
2D99
  9
$SURFTAB1
 70
     6
  9
$SURFTAB2
 70
     6
  9
$SURFTYPE
 70
     6
  9
$SURFU
 70
     6
  9
$SURFV
 70
     6
  9
$UCSNAME
  2

  9
$UCSORG
 10
0.0
 20
0.0
 30
0.0
  9
$UCSXDIR
 10
1.0
 20
0.0000000000000027
 30
0.0
  9
$UCSYDIR
 10
-0.0000000000000027
 20
1.0
 30
0.0
  9
$PUCSNAME
  2

  9
$PUCSORG
 10
0.0
 20
0.0
 30
0.0
  9
$PUCSXDIR
 10
1.0
 20
0.0
 30
0.0
  9
$PUCSYDIR
 10
0.0
 20
1.0
 30
0.0
  9
$USERI1
 70
     0
  9
$USERI2
 70
     0
  9
$USERI3
 70
     0
  9
$USERI4
 70
     0
  9
$USERI5
 70
     0
  9
$USERR1
 40
0.0
  9
$USERR2
 40
0.0
  9
$USERR3
 40
0.0
  9
$USERR4
 40
0.0
  9
$USERR5
 40
0.0
  9
$WORLDVIEW
 70
     1
  9
$SHADEDGE
 70
     3
  9
$SHADEDIF
 70
    70
  9
$TILEMODE
 70
     1
  9
$MAXACTVP
 70
    64
  9
$PINSBASE
 10
0.0
 20
0.0
 30
0.0
  9
$PLIMCHECK
 70
     0
  9
$PEXTMIN
 10
1.000000000000000E+20
 20
1.000000000000000E+20
 30
1.000000000000000E+20
  9
$PEXTMAX
 10
-1.000000000000000E+20
 20
-1.000000000000000E+20
 30
-1.000000000000000E+20
  9
$PLIMMIN
 10
0.0
 20
0.0
  9
$PLIMMAX
 10
841.0
 20
594.0
  9
$UNITMODE
 70
     0
  9
$VISRETAIN
 70
     1
  9
$PLINEGEN
 70
     0
  9
$PSLTSCALE
 70
     0
  9
$TREEDEPTH
 70
  3020
  9
$PICKSTYLE
 70
     0
  9
$CMLSTYLE
  2
STANDARD
  9
$CMLJUST
 70
     0
  9
$CMLSCALE
 40
20.0
  9
$PROXYGRAPHICS
 70
     1
  9
$MEASUREMENT
 70
     1
  0
ENDSEC
  0
SECTION
  2
CLASSES
  0
CLASS
  1
ACDBDICTIONARYWDFLT
  2
AcDbDictionaryWithDefault
  3
AutoCAD 2000
 90
        0
280
     0
281
     0
  0
CLASS
  1
ACDBPLACEHOLDER
  2
AcDbPlaceHolder
  3
AutoCAD 2000
 90
        0
280
     0
281
     0
  0
CLASS
  1
LAYOUT
  2
AcDbLayout
  3
AutoCAD 2000
 90
        0
280
     0
281
     0
  0
CLASS
  1
AMGSETTINGSOBJ
  2
AmgSettingsObj
  3
"AcadM|Product Description: AutoCAD Mechanical 2000|Company: Autodesk"
 90
        0
280
     0
281
     0
  0
CLASS
  1
ACME_DOCUMENT
  2
AcMeDbDoc
  3
AcMeServices
 90
        0
280
     0
281
     0
  0
CLASS
  1
ACMESCOPE
  2
AcMeScope
  3
AcMeServices
 90
        0
280
     0
281
     0
  0
CLASS
  1
ACMECOMMANDHISTORY
  2
AcMeCommandHistory
  3
AcMeServices
 90
        0
280
     0
281
     0
  0
CLASS
  1
DICTIONARYVAR
  2
AcDbDictionaryVar
  3
AutoCAD 2000
 90
        0
280
     0
281
     0
  0
CLASS
  1
ACIMSYSVARMAN
  2
AcImSysVarManager
  3
AcMeServices
 90
        0
280
     0
281
     0
  0
CLASS
  1
ACIMREALSYSVAR
  2
AcImRealSysVar
  3
AcMeServices
 90
        0
280
     0
281
     0
  0
CLASS
  1
ACIMINTSYSVAR
  2
AcImIntSysVar
  3
AcMeServices
 90
        0
280
     0
281
     0
  0
CLASS
  1
ACMEDRAWINGMAN
  2
AcMeDrawingMan
  3
AcMeServices
 90
        0
280
     0
281
     0
  0
CLASS
  1
ACMEVIEW
  2
AcMeView
  3
AcMeServices
 90
        0
280
     0
281
     0
  0
CLASS
  1
ACDBENTITYCACHE
  2
AcMeEntityCache
  3
AcMeServices
 90
        0
280
     0
281
     0
  0
CLASS
  1
GSMANAGER
  2
AcMeGSManager
  3
AcMeServices
 90
        0
280
     0
281
     0
  0
CLASS
  1
AmdtInternalReactor
  2
AmdtInternalReactor
  3
AcMeServices
 90
        0
280
     0
281
     0
  0
CLASS
  1
ACMESTATEMGR
  2
AcMeStateMgr
  3
AcMeServices
 90
        0
280
     0
281
     0
  0
CLASS
  1
ACME_DATABASE
  2
AcMeDbDatabase
  3
AcMeServices
 90
        0
280
     0
281
     0
  0
CLASS
  1
ACRFINSADJUSTERMGR
  2
AcRfInsAdjusterMgr
  3
AcMeServices
 90
        0
280
     0
281
     0
  0
CLASS
  1
ACMDATADICTIONARY
  2
AcmDataDictionary
  3
"AcmSymBB|Product Description: AutoCAD Mechanical 2000|Company: Autodesk"
 90
        0
280
     0
281
     0
  0
CLASS
  1
ACMDATAENTRYBLOCK
  2
AcmDataEntryBlock
  3
"AcmSymBB|Product Description: AutoCAD Mechanical 2000|Company: Autodesk"
 90
        0
280
     0
281
     0
  0
CLASS
  1
AMGOBJPROPCFG
  2
AmgObjPropCfg
  3
"AmgLay|Product Description: AutoCAD Mechanical 2000|Company: Autodesk"
 90
        1
280
     0
281
     0
  0
CLASS
  1
ACAMGFILTERDAT
  2
AcAmgFilterDat
  3
"AcadM|Product Description: AutoCAD Mechanical 2000|Company: Autodesk"
 90
        0
280
     0
281
     0
  0
CLASS
  1
LAYER_INDEX
  2
AcDbLayerIndex
  3
AutoCAD 2000
 90
        0
280
     0
281
     0
  0
CLASS
  1
IDBUFFER
  2
AcDbIdBuffer
  3
AutoCAD 2000
 90
        0
280
     0
281
     0
  0
CLASS
  1
ACIMSTRSYSVAR
  2
AcImStrSysVar
  3
AcMeServices
 90
        0
280
     0
281
     0
  0
CLASS
  1
ACMSTANDARDJIS
  2
AcmStandardJIS
  3
"AcmSymBB|Product Description: AutoCAD Mechanical 2000|Company: Autodesk"
 90
        0
280
     0
281
     0
  0
CLASS
  1
ACMSURFSTANDARDJIS
  2
AcmSurfTextStdJIS
  3
"AcmSymBB|Product Description: AutoCAD Mechanical 2000|Company: Autodesk"
 90
        0
280
     0
281
     0
  0
CLASS
  1
ACMFCFSTANDARDJIS
  2
AcmFCFStdJIS
  3
"AcmSymBB|Product Description: AutoCAD Mechanical 2000|Company: Autodesk"
 90
        0
280
     0
281
     0
  0
CLASS
  1
ACMWELDSTANDARDJIS
  2
AcmWeldingStdJIS
  3
"AcmSymBB|Product Description: AutoCAD Mechanical 2000|Company: Autodesk"
 90
        0
280
     0
281
     0
  0
CLASS
  1
ACMIDSTANDARDJIS
  2
AcmIdStdJIS
  3
"AcmSymBB|Product Description: AutoCAD Mechanical 2000|Company: Autodesk"
 90
        0
280
     0
281
     0
  0
CLASS
  1
ACMDATUMSTANDARDJIS
  2
AcmDatumStdJIS
  3
"AcmSymBB|Product Description: AutoCAD Mechanical 2000|Company: Autodesk"
 90
        0
280
     0
281
     0
  0
CLASS
  1
ACMBOMSTANDARDJIS
  2
AcmBOMStdJIS
  3
"AcmSymBB|Product Description: AutoCAD Mechanical 2000|Company: Autodesk"
 90
        0
280
     0
281
     0
  0
CLASS
  1
ACMSTANDARDANSI
  2
AcmStandardANSI
  3
"AcmSymBB|Product Description: AutoCAD Mechanical 2000|Company: Autodesk"
 90
        0
280
     0
281
     0
  0
CLASS
  1
ACMSURFSTANDARDANSI
  2
AcmSurfTextStdANSI
  3
"AcmSymBB|Product Description: AutoCAD Mechanical 2000|Company: Autodesk"
 90
        0
280
     0
281
     0
  0
CLASS
  1
ACMFCFSTANDARDANSI
  2
AcmFCFStdANSI
  3
"AcmSymBB|Product Description: AutoCAD Mechanical 2000|Company: Autodesk"
 90
        0
280
     0
281
     0
  0
CLASS
  1
ACMWELDSTANDARDANSI
  2
AcmWeldingStdANSI
  3
"AcmSymBB|Product Description: AutoCAD Mechanical 2000|Company: Autodesk"
 90
        0
280
     0
281
     0
  0
CLASS
  1
ACMIDSTANDARDANSI
  2
AcmIdStdANSI
  3
"AcmSymBB|Product Description: AutoCAD Mechanical 2000|Company: Autodesk"
 90
        0
280
     0
281
     0
  0
CLASS
  1
ACMDATUMSTANDARDANSI
  2
AcmDatumStdANSI
  3
"AcmSymBB|Product Description: AutoCAD Mechanical 2000|Company: Autodesk"
 90
        0
280
     0
281
     0
  0
CLASS
  1
ACMBOMSTANDARDANSI
  2
AcmBOMStdANSI
  3
"AcmSymBB|Product Description: AutoCAD Mechanical 2000|Company: Autodesk"
 90
        0
280
     0
281
     0
  0
CLASS
  1
ACMSTANDARDBSI
  2
AcmStandardBSI
  3
"AcmSymBB|Product Description: AutoCAD Mechanical 2000|Company: Autodesk"
 90
        0
280
     0
281
     0
  0
CLASS
  1
ACMSURFSTANDARDBSI
  2
AcmSurfTextStdBSI
  3
"AcmSymBB|Product Description: AutoCAD Mechanical 2000|Company: Autodesk"
 90
        0
280
     0
281
     0
  0
CLASS
  1
ACMFCFSTANDARDBSI
  2
AcmFCFStdBSI
  3
"AcmSymBB|Product Description: AutoCAD Mechanical 2000|Company: Autodesk"
 90
        0
280
     0
281
     0
  0
CLASS
  1
ACMWELDSTANDARDBSI
  2
AcmWeldingStdBSI
  3
"AcmSymBB|Product Description: AutoCAD Mechanical 2000|Company: Autodesk"
 90
        0
280
     0
281
     0
  0
CLASS
  1
ACMIDSTANDARDBSI
  2
AcmIdStdBSI
  3
"AcmSymBB|Product Description: AutoCAD Mechanical 2000|Company: Autodesk"
 90
        0
280
     0
281
     0
  0
CLASS
  1
ACMDATUMSTANDARDBSI
  2
AcmDatumStdBSI
  3
"AcmSymBB|Product Description: AutoCAD Mechanical 2000|Company: Autodesk"
 90
        0
280
     0
281
     0
  0
CLASS
  1
ACMBOMSTANDARDBSI
  2
AcmBOMStdBSI
  3
"AcmSymBB|Product Description: AutoCAD Mechanical 2000|Company: Autodesk"
 90
        0
280
     0
281
     0
  0
CLASS
  1
LONG_TRANSACTION
  2
AcDbLongTransaction
  3
AutoCAD 2000
 90
        0
280
     0
281
     0
  0
CLASS
  1
LWPOLYLINE
  2
AcDbPolyline
  3
AutoCAD 2000
 90
        0
280
     0
281
     1
  0
CLASS
  1
HATCH
  2
AcDbHatch
  3
AutoCAD 2000
 90
        0
280
     0
281
     1
  0
CLASS
  1
XRECORD
  2
AcDbXrecord
  3
AutoCAD 2000
 90
        0
280
     0
281
     0
  0
ENDSEC
  0
SECTION
  2
TABLES
  0
TABLE
  2
VPORT
  5
8
330
0
100
AcDbSymbolTable
 70
     3
  0
VPORT
  5
2D63
330
8
100
AcDbSymbolTableRecord
100
AcDbViewportTableRecord
  2
*ACTIVE
 70
     0
 10
0.0
 20
0.0
 11
1.0
 21
1.0
 12
-50.72671201406722
 22
-7.437633921982879
 13
0.0
 23
0.0
 14
2.5
 24
2.5
 15
10.0
 25
10.0
 16
0.0
 26
0.0
 36
1.0
 17
0.0
 27
0.0
 37
0.0
 40
89.10578188690735
 41
1.56570841889117
 42
50.0
 43
0.0
 44
0.0
 50
0.0
 51
0.0
 71
     0
 72
   100
 73
     1
 74
     1
 75
     0
 76
     0
 77
     0
 78
     0
  0
ENDTAB
  0
TABLE
  2
LTYPE
  5
5
330
0
100
AcDbSymbolTable
 70
    10
  0
LTYPE
  5
14
330
5
100
AcDbSymbolTableRecord
100
AcDbLinetypeTableRecord
  2
BYBLOCK
 70
     0
  3

 72
    65
 73
     0
 40
0.0
  0
LTYPE
  5
15
330
5
100
AcDbSymbolTableRecord
100
AcDbLinetypeTableRecord
  2
BYLAYER
 70
     0
  3

 72
    65
 73
     0
 40
0.0
  0
LTYPE
  5
16
330
5
100
AcDbSymbolTableRecord
100
AcDbLinetypeTableRecord
  2
CONTINUOUS
 70
     0
  3
Solid line
 72
    65
 73
     0
 40
0.0
  0
LTYPE
  5
4B
330
5
100
AcDbSymbolTableRecord
100
AcDbLinetypeTableRecord
  2
AM_ISO02W050
 70
     0
  3
__ __ __ __ __ __ __ __ __ __ __ __ __ __ __
 72
    65
 73
     2
 40
7.5
 49
6.0
 74
     0
 49
-1.5
 74
     0
  0
LTYPE
  5
4C
330
5
100
AcDbSymbolTableRecord
100
AcDbLinetypeTableRecord
  2
AM_ISO08W050
 70
     0
  3
____ . ____ . ____ . ____ . ____ . ____ . ____
 72
    65
 73
     4
 40
18.0
 49
12.0
 74
     0
 49
-1.5
 74
     0
 49
3.0
 74
     0
 49
-1.5
 74
     0
  0
LTYPE
  5
4D
330
5
100
AcDbSymbolTableRecord
100
AcDbLinetypeTableRecord
  2
AM_ISO09W050
 70
     0
  3
_____ . . _____ . . _____ . . ____ .. ____
 72
    65
 73
     6
 40
22.5
 49
12.0
 74
     0
 49
-1.5
 74
     0
 49
3.0
 74
     0
 49
-1.5
 74
     0
 49
3.0
 74
     0
 49
-1.5
 74
     0
  0
LTYPE
  5
4E
330
5
100
AcDbSymbolTableRecord
100
AcDbLinetypeTableRecord
  2
AMCONSTR
 70
     0
  3
_______________________
 72
    65
 73
     2
 40
9999.0
 49
9999.0
 74
     0
 49
0.0
 74
     0
  0
LTYPE
  5
4F
330
5
100
AcDbSymbolTableRecord
100
AcDbLinetypeTableRecord
  2
AM_ISO02W050X2
 70
     0
  3
 _ _ _ _ _ _ _ _ _ _ _ _
 72
    65
 73
     2
 40
3.75
 49
3.0
 74
     0
 49
-0.75
 74
     0
  0
LTYPE
  5
50
330
5
100
AcDbSymbolTableRecord
100
AcDbLinetypeTableRecord
  2
AM_ISO08W050X2
 70
     0
  3
__ . __ . __ . __ . __ . __
 72
    65
 73
     4
 40
9.0
 49
6.0
 74
     0
 49
-0.75
 74
     0
 49
1.5
 74
     0
 49
-0.75
 74
     0
  0
LTYPE
  5
53
330
5
100
AcDbSymbolTableRecord
100
AcDbLinetypeTableRecord
  2
AMZIGZAG
 70
     0
  3
/\/-/\/-/\/-/\/-/\/-/\/
 72
    65
 73
     2
 40
11.00009999999999
 49
0.0001
 74
     4
 75
   135
340
52
 46
0.04
 50
0.0
 44
0.0
 45
0.0
 49
-11.0
 74
     0
  0
LTYPE
  5
166
330
5
100
AcDbSymbolTableRecord
100
AcDbLinetypeTableRecord
  2
ACJISTGL
 70
     0
  3
_ _ _ _ _
 72
    65
 73
     2
 40
3.0
 49
2.0
 74
     0
 49
-1.0
 74
     0
  0
LTYPE
  5
26A
330
5
100
AcDbSymbolTableRecord
100
AcDbLinetypeTableRecord
  2
ACJISTGB
 70
     0
  3
__ . . __ . .
 72
    65
 73
     6
 40
9.0
 49
4.0
 74
     0
 49
-1.0
 74
     0
 49
1.0
 74
     0
 49
-1.0
 74
     0
 49
1.0
 74
     0
 49
-1.0
 74
     0
  0
ENDTAB
  0
TABLE
  2
LAYER
  5
2
330
0
100
AcDbSymbolTable
 70
     7
  0
LAYER
  5
10
330
2
100
AcDbSymbolTableRecord
100
AcDbLayerTableRecord
  2
0
 70
     0
 62
     7
  6
CONTINUOUS
  0
LAYER
  5
3F9
330
2
100
AcDbSymbolTableRecord
100
AcDbLayerTableRecord
  2
AM_0
 70
     0
 62
     7
  6
CONTINUOUS
  0
LAYER
  5
C7C
330
2
100
AcDbSymbolTableRecord
100
AcDbLayerTableRecord
  2
AM_7
 70
     0
 62
     4
  6
AM_ISO08W050
  0
LAYER
  5
C97
330
2
100
AcDbSymbolTableRecord
100
AcDbLayerTableRecord
  2
AM_11
 70
     0
 62
     3
  6
AM_ISO09W050
  0
LAYER
  5
CC5
330
2
100
AcDbSymbolTableRecord
100
AcDbLayerTableRecord
  2
AM_5
 70
     0
 62
     3
  6
CONTINUOUS
  0
LAYER
  5
CC7
330
2
100
AcDbSymbolTableRecord
100
AcDbLayerTableRecord
  2
DEFPOINTS
 70
     0
 62
     7
  6
CONTINUOUS
  0
LAYER
  5
19BC
330
2
100
AcDbSymbolTableRecord
100
AcDbLayerTableRecord
  2
AM_6
 70
     0
 62
     2
  6
CONTINUOUS
  0
ENDTAB
  0
TABLE
  2
STYLE
  5
3
330
0
100
AcDbSymbolTable
 70
     5
  0
STYLE
  5
11
330
3
100
AcDbSymbolTableRecord
100
AcDbTextStyleTableRecord
  2
STANDARD
 70
     0
 40
0.0
 41
1.0
 50
0.0
 71
     0
 42
2.5
  3
simplex.shx
  4
EXTFONT.SHX
  0
STYLE
  5
52
330
3
100
AcDbSymbolTableRecord
100
AcDbTextStyleTableRecord
  2

 70
     1
 40
0.0
 41
1.0
 50
0.0
 71
     0
 42
2.5
  3
ltypeshp.shx
  4

  0
STYLE
  5
6B
330
3
100
AcDbSymbolTableRecord
100
AcDbTextStyleTableRecord
  2
ASAMI
 70
     0
 40
0.0
 41
1.0
 50
0.0
 71
     0
 42
2.5
  3
simplex.shx
  4
EXTFONT.SHX
  0
STYLE
  5
262
330
3
100
AcDbSymbolTableRecord
100
AcDbTextStyleTableRecord
  2
ACJISTS
 70
     0
 40
1.0
 41
1.0
 50
0.0
 71
     0
 42
2.5
  3
simplex.shx
  4
bigfont.shx
  0
STYLE
  5
269
330
3
100
AcDbSymbolTableRecord
100
AcDbTextStyleTableRecord
  2
ACJISGDT
 70
     0
 40
0.0
 41
1.0
 50
0.0
 71
     0
 42
2.5
  3
amgdtans.shx
  4

  0
ENDTAB
  0
TABLE
  2
VIEW
  5
6
330
0
100
AcDbSymbolTable
 70
     0
  0
ENDTAB
  0
TABLE
  2
UCS
  5
7
330
0
100
AcDbSymbolTable
 70
     0
  0
ENDTAB
  0
TABLE
  2
APPID
  5
9
330
0
100
AcDbSymbolTable
 70
    16
  0
APPID
  5
12
330
9
100
AcDbSymbolTableRecord
100
AcDbRegAppTableRecord
  2
ACAD
 70
     0
  0
APPID
  5
30
330
9
100
AcDbSymbolTableRecord
100
AcDbRegAppTableRecord
  2
MCAD_NO_VIS
 70
     0
  0
APPID
  5
31
330
9
100
AcDbSymbolTableRecord
100
AcDbRegAppTableRecord
  2
ACAD_TEMP_GRAPHIC
 70
     0
  0
APPID
  5
2C2
330
9
100
AcDbSymbolTableRecord
100
AcDbRegAppTableRecord
  2
GENIUS_GENDTOL_13
 70
     0
  0
APPID
  5
339
330
9
100
AcDbSymbolTableRecord
100
AcDbRegAppTableRecord
  2
GENIUS_GENODEF_13
 70
     0
  0
APPID
  5
33A
330
9
100
AcDbSymbolTableRecord
100
AcDbRegAppTableRecord
  2
GENIUS_GENOBJ-N-RSBK_13
 70
     0
  0
APPID
  5
33B
330
9
100
AcDbSymbolTableRecord
100
AcDbRegAppTableRecord
  2
GENIUS_GENOBJ-N-LIB_13
 70
     0
  0
APPID
  5
33C
330
9
100
AcDbSymbolTableRecord
100
AcDbRegAppTableRecord
  2
GENIUS_GENSCALE_13
 70
     0
  0
APPID
  5
378
330
9
100
AcDbSymbolTableRecord
100
AcDbRegAppTableRecord
  2
GENIUS_GENDIMSH_14
 70
     0
  0
APPID
  5
C82
330
9
100
AcDbSymbolTableRecord
100
AcDbRegAppTableRecord
  2
GENIUS_GENOBJ-N-CRS_13
 70
     0
  0
APPID
  5
C83
330
9
100
AcDbSymbolTableRecord
100
AcDbRegAppTableRecord
  2
GENIUS_GENOENT_13
 70
     0
  0
APPID
  5
C84
330
9
100
AcDbSymbolTableRecord
100
AcDbRegAppTableRecord
  2
GENIUS_GENOREF_13
 70
     0
  0
APPID
  5
C85
330
9
100
AcDbSymbolTableRecord
100
AcDbRegAppTableRecord
  2
GENIUS_GENOLIS_13
 70
     0
  0
APPID
  5
CA0
330
9
100
AcDbSymbolTableRecord
100
AcDbRegAppTableRecord
  2
GENIUS_GENOBJ-N-CEN_13
 70
     0
  0
APPID
  5
2796
330
9
100
AcDbSymbolTableRecord
100
AcDbRegAppTableRecord
  2
GENIUS_GENFIL_13
 70
     0
  0
APPID
  5
2797
330
9
100
AcDbSymbolTableRecord
100
AcDbRegAppTableRecord
  2
GENIUS_GENOBJ-N-CHA_13
 70
     0
  0
ENDTAB
  0
TABLE
  2
DIMSTYLE
  5
A
330
0
100
AcDbSymbolTable
 70
     9
  0
DIMSTYLE
105
58
330
A
100
AcDbSymbolTableRecord
100
AcDbDimStyleTableRecord
  2
AM_JIS
 70
     0
  3

  4
"
  5
OPEN30
  6

  7

 40
0.5
 41
2.5
 42
1.0
 43
12.0
 44
1.0
 45
0.0
 46
0.0
 47
0.1
 48
0.1
140
3.2
141
0.0
142
0.0
143
0.0393701
144
1.0
145
0.0
146
0.71
147
1.5
 71
     0
 72
     0
 73
     0
 74
     0
 75
     0
 76
     0
 77
     3
 78
     8
170
     0
171
     2
172
     1
173
     0
174
     0
175
     0
176
   256
177
   256
178
     2
270
     2
271
     3
272
     3
273
     2
274
     2
340
6B
275
     0
280
     0
281
     0
282
     0
283
     0
284
     0
285
     0
286
     0
287
     3
288
     0
  0
DIMSTYLE
105
5F
330
A
100
AcDbSymbolTableRecord
100
AcDbDimStyleTableRecord
  2
AM_JIS$3
 70
     0
  3

  4
"
  5
OPEN30
  6

  7

 40
0.5
 41
2.5
 42
1.0
 43
10.0
 44
1.0
 45
0.0
 46
0.0
 47
0.1
 48
0.1
140
3.2
141
0.0
142
0.0
143
0.0393701
144
1.0
145
0.0
146
0.71
147
1.5
 71
     0
 72
     0
 73
     0
 74
     1
 75
     0
 76
     0
 77
     3
 78
     8
170
     0
171
     2
172
     0
173
     0
174
     0
175
     0
176
   256
177
   256
178
     2
270
     2
271
     2
272
     3
273
     2
274
     2
340
6B
275
     0
280
     0
281
     0
282
     0
283
     0
284
     0
285
     0
286
     0
287
     0
288
     1
  0
DIMSTYLE
105
60
330
A
100
AcDbSymbolTableRecord
100
AcDbDimStyleTableRecord
  2
AM_JIS$4
 70
     0
  3

  4
"
  5
OPEN30
  6

  7

 40
0.5
 41
2.5
 42
1.0
 43
10.0
 44
1.0
 45
0.0
 46
0.0
 47
0.1
 48
0.1
140
3.2
141
0.0
142
0.0
143
0.0393701
144
1.0
145
0.0
146
0.71
147
1.5
 71
     0
 72
     0
 73
     0
 74
     1
 75
     0
 76
     0
 77
     3
 78
     8
170
     0
171
     2
172
     0
173
     0
174
     0
175
     0
176
   256
177
   256
178
     2
270
     2
271
     2
272
     3
273
     2
274
     2
340
6B
275
     0
280
     0
281
     0
282
     0
283
     0
284
     0
285
     0
286
     0
287
     0
288
     1
  0
DIMSTYLE
105
61
330
A
100
AcDbSymbolTableRecord
100
AcDbDimStyleTableRecord
  2
AM_JIS$6
 70
     0
  3

  4
"
  5
OPEN30
  6

  7

 40
0.5
 41
2.5
 42
1.0
 43
10.0
 44
1.0
 45
0.0
 46
0.0
 47
0.1
 48
0.1
140
3.2
141
0.0
142
0.0
143
0.0393701
144
1.0
145
0.0
146
0.71
147
1.5
 71
     0
 72
     0
 73
     0
 74
     0
 75
     0
 76
     0
 77
     0
 78
     8
170
     0
171
     2
172
     1
173
     0
174
     0
175
     0
176
   256
177
   256
178
     2
270
     2
271
     2
272
     2
273
     2
274
     2
340
6B
275
     0
280
     0
281
     0
282
     0
283
     0
284
     0
285
     0
286
     0
287
     3
288
     0
  0
DIMSTYLE
105
62
330
A
100
AcDbSymbolTableRecord
100
AcDbDimStyleTableRecord
  2
AM_JIS$7
 70
     0
  3

  4
"
  5
OPEN30
  6

  7

 40
0.5
 41
2.5
 42
1.0
 43
10.0
 44
1.0
 45
0.0
 46
0.0
 47
0.1
 48
0.1
140
3.2
141
0.0
142
0.0
143
0.0393701
144
1.0
145
0.0
146
0.71
147
1.5
 71
     0
 72
     0
 73
     0
 74
     0
 75
     0
 76
     0
 77
     3
 78
     8
170
     0
171
     2
172
     1
173
     0
174
     0
175
     0
176
   256
177
   256
178
     2
270
     2
271
     2
272
     3
273
     2
274
     2
340
6B
275
     0
280
     0
281
     0
282
     0
283
     0
284
     0
285
     0
286
     0
287
     3
288
     0
  0
DIMSTYLE
105
63
330
A
100
AcDbSymbolTableRecord
100
AcDbDimStyleTableRecord
  2
AM_JIS$SF
 70
     0
  3

  4
"
  5
OPEN30
  6

  7

 40
0.5
 41
2.5
 42
1.0
 43
10.0
 44
1.0
 45
0.0
 46
0.0
 47
0.1
 48
0.1
140
3.2
141
0.0
142
0.0
143
0.0393701
144
1.0
145
0.0
146
0.71
147
1.5
 71
     0
 72
     0
 73
     0
 74
     0
 75
     1
 76
     1
 77
     3
 78
     8
170
     0
171
     2
172
     1
173
     0
174
     0
175
     0
176
   256
177
   256
178
     2
270
     2
271
     2
272
     2
273
     2
274
     2
340
6B
275
     0
280
     0
281
     0
282
     0
283
     0
284
     0
285
     0
286
     0
287
     3
288
     0
  0
DIMSTYLE
105
68
330
A
100
AcDbSymbolTableRecord
100
AcDbDimStyleTableRecord
  2
AM_JIS$SH
 70
     0
  3

  4
"
  5

  6
GENAXEH
  7
OPEN30
 40
0.5
 41
2.5
 42
1.0
 43
10.0
 44
1.0
 45
0.0
 46
0.0
 47
0.1
 48
0.1
140
3.2
141
0.0
142
0.0
143
0.0393701
144
2.0
145
0.0
146
0.71
147
1.5
 71
     0
 72
     0
 73
     0
 74
     0
 75
     1
 76
     1
 77
     3
 78
     8
170
     0
171
     2
172
     1
173
     1
174
     0
175
     0
176
   256
177
   256
178
     2
270
     2
271
     2
272
     2
273
     2
274
     2
340
6B
275
     0
280
     0
281
     0
282
     0
283
     0
284
     0
285
     0
286
     0
287
     3
288
     0
  0
DIMSTYLE
105
B34
102
{ACAD_REACTORS
330
29BA
102
}
330
A
100
AcDbSymbolTableRecord
100
AcDbDimStyleTableRecord
  2
AM_JIS$2
 70
     0
  3

  4
"
  5
OPEN30
  6

  7

 40
0.5
 41
2.5
 42
1.0
 43
12.0
 44
1.0
 45
0.0
 46
0.0
 47
0.1
 48
0.1
140
3.2
141
0.0
142
0.0
143
0.0393701
144
1.0
145
0.0
146
0.71
147
1.5
 71
     0
 72
     0
 73
     0
 74
     0
 75
     0
 76
     0
 77
     3
 78
     8
170
     0
171
     2
172
     1
173
     0
174
     0
175
     0
176
   256
177
   256
178
     2
270
     2
271
     3
272
     3
273
     2
274
     2
340
6B
275
     0
280
     0
281
     0
282
     0
283
     0
284
     0
285
     0
286
     0
287
     3
288
     0
  0
DIMSTYLE
105
BA5
102
{ACAD_REACTORS
330
CC6
330
2069
330
2599
330
2C54
102
}
330
A
100
AcDbSymbolTableRecord
100
AcDbDimStyleTableRecord
  2
AM_JIS$0
 70
     0
  3

  4
"
  5
OPEN30
  6

  7

 40
0.5
 41
2.5
 42
0.0
 43
10.0
 44
1.0
 45
0.0
 46
0.0
 47
0.1
 48
0.1000000001
140
3.799999999999999
141
0.0
142
0.0
143
0.0393701
144
1.0
145
0.0
146
0.71
147
1.5
 71
     0
 72
     0
 73
     0
 74
     0
 75
     0
 76
     0
 77
     3
 78
     1
170
     0
171
     2
172
     1
173
     0
174
     0
175
     0
176
     3
177
     3
178
     2
270
     2
271
     2
272
     2
273
     2
274
     2
340
11
275
     1
280
     0
281
     0
282
     0
283
     0
284
     8
285
     0
286
     0
287
     0
288
     0
  0
ENDTAB
  0
TABLE
  2
BLOCK_RECORD
  5
1
330
0
100
AcDbSymbolTable
 70
    10
  0
BLOCK_RECORD
  5
1F
102
{ACAD_XDICTIONARY
360
74
102
}
330
1
100
AcDbSymbolTableRecord
100
AcDbBlockTableRecord
  2
*MODEL_SPACE
  0
BLOCK_RECORD
  5
101
102
{ACAD_XDICTIONARY
360
2D8C
102
}
330
1
100
AcDbSymbolTableRecord
100
AcDbBlockTableRecord
  2
*PAPER_SPACE
  0
BLOCK_RECORD
  5
59
330
1
100
AcDbSymbolTableRecord
100
AcDbBlockTableRecord
  2
_OPEN30
  0
BLOCK_RECORD
  5
64
330
1
100
AcDbSymbolTableRecord
100
AcDbBlockTableRecord
  2
GENAXEH
  0
BLOCK_RECORD
  5
CC8
330
1
100
AcDbSymbolTableRecord
100
AcDbBlockTableRecord
  2
*D5
  0
BLOCK_RECORD
  5
206A
330
1
100
AcDbSymbolTableRecord
100
AcDbBlockTableRecord
  2
*D6
  0
BLOCK_RECORD
  5
259A
330
1
100
AcDbSymbolTableRecord
100
AcDbBlockTableRecord
  2
*D7
  0
BLOCK_RECORD
  5
29BB
330
1
100
AcDbSymbolTableRecord
100
AcDbBlockTableRecord
  2
*D8
  0
BLOCK_RECORD
  5
2C55
330
1
100
AcDbSymbolTableRecord
100
AcDbBlockTableRecord
  2
*D9
  0
ENDTAB
  0
ENDSEC
  0
SECTION
  2
BLOCKS
  0
BLOCK
  5
20
330
1F
100
AcDbEntity
  8
0
100
AcDbBlockBegin
  2
*MODEL_SPACE
 70
     0
 10
0.0
 20
0.0
 30
0.0
  3
*MODEL_SPACE
  1

  0
ENDBLK
  5
21
330
1F
100
AcDbEntity
  8
0
100
AcDbBlockEnd
  0
BLOCK
  5
103
330
101
100
AcDbEntity
 67
     1
  8
0
100
AcDbBlockBegin
  2
*PAPER_SPACE
 70
     0
 10
0.0
 20
0.0
 30
0.0
  3
*PAPER_SPACE
  1

  0
ENDBLK
  5
104
330
101
100
AcDbEntity
 67
     1
  8
0
100
AcDbBlockEnd
  0
BLOCK
  5
5D
330
59
100
AcDbEntity
  8
0
100
AcDbBlockBegin
  2
_OPEN30
 70
     0
 10
0.0
 20
0.0
 30
0.0
  3
_OPEN30
  1

  0
LINE
  5
5A
330
59
100
AcDbEntity
  8
0
 62
     0
100
AcDbLine
 10
-1.0
 20
0.26794919
 30
0.0
 11
0.0
 21
0.0
 31
0.0
  0
LINE
  5
5B
330
59
100
AcDbEntity
  8
0
 62
     0
100
AcDbLine
 10
0.0
 20
0.0
 30
0.0
 11
-1.0
 21
-0.26794919
 31
0.0
  0
LINE
  5
5C
330
59
100
AcDbEntity
  8
0
 62
     0
100
AcDbLine
 10
0.0
 20
0.0
 30
0.0
 11
-1.0
 21
0.0
 31
0.0
  0
ENDBLK
  5
5E
330
59
100
AcDbEntity
  8
0
100
AcDbBlockEnd
  0
BLOCK
  5
66
330
64
100
AcDbEntity
  8
0
100
AcDbBlockBegin
  2
GENAXEH
 70
     0
 10
0.0
 20
0.0
 30
0.0
  3
GENAXEH
  1

  0
LINE
  5
65
330
64
100
AcDbEntity
  8
0
100
AcDbLine
 10
-1.0
 20
0.0
 30
0.0
 11
1.0
 21
0.0
 31
0.0
  0
ENDBLK
  5
67
330
64
100
AcDbEntity
  8
0
100
AcDbBlockEnd
  0
BLOCK
  5
CD2
330
CC8
100
AcDbEntity
  8
0
100
AcDbBlockBegin
  2
*D5
 70
     1
 10
0.0
 20
0.0
 30
0.0
  3
*D5
  1

  0
LINE
  5
2D11
330
CC8
100
AcDbEntity
  8
AM_5
 62
     3
100
AcDbLine
 10
-107.9999999999999
 20
-4.49999242885898
 30
0.0
 11
-107.9999999999999
 21
-17.49999342885879
 31
0.0
  0
LINE
  5
2D12
330
CC8
100
AcDbEntity
  8
AM_5
 62
     3
100
AcDbLine
 10
-2.0
 20
-4.600008297952033
 30
0.0
 11
-2.0
 21
-17.49999342885879
 31
0.0
  0
LINE
  5
2D13
330
CC8
100
AcDbEntity
  8
AM_5
 62
     3
100
AcDbLine
 10
-106.7499999999999
 20
-16.99999342885879
 30
0.0
 11
-3.25
 21
-16.99999342885879
 31
0.0
  0
INSERT
  5
2D14
330
CC8
100
AcDbEntity
  8
AM_5
 62
     3
100
AcDbBlockReference
  2
_OPEN30
 10
-107.9999999999999
 20
-16.99999342885879
 30
0.0
 41
1.25
 42
1.25
 43
1.25
 50
180.0
  0
INSERT
  5
2D15
330
CC8
100
AcDbEntity
  8
AM_5
 62
     3
100
AcDbBlockReference
  2
_OPEN30
 10
-2.0
 20
-16.99999342885879
 30
0.0
 41
1.25
 42
1.25
 43
1.25
  0
MTEXT
  5
2D16
330
CC8
100
AcDbEntity
  8
AM_5
 62
     2
100
AcDbMText
 10
-54.99999999999999
 20
-15.29999342885879
 30
0.0
 40
1.9
 41
0.0
 71
     5
 72
     1
  1
106
1001
ACAD
1000
MTEXTBEGIN
1070
    73
1070
     1
1070
    44
1040
1.0
1070
    74
1070
     0
1000
MTEXTEND
  0
POINT
  5
2D17
330
CC8
100
AcDbEntity
  8
DEFPOINTS
 62
     0
100
AcDbPoint
 10
-107.9999999999999
 20
-4.49999242885898
 30
0.0
  0
POINT
  5
2D18
330
CC8
100
AcDbEntity
  8
DEFPOINTS
 62
     0
100
AcDbPoint
 10
-2.0
 20
-4.600008297952033
 30
0.0
  0
POINT
  5
2D19
330
CC8
100
AcDbEntity
  8
DEFPOINTS
 62
     0
100
AcDbPoint
 10
-2.0
 20
-16.99999342885879
 30
0.0
  0
ENDBLK
  5
CD3
330
CC8
100
AcDbEntity
  8
0
100
AcDbBlockEnd
  0
BLOCK
  5
2074
330
206A
100
AcDbEntity
  8
0
100
AcDbBlockBegin
  2
*D6
 70
     1
 10
0.0
 20
0.0
 30
0.0
  3
*D6
  1

  0
LINE
  5
2D2E
330
206A
100
AcDbEntity
  8
AM_5
 62
     3
100
AcDbLine
 10
-51.99999999999994
 20
-4.999992428858938
 30
0.0
 11
-51.99999999999992
 21
-12.49999342885891
 31
0.0
  0
LINE
  5
2D2F
330
206A
100
AcDbEntity
  8
AM_5
 62
     3
100
AcDbLine
 10
-1.999999999999986
 20
-4.600008297952039
 30
0.0
 11
-1.999999999999964
 21
-12.49999342885876
 31
0.0
  0
LINE
  5
2D30
330
206A
100
AcDbEntity
  8
AM_5
 62
     3
100
AcDbLine
 10
-50.74999999999992
 20
-11.99999342885891
 30
0.0
 11
-3.249999999999965
 21
-11.99999342885877
 31
0.0
  0
INSERT
  5
2D31
330
206A
100
AcDbEntity
  8
AM_5
 62
     3
100
AcDbBlockReference
  2
_OPEN30
 10
-51.99999999999992
 20
-11.99999342885891
 30
0.0
 41
1.25
 42
1.25
 43
1.25
 50
180.0000000000001
  0
INSERT
  5
2D32
330
206A
100
AcDbEntity
  8
AM_5
 62
     3
100
AcDbBlockReference
  2
_OPEN30
 10
-1.999999999999965
 20
-11.99999342885876
 30
0.0
 41
1.25
 42
1.25
 43
1.25
 50
0.0000000000001527
  0
MTEXT
  5
2D33
330
206A
100
AcDbEntity
  8
AM_5
 62
     2
100
AcDbMText
 10
-26.99999999999995
 20
-10.29999342885884
 30
0.0
 40
1.9
 41
0.0
 71
     5
 72
     1
  1
50
1001
ACAD
1000
MTEXTBEGIN
1070
    73
1070
     1
1070
    44
1040
1.0
1070
    74
1070
     0
1000
MTEXTEND
  0
POINT
  5
2D34
330
206A
100
AcDbEntity
  8
DEFPOINTS
 62
     0
100
AcDbPoint
 10
-51.99999999999995
 20
-4.999992428858787
 30
0.0
  0
POINT
  5
2D35
330
206A
100
AcDbEntity
  8
DEFPOINTS
 62
     0
100
AcDbPoint
 10
-2.0
 20
-4.600008297952033
 30
0.0
  0
POINT
  5
2D36
330
206A
100
AcDbEntity
  8
DEFPOINTS
 62
     0
100
AcDbPoint
 10
-2.0
 20
-11.99999342885876
 30
0.0
  0
ENDBLK
  5
2075
330
206A
100
AcDbEntity
  8
0
100
AcDbBlockEnd
  0
BLOCK
  5
25A4
330
259A
100
AcDbEntity
  8
0
100
AcDbBlockBegin
  2
*D7
 70
     1
 10
0.0
 20
0.0
 30
0.0
  3
*D7
  1

  0
LINE
  5
2D1A
330
259A
100
AcDbEntity
  8
AM_5
 62
     3
100
AcDbLine
 10
-107.4999999999999
 20
-4.999992428859312
 30
0.0
 11
-118.000001
 21
-4.999992428859342
 31
0.0
  0
LINE
  5
2D1B
330
259A
100
AcDbEntity
  8
AM_5
 62
     3
100
AcDbLine
 10
-107.5
 20
5.000024525351115
 30
0.0
 11
-118.000001
 21
5.000024525351085
 31
0.0
  0
LINE
  5
2D1C
330
259A
100
AcDbEntity
  8
AM_5
 62
     3
100
AcDbLine
 10
-117.500001
 20
-3.74999242885934
 30
0.0
 11
-117.500001
 21
3.750024525351086
 31
0.0
  0
INSERT
  5
2D1D
330
259A
100
AcDbEntity
  8
AM_5
 62
     3
100
AcDbBlockReference
  2
_OPEN30
 10
-117.500001
 20
-4.99999242885934
 30
0.0
 41
1.25
 42
1.25
 43
1.25
 50
270.0000000000001
  0
INSERT
  5
2D1E
330
259A
100
AcDbEntity
  8
AM_5
 62
     3
100
AcDbBlockReference
  2
_OPEN30
 10
-117.500001
 20
5.000024525351086
 30
0.0
 41
1.25
 42
1.25
 43
1.25
 50
90.00000000000015
  0
MTEXT
  5
2D1F
330
259A
100
AcDbEntity
  8
AM_5
 62
     2
100
AcDbMText
 10
-119.200001
 20
0.0000107500552559
 30
0.0
 40
1.9
 41
0.0
 71
     5
 72
     1
  1
%%c10
 11
-0.0000000000000028
 21
1.0
 31
0.0
1001
ACAD
1000
MTEXTBEGIN
1070
    73
1070
     1
1070
    44
1040
1.0
1070
    74
1070
     0
1000
MTEXTEND
  0
POINT
  5
2D20
330
259A
100
AcDbEntity
  8
DEFPOINTS
 62
     0
100
AcDbPoint
 10
-107.4999999999999
 20
-4.999992428858978
 30
0.0
  0
POINT
  5
2D21
330
259A
100
AcDbEntity
  8
DEFPOINTS
 62
     0
100
AcDbPoint
 10
-107.4999999999999
 20
5.000024525351449
 30
0.0
  0
POINT
  5
2D22
330
259A
100
AcDbEntity
  8
DEFPOINTS
 62
     0
100
AcDbPoint
 10
-117.500001
 20
5.000024525351451
 30
0.0
  0
ENDBLK
  5
25A5
330
259A
100
AcDbEntity
  8
0
100
AcDbBlockEnd
  0
BLOCK
  5
29C9
330
29BB
100
AcDbEntity
  8
0
100
AcDbBlockBegin
  2
*D8
 70
     1
 10
0.0
 20
0.0
 30
0.0
  3
*D8
  1

  0
LINE
  5
2D8E
330
29BB
100
AcDbEntity
  8
AM_5
100
AcDbLine
 10
0.1710100704080828
 20
-0.4698463108496608
 30
0.0
 11
4.867341367584966
 21
-13.37291061133782
 31
0.0
  0
LINE
  5
2D8F
330
29BB
100
AcDbEntity
  8
AM_5
100
AcDbLine
 10
0.1710111111829965
 20
0.4698459320372617
 30
0.0
 11
4.867370990441562
 21
13.37289982946269
 31
0.0
  0
ARC
  5
2D90
330
29BB
100
AcDbEntity
  8
AM_5
100
AcDbCircle
 10
0.0000000000000122
 20
-0.0000000000000035
 30
0.0
 40
13.73115421206008
100
AcDbArc
 50
295.217658650686
 51
64.78221443114371
  0
INSERT
  5
2D91
330
29BB
100
AcDbEntity
  8
AM_5
100
AcDbBlockReference
  2
_OPEN30
 10
4.696331297176897
 20
-12.90306430048817
 30
0.0
 41
1.25
 42
1.25
 43
1.25
 50
202.6088292488362
  0
INSERT
  5
2D92
330
29BB
100
AcDbEntity
  8
AM_5
100
AcDbBlockReference
  2
_OPEN30
 10
4.69635987925858
 20
12.90305389742543
 30
0.0
 41
1.25
 42
1.25
 43
1.25
 50
157.3910438329935
  0
MTEXT
  5
2D93
330
29BB
100
AcDbEntity
  8
AM_5
 62
     2
100
AcDbMText
 10
12.18115421205262
 20
-0.0000134914806788
 30
0.0
 40
1.6
 41
0.0
 71
     5
 72
     1
  1
140°
  7
ASAMI
 11
0.0000011075699751
 21
0.9999999999993868
 31
0.0
  0
POINT
  5
2D94
330
29BB
100
AcDbEntity
  8
DEFPOINTS
 62
     0
100
AcDbPoint
 10
12.60816294294832
 20
-5.43864166860075
 30
0.0
  0
POINT
  5
2D95
330
29BB
100
AcDbEntity
  8
DEFPOINTS
 62
     0
100
AcDbPoint
 10
0.0000000000000141
 20
0.0000000000000016
 30
0.0
  0
POINT
  5
2D96
330
29BB
100
AcDbEntity
  8
DEFPOINTS
 62
     0
100
AcDbPoint
 10
0.0000000000000142
 20
-0.0000000000000091
 30
0.0
  0
POINT
  5
2D97
330
29BB
100
AcDbEntity
  8
DEFPOINTS
 62
     0
100
AcDbPoint
 10
-0.5665999554321481
 20
1.556720596349271
 30
0.0
  0
POINT
  5
2D98
330
29BB
100
AcDbEntity
  8
DEFPOINTS
 62
     0
100
AcDbPoint
 10
-0.5666112811906948
 20
-1.556740984093225
 30
0.0
  0
ENDBLK
  5
29CA
330
29BB
100
AcDbEntity
  8
0
100
AcDbBlockEnd
  0
BLOCK
  5
2C5F
330
2C55
100
AcDbEntity
  8
0
100
AcDbBlockBegin
  2
*D9
 70
     1
 10
0.0
 20
0.0
 30
0.0
  3
*D9
  1

  0
LINE
  5
2D37
330
2C55
100
AcDbEntity
  8
AM_5
 62
     3
100
AcDbLine
 10
-1.999999999999988
 20
4.600000475638403
 30
0.0
 11
9.819901031072248
 21
4.600000475638436
 31
0.0
  0
LINE
  5
2D38
330
2C55
100
AcDbEntity
  8
AM_5
 62
     3
100
AcDbLine
 10
-1.999999999999928
 20
-4.600008298164685
 30
0.0
 11
9.819901031072273
 21
-4.600008298164652
 31
0.0
  0
LINE
  5
2D39
330
2C55
100
AcDbEntity
  8
AM_5
 62
     3
100
AcDbLine
 10
9.319901031072252
 20
3.350000475638435
 30
0.0
 11
9.319901031072269
 21
-3.350008298164654
 31
0.0
  0
INSERT
  5
2D3A
330
2C55
100
AcDbEntity
  8
AM_5
 62
     3
100
AcDbBlockReference
  2
_OPEN30
 10
9.319901031072248
 20
4.600000475638434
 30
0.0
 41
1.25
 42
1.25
 43
1.25
 50
90.00000000000017
  0
INSERT
  5
2D3B
330
2C55
100
AcDbEntity
  8
AM_5
 62
     3
100
AcDbBlockReference
  2
_OPEN30
 10
9.319901031072273
 20
-4.600008298164654
 30
0.0
 41
1.25
 42
1.25
 43
1.25
 50
270.0000000000001
  0
MTEXT
  5
2D3C
330
2C55
100
AcDbEntity
  8
AM_5
 62
     2
100
AcDbMText
 10
7.61990103107226
 20
-0.0000039112631147
 30
0.0
 40
1.9
 41
0.0
 71
     5
 72
     1
  1
%%c9.2
 11
-0.0000000000000028
 21
1.0
 31
0.0
1001
ACAD
1000
MTEXTBEGIN
1070
    73
1070
     1
1070
    44
1040
1.0
1070
    74
1070
     0
1000
MTEXTEND
  0
POINT
  5
2D3D
330
2C55
100
AcDbEntity
  8
DEFPOINTS
 62
     0
100
AcDbPoint
 10
-1.999999999999974
 20
4.600000475638409
 30
0.0
  0
POINT
  5
2D3E
330
2C55
100
AcDbEntity
  8
DEFPOINTS
 62
     0
100
AcDbPoint
 10
-1.999999999999942
 20
-4.60000829816468
 30
0.0
  0
POINT
  5
2D3F
330
2C55
100
AcDbEntity
  8
DEFPOINTS
 62
     0
100
AcDbPoint
 10
9.319901031072259
 20
-4.600008298164683
 30
0.0
  0
ENDBLK
  5
2C60
330
2C55
100
AcDbEntity
  8
0
100
AcDbBlockEnd
  0
ENDSEC
  0
SECTION
  2
ENTITIES
  0
LINE
  5
C1D
330
1F
100
AcDbEntity
  8
AM_0
 48
0.5
100
AcDbLine
 10
0.0000000000000142
 20
-0.0000000000000091
 30
0.0
 11
-0.5665999554321481
 21
1.556720596349271
 31
0.0
  0
LINE
  5
C20
330
1F
100
AcDbEntity
  8
AM_0
 48
0.5
100
AcDbLine
 10
0.0000000000000141
 20
0.0000000000000016
 30
0.0
 11
-0.5666112811906948
 21
-1.556740984093225
 31
0.0
  0
DIMENSION
  5
CC6
330
1F
100
AcDbEntity
  8
AM_5
100
AcDbDimension
  2
*D5
 10
-2.0
 20
-16.99999342885879
 30
0.0
 11
-54.99999999999999
 21
-15.29999342885879
 31
0.0
 70
    32
  1
<>
  3
AM_JIS$0
100
AcDbAlignedDimension
 13
-107.9999999999999
 23
-4.49999242885898
 33
0.0
 14
-2.0
 24
-4.600008297952033
 34
0.0
 50
0.0000000000001132
100
AcDbRotatedDimension
1001
GENIUS_GENDTOL_13
1000

1000
h7
1000

1040
0.0
1001
ACAD
1000
DSTYLE
1002
{
1070
   271
1070
     0
1002
}
  0
TEXT
  5
19BD
330
1F
100
AcDbEntity
  8
AM_6
100
AcDbText
 10
-66.24999999999992
 20
-28.25000402524005
 30
0.0
 40
2.5
  1
MDW092MHK
 50
0.0000000000001527
 72
     4
 11
-54.99999999999993
 21
-27.00000402524002
 31
0.0
100
AcDbText
  0
DIMENSION
  5
2069
330
1F
100
AcDbEntity
  8
AM_5
100
AcDbDimension
  2
*D6
 10
-2.0
 20
-11.99999342885876
 30
0.0
 11
-26.99999999999997
 21
-10.29999342885876
 31
0.0
 70
    32
  1
<>
 51
359.9999999999998
  3
AM_JIS$0
100
AcDbAlignedDimension
 13
-51.99999999999995
 23
-4.999992428858787
 33
0.0
 14
-2.0
 24
-4.600008297952033
 34
0.0
 50
0.0000000000001527
100
AcDbRotatedDimension
1001
ACAD
1000
DSTYLE
1002
{
1070
   271
1070
     0
1070
   174
1070
     1
1002
}
1001
GENIUS_GENDTOL_13
1000

1000
h7
1000

1040
0.0
  0
LINE
  5
23EF
330
1F
100
AcDbEntity
  8
AM_7
100
AcDbLine
 10
-110.4999999999999
 20
0.0000000000007097
 30
0.0
 11
2.319900031072559
 21
-0.0000000000000149
 31
0.0
1001
GENIUS_GENODEF_13
1002
{
1000
HIER
1070
     0
1002
}
1002
{
1000
MANEDIT
1070
     0
1002
}
1002
{
1000
NOSEL
1070
     0
1002
}
1002
{
1000
BEHIND
1070
     0
1002
}
1002
{
1000
REACTOR
1002
}
1001
GENIUS_GENOBJ-N-CEN_13
1002
{
1000
OWNER
1000
GEN
1002
}
  0
LINE
  5
24A7
330
1F
100
AcDbEntity
  8
AM_0
 48
0.5
100
AcDbLine
 10
-1.584795172291372
 20
4.170854053486491
 30
0.0
 11
-1.999999999999973
 21
4.600000475638409
 31
0.0
  0
ELLIPSE
  5
24B7
330
1F
100
AcDbEntity
  8
AM_11
 48
0.5
100
AcDbEllipse
 10
-17.32962994420972
 20
20.09720314218303
 30
0.0
 11
-23.19725211461353
 21
0.0000000000001765
 31
0.0
210
0.0
220
0.0
230
1.0
 40
0.9578947368421058
 41
1.130070686340284
 42
2.011520147323574
  0
ELLIPSE
  5
24B8
330
1F
100
AcDbEntity
  8
AM_11
 48
0.5
100
AcDbEllipse
 10
-17.32962994421082
 20
-20.09718855347517
 30
0.0
 11
-23.1972521146135
 21
0.0000000000001044
 31
0.0
210
0.0
220
0.0
230
1.0
 40
0.9578947368421054
 41
4.271664206181664
 42
5.153113667164971
  0
ELLIPSE
  5
24B9
330
1F
100
AcDbEntity
  8
AM_11
 48
0.5
100
AcDbEllipse
 10
2.462036722456961
 20
20.09720314218251
 30
0.0
 11
-23.19725211461348
 21
0.0000000000018145
 31
0.0
210
0.0
220
0.0
230
1.0
 40
0.9578947368421141
 41
1.130070686340349
 42
1.291800737381041
  0
ELLIPSE
  5
24BE
330
1F
100
AcDbEntity
  8
AM_0
 48
0.5
100
AcDbEllipse
 10
6.650934204183245
 20
5.62517483392228
 30
0.0
 11
-8.374499956766587
 21
0.0000000000003389
 31
0.0
210
0.0
220
0.0
230
1.0
 40
0.9578947368421003
 41
0.1823039054871158
 42
0.5318968824397438
  0
ELLIPSE
  5
24C7
330
1F
100
AcDbEntity
  8
AM_11
 48
0.5
100
AcDbEllipse
 10
-76.70462994420415
 20
20.09720314218454
 30
0.0
 11
-23.19725211461353
 21
0.0000000000005165
 31
0.0
210
0.0
220
0.0
230
1.0
 40
0.9578947368421058
 41
1.130070686340301
 42
2.011520147323591
  0
ELLIPSE
  5
24C8
330
1F
100
AcDbEntity
  8
AM_11
 48
0.5
100
AcDbEllipse
 10
-76.70462994420529
 20
-20.09718855347365
 30
0.0
 11
23.1972521146135
 21
0.0000000000003877
 31
0.0
210
0.0
220
0.0
230
1.0
 40
0.957894736842107
 41
1.13007155259185
 42
2.011521013575156
  0
ELLIPSE
  5
24C9
330
1F
100
AcDbEntity
  8
AM_11
 48
0.5
100
AcDbEllipse
 10
-96.49629661087182
 20
-20.09718855347319
 30
0.0
 11
-23.19725211461353
 21
0.0000000000000787
 31
0.0
210
0.0
220
0.0
230
1.0
 40
0.9578947368421061
 41
4.271664206181663
 42
5.153113667164971
  0
ELLIPSE
  5
24CA
330
1F
100
AcDbEntity
  8
AM_11
 48
0.5
100
AcDbEllipse
 10
-96.49629661087068
 20
20.097203142185
 30
0.0
 11
-23.19725211461357
 21
0.0000000000000117
 31
0.0
210
0.0
220
0.0
230
1.0
 40
0.9578947368421045
 41
1.130070686340277
 42
2.011520147323567
  0
ELLIPSE
  5
24D4
330
1F
100
AcDbEntity
  8
AM_11
 48
0.5
100
AcDbEllipse
 10
-56.9129632775375
 20
20.09720314218406
 30
0.0
 11
-23.19725211461356
 21
0.0000000000001353
 31
0.0
210
0.0
220
0.0
230
1.0
 40
0.9578947368421049
 41
1.130070686340283
 42
2.011520147323574
  0
ELLIPSE
  5
24D5
330
1F
100
AcDbEntity
  8
AM_11
 48
0.5
100
AcDbEllipse
 10
-56.9129632775386
 20
-20.09718855347414
 30
0.0
 11
-23.19725211461346
 21
0.0000000000004186
 31
0.0
210
0.0
220
0.0
230
1.0
 40
0.9578947368421083
 41
4.271664206181676
 42
5.153113667164986
  0
ELLIPSE
  5
24E6
330
1F
100
AcDbEntity
  8
AM_11
 48
0.5
100
AcDbEllipse
 10
-37.12129661087749
 20
-20.09718855347466
 30
0.0
 11
-23.19725211461349
 21
0.0000000000006298
 31
0.0
210
0.0
220
0.0
230
1.0
 40
0.957894736842106
 41
4.271664206181685
 42
5.153113667164993
  0
ELLIPSE
  5
24E7
330
1F
100
AcDbEntity
  8
AM_11
 48
0.5
100
AcDbEllipse
 10
-37.12129661087638
 20
20.09720314218353
 30
0.0
 11
23.19725211461354
 21
0.0000000000000375
 31
0.0
210
0.0
220
0.0
230
1.0
 40
0.9578947368421051
 41
4.271663339930067
 42
5.153112800913361
  0
LINE
  5
2567
330
1F
100
AcDbEntity
  8
AM_0
 48
0.5
100
AcDbLine
 10
-107.9999999999999
 20
-4.49999242885898
 30
0.0
 11
-108.0
 21
4.500011279874355
 31
0.0
  0
LINE
  5
2568
330
1F
100
AcDbEntity
  8
AM_0
 48
0.5
100
AcDbLine
 10
-107.4999999999999
 20
-4.999992428859004
 30
0.0
 11
-107.5
 21
5.000011279874357
 31
0.0
  0
LINE
  5
2569
330
1F
100
AcDbEntity
  8
AM_0
 48
0.5
100
AcDbLine
 10
-51.99999999999995
 20
-4.999992428858787
 30
0.0
 11
-51.99999999999999
 21
5.000024525351641
 31
0.0
  0
LINE
  5
256C
330
1F
100
AcDbEntity
  8
AM_0
100
AcDbLine
 10
-107.4999999999999
 20
-4.999992428858978
 30
0.0
 11
-51.99999999999996
 21
-4.999992428858771
 31
0.0
  0
LINE
  5
256E
330
1F
100
AcDbEntity
  8
AM_0
 48
0.5
100
AcDbLine
 10
-51.30721902123898
 20
-4.600008522389185
 30
0.0
 11
-52.00001059638122
 21
-4.999992428858787
 31
0.0
  0
LINE
  5
256F
330
1F
100
AcDbEntity
  8
AM_0
100
AcDbLine
 10
-51.99999999999999
 20
5.000011279874561
 30
0.0
 11
-107.5
 21
5.000011279874357
 31
0.0
  0
LINE
  5
2571
330
1F
100
AcDbEntity
  8
AM_0
 48
0.5
100
AcDbLine
 10
-51.30814193048045
 20
4.599998947663448
 30
0.0
 11
-51.99999999999999
 21
4.999443697290728
 31
0.0
  0
LINE
  5
2572
330
1F
100
AcDbEntity
  8
AM_0
100
AcDbLine
 10
-51.30814193048044
 20
4.599998947663449
 30
0.0
 11
-51.30814193048043
 21
-4.600541364959676
 31
0.0
  0
DIMENSION
  5
2599
330
1F
100
AcDbEntity
  8
AM_5
100
AcDbDimension
  2
*D7
 10
-117.500001
 20
5.000024525351451
 30
0.0
 11
-117.500001
 21
0.0000107500556025
 31
0.0
 70
   160
  1
%%c<>
 51
359.9999999999998
  3
AM_JIS$0
100
AcDbAlignedDimension
 13
-107.4999999999999
 23
-4.999992428858978
 33
0.0
 14
-107.4999999999999
 24
5.000024525351449
 34
0.0
 50
270.0000000000002
100
AcDbRotatedDimension
1001
ACAD
1000
DSTYLE
1002
{
1070
   271
1070
     0
1002
}
1001
GENIUS_GENDTOL_13
1000

1000
h7
1000

1040
0.0
  0
ELLIPSE
  5
278C
330
1F
100
AcDbEntity
  8
AM_11
 48
0.5
100
AcDbEllipse
 10
-116.287959372568
 20
-20.09716981670651
 30
0.0
 11
-23.19725211461353
 21
0.0000000000000787
 31
0.0
210
0.0
220
0.0
230
1.0
 40
0.9578947368421061
 41
4.271664206181663
 42
4.347032845605132
  0
ELLIPSE
  5
278D
330
1F
100
AcDbEntity
  8
AM_11
 48
0.5
100
AcDbEllipse
 10
-116.2879593725669
 20
20.09722187895169
 30
0.0
 11
-23.19725211461357
 21
0.0000000000000117
 31
0.0
210
0.0
220
0.0
230
1.0
 40
0.9578947368421045
 41
1.936152461574404
 42
2.011520147323567
  0
LINE
  5
279A
330
1F
100
AcDbEntity
  8
AM_0
 48
0.5
100
AcDbLine
 10
-107.4999999999999
 20
-4.999992428858978
 30
0.0
 11
-107.9999999999999
 21
-4.49999242885898
 31
0.0
1001
GENIUS_GENFIL_13
1070
     0
1040
0.5
1040
0.5
1040
20.0
1040
0.0
1002
{
1002
}
1001
GENIUS_GENODEF_13
1002
{
1000
HIER
1070
     0
1002
}
1002
{
1000
MANEDIT
1070
     0
1002
}
1002
{
1000
NOSEL
1070
     0
1002
}
1002
{
1000
BEHIND
1070
     0
1002
}
1002
{
1000
REACTOR
1002
}
1001
GENIUS_GENOBJ-N-CHA_13
1002
{
1000
OWNER
1000
GEN
1002
}
  0
LINE
  5
279D
330
1F
100
AcDbEntity
  8
AM_0
 48
0.5
100
AcDbLine
 10
-107.5
 20
5.000011279874357
 30
0.0
 11
-108.0
 21
4.500011279874355
 31
0.0
1001
GENIUS_GENFIL_13
1070
     0
1040
0.5
1040
0.5
1040
20.0
1040
0.0
1002
{
1002
}
1001
GENIUS_GENODEF_13
1002
{
1000
HIER
1070
     0
1002
}
1002
{
1000
MANEDIT
1070
     0
1002
}
1002
{
1000
NOSEL
1070
     0
1002
}
1002
{
1000
BEHIND
1070
     0
1002
}
1002
{
1000
REACTOR
1002
}
1001
GENIUS_GENOBJ-N-CHA_13
1002
{
1000
OWNER
1000
GEN
1002
}
  0
DIMENSION
  5
29BA
330
1F
100
AcDbEntity
  8
AM_5
100
AcDbDimension
  2
*D8
 10
-0.5666112811906948
 20
-1.556740984093225
 30
0.0
 11
12.18115421205262
 21
-0.0000134914807148
 31
0.0
 70
    34
  1
<>
 51
359.9999999999998
  3
AM_JIS$2
100
AcDb2LineAngularDimension
 13
0.0000000000000142
 23
-0.0000000000000091
 33
0.0
 14
-0.5665999554321481
 24
1.556720596349271
 34
0.0
 15
0.0000000000000141
 25
0.0000000000000016
 35
0.0
 16
12.60816294294832
 26
-5.43864166860075
 36
0.0
1001
GENIUS_GENDTOL_13
1000

1000
h7
1000

1040
0.0
1001
ACAD
1000
DSTYLE
1002
{
1070
   271
1070
     1
1070
   179
1070
     1
1002
}
  0
LINE
  5
2BF7
330
1F
100
AcDbEntity
  8
AM_0
 48
0.5
100
AcDbLine
 10
-51.30721902123897
 20
-4.600008522389184
 30
0.0
 11
-47.8606235656178
 21
-4.599999598780939
 31
0.0
  0
LINE
  5
2BF8
330
1F
100
AcDbEntity
  8
AM_0
 48
0.5
100
AcDbLine
 10
-46.09764082594472
 20
4.60009088219096
 30
0.0
 11
-51.30814193048045
 21
4.599998947663449
 31
0.0
  0
LINE
  5
2BF9
330
1F
100
AcDbEntity
  8
AM_0
 48
0.5
100
AcDbLine
 10
-4.472379094804379
 20
4.600000475638486
 30
0.0
 11
-1.999999999999973
 21
4.600000475638409
 31
0.0
  0
LINE
  5
2BFA
330
1F
100
AcDbEntity
  8
AM_0
 48
0.5
100
AcDbLine
 10
-0.0000000000000001
 20
0.0000000000000017
 30
0.0
 11
-2.33441783515362
 21
1.766260749889402
 31
0.0
  0
LINE
  5
2BFC
330
1F
100
AcDbEntity
  8
AM_0
 48
0.5
100
AcDbLine
 10
-4.472379094804654
 20
-4.599999524361515
 30
0.0
 11
-1.999999999999998
 21
-4.60000829816468
 31
0.0
  0
LINE
  5
2BFD
330
1F
100
AcDbEntity
  8
AM_0
 48
0.5
100
AcDbLine
 10
-36.47392404719644
 20
4.600000475639411
 30
0.0
 11
-19.5527738396771
 21
4.600000475638919
 31
0.0
  0
LINE
  5
2BFE
330
1F
100
AcDbEntity
  8
AM_0
 48
0.5
100
AcDbLine
 10
-32.97197925205215
 20
-4.599999524360789
 30
0.0
 11
-19.55276882917984
 21
-4.600008298164715
 31
0.0
  0
LINE
  5
2BFF
330
1F
100
AcDbEntity
  8
AM_11
 48
0.5
100
AcDbLine
 10
-46.09764082594471
 20
4.60065398912103
 30
0.0
 11
-36.47391105854115
 21
4.600000475639411
 31
0.0
  0
LINE
  5
2C00
330
1F
100
AcDbEntity
  8
AM_11
 48
0.5
100
AcDbLine
 10
-47.68146292999628
 20
-4.600233968098049
 30
0.0
 11
-36.47340489064839
 21
-4.600233968098375
 31
0.0
  0
LINE
  5
2C01
330
1F
100
AcDbEntity
  8
AM_0
 48
0.5
100
AcDbLine
 10
-39.08424886067704
 20
2.330500666300766
 30
0.0
 11
-49.49999999999999
 21
-0.3722578684480634
 31
0.0
  0
LINE
  5
2C02
330
1F
100
AcDbEntity
  8
AM_11
 48
0.5
100
AcDbLine
 10
-47.87664436696969
 20
-4.600007139657185
 30
0.0
 11
-32.97197925205216
 21
-4.600653037842118
 31
0.0
  0
LINE
  5
2C03
330
1F
100
AcDbEntity
  8
AM_11
 48
0.5
100
AcDbLine
 10
-19.5527738396771
 20
4.600000475638919
 30
0.0
 11
-4.472379094804379
 21
4.600000475638486
 31
0.0
  0
LINE
  5
2C04
330
1F
100
AcDbEntity
  8
AM_11
 48
0.5
100
AcDbLine
 10
-19.55276882917984
 20
-4.600008298164715
 30
0.0
 11
-4.472379094804654
 21
-4.599999524361515
 31
0.0
  0
SPLINE
  5
2C05
330
1F
100
AcDbEntity
  8
AM_0
 48
0.5
100
AcDbSpline
210
0.0
220
0.0
230
1.0
 70
     8
 71
     3
 72
    17
 73
    13
 74
     0
 42
0.0000000001
 43
0.0000000001
 40
0.0
 40
0.0
 40
0.0
 40
0.0
 40
1.010743614677189
 40
2.022833924044153
 40
3.037578959561199
 40
4.056212747067873
 40
5.079857613375832
 40
6.109500119648989
 40
7.14596120163808
 40
8.18989512056258
 40
9.241717674284874
 40
9.693948937866434
 40
9.693948937866434
 40
9.693948937866434
 40
9.693948937866434
 10
-4.472379094804379
 20
4.600000475638486
 30
0.0
 10
-4.739117933175855
 20
4.597265559415281
 30
0.0
 10
-5.272951007441991
 20
4.591792083020934
 30
0.0
 10
-6.073505333831152
 20
4.547625827151179
 30
0.0
 10
-6.874026701863385
 20
4.477439655087689
 30
0.0
 10
-7.674498284279197
 20
4.379060459830907
 30
0.0
 10
-8.474910547693955
 20
4.253822489084116
 30
0.0
 10
-9.275253715863094
 20
4.102306390900524
 30
0.0
 10
-10.07551704683618
 20
3.925487524512284
 30
0.0
 10
-10.8757315940428
 20
3.72455628006587
 30
0.0
 10
-11.52168564316454
 20
3.543547601896706
 30
0.0
 10
-11.90102773379217
 20
3.430391147854092
 30
0.0
 10
-12.01488587744383
 20
3.395754714774201
 30
0.0
  0
SPLINE
  5
2C06
330
1F
100
AcDbEntity
  8
AM_0
 48
0.5
100
AcDbSpline
210
0.0
220
0.0
230
1.0
 70
     8
 71
     3
 72
    16
 73
    12
 74
     0
 42
0.0000000001
 43
0.0000000001
 40
0.0
 40
0.0
 40
0.0
 40
0.0
 40
1.010743614677189
 40
2.022833924044153
 40
3.037578959561199
 40
4.056212747067873
 40
5.079857613375832
 40
6.109500119648989
 40
7.14596120163808
 40
8.18989512056258
 40
8.545190612624931
 40
8.545190612624931
 40
8.545190612624931
 40
8.545190612624931
 10
-4.472379094804379
 20
4.600000475638486
 30
0.0
 10
-4.739103104233057
 20
4.599972833551873
 30
0.0
 10
-5.272957900378203
 20
4.590534036066973
 30
0.0
 10
-6.073503474139755
 20
4.547964029215558
 30
0.0
 10
-6.874027227342689
 20
4.477348630032732
 30
0.0
 10
-7.674498050176722
 20
4.379084766095795
 30
0.0
 10
-8.474910958230994
 20
4.253816869055244
 30
0.0
 10
-9.275252296827481
 20
4.10230434330316
 30
0.0
 10
-10.07552236252716
 20
3.925501531090777
 30
0.0
 10
-10.69776942994673
 20
3.769199070556654
 30
0.0
 10
-11.05343313125423
 20
3.673069187294924
 30
0.0
 10
-11.14362745956194
 20
3.648262173208296
 30
0.0
  0
SPLINE
  5
2C07
330
1F
100
AcDbEntity
  8
AM_0
 48
0.5
100
AcDbSpline
210
0.0
220
0.0
230
1.0
 70
     8
 71
     3
 72
    25
 73
    21
 74
     0
 42
0.0000000001
 43
0.0000000001
 40
6.846175049578289
 40
6.846175049578289
 40
6.846175049578289
 40
6.846175049578289
 40
7.604337694224321
 40
8.711974558287883
 40
9.814980593243754
 40
10.91239053451967
 40
12.0033633515982
 40
13.08720139956839
 40
14.16337181880432
 40
15.23152222380919
 40
16.29148850140128
 40
17.34331105512262
 40
18.38723020264746
 40
19.42369128463655
 40
20.45333379090873
 40
21.47697865721768
 40
22.49561244472435
 40
23.5103574802404
 40
24.52244778960836
 40
25.53320666051913
 40
25.53320666051913
 40
25.53320666051913
 40
25.53320666051913
 10
-5.406027720893374
 20
0.8326305911523673
 30
0.0
 10
-5.587886413192129
 20
0.9133984100824916
 30
0.0
 10
-6.035814087682407
 20
1.111355660281748
 30
0.0
 10
-6.750476412522553
 20
1.422219804289014
 30
0.0
 10
-7.550155224979856
 20
1.761303624106117
 30
0.0
 10
-8.349874253804008
 20
2.089553809164261
 30
0.0
 10
-9.14964037007186
 20
2.404952092729453
 30
0.0
 10
-9.949462485151656
 20
2.705552625655435
 30
0.0
 10
-10.74934799488563
 20
2.989501634481653
 30
0.0
 10
-11.54930060232246
 20
3.255054047023729
 30
0.0
 10
-12.34933016082606
 20
3.500557245810686
 30
0.0
 10
-13.14943558706092
 20
3.724505796003647
 30
0.0
 10
-13.94962262801644
 20
3.9255022609942
 30
0.0
 10
-14.74988845979572
 20
4.102302704998256
 30
0.0
 10
-15.55022995615601
 20
4.253823467788864
 30
0.0
 10
-16.35064266357303
 20
4.37906019946926
 30
0.0
 10
-17.15111412794644
 20
4.477439724999932
 30
0.0
 10
-17.95163552726832
 20
4.547625806339712
 30
0.0
 10
-18.75219386666412
 20
4.591792318453707
 30
0.0
 10
-19.28603097245698
 20
4.597265624086324
 30
0.0
 10
-19.5527738396771
 20
4.600000475638919
 30
0.0
  0
SPLINE
  5
2C08
330
1F
100
AcDbEntity
  8
AM_0
100
AcDbSpline
210
0.0
220
0.0
230
1.0
 70
     8
 71
     3
 72
    22
 73
    18
 74
     0
 42
0.0000000001
 43
0.0000000001
 40
17.17441611292
 40
17.17441611292
 40
17.17441611292
 40
17.17441611292
 40
17.38177636558528
 40
18.41823744757437
 40
19.46215659509824
 40
20.51397914882054
 40
21.57394542641293
 40
22.64209583141747
 40
23.71826625065247
 40
24.80210429862395
 40
25.8930771157021
 40
26.99048705697709
 40
28.09349309193389
 40
29.20112995599786
 40
30.31233024745139
 40
31.42594771747373
 40
32.5407895042663
 40
32.54078950426994
 40
32.54078950426994
 40
32.54078950426994
 10
-22.60831493201116
 20
-4.130832817546664
 30
0.0
 10
-22.66192123499571
 20
-4.120184268722805
 30
0.0
 10
-22.98326174528092
 20
-4.055322793921598
 30
0.0
 10
-23.57193945265777
 20
-3.925267095036275
 30
0.0
 10
-24.37212643275393
 20
-3.724270943440087
 30
0.0
 10
-25.17223187547651
 20
-3.500322308318596
 30
0.0
 10
-25.97226142952506
 20
-3.254819132580989
 30
0.0
 10
-26.77221403811619
 20
-2.989266713675542
 30
0.0
 10
-27.57209954773892
 20
-2.705317707015445
 30
0.0
 10
-28.37192166208799
 20
-2.404717171834831
 30
0.0
 10
-29.17168778141989
 20
-2.08931889516316
 30
0.0
 10
-29.97140679862677
 20
-1.761068684590896
 30
0.0
 10
-30.77108565478726
 20
-1.421984960589376
 30
0.0
 10
-31.57073239996187
 20
-1.074153823526923
 30
0.0
 10
-32.37035412232303
 20
-0.7197140411742691
 30
0.0
 10
-33.1699626675712
 20
-0.3608526985660627
 30
0.0
 10
-33.70293039534883
 20
-0.1201720082910142
 30
0.0
 10
-33.96956066930957
 20
0.000234443738883
 30
0.0
  0
SPLINE
  5
2C09
330
1F
100
AcDbEntity
  8
AM_0
100
AcDbSpline
210
0.0
220
0.0
230
1.0
 70
     8
 71
     3
 72
    46
 73
    42
 74
     0
 42
0.0000000001
 43
0.0000000001
 40
0.0
 40
0.0
 40
0.0
 40
0.0
 40
1.685415058684571
 40
2.531036209541119
 40
3.379897699130121
 40
4.232934581347655
 40
5.090970612202441
 40
5.954688180526682
 40
6.824620803463246
 40
7.701151815239689
 40
8.584457046566678
 40
9.474582384070741
 40
10.37139106676737
 40
11.27458944007583
 40
12.18373345430765
 40
13.09824173870457
 40
14.01741343450111
 40
14.9404441545541
 40
15.86644439743314
 40
16.79446029130534
 40
17.7234937712985
 40
18.65252725129241
 40
19.58054314516461
 40
20.50654338804289
 40
21.42957410809586
 40
22.34874580389317
 40
23.26325408828901
 40
24.17239810252111
 40
25.07560240389441
 40
25.97241108659103
 40
26.8625364240951
 40
27.74584165542183
 40
28.62236045019041
 40
29.49229307312697
 40
30.35601064145121
 40
31.21404606334468
 40
32.06708345193547
 40
32.91595755657689
 40
33.76157841950693
 40
34.60498701064689
 40
35.44727335621125
 40
35.44727335621125
 40
35.44727335621125
 40
35.44727335621125
 10
-2.231369064693773
 20
-4.599999524361586
 30
0.0
 10
-2.765227995428569
 20
-4.58952036877736
 30
0.0
 10
-3.566939287560527
 20
-4.573783519808073
 30
0.0
 10
-4.633009753924388
 20
-4.476894631717247
 30
0.0
 10
-5.433489637923263
 20
-4.379204858934951
 30
0.0
 10
-6.233901099947828
 20
-4.253787784842036
 30
0.0
 10
-7.03424203144022
 20
-4.102311125699904
 30
0.0
 10
-7.834508320892123
 20
-3.925499068985346
 30
0.0
 10
-8.634698627977741
 20
-3.724503433008228
 30
0.0
 10
-9.434809391567569
 20
-3.500558360727186
 30
0.0
 10
-10.23484221089113
 20
-3.255052842529081
 30
0.0
 10
-11.03479493410342
 20
-2.989500751643285
 30
0.0
 10
-11.83468041287288
 20
-2.705551656529297
 30
0.0
 10
-12.63450253480291
 20
-2.404951143685174
 30
0.0
 10
-13.43426865500379
 20
-2.089552867072072
 30
0.0
 10
-14.23398766098131
 20
-1.761302633508279
 30
0.0
 10
-15.03366656151329
 20
-1.422219002102962
 30
0.0
 10
-15.83331313949312
 20
-1.074387515683007
 30
0.0
 10
-16.63293587345408
 20
-0.7199488732321809
 30
0.0
 10
-17.43254206800204
 20
-0.3610826232530315
 30
0.0
 10
-18.23214154091918
 20
0.0000004755658209
 30
0.0
 10
-19.03174101366065
 20
0.3610835748234625
 30
0.0
 10
-19.83134720873551
 20
0.7199498234868869
 30
0.0
 10
-20.63096994077058
 20
1.074388470746102
 30
0.0
 10
-21.43061652589171
 20
1.422219939333492
 30
0.0
 10
-22.23029539994442
 20
1.761303636860152
 30
0.0
 10
-23.03001450398372
 20
2.08955362555335
 30
0.0
 10
-23.82978200011287
 20
2.40495349360746
 30
0.0
 10
-24.6296072297658
 20
2.705551275343542
 30
0.0
 10
-25.42949413540839
 20
2.989501826451249
 30
0.0
 10
-26.22944683999548
 20
3.255053996352923
 30
0.0
 10
-27.02947637287512
 20
3.500557258565121
 30
0.0
 10
-27.82958180549146
 20
3.724505795086729
 30
0.0
 10
-28.62976884625392
 20
3.925502252153015
 30
0.0
 10
-29.43003467255373
 20
4.102302740894574
 30
0.0
 10
-30.23037619080712
 20
4.253823334236962
 30
0.0
 10
-31.03079276111938
 20
4.379061311139888
 30
0.0
 10
-31.83126852044835
 20
4.47743880172379
 30
0.0
 10
-32.63179380482298
 20
4.547625961078457
 30
0.0
 10
-33.43234814766999
 20
4.591792049628566
 30
0.0
 10
-33.96618121974617
 20
4.597265548290021
 30
0.0
 10
-34.23292005702329
 20
4.600000475639346
 30
0.0
  0
SPLINE
  5
2C0A
330
1F
100
AcDbEntity
  8
AM_0
100
AcDbSpline
210
0.0
220
0.0
230
1.0
 70
     8
 71
     3
 72
    23
 73
    19
 74
     0
 42
0.0000000001
 43
0.0000000001
 40
16.03460024169435
 40
16.03460024169435
 40
16.03460024169435
 40
16.03460024169435
 40
16.35212704903564
 40
17.38177054169784
 40
18.41822485651776
 40
19.46214173629503
 40
20.51396345435107
 40
21.57393551351153
 40
22.64208202342361
 40
23.7182574881101
 40
24.80209208578934
 40
25.89306333925047
 40
26.99048218457928
 40
28.09348763352352
 40
29.20111863782268
 40
30.31232390128032
 40
31.42594612798585
 40
32.5407912310448
 40
32.5407912310486
 40
32.5407912310486
 40
32.5407912310486
 10
-46.09764082594471
 20
4.600653989121029
 30
0.0
 10
-46.01539363804444
 20
4.585125199179261
 30
0.0
 10
-45.66679391500755
 20
4.517501689656471
 30
0.0
 10
-45.05273174871632
 20
4.385003743395194
 30
0.0
 10
-44.25751963584808
 20
4.187980746288098
 30
0.0
 10
-43.4630461533945
 20
3.966756760945631
 30
0.0
 10
-42.66926435528395
 20
3.72261211895895
 30
0.0
 10
-41.87614606879367
 20
3.456907932172816
 30
0.0
 10
-41.08364545358752
 20
3.17116307776984
 30
0.0
 10
-40.29170732293485
 20
2.867040519127624
 30
0.0
 10
-39.50028667606675
 20
2.546262484564282
 30
0.0
 10
-38.70932006192017
 20
2.210695506719981
 30
0.0
 10
-37.91874338149613
 20
1.862290045851113
 30
0.0
 10
-37.12850396092526
 20
1.503049287296741
 30
0.0
 10
-36.33853568183512
 20
1.135062166871842
 30
0.0
 10
-35.54876537643247
 20
0.7604774593833336
 30
0.0
 10
-34.75912873512045
 20
0.3814657817771505
 30
0.0
 10
-34.23284570499669
 20
0.1273591760865412
 30
0.0
 10
-33.96956066930604
 20
0.0002344437372303
 30
0.0
  0
SPLINE
  5
2C0B
330
1F
100
AcDbEntity
  8
AM_0
100
AcDbSpline
210
0.0
220
0.0
230
1.0
 70
     8
 71
     3
 72
    55
 73
    51
 74
     0
 42
0.0000000001
 43
0.0000000001
 40
0.0
 40
0.0
 40
0.0
 40
0.0
 40
1.010743684496582
 40
2.022833576467832
 40
3.037578957496688
 40
4.056212745003489
 40
5.079857003664532
 40
6.109500240690281
 40
7.145961322679372
 40
8.189895241603872
 40
9.241717795325891
 40
10.30168407291828
 40
11.36983447792315
 40
12.44600489715814
 40
13.52984294512926
 40
14.62081576220742
 40
15.7182257034828
 40
16.82123173843959
 40
17.92886860250316
 40
19.0400688939571
 40
20.15368796660465
 40
21.26852814259644
 40
22.38336992938901
 40
23.49698739941135
 40
24.6081876908653
 40
25.71582455492886
 40
26.81883757994213
 40
27.91624752121713
 40
29.00722033829659
 40
30.09105838626677
 40
31.16722880550176
 40
32.23537921050758
 40
33.29534548809967
 40
34.347168041821
 40
35.39108718934584
 40
36.42754827133493
 40
37.45720575381954
 40
38.48085062012849
 40
39.49948440763516
 40
40.51422944315121
 40
41.52631975251916
 40
42.53706336719636
 40
43.54780698187354
 40
44.55989729124051
 40
45.57464232675757
 40
46.59327611426424
 40
47.6169209805722
 40
48.64656348684535
 40
49.68302456883444
 40
50.58557219878025
 40
50.58557219878025
 40
50.58557219878025
 40
50.58557219878025
 10
-4.472379094804654
 20
-4.599999524361516
 30
0.0
 10
-4.739117884632858
 20
-4.597262635803323
 30
0.0
 10
-5.272950733145424
 20
-4.591785213430597
 30
0.0
 10
-6.073505733965389
 20
-4.547631039928055
 30
0.0
 10
-6.87402656211083
 20
-4.477437438415988
 30
0.0
 10
-7.674497845876287
 20
-4.379058436233158
 30
0.0
 10
-8.474911597818429
 20
-4.253827257477153
 30
0.0
 10
-9.275252027563523
 20
-4.10230078524296
 30
0.0
 10
-10.07552181221482
 20
-3.925499755856159
 30
0.0
 10
-10.87571385499667
 20
-3.724506814227912
 30
0.0
 10
-11.67582270514288
 20
-3.500556044826787
 30
0.0
 10
-12.47585235075375
 20
-3.255053163482233
 30
0.0
 10
-13.27580493446821
 20
-2.989500664658645
 30
0.0
 10
-14.07569045105304
 20
-2.705551680116138
 30
0.0
 10
-14.87551256268209
 20
-2.404951137202588
 30
0.0
 10
-15.67527868589615
 20
-2.089552869196116
 30
0.0
 10
-16.47499769020972
 20
-1.761302631537928
 30
0.0
 10
-17.27467659438383
 20
-1.422219007883023
 30
0.0
 10
-18.07432315939332
 20
-1.074387494423664
 30
0.0
 10
-18.87394594179624
 20
-0.7199489528007462
 30
0.0
 10
-19.67355195504553
 20
-0.3610823255066884
 30
0.0
 10
-20.47315249081673
 20
-0.0000004629281515
 30
0.0
 10
-21.27274943705056
 20
0.3610878993489408
 30
0.0
 10
-22.07235813040492
 20
0.7199489381403874
 30
0.0
 10
-22.8719799256628
 20
1.074388552628593
 30
0.0
 10
-23.67162791643326
 20
1.422221391170982
 30
0.0
 10
-24.47131013805906
 20
1.7613021210267
 30
0.0
 10
-25.27103040454051
 20
2.089554023370314
 30
0.0
 10
-26.07079664321419
 20
2.404952035621309
 30
0.0
 10
-26.87061872574028
 20
2.705552641750023
 30
0.0
 10
-27.6705042443733
 20
2.989501626707893
 30
0.0
 10
-28.47045684846317
 20
3.255054062033875
 30
0.0
 10
-29.27048641150225
 20
3.500557194059457
 30
0.0
 10
-30.07059182307454
 20
3.724505985978154
 30
0.0
 10
-30.87077891759283
 20
3.925501560112468
 30
0.0
 10
-31.67104840538558
 20
4.102306144745547
 30
0.0
 10
-32.47139454982956
 20
4.253815310553202
 30
0.0
 10
-33.27181094611256
 20
4.379085251006375
 30
0.0
 10
-34.07228246717352
 20
4.477347637580159
 30
0.0
 10
-34.87280385154516
 20
4.547967499263857
 30
0.0
 10
-35.67335817358989
 20
4.590521186209993
 30
0.0
 10
-36.47393008733036
 20
4.60473696495759
 30
0.0
 10
-37.27450199989287
 20
4.590521186187749
 30
0.0
 10
-38.07505632547825
 20
4.547967499353355
 30
0.0
 10
-38.87557769681423
 20
4.47734763724329
 30
0.0
 10
-39.67604926674905
 20
4.379085252272817
 30
0.0
 10
-40.4764615771142
 20
4.253815916502954
 30
0.0
 10
-41.27680456849902
 20
4.102307693845122
 30
0.0
 10
-42.0406875394045
 20
3.933527368898425
 30
0.0
 10
-42.53630351027456
 20
3.810096721670815
 30
0.0
 10
-42.76624043417023
 20
3.749942945967217
 30
0.0
  0
SPLINE
  5
2C0C
330
1F
100
AcDbEntity
  8
AM_0
 48
0.5
100
AcDbSpline
210
0.0
220
0.0
230
1.0
 70
     8
 71
     3
 72
    10
 73
     6
 74
     0
 42
0.0000000001
 43
0.0000000001
 40
0.0
 40
0.0
 40
0.0
 40
0.0
 40
2.69986029516136
 40
4.147722969032201
 40
6.285750005020438
 40
6.285750005020438
 40
6.285750005020438
 40
6.285750005020438
 10
-5.40589972977361
 20
0.8325759557816525
 30
0.0
 10
-4.836128572894446
 20
0.4052041683489837
 30
0.0
 10
-3.96080442419124
 20
-0.2513556478117617
 30
0.0
 10
-1.89078039691734
 20
0.0664964611492262
 30
0.0
 10
-2.280626131614033
 20
1.137064422224174
 30
0.0
 10
-2.33441783515362
 20
1.766260749889402
 30
0.0
  0
SPLINE
  5
2C0D
330
1F
100
AcDbEntity
  8
AM_0
 48
0.5
100
AcDbSpline
210
0.0
220
0.0
230
1.0
 70
     8
 71
     3
 72
    26
 73
    22
 74
     0
 42
0.0000000001
 43
0.0000000001
 40
0.0
 40
0.0
 40
0.0
 40
0.0
 40
0.8422864037471089
 40
1.685694647057321
 40
2.531315797913884
 40
3.380177287502886
 40
4.233214169721234
 40
5.09125020057522
 40
5.954967768899448
 40
6.824900391836836
 40
7.701419186604396
 40
8.584724417931369
 40
9.47485577056355
 40
10.37165251267315
 40
11.27486274211709
 40
12.18400675634887
 40
13.09851504074504
 40
14.01768673654235
 40
14.94071745659532
 40
15.8667176994736
 40
16.76607142455336
 40
16.76607142455336
 40
16.76607142455336
 40
16.76607142455336
 10
-34.32396888732942
 20
-4.600233968098435
 30
0.0
 10
-34.5907076771897
 20
-4.597497079659512
 30
0.0
 10
-35.12454052576674
 20
-4.592019657525453
 30
0.0
 10
-35.92509552610415
 20
-4.54786548222946
 30
0.0
 10
-36.72561635609091
 20
-4.477671887560715
 30
0.0
 10
-37.52608763293504
 20
-4.379292859654249
 30
0.0
 10
-38.32650141090424
 20
-4.254061777629519
 30
0.0
 10
-39.12684174265111
 20
-4.102534941178645
 30
0.0
 10
-39.92710809574483
 20
-3.92573612440148
 30
0.0
 10
-40.72729501238653
 20
-3.724739114268123
 30
0.0
 10
-41.52740060085684
 20
-3.500791063643587
 30
0.0
 10
-42.32743144605465
 20
-3.255285843822266
 30
0.0
 10
-43.12738423291341
 20
-2.98973937040184
 30
0.0
 10
-43.92726802512347
 20
-2.705780571298829
 30
0.0
 10
-44.72709351768233
 20
-2.40518869963025
 30
0.0
 10
-45.52686243871252
 20
-2.089787223153197
 30
0.0
 10
-46.32658075007108
 20
-1.761535659044382
 30
0.0
 10
-47.12626313764378
 20
-1.422459248584369
 30
0.0
 10
-47.92589638579147
 20
-1.074600049447024
 30
0.0
 10
-48.71731566318112
 20
-0.7239225974685573
 30
0.0
 10
-49.24166071074193
 20
-0.4883350253717257
 30
0.0
 10
-49.5000060399377
 20
-0.3722607930491043
 30
0.0
  0
SPLINE
  5
2C0E
330
1F
100
AcDbEntity
  8
AM_0
 48
0.5
100
AcDbSpline
210
0.0
220
0.0
230
1.0
 70
     8
 71
     3
 72
    22
 73
    18
 74
     0
 42
0.0000000001
 43
0.0000000001
 40
0.0
 40
0.0
 40
0.0
 40
0.0
 40
1.010743684496582
 40
2.022833993863546
 40
3.037578683882831
 40
4.056212471389632
 40
5.079857945358201
 40
6.109499720892564
 40
7.145961650132166
 40
8.189873411961459
 40
9.241710626092514
 40
10.30166235592959
 40
11.36982472628033
 40
12.44598212828784
 40
13.52983440361964
 40
14.62080578343036
 40
14.90544694398022
 40
14.90544694398022
 40
14.90544694398022
 40
14.90544694398022
 10
-36.56497891744028
 20
-4.600233968098375
 30
0.0
 10
-36.83171775823771
 20
-4.597497897191187
 30
0.0
 10
-37.36555081890883
 20
-4.592022110079633
 30
0.0
 10
-38.1661049808975
 20
-4.547855636923833
 30
0.0
 10
-38.96662667529113
 20
-4.477673852754493
 30
0.0
 10
-39.7670983846952
 20
-4.379294759880446
 30
0.0
 10
-40.56750995657658
 20
-4.25405189760031
 30
0.0
 10
-41.36785304080222
 20
-4.102538162460228
 30
0.0
 10
-42.16811590950531
 20
-3.925732920995808
 30
0.0
 10
-42.96830406557261
 20
-3.724733000837806
 30
0.0
 10
-43.76841030213207
 20
-3.500793411885067
 30
0.0
 10
-44.5684388004603
 20
-3.255277075701283
 30
0.0
 10
-45.36839471780158
 20
-2.989746324985027
 30
0.0
 10
-46.16827745329515
 20
-2.705779728808539
 30
0.0
 10
-46.96810199180162
 20
-2.405186282956292
 30
0.0
 10
-47.56922602776913
 20
-2.168135827893844
 30
0.0
 10
-47.90419331765755
 20
-2.032645407562049
 30
0.0
 10
-47.97345341469611
 20
-2.004491704223227
 30
0.0
  0
SPLINE
  5
2C0F
330
1F
100
AcDbEntity
  8
AM_0
100
AcDbSpline
210
0.0
220
0.0
230
1.0
 70
     8
 71
     3
 72
    11
 73
     7
 74
     0
 42
0.0000000001
 43
0.0000000001
 40
11.27226913003534
 40
11.27226913003534
 40
11.27226913003534
 40
11.2722691300354
 40
12.28301561507924
 40
13.29510212255852
 40
14.30984805882082
 40
15.18258238371378
 40
15.18258238371378
 40
15.18258238371378
 40
15.18258238371378
 10
-19.55276882917988
 20
-4.600008298164715
 30
0.0
 10
-19.81849835380252
 20
-4.577485787609803
 30
0.0
 10
-20.34944617508991
 20
-4.522981010772792
 30
0.0
 10
-21.14312619145477
 20
-4.413031394167965
 30
0.0
 10
-21.89634252174297
 20
-4.281708632638785
 30
0.0
 10
-22.3834786312618
 20
-4.180756917435205
 30
0.0
 10
-22.60796482171611
 20
-4.130889558511489
 30
0.0
  0
SPLINE
  5
2C10
330
1F
100
AcDbEntity
  8
AM_0
100
AcDbSpline
210
0.0
220
0.0
230
1.0
 70
     8
 71
     3
 72
    17
 73
    13
 74
     0
 42
0.0000000001
 43
0.0000000001
 40
1.580019955310467
 40
1.580019955310467
 40
1.580019955310467
 40
1.580019955310467
 40
2.030549285115227
 40
3.082371838836284
 40
4.126290986361125
 40
5.162752068350215
 40
6.192395305374981
 40
7.216039564037012
 40
8.234688489606833
 40
9.249433870634691
 40
10.26152376260694
 40
11.27226744710342
 40
11.27226744710342
 40
11.27226744710342
 40
11.27226744710352
 10
-12.01198818556024
 20
-3.394934978676955
 30
0.0
 10
-12.12525335569863
 20
-3.429899993554867
 30
0.0
 10
-12.50359707677608
 20
-3.544502500062532
 30
0.0
 10
-13.14952363397164
 20
-3.72426063206864
 30
0.0
 10
-13.94959922987099
 20
-3.92556589336808
 30
0.0
 10
-14.74989508583283
 20
-4.10228518515824
 30
0.0
 10
-15.5502276110714
 20
-4.25382504433908
 30
0.0
 10
-16.35064733110422
 20
-4.37908316265662
 30
0.0
 10
-17.1511223498387
 20
-4.47734474726081
 30
0.0
 10
-17.95164721255557
 20
-4.547973030204696
 30
0.0
 10
-18.75220219639532
 20
-4.590513369028752
 30
0.0
 10
-19.2860350533682
 20
-4.599999550682538
 30
0.0
 10
-19.55276882917984
 20
-4.600008298164715
 30
0.0
  0
SPLINE
  5
2C11
330
1F
100
AcDbEntity
  8
AM_0
100
AcDbSpline
210
0.0
220
0.0
230
1.0
 70
     8
 71
     3
 72
    13
 73
     9
 74
     0
 42
0.0000000001
 43
0.0000000001
 40
16.03460056234195
 40
16.03460056234195
 40
16.03460056234195
 40
16.03460056234195
 40
16.35212717791071
 40
17.38177067057215
 40
18.41822498539278
 40
19.46214186516937
 40
20.5139635832251
 40
21.34083983469381
 40
21.34083983469381
 40
21.34083983469381
 40
21.34083983469381
 10
-47.85945617326754
 20
-4.600008973530229
 30
0.0
 10
-47.6904221074531
 20
-4.585123985220017
 30
0.0
 10
-47.34182209595711
 20
-4.517502331068312
 30
0.0
 10
-46.72776026440063
 20
-4.385002837862434
 30
0.0
 10
-45.93254805145853
 20
-4.187980387052956
 30
0.0
 10
-45.13807459610695
 20
-3.966756253763883
 30
0.0
 10
-44.40292529254656
 20
-3.740645334089687
 30
0.0
 10
-43.9339129827841
 20
-3.584951874415019
 30
0.0
 10
-43.72816009347927
 20
-3.514577011963005
 30
0.0
  0
ELLIPSE
  5
2C12
330
1F
100
AcDbEntity
  8
AM_0
 48
0.5
100
AcDbEllipse
 10
-8.222483968016813
 20
7.798452598644411
 30
0.0
 11
10.01429808043717
 21
8.20872767002195
 31
0.0
210
0.0
220
0.0
230
1.0
 40
0.8735629988703966
 41
4.710844878509641
 42
4.821912397927498
  0
ELLIPSE
  5
2C13
330
1F
100
AcDbEntity
  8
AM_0
 48
0.5
100
AcDbEllipse
 10
-5.398042737136702
 20
4.692869668389994
 30
0.0
 11
0.0000000000056139
 21
7.146783837316569
 31
0.0
210
0.0
220
0.0
230
1.0
 40
0.9891304347826196
 41
3.517054509083468
 42
3.681821570856967
  0
ELLIPSE
  5
2C14
330
1F
100
AcDbEntity
  8
AM_0
 48
0.5
100
AcDbEllipse
 10
-1.415152657029683
 20
-1.197194241235434
 30
0.0
 11
-0.1391924670977117
 21
0.7544454784158342
 31
0.0
210
0.0
220
0.0
230
0.9999999999999998
 40
0.5144402813671605
 41
1.796950803950726
 42
4.932292693662702
  0
ELLIPSE
  5
2C15
330
1F
100
AcDbEntity
  8
AM_0
 48
0.5
100
AcDbEllipse
 10
-1.415220911579942
 20
-1.198825742013271
 30
0.0
 11
-0.6890621821538313
 21
0.3772858599166722
 31
0.0
210
0.0
220
0.0
230
0.9999999999999998
 40
0.4917327715138061
 41
4.465806703923453
 42
7.609247045252965
  0
ELLIPSE
  5
2C16
330
1F
100
AcDbEntity
  8
AM_0
 48
0.5
100
AcDbEllipse
 10
2.852144195194593
 20
5.522583483450749
 30
0.0
 11
-9.573362588882311
 21
0.0000000000007637
 31
0.0
210
0.0
220
0.0
230
1.0
 40
0.9684210526315794
 41
0.5303675532341457
 42
0.9384884834290376
  0
ELLIPSE
  5
2C17
330
1F
100
AcDbEntity
  8
AM_0
 48
0.5
100
AcDbEllipse
 10
4.755094354391827
 20
-1.228497736837412
 30
0.0
 11
7.577572803793536
 21
0.5292177056032101
 31
0.0
210
0.0
220
0.0
230
1.0
 40
0.9605573454026124
 41
3.1688728237523
 42
3.549242632072856
  0
ELLIPSE
  5
2C18
330
1F
100
AcDbEntity
  8
AM_0
 48
0.5
100
AcDbEllipse
 10
-47.91676680352919
 20
-3.066900634764732
 30
0.0
 11
-1.436341360038344
 21
0.7100728556806504
 31
0.0
210
0.0
220
0.0
230
1.0
 40
0.9460218864713347
 41
0.4927878317971799
 42
2.044404140247533
  0
ELLIPSE
  5
2C19
330
1F
100
AcDbEntity
  8
AM_0
 48
0.5
100
AcDbEllipse
 10
-48.31289005385432
 20
-3.113618214924162
 30
0.0
 11
1.179593218449827
 21
0.1428541962393179
 31
0.0
210
0.0
220
0.0
230
1.0
 40
0.9716863234417798
 41
1.163833357615898
 42
2.992079539877709
  0
ELLIPSE
  5
2C43
330
1F
100
AcDbEntity
  8
AM_0
 48
0.5
100
AcDbEllipse
 10
6.650934204183218
 20
-5.625174833922331
 30
0.0
 11
-8.374499956766587
 21
-0.0000000000002981
 31
0.0
210
0.0
220
0.0
230
-1.0
 40
0.9578947368421003
 41
0.1823039054871158
 42
0.5318968824397438
  0
LINE
  5
2C44
330
1F
100
AcDbEntity
  8
AM_0
 48
0.5
100
AcDbLine
 10
-1.584795172291392
 20
-4.170854053486502
 30
0.0
 11
-1.999999999999996
 21
-4.600000475638418
 31
0.0
  0
DIMENSION
  5
2C54
330
1F
100
AcDbEntity
  8
AM_5
100
AcDbDimension
  2
*D9
 10
9.319901031072259
 20
-4.600008298164683
 30
0.0
 11
7.61990103107226
 21
-0.0000039112631368
 31
0.0
 70
    32
  1
%%c<>
 51
359.9999999999998
  3
AM_JIS$0
100
AcDbAlignedDimension
 13
-1.999999999999974
 23
4.600000475638409
 33
0.0
 14
-1.999999999999942
 24
-4.60000829816468
 34
0.0
 50
89.9999999999982
100
AcDbRotatedDimension
1001
ACAD
1000
DSTYLE
1002
{
1070
   271
1070
     1
1002
}
1001
GENIUS_GENDTOL_13
1000

1000
h7
1000

1040
0.0
  0
VIEWPORT
  5
110
330
101
100
AcDbEntity
 67
     1
  8
0
100
AcDbViewport
 10
420.5
 20
297.0
 30
0.0
 40
948.9782706766916
 41
628.452
 68
     1
 69
     1
1001
ACAD
1000
MVIEW
1002
{
1070
    16
1010
0.0
1020
0.0
1030
0.0
1010
0.0
1020
0.0
1030
1.0
1040
0.0
1040
628.452
1040
420.5
1040
297.0
1040
50.0
1040
0.0
1040
0.0
1070
     0
1070
   100
1070
     1
1070
     1
1070
     0
1070
     0
1070
     0
1070
     0
1040
0.0
1040
0.0
1040
0.0
1040
10.0
1040
10.0
1040
10.0
1040
10.0
1070
     0
1002
{
1002
}
1002
}
  0
ENDSEC
  0
SECTION
  2
OBJECTS
  0
DICTIONARY
  5
C
330
0
100
AcDbDictionary
  3
ACAD_GROUP
350
D
  3
ACAD_LAYOUT
350
1A
  3
ACAD_MLINESTYLE
350
17
  3
ACAD_PLOTSETTINGS
350
19
  3
ACAD_PLOTSTYLENAME
350
E
  3
ACDBVARIABLEDICTIONARY
350
34
  3
ACMDICTIONARY
350
43
  3
AMG
350
2B
  3
AMGSNAPSETTINGS
350
6E
  3
DWGPROPS
350
2D58
  3
ACDBHEADERROUNDTRIPXREC
350
2D64
  0
DICTIONARY
  5
74
330
1F
100
AcDbDictionary
280
     1
  3
ACAD_INDEX
360
2D5A
  3
ACAD_LAYOUTSELFREF
360
2D87
  0
DICTIONARY
  5
2D8C
330
101
100
AcDbDictionary
280
     1
  3
ACAD_LAYOUTSELFREF
360
2D8D
  0
DICTIONARY
  5
D
102
{ACAD_REACTORS
330
C
102
}
330
C
100
AcDbDictionary
  0
DICTIONARY
  5
1A
102
{ACAD_REACTORS
330
C
102
}
330
C
100
AcDbDictionary
  0
DICTIONARY
  5
17
102
{ACAD_REACTORS
330
C
102
}
330
C
100
AcDbDictionary
  3
STANDARD
350
18
  0
DICTIONARY
  5
19
102
{ACAD_REACTORS
330
C
102
}
330
C
100
AcDbDictionary
  0
ACDBDICTIONARYWDFLT
  5
E
102
{ACAD_REACTORS
330
C
102
}
330
C
100
AcDbDictionary
281
     1
  3
Normal
350
F
100
AcDbDictionaryWithDefault
340
F
  0
DICTIONARY
  5
34
102
{ACAD_REACTORS
330
C
102
}
330
C
100
AcDbDictionary
  3
INDEXCTL
350
35
  3
SORTENTS
350
B5E
  0
DICTIONARY
  5
43
102
{ACAD_REACTORS
330
C
102
}
330
C
100
AcDbDictionary
  3
ACMSTDDICTIONARY
350
260
  0
DICTIONARY
  5
2B
102
{ACAD_REACTORS
330
C
102
}
330
C
100
AcDbDictionary
  3
ACMGSETTINGS
350
2C
  0
DICTIONARY
  5
6E
102
{ACAD_REACTORS
330
C
102
}
330
C
100
AcDbDictionary
  0
XRECORD
  5
2D58
102
{ACAD_REACTORS
330
C
102
}
330
C
100
AcDbXrecord
  1
DWGPROPS COOKIE
  2

  3

  4

  6

  7

  8

  9

300
AmdtFileType=82
301
=
302
=
303
=
304
=
305
=
306
=
307
=
308
=
309
=
 40
0.0517308680555556
 41
2452800.443498622
 42
2452946.617330729
  1

 90
        1
  0
DICTIONARY
  5
2D64
102
{ACAD_REACTORS
330
C
102
}
330
C
100
AcDbDictionary
  3
TSTACKALIGN
350
2D65
  3
TSTACKSIZE
350
2D66
  3
HYPERLINKBASE
350
2D67
  3
STYLESHEET
350
2D68
  3
LAYOUTDICT
350
2D69
  3
PLOTSETDICT
350
2D6A
  3
PLOTSTYLNAMDICT
350
2D6B
  3
LWETCUNION
350
2D6C
  3
INSUNITS
350
2D6D
  3
CEPSNTYPE
350
2D6E
  3
FINGERPRINTGUID
350
2D6F
  3
VERSIONGUID
350
2D70
  3
PSVPSCALE
350
2D71
  3
DIMSTYLEDATA
350
2D72
  3
PUCSORTHOREF
350
2D73
  3
PUCSORTHOVIEW
350
2D74
  3
PUCSBASE
350
2D75
  3
PUCSORGTOP
350
2D76
  3
PUCSORGBOTTOM
350
2D77
  3
PUCSORGLEFT
350
2D78
  3
PUCSORGRIGHT
350
2D79
  3
PUCSORGFRONT
350
2D7A
  3
PUCSORGBACK
350
2D7B
  3
UCSORTHOREF
350
2D7C
  3
UCSORTHOVIEW
350
2D7D
  3
UCSBASE
350
2D7E
  3
UCSORGTOP
350
2D7F
  3
UCSORGBOTTOM
350
2D80
  3
UCSORGLEFT
350
2D81
  3
UCSORGRIGHT
350
2D82
  3
UCSORGFRONT
350
2D83
  3
UCSORGBACK
350
2D84
  0
DICTIONARY
  5
2D5A
102
{ACAD_REACTORS
330
74
102
}
330
74
100
AcDbDictionary
  3
*A1
350
2D5B
  0
XRECORD
  5
2D87
102
{ACAD_REACTORS
330
74
102
}
330
74
100
AcDbXrecord
340
1F
  0
XRECORD
  5
2D8D
102
{ACAD_REACTORS
330
2D8C
102
}
330
2D8C
100
AcDbXrecord
340
101
  0
MLINESTYLE
  5
18
102
{ACAD_REACTORS
330
17
102
}
330
17
100
AcDbMlineStyle
  2
STANDARD
 70
     0
  3

 62
   256
 51
90.0
 52
90.0
 71
     2
 49
0.5
 62
   256
  6
BYLAYER
 49
-0.5
 62
   256
  6
BYLAYER
  0
ACDBPLACEHOLDER
  5
F
102
{ACAD_REACTORS
330
E
102
}
330
E
100
AcDbPlaceHolder
280
     0
  0
DICTIONARYVAR
  5
35
102
{ACAD_REACTORS
330
34
102
}
330
34
100
DictionaryVariables
280
     0
  1
1
  0
DICTIONARYVAR
  5
B5E
102
{ACAD_REACTORS
330
34
102
}
330
34
100
DictionaryVariables
280
     0
  1
96
  0
DICTIONARY
  5
260
102
{ACAD_REACTORS
330
43
102
}
330
43
100
AcDbDictionary
  0
DICTIONARY
  5
2C
102
{ACAD_REACTORS
330
2B
102
}
330
2B
100
AcDbDictionary
  3
DWGSETTINGS
350
2D
  0
XRECORD
  5
2D65
102
{ACAD_REACTORS
330
2D64
102
}
330
2D64
100
AcDbXrecord
 90
        1
  0
XRECORD
  5
2D66
102
{ACAD_REACTORS
330
2D64
102
}
330
2D64
100
AcDbXrecord
 90
       70
  0
XRECORD
  5
2D67
102
{ACAD_REACTORS
330
2D64
102
}
330
2D64
100
AcDbXrecord
  1

  0
XRECORD
  5
2D68
102
{ACAD_REACTORS
330
2D64
102
}
330
2D64
100
AcDbXrecord
  1
ASAMI.ctb
  0
XRECORD
  5
2D69
102
{ACAD_REACTORS
330
2D64
102
}
330
2D64
100
AcDbXrecord
340
1A
  0
XRECORD
  5
2D6A
102
{ACAD_REACTORS
330
2D64
102
}
330
2D64
100
AcDbXrecord
340
19
  0
XRECORD
  5
2D6B
102
{ACAD_REACTORS
330
2D64
102
}
330
2D64
100
AcDbXrecord
340
E
  0
XRECORD
  5
2D6C
102
{ACAD_REACTORS
330
2D64
102
}
330
2D64
100
AcDbXrecord
 90
    10781
  0
XRECORD
  5
2D6D
102
{ACAD_REACTORS
330
2D64
102
}
330
2D64
100
AcDbXrecord
 90
        4
  0
XRECORD
  5
2D6E
102
{ACAD_REACTORS
330
2D64
102
}
330
2D64
100
AcDbXrecord
 90
        0
  0
XRECORD
  5
2D6F
102
{ACAD_REACTORS
330
2D64
102
}
330
2D64
100
AcDbXrecord
  1
{AFB28963-8C59-40AE-9337-C84526B81ACE}
  0
XRECORD
  5
2D70
102
{ACAD_REACTORS
330
2D64
102
}
330
2D64
100
AcDbXrecord
  1
{FE4A853B-6666-485F-8D79-CAAF376BF890}
  0
XRECORD
  5
2D71
102
{ACAD_REACTORS
330
2D64
102
}
330
2D64
100
AcDbXrecord
 40
0.0
  0
XRECORD
  5
2D72
102
{ACAD_REACTORS
330
2D64
102
}
330
2D64
100
AcDbXrecord
1000
DSTYLE
1002
{
1070
    79
 70
     2
1070
   341
340
59
1070
   342
340
59
1070
   371
 70
    -1
1070
   372
 70
    -1
1002
}
  0
XRECORD
  5
2D73
102
{ACAD_REACTORS
330
2D64
102
}
330
2D64
100
AcDbXrecord
340
0
  0
XRECORD
  5
2D74
102
{ACAD_REACTORS
330
2D64
102
}
330
2D64
100
AcDbXrecord
 70
     0
  0
XRECORD
  5
2D75
102
{ACAD_REACTORS
330
2D64
102
}
330
2D64
100
AcDbXrecord
340
0
  0
XRECORD
  5
2D76
102
{ACAD_REACTORS
330
2D64
102
}
330
2D64
100
AcDbXrecord
 10
0.0
 20
0.0
 30
0.0
  0
XRECORD
  5
2D77
102
{ACAD_REACTORS
330
2D64
102
}
330
2D64
100
AcDbXrecord
 10
0.0
 20
0.0
 30
0.0
  0
XRECORD
  5
2D78
102
{ACAD_REACTORS
330
2D64
102
}
330
2D64
100
AcDbXrecord
 10
0.0
 20
0.0
 30
0.0
  0
XRECORD
  5
2D79
102
{ACAD_REACTORS
330
2D64
102
}
330
2D64
100
AcDbXrecord
 10
0.0
 20
0.0
 30
0.0
  0
XRECORD
  5
2D7A
102
{ACAD_REACTORS
330
2D64
102
}
330
2D64
100
AcDbXrecord
 10
0.0
 20
0.0
 30
0.0
  0
XRECORD
  5
2D7B
102
{ACAD_REACTORS
330
2D64
102
}
330
2D64
100
AcDbXrecord
 10
0.0
 20
0.0
 30
0.0
  0
XRECORD
  5
2D7C
102
{ACAD_REACTORS
330
2D64
102
}
330
2D64
100
AcDbXrecord
340
0
  0
XRECORD
  5
2D7D
102
{ACAD_REACTORS
330
2D64
102
}
330
2D64
100
AcDbXrecord
 70
     0
  0
XRECORD
  5
2D7E
102
{ACAD_REACTORS
330
2D64
102
}
330
2D64
100
AcDbXrecord
340
0
  0
XRECORD
  5
2D7F
102
{ACAD_REACTORS
330
2D64
102
}
330
2D64
100
AcDbXrecord
 10
0.0
 20
0.0
 30
0.0
  0
XRECORD
  5
2D80
102
{ACAD_REACTORS
330
2D64
102
}
330
2D64
100
AcDbXrecord
 10
0.0
 20
0.0
 30
0.0
  0
XRECORD
  5
2D81
102
{ACAD_REACTORS
330
2D64
102
}
330
2D64
100
AcDbXrecord
 10
0.0
 20
0.0
 30
0.0
  0
XRECORD
  5
2D82
102
{ACAD_REACTORS
330
2D64
102
}
330
2D64
100
AcDbXrecord
 10
0.0
 20
0.0
 30
0.0
  0
XRECORD
  5
2D83
102
{ACAD_REACTORS
330
2D64
102
}
330
2D64
100
AcDbXrecord
 10
0.0
 20
0.0
 30
0.0
  0
XRECORD
  5
2D84
102
{ACAD_REACTORS
330
2D64
102
}
330
2D64
100
AcDbXrecord
 10
0.0
 20
0.0
 30
0.0
  0
LAYER_INDEX
  5
2D5B
102
{ACAD_REACTORS
330
2D5A
102
}
330
2D5A
100
AcDbIndex
 40
2453151.571916574
100
AcDbLayerIndex
  8
0
360
2D5C
 90
        0
  8
AM_0
360
2D5D
 90
       45
  8
AM_7
360
2D5E
 90
        1
  8
AM_11
360
2D5F
 90
       18
  8
AM_5
360
2D60
 90
        5
  8
Defpoints
360
2D61
 90
        0
  8
AM_6
360
2D62
 90
        1
  0
XRECORD
  5
2D
102
{ACAD_REACTORS
330
2C
102
}
330
2C
100
AcDbXrecord
  1
VERSION
140
15.0
  1
PRODUCT
  2
AutoCAD Mechanical 2000
  0
IDBUFFER
  5
2D5C
330
0
100
AcDbIdBuffer
  0
IDBUFFER
  5
2D5D
330
0
100
AcDbIdBuffer
330
2BF9
330
2BFA
330
2BFC
330
2BFD
330
2BFE
330
2C01
330
2C05
330
2C06
330
2C07
330
2C08
330
2C09
330
2C0A
330
2C0B
330
2C0C
330
2C0D
330
2C0E
330
2C0F
330
2C10
330
2C11
330
2C12
330
2C13
330
2C14
330
2C15
330
2C16
330
2C17
330
2C18
330
2C19
330
2C43
330
2C44
330
C1D
330
C20
330
24A7
330
24BE
330
2567
330
2568
330
2569
330
256C
330
256E
330
256F
330
2571
330
2572
330
279A
330
279D
330
2BF7
330
2BF8
  0
IDBUFFER
  5
2D5E
330
0
100
AcDbIdBuffer
330
23EF
  0
IDBUFFER
  5
2D5F
330
0
100
AcDbIdBuffer
330
2C03
330
2C04
330
24B7
330
24B8
330
24B9
330
24C7
330
24C8
330
24C9
330
24CA
330
24D4
330
24D5
330
24E6
330
24E7
330
278C
330
278D
330
2BFF
330
2C00
330
2C02
  0
IDBUFFER
  5
2D60
330
0
100
AcDbIdBuffer
330
CC6
330
2069
330
2599
330
29BA
330
2C54
  0
IDBUFFER
  5
2D61
330
0
100
AcDbIdBuffer
  0
IDBUFFER
  5
2D62
330
0
100
AcDbIdBuffer
330
19BD
  0
ENDSEC
  0
EOF
