  0
SECTION
  2
HEADER
  9
$ACADVER
  1
AC1014
  9
$ACADMAINTVER
 70
     9
  9
$DWGCODEPAGE
  3
ANSI_932
  9
$INSBASE
 10
0.0
 20
0.0
 30
0.0
  9
$EXTMIN
 10
-150.1500009999999
 20
-28.25000402524005
 30
-0.00000001
  9
$EXTMAX
 10
13.71377837947173
 20
13.405497656339
 30
0.00000001
  9
$LIMMIN
 10
-156.1444050923396
 20
-44.51020785580943
  9
$LIMMAX
 10
20.31336096277607
 20
28.16015358894219
  9
$ORTHOMODE
 70
     0
  9
$REGENMODE
 70
     1
  9
$FILLMODE
 70
     1
  9
$QTEXTMODE
 70
     0
  9
$MIRRTEXT
 70
     0
  9
$DRAGMODE
 70
     2
  9
$LTSCALE
 40
1.0
  9
$OSMODE
 70
    55
  9
$ATTMODE
 70
     1
  9
$TEXTSIZE
 40
2.5
  9
$TRACEWID
 40
1.0
  9
$TEXTSTYLE
  7
STANDARD
  9
$CLAYER
  8
AM_0
  9
$CELTYPE
  6
BYLAYER
  9
$CECOLOR
 62
   256
  9
$CELTSCALE
 40
1.0
  9
$DELOBJ
 70
     1
  9
$DISPSILH
 70
     0
  9
$DIMSCALE
 40
0.5
  9
$DIMASZ
 40
2.5
  9
$DIMEXO
 40
1.0
  9
$DIMDLI
 40
12.0
  9
$DIMRND
 40
0.0
  9
$DIMDLE
 40
0.0
  9
$DIMEXE
 40
1.0
  9
$DIMTP
 40
0.1
  9
$DIMTM
 40
0.1
  9
$DIMTXT
 40
3.2
  9
$DIMCEN
 40
0.0
  9
$DIMTSZ
 40
0.0
  9
$DIMTOL
 70
     0
  9
$DIMLIM
 70
     0
  9
$DIMTIH
 70
     0
  9
$DIMTOH
 70
     0
  9
$DIMSE1
 70
     0
  9
$DIMSE2
 70
     0
  9
$DIMTAD
 70
     3
  9
$DIMZIN
 70
     8
  9
$DIMBLK
  1
OPEN30
  9
$DIMASO
 70
     1
  9
$DIMSHO
 70
     1
  9
$DIMPOST
  1

  9
$DIMAPOST
  1
"
  9
$DIMALT
 70
     0
  9
$DIMALTD
 70
     2
  9
$DIMALTF
 40
0.0393701
  9
$DIMLFAC
 40
1.0
  9
$DIMTOFL
 70
     1
  9
$DIMTVP
 40
0.0
  9
$DIMTIX
 70
     0
  9
$DIMSOXD
 70
     0
  9
$DIMSAH
 70
     0
  9
$DIMBLK1
  1

  9
$DIMBLK2
  1

  9
$DIMSTYLE
  2
AM_JIS
  9
$DIMCLRD
 70
   256
  9
$DIMCLRE
 70
   256
  9
$DIMCLRT
 70
     2
  9
$DIMTFAC
 40
0.71
  9
$DIMGAP
 40
1.5
  9
$DIMJUST
 70
     0
  9
$DIMSD1
 70
     0
  9
$DIMSD2
 70
     0
  9
$DIMTOLJ
 70
     0
  9
$DIMTZIN
 70
     0
  9
$DIMALTZ
 70
     0
  9
$DIMALTTZ
 70
     0
  9
$DIMFIT
 70
     3
  9
$DIMUPT
 70
     0
  9
$DIMUNIT
 70
     2
  9
$DIMDEC
 70
     3
  9
$DIMTDEC
 70
     3
  9
$DIMALTU
 70
     2
  9
$DIMALTTD
 70
     2
  9
$DIMTXSTY
  7
ASAMI
  9
$DIMAUNIT
 70
     0
  9
$LUNITS
 70
     2
  9
$LUPREC
 70
     2
  9
$SKETCHINC
 40
1.0
  9
$FILLETRAD
 40
2.5
  9
$AUNITS
 70
     0
  9
$AUPREC
 70
     0
  9
$MENU
  1
.
  9
$ELEVATION
 40
0.0
  9
$PELEVATION
 40
0.0
  9
$THICKNESS
 40
0.0
  9
$LIMCHECK
 70
     0
  9
$BLIPMODE
 70
     0
  9
$CHAMFERA
 40
2.5
  9
$CHAMFERB
 40
2.5
  9
$CHAMFERC
 40
20.0
  9
$CHAMFERD
 40
0.0
  9
$SKPOLY
 70
     0
  9
$TDCREATE
 40
2452800.443498622
  9
$TDUPDATE
 40
2453151.681552720
  9
$TDINDWG
 40
0.0476566088
  9
$TDUSRTIMER
 40
0.0476566088
  9
$USRTIMER
 70
     1
  9
$ANGBASE
 50
0.0
  9
$ANGDIR
 70
     0
  9
$PDMODE
 70
     0
  9
$PDSIZE
 40
0.0
  9
$PLINEWID
 40
0.0
  9
$COORDS
 70
     1
  9
$SPLFRAME
 70
     0
  9
$SPLINETYPE
 70
     6
  9
$SPLINESEGS
 70
     8
  9
$ATTDIA
 70
     1
  9
$ATTREQ
 70
     1
  9
$HANDLING
 70
 12289
  9
$HANDSEED
  5
2E45
  9
$SURFTAB1
 70
     6
  9
$SURFTAB2
 70
     6
  9
$SURFTYPE
 70
     6
  9
$SURFU
 70
     6
  9
$SURFV
 70
     6
  9
$UCSNAME
  2

  9
$UCSORG
 10
-0.000000000000001
 20
0.0000000000000016
 30
0.0
  9
$UCSXDIR
 10
1.0
 20
0.0000000000000027
 30
0.0
  9
$UCSYDIR
 10
-0.0000000000000027
 20
1.0
 30
0.0
  9
$PUCSNAME
  2

  9
$PUCSORG
 10
0.0
 20
0.0
 30
0.0
  9
$PUCSXDIR
 10
1.0
 20
0.0
 30
0.0
  9
$PUCSYDIR
 10
0.0
 20
1.0
 30
0.0
  9
$USERI1
 70
     0
  9
$USERI2
 70
     0
  9
$USERI3
 70
     0
  9
$USERI4
 70
     0
  9
$USERI5
 70
     0
  9
$USERR1
 40
0.0
  9
$USERR2
 40
0.0
  9
$USERR3
 40
0.0
  9
$USERR4
 40
0.0
  9
$USERR5
 40
0.0
  9
$WORLDVIEW
 70
     1
  9
$SHADEDGE
 70
     3
  9
$SHADEDIF
 70
    70
  9
$TILEMODE
 70
     1
  9
$MAXACTVP
 70
    64
  9
$PINSBASE
 10
0.0
 20
0.0
 30
0.0
  9
$PLIMCHECK
 70
     0
  9
$PEXTMIN
 10
1.000000000000000E+20
 20
1.000000000000000E+20
 30
1.000000000000000E+20
  9
$PEXTMAX
 10
-1.000000000000000E+20
 20
-1.000000000000000E+20
 30
-1.000000000000000E+20
  9
$PLIMMIN
 10
0.0
 20
0.0
  9
$PLIMMAX
 10
841.0
 20
594.0
  9
$UNITMODE
 70
     0
  9
$VISRETAIN
 70
     1
  9
$PLINEGEN
 70
     0
  9
$PSLTSCALE
 70
     0
  9
$TREEDEPTH
 70
  3020
  9
$PICKSTYLE
 70
     0
  9
$CMLSTYLE
  2
STANDARD
  9
$CMLJUST
 70
     0
  9
$CMLSCALE
 40
20.0
  9
$PROXYGRAPHICS
 70
     1
  9
$MEASUREMENT
 70
     1
  0
ENDSEC
  0
SECTION
  2
CLASSES
  0
CLASS
  1
ACDBDICTIONARYWDFLT
  2
AcDbDictionaryWithDefault
  3
AutoCAD 2000
 90
        0
280
     0
281
     0
  0
CLASS
  1
ACDBPLACEHOLDER
  2
AcDbPlaceHolder
  3
AutoCAD 2000
 90
        0
280
     0
281
     0
  0
CLASS
  1
LAYOUT
  2
AcDbLayout
  3
AutoCAD 2000
 90
        0
280
     0
281
     0
  0
CLASS
  1
AMGSETTINGSOBJ
  2
AmgSettingsObj
  3
"AcadM|Product Description: AutoCAD Mechanical 2000|Company: Autodesk"
 90
        0
280
     0
281
     0
  0
CLASS
  1
ACME_DOCUMENT
  2
AcMeDbDoc
  3
AcMeServices
 90
        0
280
     0
281
     0
  0
CLASS
  1
ACMESCOPE
  2
AcMeScope
  3
AcMeServices
 90
        0
280
     0
281
     0
  0
CLASS
  1
ACMECOMMANDHISTORY
  2
AcMeCommandHistory
  3
AcMeServices
 90
        0
280
     0
281
     0
  0
CLASS
  1
DICTIONARYVAR
  2
AcDbDictionaryVar
  3
AutoCAD 2000
 90
        0
280
     0
281
     0
  0
CLASS
  1
ACIMSYSVARMAN
  2
AcImSysVarManager
  3
AcMeServices
 90
        0
280
     0
281
     0
  0
CLASS
  1
ACIMREALSYSVAR
  2
AcImRealSysVar
  3
AcMeServices
 90
        0
280
     0
281
     0
  0
CLASS
  1
ACIMINTSYSVAR
  2
AcImIntSysVar
  3
AcMeServices
 90
        0
280
     0
281
     0
  0
CLASS
  1
ACMEDRAWINGMAN
  2
AcMeDrawingMan
  3
AcMeServices
 90
        0
280
     0
281
     0
  0
CLASS
  1
ACMEVIEW
  2
AcMeView
  3
AcMeServices
 90
        0
280
     0
281
     0
  0
CLASS
  1
ACDBENTITYCACHE
  2
AcMeEntityCache
  3
AcMeServices
 90
        0
280
     0
281
     0
  0
CLASS
  1
GSMANAGER
  2
AcMeGSManager
  3
AcMeServices
 90
        0
280
     0
281
     0
  0
CLASS
  1
AmdtInternalReactor
  2
AmdtInternalReactor
  3
AcMeServices
 90
        0
280
     0
281
     0
  0
CLASS
  1
ACMESTATEMGR
  2
AcMeStateMgr
  3
AcMeServices
 90
        0
280
     0
281
     0
  0
CLASS
  1
ACME_DATABASE
  2
AcMeDbDatabase
  3
AcMeServices
 90
        0
280
     0
281
     0
  0
CLASS
  1
ACRFINSADJUSTERMGR
  2
AcRfInsAdjusterMgr
  3
AcMeServices
 90
        0
280
     0
281
     0
  0
CLASS
  1
ACMDATADICTIONARY
  2
AcmDataDictionary
  3
"AcmSymBB|Product Description: AutoCAD Mechanical 2000|Company: Autodesk"
 90
        0
280
     0
281
     0
  0
CLASS
  1
ACMDATAENTRYBLOCK
  2
AcmDataEntryBlock
  3
"AcmSymBB|Product Description: AutoCAD Mechanical 2000|Company: Autodesk"
 90
        0
280
     0
281
     0
  0
CLASS
  1
AMGOBJPROPCFG
  2
AmgObjPropCfg
  3
"AmgLay|Product Description: AutoCAD Mechanical 2000|Company: Autodesk"
 90
        1
280
     0
281
     0
  0
CLASS
  1
ACAMGFILTERDAT
  2
AcAmgFilterDat
  3
"AcadM|Product Description: AutoCAD Mechanical 2000|Company: Autodesk"
 90
        0
280
     0
281
     0
  0
CLASS
  1
LAYER_INDEX
  2
AcDbLayerIndex
  3
AutoCAD 2000
 90
        0
280
     0
281
     0
  0
CLASS
  1
IDBUFFER
  2
AcDbIdBuffer
  3
AutoCAD 2000
 90
        0
280
     0
281
     0
  0
CLASS
  1
ACIMSTRSYSVAR
  2
AcImStrSysVar
  3
AcMeServices
 90
        0
280
     0
281
     0
  0
CLASS
  1
ACMSTANDARDJIS
  2
AcmStandardJIS
  3
"AcmSymBB|Product Description: AutoCAD Mechanical 2000|Company: Autodesk"
 90
        0
280
     0
281
     0
  0
CLASS
  1
ACMSURFSTANDARDJIS
  2
AcmSurfTextStdJIS
  3
"AcmSymBB|Product Description: AutoCAD Mechanical 2000|Company: Autodesk"
 90
        0
280
     0
281
     0
  0
CLASS
  1
ACMFCFSTANDARDJIS
  2
AcmFCFStdJIS
  3
"AcmSymBB|Product Description: AutoCAD Mechanical 2000|Company: Autodesk"
 90
        0
280
     0
281
     0
  0
CLASS
  1
ACMWELDSTANDARDJIS
  2
AcmWeldingStdJIS
  3
"AcmSymBB|Product Description: AutoCAD Mechanical 2000|Company: Autodesk"
 90
        0
280
     0
281
     0
  0
CLASS
  1
ACMIDSTANDARDJIS
  2
AcmIdStdJIS
  3
"AcmSymBB|Product Description: AutoCAD Mechanical 2000|Company: Autodesk"
 90
        0
280
     0
281
     0
  0
CLASS
  1
ACMDATUMSTANDARDJIS
  2
AcmDatumStdJIS
  3
"AcmSymBB|Product Description: AutoCAD Mechanical 2000|Company: Autodesk"
 90
        0
280
     0
281
     0
  0
CLASS
  1
ACMBOMSTANDARDJIS
  2
AcmBOMStdJIS
  3
"AcmSymBB|Product Description: AutoCAD Mechanical 2000|Company: Autodesk"
 90
        0
280
     0
281
     0
  0
CLASS
  1
ACMSTANDARDANSI
  2
AcmStandardANSI
  3
"AcmSymBB|Product Description: AutoCAD Mechanical 2000|Company: Autodesk"
 90
        0
280
     0
281
     0
  0
CLASS
  1
ACMSURFSTANDARDANSI
  2
AcmSurfTextStdANSI
  3
"AcmSymBB|Product Description: AutoCAD Mechanical 2000|Company: Autodesk"
 90
        0
280
     0
281
     0
  0
CLASS
  1
ACMFCFSTANDARDANSI
  2
AcmFCFStdANSI
  3
"AcmSymBB|Product Description: AutoCAD Mechanical 2000|Company: Autodesk"
 90
        0
280
     0
281
     0
  0
CLASS
  1
ACMWELDSTANDARDANSI
  2
AcmWeldingStdANSI
  3
"AcmSymBB|Product Description: AutoCAD Mechanical 2000|Company: Autodesk"
 90
        0
280
     0
281
     0
  0
CLASS
  1
ACMIDSTANDARDANSI
  2
AcmIdStdANSI
  3
"AcmSymBB|Product Description: AutoCAD Mechanical 2000|Company: Autodesk"
 90
        0
280
     0
281
     0
  0
CLASS
  1
ACMDATUMSTANDARDANSI
  2
AcmDatumStdANSI
  3
"AcmSymBB|Product Description: AutoCAD Mechanical 2000|Company: Autodesk"
 90
        0
280
     0
281
     0
  0
CLASS
  1
ACMBOMSTANDARDANSI
  2
AcmBOMStdANSI
  3
"AcmSymBB|Product Description: AutoCAD Mechanical 2000|Company: Autodesk"
 90
        0
280
     0
281
     0
  0
CLASS
  1
ACMSTANDARDBSI
  2
AcmStandardBSI
  3
"AcmSymBB|Product Description: AutoCAD Mechanical 2000|Company: Autodesk"
 90
        0
280
     0
281
     0
  0
CLASS
  1
ACMSURFSTANDARDBSI
  2
AcmSurfTextStdBSI
  3
"AcmSymBB|Product Description: AutoCAD Mechanical 2000|Company: Autodesk"
 90
        0
280
     0
281
     0
  0
CLASS
  1
ACMFCFSTANDARDBSI
  2
AcmFCFStdBSI
  3
"AcmSymBB|Product Description: AutoCAD Mechanical 2000|Company: Autodesk"
 90
        0
280
     0
281
     0
  0
CLASS
  1
ACMWELDSTANDARDBSI
  2
AcmWeldingStdBSI
  3
"AcmSymBB|Product Description: AutoCAD Mechanical 2000|Company: Autodesk"
 90
        0
280
     0
281
     0
  0
CLASS
  1
ACMIDSTANDARDBSI
  2
AcmIdStdBSI
  3
"AcmSymBB|Product Description: AutoCAD Mechanical 2000|Company: Autodesk"
 90
        0
280
     0
281
     0
  0
CLASS
  1
ACMDATUMSTANDARDBSI
  2
AcmDatumStdBSI
  3
"AcmSymBB|Product Description: AutoCAD Mechanical 2000|Company: Autodesk"
 90
        0
280
     0
281
     0
  0
CLASS
  1
ACMBOMSTANDARDBSI
  2
AcmBOMStdBSI
  3
"AcmSymBB|Product Description: AutoCAD Mechanical 2000|Company: Autodesk"
 90
        0
280
     0
281
     0
  0
CLASS
  1
LONG_TRANSACTION
  2
AcDbLongTransaction
  3
AutoCAD 2000
 90
        0
280
     0
281
     0
  0
CLASS
  1
LWPOLYLINE
  2
AcDbPolyline
  3
AutoCAD 2000
 90
        0
280
     0
281
     1
  0
CLASS
  1
HATCH
  2
AcDbHatch
  3
AutoCAD 2000
 90
        0
280
     0
281
     1
  0
CLASS
  1
XRECORD
  2
AcDbXrecord
  3
AutoCAD 2000
 90
        0
280
     0
281
     0
  0
ENDSEC
  0
SECTION
  2
TABLES
  0
TABLE
  2
VPORT
  5
8
330
0
100
AcDbSymbolTable
 70
     3
  0
VPORT
  5
2E1A
330
8
100
AcDbSymbolTableRecord
100
AcDbViewportTableRecord
  2
*ACTIVE
 70
     0
 10
0.0
 20
0.0
 11
1.0
 21
1.0
 12
-65.15386260462952
 22
-7.421000996217806
 13
0.0
 23
0.0
 14
2.5
 24
2.5
 15
10.0
 25
10.0
 16
0.0
 26
0.0
 36
1.0
 17
0.0
 27
0.0
 37
0.0
 40
109.1041836442456
 41
1.56570841889117
 42
50.0
 43
0.0
 44
0.0
 50
0.0
 51
0.0
 71
     0
 72
   100
 73
     1
 74
     1
 75
     0
 76
     0
 77
     0
 78
     0
  0
ENDTAB
  0
TABLE
  2
LTYPE
  5
5
330
0
100
AcDbSymbolTable
 70
    10
  0
LTYPE
  5
14
330
5
100
AcDbSymbolTableRecord
100
AcDbLinetypeTableRecord
  2
BYBLOCK
 70
     0
  3

 72
    65
 73
     0
 40
0.0
  0
LTYPE
  5
15
330
5
100
AcDbSymbolTableRecord
100
AcDbLinetypeTableRecord
  2
BYLAYER
 70
     0
  3

 72
    65
 73
     0
 40
0.0
  0
LTYPE
  5
16
330
5
100
AcDbSymbolTableRecord
100
AcDbLinetypeTableRecord
  2
CONTINUOUS
 70
     0
  3
Solid line
 72
    65
 73
     0
 40
0.0
  0
LTYPE
  5
4B
330
5
100
AcDbSymbolTableRecord
100
AcDbLinetypeTableRecord
  2
AM_ISO02W050
 70
     0
  3
__ __ __ __ __ __ __ __ __ __ __ __ __ __ __
 72
    65
 73
     2
 40
7.5
 49
6.0
 74
     0
 49
-1.5
 74
     0
  0
LTYPE
  5
4C
330
5
100
AcDbSymbolTableRecord
100
AcDbLinetypeTableRecord
  2
AM_ISO08W050
 70
     0
  3
____ . ____ . ____ . ____ . ____ . ____ . ____
 72
    65
 73
     4
 40
18.0
 49
12.0
 74
     0
 49
-1.5
 74
     0
 49
3.0
 74
     0
 49
-1.5
 74
     0
  0
LTYPE
  5
4D
330
5
100
AcDbSymbolTableRecord
100
AcDbLinetypeTableRecord
  2
AM_ISO09W050
 70
     0
  3
_____ . . _____ . . _____ . . ____ .. ____
 72
    65
 73
     6
 40
22.5
 49
12.0
 74
     0
 49
-1.5
 74
     0
 49
3.0
 74
     0
 49
-1.5
 74
     0
 49
3.0
 74
     0
 49
-1.5
 74
     0
  0
LTYPE
  5
4E
330
5
100
AcDbSymbolTableRecord
100
AcDbLinetypeTableRecord
  2
AMCONSTR
 70
     0
  3
_______________________
 72
    65
 73
     2
 40
9999.0
 49
9999.0
 74
     0
 49
0.0
 74
     0
  0
LTYPE
  5
4F
330
5
100
AcDbSymbolTableRecord
100
AcDbLinetypeTableRecord
  2
AM_ISO02W050X2
 70
     0
  3
 _ _ _ _ _ _ _ _ _ _ _ _
 72
    65
 73
     2
 40
3.75
 49
3.0
 74
     0
 49
-0.75
 74
     0
  0
LTYPE
  5
50
330
5
100
AcDbSymbolTableRecord
100
AcDbLinetypeTableRecord
  2
AM_ISO08W050X2
 70
     0
  3
__ . __ . __ . __ . __ . __
 72
    65
 73
     4
 40
9.0
 49
6.0
 74
     0
 49
-0.75
 74
     0
 49
1.5
 74
     0
 49
-0.75
 74
     0
  0
LTYPE
  5
53
330
5
100
AcDbSymbolTableRecord
100
AcDbLinetypeTableRecord
  2
AMZIGZAG
 70
     0
  3
/\/-/\/-/\/-/\/-/\/-/\/
 72
    65
 73
     2
 40
11.00009999999999
 49
0.0001
 74
     4
 75
   135
340
52
 46
0.04
 50
0.0
 44
0.0
 45
0.0
 49
-11.0
 74
     0
  0
LTYPE
  5
166
330
5
100
AcDbSymbolTableRecord
100
AcDbLinetypeTableRecord
  2
ACJISTGL
 70
     0
  3
_ _ _ _ _
 72
    65
 73
     2
 40
3.0
 49
2.0
 74
     0
 49
-1.0
 74
     0
  0
LTYPE
  5
26A
330
5
100
AcDbSymbolTableRecord
100
AcDbLinetypeTableRecord
  2
ACJISTGB
 70
     0
  3
__ . . __ . .
 72
    65
 73
     6
 40
9.0
 49
4.0
 74
     0
 49
-1.0
 74
     0
 49
1.0
 74
     0
 49
-1.0
 74
     0
 49
1.0
 74
     0
 49
-1.0
 74
     0
  0
ENDTAB
  0
TABLE
  2
LAYER
  5
2
330
0
100
AcDbSymbolTable
 70
     7
  0
LAYER
  5
10
330
2
100
AcDbSymbolTableRecord
100
AcDbLayerTableRecord
  2
0
 70
     0
 62
     7
  6
CONTINUOUS
  0
LAYER
  5
3F9
330
2
100
AcDbSymbolTableRecord
100
AcDbLayerTableRecord
  2
AM_0
 70
     0
 62
     7
  6
CONTINUOUS
  0
LAYER
  5
C7C
330
2
100
AcDbSymbolTableRecord
100
AcDbLayerTableRecord
  2
AM_7
 70
     0
 62
     4
  6
AM_ISO08W050
  0
LAYER
  5
C97
330
2
100
AcDbSymbolTableRecord
100
AcDbLayerTableRecord
  2
AM_11
 70
     0
 62
     3
  6
AM_ISO09W050
  0
LAYER
  5
CC5
330
2
100
AcDbSymbolTableRecord
100
AcDbLayerTableRecord
  2
AM_5
 70
     0
 62
     3
  6
CONTINUOUS
  0
LAYER
  5
CC7
330
2
100
AcDbSymbolTableRecord
100
AcDbLayerTableRecord
  2
DEFPOINTS
 70
     0
 62
     7
  6
CONTINUOUS
  0
LAYER
  5
19BC
330
2
100
AcDbSymbolTableRecord
100
AcDbLayerTableRecord
  2
AM_6
 70
     0
 62
     2
  6
CONTINUOUS
  0
ENDTAB
  0
TABLE
  2
STYLE
  5
3
330
0
100
AcDbSymbolTable
 70
     5
  0
STYLE
  5
11
330
3
100
AcDbSymbolTableRecord
100
AcDbTextStyleTableRecord
  2
STANDARD
 70
     0
 40
0.0
 41
1.0
 50
0.0
 71
     0
 42
2.5
  3
simplex.shx
  4
EXTFONT.SHX
  0
STYLE
  5
52
330
3
100
AcDbSymbolTableRecord
100
AcDbTextStyleTableRecord
  2

 70
     1
 40
0.0
 41
1.0
 50
0.0
 71
     0
 42
2.5
  3
ltypeshp.shx
  4

  0
STYLE
  5
6B
330
3
100
AcDbSymbolTableRecord
100
AcDbTextStyleTableRecord
  2
ASAMI
 70
     0
 40
0.0
 41
1.0
 50
0.0
 71
     0
 42
2.5
  3
simplex.shx
  4
EXTFONT.SHX
  0
STYLE
  5
262
330
3
100
AcDbSymbolTableRecord
100
AcDbTextStyleTableRecord
  2
ACJISTS
 70
     0
 40
1.0
 41
1.0
 50
0.0
 71
     0
 42
2.5
  3
simplex.shx
  4
bigfont.shx
  0
STYLE
  5
269
330
3
100
AcDbSymbolTableRecord
100
AcDbTextStyleTableRecord
  2
ACJISGDT
 70
     0
 40
0.0
 41
1.0
 50
0.0
 71
     0
 42
2.5
  3
amgdtans.shx
  4

  0
ENDTAB
  0
TABLE
  2
VIEW
  5
6
330
0
100
AcDbSymbolTable
 70
     0
  0
ENDTAB
  0
TABLE
  2
UCS
  5
7
330
0
100
AcDbSymbolTable
 70
     0
  0
ENDTAB
  0
TABLE
  2
APPID
  5
9
330
0
100
AcDbSymbolTable
 70
    14
  0
APPID
  5
12
330
9
100
AcDbSymbolTableRecord
100
AcDbRegAppTableRecord
  2
ACAD
 70
     0
  0
APPID
  5
30
330
9
100
AcDbSymbolTableRecord
100
AcDbRegAppTableRecord
  2
MCAD_NO_VIS
 70
     0
  0
APPID
  5
31
330
9
100
AcDbSymbolTableRecord
100
AcDbRegAppTableRecord
  2
ACAD_TEMP_GRAPHIC
 70
     0
  0
APPID
  5
2C2
330
9
100
AcDbSymbolTableRecord
100
AcDbRegAppTableRecord
  2
GENIUS_GENDTOL_13
 70
     0
  0
APPID
  5
339
330
9
100
AcDbSymbolTableRecord
100
AcDbRegAppTableRecord
  2
GENIUS_GENODEF_13
 70
     0
  0
APPID
  5
33A
330
9
100
AcDbSymbolTableRecord
100
AcDbRegAppTableRecord
  2
GENIUS_GENOBJ-N-RSBK_13
 70
     0
  0
APPID
  5
33B
330
9
100
AcDbSymbolTableRecord
100
AcDbRegAppTableRecord
  2
GENIUS_GENOBJ-N-LIB_13
 70
     0
  0
APPID
  5
33C
330
9
100
AcDbSymbolTableRecord
100
AcDbRegAppTableRecord
  2
GENIUS_GENSCALE_13
 70
     0
  0
APPID
  5
378
330
9
100
AcDbSymbolTableRecord
100
AcDbRegAppTableRecord
  2
GENIUS_GENDIMSH_14
 70
     0
  0
APPID
  5
C82
330
9
100
AcDbSymbolTableRecord
100
AcDbRegAppTableRecord
  2
GENIUS_GENOBJ-N-CRS_13
 70
     0
  0
APPID
  5
C83
330
9
100
AcDbSymbolTableRecord
100
AcDbRegAppTableRecord
  2
GENIUS_GENOENT_13
 70
     0
  0
APPID
  5
C84
330
9
100
AcDbSymbolTableRecord
100
AcDbRegAppTableRecord
  2
GENIUS_GENOREF_13
 70
     0
  0
APPID
  5
C85
330
9
100
AcDbSymbolTableRecord
100
AcDbRegAppTableRecord
  2
GENIUS_GENOLIS_13
 70
     0
  0
APPID
  5
CA0
330
9
100
AcDbSymbolTableRecord
100
AcDbRegAppTableRecord
  2
GENIUS_GENOBJ-N-CEN_13
 70
     0
  0
ENDTAB
  0
TABLE
  2
DIMSTYLE
  5
A
330
0
100
AcDbSymbolTable
 70
     9
  0
DIMSTYLE
105
58
330
A
100
AcDbSymbolTableRecord
100
AcDbDimStyleTableRecord
  2
AM_JIS
 70
     0
  3

  4
"
  5
OPEN30
  6

  7

 40
0.5
 41
2.5
 42
1.0
 43
12.0
 44
1.0
 45
0.0
 46
0.0
 47
0.1
 48
0.1
140
3.2
141
0.0
142
0.0
143
0.0393701
144
1.0
145
0.0
146
0.71
147
1.5
 71
     0
 72
     0
 73
     0
 74
     0
 75
     0
 76
     0
 77
     3
 78
     8
170
     0
171
     2
172
     1
173
     0
174
     0
175
     0
176
   256
177
   256
178
     2
270
     2
271
     3
272
     3
273
     2
274
     2
340
6B
275
     0
280
     0
281
     0
282
     0
283
     0
284
     0
285
     0
286
     0
287
     3
288
     0
  0
DIMSTYLE
105
5F
330
A
100
AcDbSymbolTableRecord
100
AcDbDimStyleTableRecord
  2
AM_JIS$3
 70
     0
  3

  4
"
  5
OPEN30
  6

  7

 40
0.5
 41
2.5
 42
1.0
 43
10.0
 44
1.0
 45
0.0
 46
0.0
 47
0.1
 48
0.1
140
3.2
141
0.0
142
0.0
143
0.0393701
144
1.0
145
0.0
146
0.71
147
1.5
 71
     0
 72
     0
 73
     0
 74
     1
 75
     0
 76
     0
 77
     3
 78
     8
170
     0
171
     2
172
     0
173
     0
174
     0
175
     0
176
   256
177
   256
178
     2
270
     2
271
     2
272
     3
273
     2
274
     2
340
6B
275
     0
280
     0
281
     0
282
     0
283
     0
284
     0
285
     0
286
     0
287
     0
288
     1
  0
DIMSTYLE
105
60
330
A
100
AcDbSymbolTableRecord
100
AcDbDimStyleTableRecord
  2
AM_JIS$4
 70
     0
  3

  4
"
  5
OPEN30
  6

  7

 40
0.5
 41
2.5
 42
1.0
 43
10.0
 44
1.0
 45
0.0
 46
0.0
 47
0.1
 48
0.1
140
3.2
141
0.0
142
0.0
143
0.0393701
144
1.0
145
0.0
146
0.71
147
1.5
 71
     0
 72
     0
 73
     0
 74
     1
 75
     0
 76
     0
 77
     3
 78
     8
170
     0
171
     2
172
     0
173
     0
174
     0
175
     0
176
   256
177
   256
178
     2
270
     2
271
     2
272
     3
273
     2
274
     2
340
6B
275
     0
280
     0
281
     0
282
     0
283
     0
284
     0
285
     0
286
     0
287
     0
288
     1
  0
DIMSTYLE
105
61
330
A
100
AcDbSymbolTableRecord
100
AcDbDimStyleTableRecord
  2
AM_JIS$6
 70
     0
  3

  4
"
  5
OPEN30
  6

  7

 40
0.5
 41
2.5
 42
1.0
 43
10.0
 44
1.0
 45
0.0
 46
0.0
 47
0.1
 48
0.1
140
3.2
141
0.0
142
0.0
143
0.0393701
144
1.0
145
0.0
146
0.71
147
1.5
 71
     0
 72
     0
 73
     0
 74
     0
 75
     0
 76
     0
 77
     0
 78
     8
170
     0
171
     2
172
     1
173
     0
174
     0
175
     0
176
   256
177
   256
178
     2
270
     2
271
     2
272
     2
273
     2
274
     2
340
6B
275
     0
280
     0
281
     0
282
     0
283
     0
284
     0
285
     0
286
     0
287
     3
288
     0
  0
DIMSTYLE
105
62
330
A
100
AcDbSymbolTableRecord
100
AcDbDimStyleTableRecord
  2
AM_JIS$7
 70
     0
  3

  4
"
  5
OPEN30
  6

  7

 40
0.5
 41
2.5
 42
1.0
 43
10.0
 44
1.0
 45
0.0
 46
0.0
 47
0.1
 48
0.1
140
3.2
141
0.0
142
0.0
143
0.0393701
144
1.0
145
0.0
146
0.71
147
1.5
 71
     0
 72
     0
 73
     0
 74
     0
 75
     0
 76
     0
 77
     3
 78
     8
170
     0
171
     2
172
     1
173
     0
174
     0
175
     0
176
   256
177
   256
178
     2
270
     2
271
     2
272
     3
273
     2
274
     2
340
6B
275
     0
280
     0
281
     0
282
     0
283
     0
284
     0
285
     0
286
     0
287
     3
288
     0
  0
DIMSTYLE
105
63
330
A
100
AcDbSymbolTableRecord
100
AcDbDimStyleTableRecord
  2
AM_JIS$SF
 70
     0
  3

  4
"
  5
OPEN30
  6

  7

 40
0.5
 41
2.5
 42
1.0
 43
10.0
 44
1.0
 45
0.0
 46
0.0
 47
0.1
 48
0.1
140
3.2
141
0.0
142
0.0
143
0.0393701
144
1.0
145
0.0
146
0.71
147
1.5
 71
     0
 72
     0
 73
     0
 74
     0
 75
     1
 76
     1
 77
     3
 78
     8
170
     0
171
     2
172
     1
173
     0
174
     0
175
     0
176
   256
177
   256
178
     2
270
     2
271
     2
272
     2
273
     2
274
     2
340
6B
275
     0
280
     0
281
     0
282
     0
283
     0
284
     0
285
     0
286
     0
287
     3
288
     0
  0
DIMSTYLE
105
68
330
A
100
AcDbSymbolTableRecord
100
AcDbDimStyleTableRecord
  2
AM_JIS$SH
 70
     0
  3

  4
"
  5

  6
GENAXEH
  7
OPEN30
 40
0.5
 41
2.5
 42
1.0
 43
10.0
 44
1.0
 45
0.0
 46
0.0
 47
0.1
 48
0.1
140
3.2
141
0.0
142
0.0
143
0.0393701
144
2.0
145
0.0
146
0.71
147
1.5
 71
     0
 72
     0
 73
     0
 74
     0
 75
     1
 76
     1
 77
     3
 78
     8
170
     0
171
     2
172
     1
173
     1
174
     0
175
     0
176
   256
177
   256
178
     2
270
     2
271
     2
272
     2
273
     2
274
     2
340
6B
275
     0
280
     0
281
     0
282
     0
283
     0
284
     0
285
     0
286
     0
287
     3
288
     0
  0
DIMSTYLE
105
B34
102
{ACAD_REACTORS
330
2894
102
}
330
A
100
AcDbSymbolTableRecord
100
AcDbDimStyleTableRecord
  2
AM_JIS$2
 70
     0
  3

  4
"
  5
OPEN30
  6

  7

 40
0.5
 41
2.5
 42
1.0
 43
12.0
 44
1.0
 45
0.0
 46
0.0
 47
0.1
 48
0.1
140
3.2
141
0.0
142
0.0
143
0.0393701
144
1.0
145
0.0
146
0.71
147
1.5
 71
     0
 72
     0
 73
     0
 74
     0
 75
     0
 76
     0
 77
     3
 78
     8
170
     0
171
     2
172
     1
173
     0
174
     0
175
     0
176
   256
177
   256
178
     2
270
     2
271
     3
272
     3
273
     2
274
     2
340
6B
275
     0
280
     0
281
     0
282
     0
283
     0
284
     0
285
     0
286
     0
287
     3
288
     0
  0
DIMSTYLE
105
BA5
102
{ACAD_REACTORS
330
CC6
330
2069
330
2599
330
2CD8
102
}
330
A
100
AcDbSymbolTableRecord
100
AcDbDimStyleTableRecord
  2
AM_JIS$0
 70
     0
  3

  4
"
  5
OPEN30
  6

  7

 40
0.5
 41
2.5
 42
0.0
 43
10.0
 44
1.0
 45
0.0
 46
0.0
 47
0.1
 48
0.1000000001
140
3.799999999999999
141
0.0
142
0.0
143
0.0393701
144
1.0
145
0.0
146
0.71
147
1.5
 71
     0
 72
     0
 73
     0
 74
     0
 75
     0
 76
     0
 77
     3
 78
     1
170
     0
171
     2
172
     1
173
     0
174
     0
175
     0
176
     3
177
     3
178
     2
270
     2
271
     2
272
     2
273
     2
274
     2
340
11
275
     1
280
     0
281
     0
282
     0
283
     0
284
     8
285
     0
286
     0
287
     0
288
     0
  0
ENDTAB
  0
TABLE
  2
BLOCK_RECORD
  5
1
330
0
100
AcDbSymbolTable
 70
    10
  0
BLOCK_RECORD
  5
1F
102
{ACAD_XDICTIONARY
360
74
102
}
330
1
100
AcDbSymbolTableRecord
100
AcDbBlockTableRecord
  2
*MODEL_SPACE
  0
BLOCK_RECORD
  5
101
102
{ACAD_XDICTIONARY
360
2E43
102
}
330
1
100
AcDbSymbolTableRecord
100
AcDbBlockTableRecord
  2
*PAPER_SPACE
  0
BLOCK_RECORD
  5
59
330
1
100
AcDbSymbolTableRecord
100
AcDbBlockTableRecord
  2
_OPEN30
  0
BLOCK_RECORD
  5
64
330
1
100
AcDbSymbolTableRecord
100
AcDbBlockTableRecord
  2
GENAXEH
  0
BLOCK_RECORD
  5
CC8
330
1
100
AcDbSymbolTableRecord
100
AcDbBlockTableRecord
  2
*D5
  0
BLOCK_RECORD
  5
206A
330
1
100
AcDbSymbolTableRecord
100
AcDbBlockTableRecord
  2
*D6
  0
BLOCK_RECORD
  5
259A
330
1
100
AcDbSymbolTableRecord
100
AcDbBlockTableRecord
  2
*D7
  0
BLOCK_RECORD
  5
2895
330
1
100
AcDbSymbolTableRecord
100
AcDbBlockTableRecord
  2
*D8
  0
BLOCK_RECORD
  5
2CD9
330
1
100
AcDbSymbolTableRecord
100
AcDbBlockTableRecord
  2
*D9
  0
ENDTAB
  0
ENDSEC
  0
SECTION
  2
BLOCKS
  0
BLOCK
  5
20
330
1F
100
AcDbEntity
  8
0
100
AcDbBlockBegin
  2
*MODEL_SPACE
 70
     0
 10
0.0
 20
0.0
 30
0.0
  3
*MODEL_SPACE
  1

  0
ENDBLK
  5
21
330
1F
100
AcDbEntity
  8
0
100
AcDbBlockEnd
  0
BLOCK
  5
103
330
101
100
AcDbEntity
 67
     1
  8
0
100
AcDbBlockBegin
  2
*PAPER_SPACE
 70
     0
 10
0.0
 20
0.0
 30
0.0
  3
*PAPER_SPACE
  1

  0
ENDBLK
  5
104
330
101
100
AcDbEntity
 67
     1
  8
0
100
AcDbBlockEnd
  0
BLOCK
  5
5D
330
59
100
AcDbEntity
  8
0
100
AcDbBlockBegin
  2
_OPEN30
 70
     0
 10
0.0
 20
0.0
 30
0.0
  3
_OPEN30
  1

  0
LINE
  5
5A
330
59
100
AcDbEntity
  8
0
 62
     0
100
AcDbLine
 10
-1.0
 20
0.26794919
 30
0.0
 11
0.0
 21
0.0
 31
0.0
  0
LINE
  5
5B
330
59
100
AcDbEntity
  8
0
 62
     0
100
AcDbLine
 10
0.0
 20
0.0
 30
0.0
 11
-1.0
 21
-0.26794919
 31
0.0
  0
LINE
  5
5C
330
59
100
AcDbEntity
  8
0
 62
     0
100
AcDbLine
 10
0.0
 20
0.0
 30
0.0
 11
-1.0
 21
0.0
 31
0.0
  0
ENDBLK
  5
5E
330
59
100
AcDbEntity
  8
0
100
AcDbBlockEnd
  0
BLOCK
  5
66
330
64
100
AcDbEntity
  8
0
100
AcDbBlockBegin
  2
GENAXEH
 70
     0
 10
0.0
 20
0.0
 30
0.0
  3
GENAXEH
  1

  0
LINE
  5
65
330
64
100
AcDbEntity
  8
0
100
AcDbLine
 10
-1.0
 20
0.0
 30
0.0
 11
1.0
 21
0.0
 31
0.0
  0
ENDBLK
  5
67
330
64
100
AcDbEntity
  8
0
100
AcDbBlockEnd
  0
BLOCK
  5
CD2
330
CC8
100
AcDbEntity
  8
0
100
AcDbBlockBegin
  2
*D5
 70
     1
 10
0.0
 20
0.0
 30
0.0
  3
*D5
  1

  0
LINE
  5
2DD3
330
CC8
100
AcDbEntity
  8
AM_5
 62
     3
100
AcDbLine
 10
-138.0
 20
-4.754479572481244
 30
0.0
 11
-138.0
 21
-17.50000402524002
 31
0.0
  0
LINE
  5
2DD4
330
CC8
100
AcDbEntity
  8
AM_5
 62
     3
100
AcDbLine
 10
-2.000000000000042
 20
-4.700000000000164
 30
0.0
 11
-2.000000000000043
 21
-17.50000402524002
 31
0.0
  0
LINE
  5
2DD5
330
CC8
100
AcDbEntity
  8
AM_5
 62
     3
100
AcDbLine
 10
-136.7499999999999
 20
-17.00000402524002
 30
0.0
 11
-3.250000000000043
 21
-17.00000402524002
 31
0.0
  0
INSERT
  5
2DD6
330
CC8
100
AcDbEntity
  8
AM_5
 62
     3
100
AcDbBlockReference
  2
_OPEN30
 10
-138.0
 20
-17.00000402524002
 30
0.0
 41
1.25
 42
1.25
 43
1.25
 50
180.0
  0
INSERT
  5
2DD7
330
CC8
100
AcDbEntity
  8
AM_5
 62
     3
100
AcDbBlockReference
  2
_OPEN30
 10
-2.000000000000043
 20
-17.00000402524002
 30
0.0
 41
1.25
 42
1.25
 43
1.25
  0
MTEXT
  5
2DD8
330
CC8
100
AcDbEntity
  8
AM_5
 62
     2
100
AcDbMText
 10
-70.00000000000003
 20
-15.30000402524002
 30
0.0
 40
1.9
 41
0.0
 71
     5
 72
     1
  1
136
1001
ACAD
1000
MTEXTBEGIN
1070
    73
1070
     1
1070
    44
1040
1.0
1070
    74
1070
     0
1000
MTEXTEND
  0
POINT
  5
2DD9
330
CC8
100
AcDbEntity
  8
DEFPOINTS
 62
     0
100
AcDbPoint
 10
-138.0
 20
-4.754479572481244
 30
0.0
  0
POINT
  5
2DDA
330
CC8
100
AcDbEntity
  8
DEFPOINTS
 62
     0
100
AcDbPoint
 10
-2.000000000000042
 20
-4.700000000000164
 30
0.0
  0
POINT
  5
2DDB
330
CC8
100
AcDbEntity
  8
DEFPOINTS
 62
     0
100
AcDbPoint
 10
-2.000000000000043
 20
-17.00000402524002
 30
0.0
  0
ENDBLK
  5
CD3
330
CC8
100
AcDbEntity
  8
0
100
AcDbBlockEnd
  0
BLOCK
  5
2074
330
206A
100
AcDbEntity
  8
0
100
AcDbBlockBegin
  2
*D6
 70
     1
 10
0.0
 20
0.0
 30
0.0
  3
*D6
  1

  0
LINE
  5
2DCA
330
206A
100
AcDbEntity
  8
AM_5
 62
     3
100
AcDbLine
 10
-81.99999999999997
 20
-4.999986311027836
 30
0.0
 11
-81.99999999999993
 21
-12.50000402524016
 31
0.0
  0
LINE
  5
2DCB
330
206A
100
AcDbEntity
  8
AM_5
 62
     3
100
AcDbLine
 10
-2.000000000000028
 20
-4.70000000000017
 30
0.0
 11
-2.000000000000006
 21
-12.50000402523993
 31
0.0
  0
LINE
  5
2DCC
330
206A
100
AcDbEntity
  8
AM_5
 62
     3
100
AcDbLine
 10
-80.74999999999995
 20
-12.00000402524016
 30
0.0
 11
-3.250000000000007
 21
-12.00000402523993
 31
0.0
  0
INSERT
  5
2DCD
330
206A
100
AcDbEntity
  8
AM_5
 62
     3
100
AcDbBlockReference
  2
_OPEN30
 10
-81.99999999999995
 20
-12.00000402524016
 30
0.0
 41
1.25
 42
1.25
 43
1.25
 50
180.0000000000001
  0
INSERT
  5
2DCE
330
206A
100
AcDbEntity
  8
AM_5
 62
     3
100
AcDbBlockReference
  2
_OPEN30
 10
-2.000000000000007
 20
-12.00000402523993
 30
0.0
 41
1.25
 42
1.25
 43
1.25
 50
0.0000000000001527
  0
MTEXT
  5
2DCF
330
206A
100
AcDbEntity
  8
AM_5
 62
     2
100
AcDbMText
 10
-41.99999999999998
 20
-10.30000402524005
 30
0.0
 40
1.9
 41
0.0
 71
     5
 72
     1
  1
80
1001
ACAD
1000
MTEXTBEGIN
1070
    73
1070
     1
1070
    44
1040
1.0
1070
    74
1070
     0
1000
MTEXTEND
  0
POINT
  5
2DD0
330
206A
100
AcDbEntity
  8
DEFPOINTS
 62
     0
100
AcDbPoint
 10
-81.99999999999999
 20
-4.999986311027597
 30
0.0
  0
POINT
  5
2DD1
330
206A
100
AcDbEntity
  8
DEFPOINTS
 62
     0
100
AcDbPoint
 10
-2.000000000000042
 20
-4.700000000000164
 30
0.0
  0
POINT
  5
2DD2
330
206A
100
AcDbEntity
  8
DEFPOINTS
 62
     0
100
AcDbPoint
 10
-2.000000000000042
 20
-12.00000402523992
 30
0.0
  0
ENDBLK
  5
2075
330
206A
100
AcDbEntity
  8
0
100
AcDbBlockEnd
  0
BLOCK
  5
25A4
330
259A
100
AcDbEntity
  8
0
100
AcDbBlockBegin
  2
*D7
 70
     1
 10
0.0
 20
0.0
 30
0.0
  3
*D7
  1

  0
LINE
  5
2AD8
330
259A
100
AcDbEntity
  8
AM_5
 62
     3
100
AcDbLine
 10
-137.7544818454374
 20
-5.000003025240719
 30
0.0
 11
-148.000001
 21
-5.000003025240747
 31
0.0
  0
LINE
  5
2AD9
330
259A
100
AcDbEntity
  8
AM_5
 62
     3
100
AcDbLine
 10
-137.7544818454375
 20
5.000024525350962
 30
0.0
 11
-148.000001
 21
5.000024525350934
 31
0.0
  0
LINE
  5
2ADA
330
259A
100
AcDbEntity
  8
AM_5
 62
     3
100
AcDbLine
 10
-147.500001
 20
-3.750003025240746
 30
0.0
 11
-147.500001
 21
3.750024525350935
 31
0.0
  0
INSERT
  5
2ADB
330
259A
100
AcDbEntity
  8
AM_5
 62
     3
100
AcDbBlockReference
  2
_OPEN30
 10
-147.500001
 20
-5.000003025240745
 30
0.0
 41
1.25
 42
1.25
 43
1.25
 50
270.0000000000001
  0
INSERT
  5
2ADC
330
259A
100
AcDbEntity
  8
AM_5
 62
     3
100
AcDbBlockReference
  2
_OPEN30
 10
-147.500001
 20
5.000024525350935
 30
0.0
 41
1.25
 42
1.25
 43
1.25
 50
90.00000000000015
  0
MTEXT
  5
2ADD
330
259A
100
AcDbEntity
  8
AM_5
 62
     2
100
AcDbMText
 10
-149.200001
 20
0.0000107500551106
 30
0.0
 40
1.9
 41
0.0
 71
     5
 72
     1
  1
%%c10
 11
-0.0000000000000028
 21
1.0
 31
0.0
1001
ACAD
1000
MTEXTBEGIN
1070
    73
1070
     1
1070
    44
1040
1.0
1070
    74
1070
     0
1000
MTEXTEND
  0
POINT
  5
2ADE
330
259A
100
AcDbEntity
  8
DEFPOINTS
 62
     0
100
AcDbPoint
 10
-137.7544818454374
 20
-5.000003025240291
 30
0.0
  0
POINT
  5
2ADF
330
259A
100
AcDbEntity
  8
DEFPOINTS
 62
     0
100
AcDbPoint
 10
-137.7544818454375
 20
5.00002452535139
 30
0.0
  0
POINT
  5
2AE0
330
259A
100
AcDbEntity
  8
DEFPOINTS
 62
     0
100
AcDbPoint
 10
-147.500001
 20
5.000024525351394
 30
0.0
  0
ENDBLK
  5
25A5
330
259A
100
AcDbEntity
  8
0
100
AcDbBlockEnd
  0
BLOCK
  5
28A5
330
2895
100
AcDbEntity
  8
0
100
AcDbBlockBegin
  2
*D8
 70
     1
 10
0.0
 20
0.0
 30
0.0
  3
*D8
  1

  0
LINE
  5
2D41
330
2895
100
AcDbEntity
  8
AM_5
100
AcDbLine
 10
0.171010071662917
 20
-0.4698463103927166
 30
0.0
 11
4.879202122432606
 21
-13.40549765633841
 31
0.0
  0
LINE
  5
2D42
330
2895
100
AcDbEntity
  8
AM_5
100
AcDbLine
 10
0.1710100716629057
 20
0.4698463103931979
 30
0.0
 11
4.879202122432282
 21
13.405497656339
 31
0.0
  0
ARC
  5
2D43
330
2895
100
AcDbEntity
  8
AM_5
100
AcDbCircle
 10
0.0000000000000853
 20
0.0000000000002386
 30
0.0
 40
13.7658326348535
100
AcDbArc
 50
295.2045055962891
 51
64.79549440371221
  0
INSERT
  5
2D44
330
2895
100
AcDbEntity
  8
AM_5
100
AcDbBlockReference
  2
_OPEN30
 10
4.708192050769774
 20
-12.93565134594546
 30
0.0
 41
1.25
 42
1.25
 43
1.25
 50
202.6022527981444
  0
INSERT
  5
2D45
330
2895
100
AcDbEntity
  8
AM_5
100
AcDbBlockReference
  2
_OPEN30
 10
4.708192050769462
 20
12.93565134594605
 30
0.0
 41
1.25
 42
1.25
 43
1.25
 50
157.3977472018569
  0
MTEXT
  5
2D46
330
2895
100
AcDbEntity
  8
AM_5
 62
     2
100
AcDbMText
 10
12.21583263485358
 20
0.0000000000003932
 30
0.0
 40
1.6
 41
0.0
 71
     5
 72
     1
  1
140°
  7
ASAMI
 11
-0.0000000000000028
 21
1.0
 31
0.0
1001
ACAD
1000
MTEXTBEGIN
1070
    73
1070
     1
1070
    44
1040
1.0
1070
    74
1070
     0
1000
MTEXTEND
  0
POINT
  5
2D47
330
2895
100
AcDbEntity
  8
DEFPOINTS
 62
     0
100
AcDbPoint
 10
12.6400092499407
 20
-5.452367769346682
 30
0.0
  0
POINT
  5
2D48
330
2895
100
AcDbEntity
  8
DEFPOINTS
 62
     0
100
AcDbPoint
 10
0.0000000000000853
 20
0.0000000000002386
 30
0.0
  0
POINT
  5
2D49
330
2895
100
AcDbEntity
  8
DEFPOINTS
 62
     0
100
AcDbPoint
 10
-0.4344923399331933
 20
1.193757892892954
 30
0.0
  0
POINT
  5
2D4A
330
2895
100
AcDbEntity
  8
DEFPOINTS
 62
     0
100
AcDbPoint
 10
0.0000000000000853
 20
0.0000000000002386
 30
0.0
  0
POINT
  5
2D4B
330
2895
100
AcDbEntity
  8
DEFPOINTS
 62
     0
100
AcDbPoint
 10
-0.4344923399331684
 20
-1.193757892892479
 30
0.0
  0
ENDBLK
  5
28A6
330
2895
100
AcDbEntity
  8
0
100
AcDbBlockEnd
  0
BLOCK
  5
2CE3
330
2CD9
100
AcDbEntity
  8
0
100
AcDbBlockBegin
  2
*D9
 70
     1
 10
0.0
 20
0.0
 30
0.0
  3
*D9
  1

  0
LINE
  5
2DDC
330
2CD9
100
AcDbEntity
  8
AM_5
 62
     3
100
AcDbLine
 10
-1.999999999999978
 20
4.699999999999984
 30
0.0
 11
9.819899261168069
 21
4.700000000000017
 31
0.0
  0
LINE
  5
2DDD
330
2CD9
100
AcDbEntity
  8
AM_5
 62
     3
100
AcDbLine
 10
-2.000000000000023
 20
-4.700000000000011
 30
0.0
 11
9.819899261168098
 21
-4.699999999999977
 31
0.0
  0
LINE
  5
2DDE
330
2CD9
100
AcDbEntity
  8
AM_5
 62
     3
100
AcDbLine
 10
9.319899261168073
 20
3.450000000000015
 30
0.0
 11
9.319899261168094
 21
-3.449999999999979
 31
0.0
  0
INSERT
  5
2DDF
330
2CD9
100
AcDbEntity
  8
AM_5
 62
     3
100
AcDbBlockReference
  2
_OPEN30
 10
9.319899261168069
 20
4.700000000000015
 30
0.0
 41
1.25
 42
1.25
 43
1.25
 50
90.00000000000017
  0
INSERT
  5
2DE0
330
2CD9
100
AcDbEntity
  8
AM_5
 62
     3
100
AcDbBlockReference
  2
_OPEN30
 10
9.319899261168098
 20
-4.699999999999979
 30
0.0
 41
1.25
 42
1.25
 43
1.25
 50
270.0000000000001
  0
MTEXT
  5
2DE1
330
2CD9
100
AcDbEntity
  8
AM_5
 62
     2
100
AcDbMText
 10
7.619899261168083
 20
0.0000000000000129
 30
0.0
 40
1.9
 41
0.0
 71
     5
 72
     1
  1
%%c9.4
 11
-0.0000000000000028
 21
1.0
 31
0.0
1001
ACAD
1000
MTEXTBEGIN
1070
    73
1070
     1
1070
    44
1040
1.0
1070
    74
1070
     0
1000
MTEXTEND
  0
POINT
  5
2DE2
330
2CD9
100
AcDbEntity
  8
DEFPOINTS
 62
     0
100
AcDbPoint
 10
-1.999999999999963
 20
4.699999999999989
 30
0.0
  0
POINT
  5
2DE3
330
2CD9
100
AcDbEntity
  8
DEFPOINTS
 62
     0
100
AcDbPoint
 10
-2.000000000000038
 20
-4.700000000000004
 30
0.0
  0
POINT
  5
2DE4
330
2CD9
100
AcDbEntity
  8
DEFPOINTS
 62
     0
100
AcDbPoint
 10
9.319899261168082
 20
-4.700000000000008
 30
0.0
  0
ENDBLK
  5
2CE4
330
2CD9
100
AcDbEntity
  8
0
100
AcDbBlockEnd
  0
ENDSEC
  0
SECTION
  2
ENTITIES
  0
DIMENSION
  5
CC6
330
1F
100
AcDbEntity
  8
AM_5
100
AcDbDimension
  2
*D5
 10
-2.000000000000043
 20
-17.00000402524002
 30
0.0
 11
-70.00000000000003
 21
-15.30000402524002
 31
0.0
 70
    32
  1
<>
  3
AM_JIS$0
100
AcDbAlignedDimension
 13
-138.0
 23
-4.754479572481244
 33
0.0
 14
-2.000000000000042
 24
-4.700000000000164
 34
0.0
 50
0.0000000000001132
100
AcDbRotatedDimension
1001
GENIUS_GENDTOL_13
1000

1000
h7
1000

1040
0.0
1001
ACAD
1000
DSTYLE
1002
{
1070
   271
1070
     0
1002
}
  0
TEXT
  5
19BD
330
1F
100
AcDbEntity
  8
AM_6
100
AcDbText
 10
-80.83330337206827
 20
-28.25000402524005
 30
0.0
 40
2.5
  1
MDW094LHK
 50
0.0000000000001527
 72
     4
 11
-69.99997003873494
 21
-27.00000402524002
 31
0.0
100
AcDbText
  0
DIMENSION
  5
2069
330
1F
100
AcDbEntity
  8
AM_5
100
AcDbDimension
  2
*D6
 10
-2.000000000000042
 20
-12.00000402523992
 30
0.0
 11
-42.00000000000001
 21
-10.30000402523993
 31
0.0
 70
    32
  1
<>
 51
359.9999999999998
  3
AM_JIS$0
100
AcDbAlignedDimension
 13
-81.99999999999999
 23
-4.999986311027597
 33
0.0
 14
-2.000000000000042
 24
-4.700000000000164
 34
0.0
 50
0.0000000000001527
100
AcDbRotatedDimension
1001
ACAD
1000
DSTYLE
1002
{
1070
   271
1070
     0
1070
   174
1070
     1
1002
}
1001
GENIUS_GENDTOL_13
1000

1000
h7
1000

1040
0.0
  0
LINE
  5
23EF
330
1F
100
AcDbEntity
  8
AM_7
100
AcDbLine
 10
-140.5
 20
0.0000000000006516
 30
0.0
 11
2.31990003107253
 21
-0.0000000000000108
 31
0.0
1001
GENIUS_GENODEF_13
1002
{
1000
HIER
1070
     0
1002
}
1002
{
1000
MANEDIT
1070
     0
1002
}
1002
{
1000
NOSEL
1070
     0
1002
}
1002
{
1000
BEHIND
1070
     0
1002
}
1002
{
1000
REACTOR
1002
}
1001
GENIUS_GENOBJ-N-CEN_13
1002
{
1000
OWNER
1000
GEN
1002
}
  0
ELLIPSE
  5
24C7
330
1F
100
AcDbEntity
  8
AM_11
 48
0.5
100
AcDbEllipse
 10
-76.70462994420418
 20
20.09720314218454
 30
0.0
 11
-23.19725211461353
 21
0.0000000000005165
 31
0.0
210
0.0
220
0.0
230
1.0
 40
0.9578947368421058
 41
1.130070686340301
 42
2.011520147323591
  0
ELLIPSE
  5
24C8
330
1F
100
AcDbEntity
  8
AM_11
 48
0.5
100
AcDbEllipse
 10
-76.70462994420532
 20
-20.09718855347365
 30
0.0
 11
23.1972521146135
 21
0.0000000000003877
 31
0.0
210
0.0
220
0.0
230
1.0
 40
0.957894736842107
 41
1.13007155259185
 42
2.011521013575156
  0
ELLIPSE
  5
24C9
330
1F
100
AcDbEntity
  8
AM_11
 48
0.5
100
AcDbEllipse
 10
-96.49629661087184
 20
-20.09718855347319
 30
0.0
 11
-23.19725211461353
 21
0.0000000000000787
 31
0.0
210
0.0
220
0.0
230
1.0
 40
0.9578947368421061
 41
4.271664206181663
 42
5.153113667164971
  0
ELLIPSE
  5
24CA
330
1F
100
AcDbEntity
  8
AM_11
 48
0.5
100
AcDbEllipse
 10
-96.4962966108707
 20
20.09720314218501
 30
0.0
 11
-23.19725211461357
 21
0.0000000000000117
 31
0.0
210
0.0
220
0.0
230
1.0
 40
0.9578947368421045
 41
1.130070686340277
 42
2.011520147323567
  0
ELLIPSE
  5
24DA
330
1F
100
AcDbEntity
  8
AM_11
 48
0.5
100
AcDbEllipse
 10
-136.0796265404638
 20
-20.09713351066407
 30
0.0
 11
23.19725211461342
 21
0.0000000000003671
 31
0.0
210
0.0
220
0.0
230
1.0
 40
0.9578947368421085
 41
1.13007155259185
 42
1.653675700510905
  0
ELLIPSE
  5
24DB
330
1F
100
AcDbEntity
  8
AM_11
 48
0.5
100
AcDbEllipse
 10
-136.0796265404627
 20
20.09725818499413
 30
0.0
 11
-23.19725211461347
 21
0.000000000000362
 31
0.0
210
0.0
220
0.0
230
1.0
 40
0.9578947368421086
 41
1.487916953078831
 42
2.011520147323584
  0
ELLIPSE
  5
24DC
330
1F
100
AcDbEntity
  8
AM_11
 48
0.5
100
AcDbEllipse
 10
-116.2880037070065
 20
-20.09717028717649
 30
0.0
 11
23.1972521146135
 21
0.0000000000003208
 31
0.0
210
0.0
220
0.0
230
1.0
 40
0.9578947368421049
 41
1.130071552591854
 42
2.011521013575157
  0
ELLIPSE
  5
24DD
330
1F
100
AcDbEntity
  8
AM_11
 48
0.5
100
AcDbEllipse
 10
-116.2880037070053
 20
20.09722140848172
 30
0.0
 11
-23.19725211461354
 21
0.0000000000004186
 31
0.0
210
0.0
220
0.0
230
1.0
 40
0.9578947368421047
 41
1.130070686340294
 42
2.011520147323585
  0
LINE
  5
2567
330
1F
100
AcDbEntity
  8
AM_0
 48
0.5
100
AcDbLine
 10
-138.0
 20
-4.754479572481244
 30
0.0
 11
-138.0
 21
4.754501072592363
 31
0.0
  0
LINE
  5
2568
330
1F
100
AcDbEntity
  8
AM_0
 48
0.5
100
AcDbLine
 10
-137.7544818454375
 20
-5.000003025240291
 30
0.0
 11
-137.7544818454375
 21
5.00002452535139
 31
0.0
  0
LINE
  5
2569
330
1F
100
AcDbEntity
  8
AM_0
 48
0.5
100
AcDbLine
 10
-81.99999999999999
 20
-4.999992428858878
 30
0.0
 11
-82.00000000000001
 21
5.000024525351547
 31
0.0
  0
LINE
  5
256C
330
1F
100
AcDbEntity
  8
AM_0
100
AcDbLine
 10
-137.7544818454375
 20
-4.999992428859036
 30
0.0
 11
-81.99999999999999
 21
-4.999992428858878
 31
0.0
  0
LINE
  5
256D
330
1F
100
AcDbEntity
  8
AM_0
 48
0.5
100
AcDbLine
 10
-137.9999682108611
 20
-4.754458379718757
 30
0.0
 11
-137.7544394599097
 21
-4.999981832477782
 31
0.0
  0
LINE
  5
256E
330
1F
100
AcDbEntity
  8
AM_0
 48
0.5
100
AcDbLine
 10
-81.48041154304078
 20
-4.700001397486473
 30
0.0
 11
-82.00001059638124
 21
-4.999992428858878
 31
0.0
  0
LINE
  5
256F
330
1F
100
AcDbEntity
  8
AM_0
100
AcDbLine
 10
-82.00000000000001
 20
5.000011279874455
 30
0.0
 11
-137.7544818454375
 21
5.000011279874298
 31
0.0
  0
LINE
  5
2570
330
1F
100
AcDbEntity
  8
AM_0
 48
0.5
100
AcDbLine
 10
-137.9999682108611
 20
4.754456037972223
 30
0.0
 11
-137.7544394599097
 21
4.999979490730558
 31
0.0
  0
LINE
  5
2571
330
1F
100
AcDbEntity
  8
AM_0
 48
0.5
100
AcDbLine
 10
-81.48044446733734
 20
4.7000349263459
 30
0.0
 11
-82.00000000000001
 21
5.000000683493204
 31
0.0
  0
DIMENSION
  5
2599
330
1F
100
AcDbEntity
  8
AM_5
100
AcDbDimension
  2
*D7
 10
-147.500001
 20
5.000024525351394
 30
0.0
 11
-147.500001
 21
0.0000107500555445
 31
0.0
 70
   160
  1
%%c<>
 51
359.9999999999998
  3
AM_JIS$0
100
AcDbAlignedDimension
 13
-137.7544818454374
 23
-5.000003025240291
 33
0.0
 14
-137.7544818454375
 24
5.00002452535139
 34
0.0
 50
270.0000000000002
100
AcDbRotatedDimension
1001
ACAD
1000
DSTYLE
1002
{
1070
   271
1070
     0
1002
}
1001
GENIUS_GENDTOL_13
1000

1000
h7
1000

1040
0.0
  0
ELLIPSE
  5
27AB
330
1F
100
AcDbEntity
  8
AM_0
 48
0.5
100
AcDbEllipse
 10
8.092420226088458
 20
7.536933027588083
 30
0.0
 11
-7.514789042215193
 21
7.514789042215123
 31
0.0
210
0.0
220
0.0
230
1.0
 40
0.999999999999998
 41
1.171329590070667
 42
1.424984195904709
  0
ELLIPSE
  5
27AC
330
1F
100
AcDbEntity
  8
AM_0
 48
0.5
100
AcDbEllipse
 10
8.09242022609065
 20
-7.536933027585754
 30
0.0
 11
-7.514789042213017
 21
-7.514789042217307
 31
0.0
210
0.0
220
0.0
230
-0.9999999999999998
 40
0.9999999999999978
 41
1.171329590070667
 42
1.424984195904709
  0
LINE
  5
27AD
330
1F
100
AcDbEntity
  8
AM_0
 48
0.5
100
AcDbLine
 10
-1.753423646303073
 20
3.536499658753671
 30
0.0
 11
-1.999999999999963
 21
4.699999999999989
 31
0.0
  0
LINE
  5
27AF
330
1F
100
AcDbEntity
  8
AM_0
100
AcDbLine
 10
0.0000000000000853
 20
0.0000000000002386
 30
0.0
 11
-0.4344923399331684
 21
-1.193757892892479
 31
0.0
  0
LINE
  5
27B0
330
1F
100
AcDbEntity
  8
AM_0
100
AcDbLine
 10
-0.4344923399331933
 20
1.193757892892954
 30
0.0
 11
0.0000000000000853
 21
0.0000000000002386
 31
0.0
  0
LINE
  5
27B1
330
1F
100
AcDbEntity
  8
AM_0
 48
0.5
100
AcDbLine
 10
-1.753423646302021
 20
-3.536499658754226
 30
0.0
 11
-2.000000000000038
 21
-4.700000000000004
 31
0.0
  0
DIMENSION
  5
2894
330
1F
100
AcDbEntity
  8
AM_5
100
AcDbDimension
  2
*D8
 10
-0.4344923399331684
 20
-1.193757892892479
 30
0.0
 11
12.21583263485358
 21
0.0000000000003557
 31
0.0
 70
    34
  1
<>
 51
359.9999999999998
  3
AM_JIS$2
100
AcDb2LineAngularDimension
 13
-0.4344923399331933
 23
1.193757892892954
 33
0.0
 14
0.0000000000000853
 24
0.0000000000002386
 34
0.0
 15
0.0000000000000853
 25
0.0000000000002386
 35
0.0
 16
12.6400092499407
 26
-5.452367769346682
 36
0.0
1001
ACAD
1000
DSTYLE
1002
{
1070
   179
1070
     3
1002
}
1001
GENIUS_GENDTOL_13
1000

1000
h7
1000

1040
0.0
  0
DIMENSION
  5
2CD8
330
1F
100
AcDbEntity
  8
AM_5
100
AcDbDimension
  2
*D9
 10
9.319899261168082
 20
-4.700000000000008
 30
0.0
 11
7.619899261168083
 21
-0.0000000000000092
 31
0.0
 70
    32
  1
%%c<>
 51
359.9999999999998
  3
AM_JIS$0
100
AcDbAlignedDimension
 13
-1.999999999999963
 23
4.699999999999989
 33
0.0
 14
-2.000000000000038
 24
-4.700000000000004
 34
0.0
 50
89.99998909590908
100
AcDbRotatedDimension
1001
ACAD
1000
DSTYLE
1002
{
1070
   271
1070
     1
1002
}
1001
GENIUS_GENDTOL_13
1000

1000
h7
1000

1040
0.0
  0
LINE
  5
2D8F
330
1F
100
AcDbEntity
  8
AM_0
 48
0.5
100
AcDbLine
 10
-76.18169216955289
 20
-4.699999514019114
 30
0.0
 11
-81.48041154304078
 21
-4.700001397486473
 31
0.0
  0
LINE
  5
2D90
330
1F
100
AcDbEntity
  8
AM_0
100
AcDbLine
 10
-81.48044446733736
 20
4.7000349263459
 30
0.0
 11
-81.4804444673374
 21
-4.700020288569134
 31
0.0
  0
LINE
  5
2D91
330
1F
100
AcDbEntity
  8
AM_0
 48
0.5
100
AcDbLine
 10
-74.59408235878441
 20
4.700037438676753
 30
0.0
 11
-81.48044446733734
 21
4.7000349263459
 31
0.0
  0
LINE
  5
2D92
330
1F
100
AcDbEntity
  8
AM_0
 48
0.5
100
AcDbLine
 10
-4.472379094804383
 20
4.700000485978478
 30
0.0
 11
-1.999999999999963
 21
4.699999999999989
 31
0.0
  0
LINE
  5
2D93
330
1F
100
AcDbEntity
  8
AM_0
 48
0.5
100
AcDbLine
 10
0.0000000000001386
 20
0.0000000000002267
 30
0.0
 11
-1.891471447803326
 21
1.779593149478694
 31
0.0
  0
LINE
  5
2D94
330
1F
100
AcDbEntity
  8
AM_0
 48
0.5
100
AcDbLine
 10
-4.472379094804707
 20
-4.699999514021524
 30
0.0
 11
-2.000000000000036
 21
-4.700000000000009
 31
0.0
  0
LINE
  5
2D95
330
1F
100
AcDbEntity
  8
AM_0
 48
0.5
100
AcDbLine
 10
-36.47392404719644
 20
4.700000485979597
 30
0.0
 11
-16.61478799212757
 21
4.700000485978901
 31
0.0
  0
LINE
  5
2D96
330
1F
100
AcDbEntity
  8
AM_0
 48
0.5
100
AcDbLine
 10
-32.97197925205221
 20
-4.699999514020626
 30
0.0
 11
-19.55277383967744
 21
-4.699999514021
 31
0.0
  0
LINE
  5
2D97
330
1F
100
AcDbEntity
  8
AM_0
100
AcDbLine
 10
-64.97363413020464
 20
4.700000485980496
 30
0.0
 11
-46.09764082594471
 21
4.700668206276086
 31
0.0
  0
LINE
  5
2D98
330
1F
100
AcDbEntity
  8
AM_0
 48
0.5
100
AcDbLine
 10
-64.97364017017043
 20
-4.699999514019445
 30
0.0
 11
-48.05237399692606
 21
-4.69999951402
 31
0.0
  0
LINE
  5
2D99
330
1F
100
AcDbEntity
  8
AM_11
 48
0.5
100
AcDbLine
 10
-46.09764082594471
 20
4.700668206276086
 30
0.0
 11
-36.47391105854115
 21
4.700000485979597
 31
0.0
  0
LINE
  5
2D9A
330
1F
100
AcDbEntity
  8
AM_11
 48
0.5
100
AcDbLine
 10
-48.05237399692302
 20
-4.699999514020099
 30
0.0
 11
-32.97197925205221
 21
-4.700667234316766
 31
0.0
  0
LINE
  5
2D9B
330
1F
100
AcDbEntity
  8
AM_11
 48
0.5
100
AcDbLine
 10
-19.55277383967744
 20
-4.699999514021
 30
0.0
 11
-4.472379094804707
 21
-4.699999514021524
 31
0.0
  0
LINE
  5
2D9C
330
1F
100
AcDbEntity
  8
AM_11
 48
0.5
100
AcDbLine
 10
-16.61478799212757
 20
4.700000485978901
 30
0.0
 11
-4.472379094804383
 21
4.700000485978478
 31
0.0
  0
SPLINE
  5
2D9D
330
1F
100
AcDbEntity
  8
AM_0
100
AcDbSpline
210
0.0
220
0.0
230
1.0
 70
     8
 71
     3
 72
    11
 73
     7
 74
     0
 42
0.0000000001
 43
0.0000000001
 40
11.27226913003534
 40
11.27226913003534
 40
11.27226913003534
 40
11.2722691300354
 40
12.28301561507924
 40
13.29510212255852
 40
14.30984805882082
 40
15.18258238371378
 40
15.18258238371378
 40
15.18258238371378
 40
15.18258238371378
 10
-19.55277383967742
 20
-4.699999514021
 30
0.0
 10
-19.81849835380257
 20
-4.676996348209908
 30
0.0
 10
-20.34944617508996
 20
-4.621306684919914
 30
0.0
 10
-21.14312619145482
 20
-4.508966859258458
 30
0.0
 10
-21.89634252174302
 20
-4.374789255087334
 30
0.0
 10
-22.38347863126185
 20
-4.271642937379327
 30
0.0
 10
-22.60796482171616
 20
-4.220691505435527
 30
0.0
  0
SPLINE
  5
2D9E
330
1F
100
AcDbEntity
  8
AM_0
100
AcDbSpline
210
0.0
220
0.0
230
1.0
 70
     8
 71
     3
 72
    17
 73
    13
 74
     0
 42
0.0000000001
 43
0.0000000001
 40
1.580019955310467
 40
1.580019955310467
 40
1.580019955310467
 40
1.580019955310467
 40
2.030549285115227
 40
3.082371838836284
 40
4.126290986361125
 40
5.162752068350215
 40
6.192395305374981
 40
7.216039564037012
 40
8.234688489606833
 40
9.249433870634691
 40
10.26152376260694
 40
11.27226744710342
 40
11.27226744710342
 40
11.27226744710342
 40
11.27226744710352
 10
-12.01198818556029
 20
-3.468737912995953
 30
0.0
 10
-12.12525335569867
 20
-3.504463036892949
 30
0.0
 10
-12.50359707677612
 20
-3.621556902237736
 30
0.0
 10
-13.14952363397169
 20
-3.805222819722234
 30
0.0
 10
-13.94959922987104
 20
-4.010904282354266
 30
0.0
 10
-14.74989508583288
 20
-4.191465297878991
 30
0.0
 10
-15.55022761107145
 20
-4.346299501824625
 30
0.0
 10
-16.35064733110427
 20
-4.474280622714283
 30
0.0
 10
-17.15112234983875
 20
-4.574678328722909
 30
0.0
 10
-17.95164721255562
 20
-4.64684200912209
 30
0.0
 10
-18.75220219639537
 20
-4.690307137920579
 30
0.0
 10
-19.28603505336825
 20
-4.69999954091466
 30
0.0
 10
-19.55277383967737
 20
-4.699999514021
 30
0.0
  0
SPLINE
  5
2D9F
330
1F
100
AcDbEntity
  8
AM_0
100
AcDbSpline
210
0.0
220
0.0
230
1.0
 70
     8
 71
     3
 72
    22
 73
    18
 74
     0
 42
0.0000000001
 43
0.0000000001
 40
17.17441611292
 40
17.17441611292
 40
17.17441611292
 40
17.17441611292
 40
17.38177636558528
 40
18.41823744757437
 40
19.46215659509824
 40
20.51397914882054
 40
21.57394542641293
 40
22.64209583141747
 40
23.71826625065247
 40
24.80210429862395
 40
25.8930771157021
 40
26.99048705697709
 40
28.09349309193389
 40
29.20112995599786
 40
30.31233024745139
 40
31.42594771747373
 40
32.5407895042663
 40
32.54078950426994
 40
32.54078950426994
 40
32.54078950426994
 10
-22.60831493201121
 20
-4.220633530971467
 30
0.0
 10
-22.66192123499576
 20
-4.209753491955786
 30
0.0
 10
-22.98326174528097
 20
-4.14348198509368
 30
0.0
 10
-23.57193945265782
 20
-4.010598988406501
 30
0.0
 10
-24.37212643275398
 20
-3.80523335525387
 30
0.0
 10
-25.17223187547656
 20
-3.576416271542776
 30
0.0
 10
-25.9722614295251
 20
-3.325576070245652
 30
0.0
 10
-26.77221403811623
 20
-3.054250772668343
 30
0.0
 10
-27.57209954773896
 20
-2.764128961515631
 30
0.0
 10
-28.37192166208803
 20
-2.456993632091956
 30
0.0
 10
-29.17168778141993
 20
-2.134738871144809
 30
0.0
 10
-29.9714067986268
 20
-1.799352786429665
 30
0.0
 10
-30.7710856547873
 20
-1.45289767712376
 30
0.0
 10
-31.5707323999619
 20
-1.097504993603423
 30
0.0
 10
-32.37035412232306
 20
-0.7353599985909247
 30
0.0
 10
-33.16996266757122
 20
-0.368697322447753
 30
0.0
 10
-33.70293039534885
 20
-0.1227844432536788
 30
0.0
 10
-33.96956066930961
 20
0.0002395403420872
 30
0.0
  0
SPLINE
  5
2DA0
330
1F
100
AcDbEntity
  8
AM_0
100
AcDbSpline
210
0.0
220
0.0
230
1.0
 70
     8
 71
     3
 72
    46
 73
    42
 74
     0
 42
0.0000000001
 43
0.0000000001
 40
0.0
 40
0.0
 40
0.0
 40
0.0
 40
1.685415058684571
 40
2.531036209541119
 40
3.379897699130121
 40
4.232934581347655
 40
5.090970612202441
 40
5.954688180526682
 40
6.824620803463246
 40
7.701151815239689
 40
8.584457046566678
 40
9.474582384070741
 40
10.37139106676737
 40
11.27458944007583
 40
12.18373345430765
 40
13.09824173870457
 40
14.01741343450111
 40
14.9404441545541
 40
15.86644439743314
 40
16.79446029130534
 40
17.7234937712985
 40
18.65252725129241
 40
19.58054314516461
 40
20.50654338804289
 40
21.42957410809586
 40
22.34874580389317
 40
23.26325408828901
 40
24.17239810252111
 40
25.07560240389441
 40
25.97241108659103
 40
26.8625364240951
 40
27.74584165542183
 40
28.62236045019041
 40
29.49229307312697
 40
30.35601064145121
 40
31.21404606334468
 40
32.06708345193547
 40
32.91595755657689
 40
33.76157841950693
 40
34.60498701064689
 40
35.44727335621125
 40
35.44727335621125
 40
35.44727335621125
 40
35.44727335621125
 10
-2.231369064693827
 20
-4.699999514021605
 30
0.0
 10
-2.765227995428622
 20
-4.689292550707286
 30
0.0
 10
-3.56693928756058
 20
-4.673213596325617
 30
0.0
 10
-4.63300975392444
 20
-4.5742184280589
 30
0.0
 10
-5.433489637923314
 20
-4.474404964563941
 30
0.0
 10
-6.233901099947879
 20
-4.346261432338566
 30
0.0
 10
-7.03424203144027
 20
-4.191491802345514
 30
0.0
 10
-7.834508320892172
 20
-4.010836005267593
 30
0.0
 10
-8.63469862797779
 20
-3.805470898943142
 30
0.0
 10
-9.434809391567615
 20
-3.576657455525551
 30
0.0
 10
-10.23484221089118
 20
-3.325814860844875
 30
0.0
 10
-11.03479493410346
 20
-3.054489898418079
 30
0.0
 10
-11.83468041287293
 20
-2.764367996888565
 30
0.0
 10
-12.63450253480295
 20
-2.457232690286955
 30
0.0
 10
-13.43426865500383
 20
-2.134977929399652
 30
0.0
 10
-14.23398766098135
 20
-1.799591821193163
 30
0.0
 10
-15.03366656151333
 20
-1.453136806496423
 30
0.0
 10
-15.83331313949316
 20
-1.097743766023855
 30
0.0
 10
-16.63293587345412
 20
-0.7355999356936592
 30
0.0
 10
-17.43254206800207
 20
-0.3689322454975672
 30
0.0
 10
-18.23214154091921
 20
0.0000004859043081
 30
0.0
 10
-19.03174101366068
 20
0.3689332177545115
 30
0.0
 10
-19.83134720873553
 20
0.7356009066062754
 30
0.0
 10
-20.6309699407706
 20
1.097744741849391
 30
0.0
 10
-21.43061652589174
 20
1.453137764101729
 30
0.0
 10
-22.23029539994445
 20
1.799592846357234
 30
0.0
 10
-23.03001450398374
 20
2.134978704369853
 30
0.0
 10
-23.82978200011288
 20
2.457235091294708
 30
0.0
 10
-24.62960722976581
 20
2.764367607416362
 30
0.0
 10
-25.4294941354084
 20
3.054490996591634
 30
0.0
 10
-26.2294468399955
 20
3.325816039752043
 30
0.0
 10
-27.02947637287512
 20
3.576656329403641
 30
0.0
 10
-27.82958180549146
 20
3.805473312371375
 30
0.0
 10
-28.62976884625393
 20
4.010839257634759
 30
0.0
 10
-29.43003467255373
 20
4.191483235262007
 30
0.0
 10
-30.23037619080712
 20
4.346297754546628
 30
0.0
 10
-31.03079276111939
 20
4.474258296164838
 30
0.0
 10
-31.83126852044836
 20
4.574774427848394
 30
0.0
 10
-32.63179380482298
 20
4.646487395015124
 30
0.0
 10
-33.43234814766999
 20
4.691613615925022
 30
0.0
 10
-33.96618121974617
 20
4.697206103687816
 30
0.0
 10
-34.23292005702329
 20
4.700000485979519
 30
0.0
  0
SPLINE
  5
2DA1
330
1F
100
AcDbEntity
  8
AM_0
100
AcDbSpline
210
0.0
220
0.0
230
1.0
 70
     8
 71
     3
 72
    11
 73
     7
 74
     0
 42
0.0000000001
 43
0.0000000001
 40
11.27226913003534
 40
11.27226913003534
 40
11.27226913003534
 40
11.2722691300354
 40
12.28301561507924
 40
13.29510212255852
 40
14.30984805882082
 40
15.18258238371378
 40
15.18258238371378
 40
15.18258238371378
 40
15.18258238371378
 10
-48.05237399692491
 20
-4.6999995140201
 30
0.0
 10
-48.31809851105008
 20
-4.676996348209013
 30
0.0
 10
-48.84904633233747
 20
-4.621306684919015
 30
0.0
 10
-49.64272634870233
 20
-4.508966859257558
 30
0.0
 10
-50.39594267899055
 20
-4.374789255086436
 30
0.0
 10
-50.88307878850938
 20
-4.271642937378429
 30
0.0
 10
-51.10756497896369
 20
-4.220691505434627
 30
0.0
  0
SPLINE
  5
2DA2
330
1F
100
AcDbEntity
  8
AM_0
100
AcDbSpline
210
0.0
220
0.0
230
1.0
 70
     8
 71
     3
 72
    17
 73
    13
 74
     0
 42
0.0000000001
 43
0.0000000001
 40
1.580019955310467
 40
1.580019955310467
 40
1.580019955310467
 40
1.580019955310467
 40
2.030549285115227
 40
3.082371838836284
 40
4.126290986361125
 40
5.162752068350215
 40
6.192395305374981
 40
7.216039564037012
 40
8.234688489606833
 40
9.249433870634691
 40
10.26152376260694
 40
11.27226744710342
 40
11.27226744710342
 40
11.27226744710342
 40
11.27226744710352
 10
-40.51158834280776
 20
-3.468737912995055
 30
0.0
 10
-40.62485351294614
 20
-3.50446303689205
 30
0.0
 10
-41.00319723402357
 20
-3.621556902236836
 30
0.0
 10
-41.64912379121915
 20
-3.805222819721335
 30
0.0
 10
-42.44919938711853
 20
-4.010904282353366
 30
0.0
 10
-43.2494952430804
 20
-4.191465297878092
 30
0.0
 10
-44.04982776831897
 20
-4.346299501823726
 30
0.0
 10
-44.8502474883518
 20
-4.474280622713382
 30
0.0
 10
-45.65072250708625
 20
-4.574678328722011
 30
0.0
 10
-46.45124736980312
 20
-4.646842009121191
 30
0.0
 10
-47.25180235364287
 20
-4.690307137919682
 30
0.0
 10
-47.78563521061576
 20
-4.699999540913759
 30
0.0
 10
-48.05237399692487
 20
-4.6999995140201
 30
0.0
  0
SPLINE
  5
2DA3
330
1F
100
AcDbEntity
  8
AM_0
100
AcDbSpline
210
0.0
220
0.0
230
1.0
 70
     8
 71
     3
 72
    22
 73
    18
 74
     0
 42
0.0000000001
 43
0.0000000001
 40
17.17441611292
 40
17.17441611292
 40
17.17441611292
 40
17.17441611292
 40
17.38177636558528
 40
18.41823744757437
 40
19.46215659509824
 40
20.51397914882054
 40
21.57394542641293
 40
22.64209583141747
 40
23.71826625065247
 40
24.80210429862395
 40
25.8930771157021
 40
26.99048705697709
 40
28.09349309193389
 40
29.20112995599786
 40
30.31233024745139
 40
31.42594771747373
 40
32.5407895042663
 40
32.54078950426994
 40
32.54078950426994
 40
32.54078950426994
 10
-51.10791508925874
 20
-4.220633530970566
 30
0.0
 10
-51.1615213922433
 20
-4.209753491954885
 30
0.0
 10
-51.4828619025285
 20
-4.143481985092779
 30
0.0
 10
-52.07153960990531
 20
-4.0105989884056
 30
0.0
 10
-52.87172659000143
 20
-3.805233355252969
 30
0.0
 10
-53.671832032724
 20
-3.576416271541877
 30
0.0
 10
-54.47186158677256
 20
-3.325576070244752
 30
0.0
 10
-55.27181419536372
 20
-3.054250772667444
 30
0.0
 10
-56.07169970498645
 20
-2.764128961514732
 30
0.0
 10
-56.87152181933551
 20
-2.456993632091057
 30
0.0
 10
-57.67128793866742
 20
-2.134738871143911
 30
0.0
 10
-58.47100695587433
 20
-1.799352786428766
 30
0.0
 10
-59.27068581203482
 20
-1.452897677122861
 30
0.0
 10
-60.07033255720935
 20
-1.097504993602524
 30
0.0
 10
-60.86995427957056
 20
-0.7353599985900256
 30
0.0
 10
-61.66956282481869
 20
-0.3686973224468541
 30
0.0
 10
-62.20253055259632
 20
-0.1227844432527796
 30
0.0
 10
-62.46916082655708
 20
0.0002395403429864
 30
0.0
  0
SPLINE
  5
2DA4
330
1F
100
AcDbEntity
  8
AM_0
100
AcDbSpline
210
0.0
220
0.0
230
1.0
 70
     8
 71
     3
 72
    23
 73
    19
 74
     0
 42
0.0000000001
 43
0.0000000001
 40
16.03460024169435
 40
16.03460024169435
 40
16.03460024169435
 40
16.03460024169435
 40
16.35212704903564
 40
17.38177054169784
 40
18.41822485651776
 40
19.46214173629503
 40
20.51396345435107
 40
21.57393551351153
 40
22.64208202342361
 40
23.7182574881101
 40
24.80209208578934
 40
25.89306333925047
 40
26.99048218457928
 40
28.09348763352352
 40
29.20111863782268
 40
30.31232390128032
 40
31.42594612798585
 40
32.5407912310448
 40
32.5407912310486
 40
32.5407912310486
 40
32.5407912310486
 10
-46.09764082594471
 20
4.700668206276085
 30
0.0
 10
-46.01539363804444
 20
4.684801833944278
 30
0.0
 10
-45.66679391500755
 20
4.615708248127514
 30
0.0
 10
-45.05273174871632
 20
4.480329911730118
 30
0.0
 10
-44.25751963584808
 20
4.279023805990256
 30
0.0
 10
-43.46304615339451
 20
4.052990603575119
 30
0.0
 10
-42.66926435528396
 20
3.803538469371334
 30
0.0
 10
-41.87614606879368
 20
3.532058104611583
 30
0.0
 10
-41.08364545358754
 20
3.240101405547669
 30
0.0
 10
-40.29170732293487
 20
2.929367486934965
 30
0.0
 10
-39.50028667606676
 20
2.601616016837633
 30
0.0
 10
-38.70932006192018
 20
2.258754104692365
 30
0.0
 10
-37.91874338149614
 20
1.902774612065474
 30
0.0
 10
-37.12850396092528
 20
1.535724271803394
 30
0.0
 10
-36.33853568183514
 20
1.159737431369253
 30
0.0
 10
-35.5487653764325
 20
0.7770095780657735
 30
0.0
 10
-34.75912873512047
 20
0.3897585161637995
 30
0.0
 10
-34.23284570499673
 20
0.1301278538277394
 30
0.0
 10
-33.96956066930608
 20
0.0002395403403986
 30
0.0
  0
SPLINE
  5
2DA5
330
1F
100
AcDbEntity
  8
AM_0
100
AcDbSpline
210
0.0
220
0.0
230
1.0
 70
     8
 71
     3
 72
    46
 73
    42
 74
     0
 42
0.0000000001
 43
0.0000000001
 40
0.0
 40
0.0
 40
0.0
 40
0.0
 40
1.685415058684573
 40
2.531036209541122
 40
3.379897699130124
 40
4.232934581347651
 40
5.090970612202446
 40
5.954688180526682
 40
6.824620803463244
 40
7.701151815239691
 40
8.584457046566678
 40
9.474582384070743
 40
10.37139106676737
 40
11.27458944007583
 40
12.18373345430765
 40
13.09824173870457
 40
14.0174134345011
 40
14.94044415455409
 40
15.86644439743313
 40
16.79446029130533
 40
17.72349377129849
 40
18.65252725129241
 40
19.5805431451646
 40
20.5065433880429
 40
21.42957410809586
 40
22.34874580389317
 40
23.26325408828901
 40
24.17239810252111
 40
25.07560240389441
 40
25.97241108659103
 40
26.8625364240951
 40
27.74584165542183
 40
28.62236045019041
 40
29.49229307312697
 40
30.35601064145121
 40
31.21404606334469
 40
32.06708345193547
 40
32.91595755657689
 40
33.76157841950692
 40
34.60498701064691
 40
35.44727335621125
 40
35.44727335621125
 40
35.44727335621125
 40
35.44727335621125
 10
-30.73096922194131
 20
-4.699999514020706
 30
0.0
 10
-31.26482815267611
 20
-4.689292550706389
 30
0.0
 10
-32.06653944480808
 20
-4.673213596324721
 30
0.0
 10
-33.13260991117193
 20
-4.574218428057998
 30
0.0
 10
-33.93308979517083
 20
-4.474404964563044
 30
0.0
 10
-34.73350125719539
 20
-4.346261432337666
 30
0.0
 10
-35.53384218868779
 20
-4.191491802344616
 30
0.0
 10
-36.33410847813966
 20
-4.010836005266694
 30
0.0
 10
-37.13429878522524
 20
-3.805470898942244
 30
0.0
 10
-37.93440954881507
 20
-3.576657455524652
 30
0.0
 10
-38.73444236813863
 20
-3.325814860843975
 30
0.0
 10
-39.53439509135094
 20
-3.054489898417181
 30
0.0
 10
-40.33428057012041
 20
-2.764367996887667
 30
0.0
 10
-41.13410269205042
 20
-2.457232690286054
 30
0.0
 10
-41.93386881225134
 20
-2.134977929398757
 30
0.0
 10
-42.73358781822884
 20
-1.799591821192261
 30
0.0
 10
-43.53326671876085
 20
-1.453136806495525
 30
0.0
 10
-44.33291329674061
 20
-1.097743766022954
 30
0.0
 10
-45.13253603070154
 20
-0.7355999356927614
 30
0.0
 10
-45.93214222524957
 20
-0.3689322454966676
 30
0.0
 10
-46.73174169816669
 20
0.0000004859052073
 30
0.0
 10
-47.53134117090816
 20
0.3689332177554101
 30
0.0
 10
-48.33094736598305
 20
0.7356009066071766
 30
0.0
 10
-49.13057009801813
 20
1.09774474185029
 30
0.0
 10
-49.93021668313917
 20
1.453137764102627
 30
0.0
 10
-50.7298955571919
 20
1.799592846358134
 30
0.0
 10
-51.52961466123123
 20
2.134978704370752
 30
0.0
 10
-52.32938215736036
 20
2.457235091295606
 30
0.0
 10
-53.1292073870133
 20
2.764367607417264
 30
0.0
 10
-53.92909429265589
 20
3.054490996592532
 30
0.0
 10
-54.72904699724299
 20
3.325816039752942
 30
0.0
 10
-55.52907653012265
 20
3.576656329404539
 30
0.0
 10
-56.32918196273898
 20
3.805473312372273
 30
0.0
 10
-57.12936900350141
 20
4.01083925763566
 30
0.0
 10
-57.92963482980119
 20
4.191483235262909
 30
0.0
 10
-58.72997634805454
 20
4.34629775454753
 30
0.0
 10
-59.53039291836685
 20
4.474258296165736
 30
0.0
 10
-60.33086867769579
 20
4.574774427849289
 30
0.0
 10
-61.13139396207048
 20
4.646487395016027
 30
0.0
 10
-61.93194830491748
 20
4.691613615925919
 30
0.0
 10
-62.46578137699365
 20
4.697206103688713
 30
0.0
 10
-62.73252021427077
 20
4.700000485980417
 30
0.0
  0
SPLINE
  5
2DA6
330
1F
100
AcDbEntity
  8
AM_0
100
AcDbSpline
210
0.0
220
0.0
230
1.0
 70
     8
 71
     3
 72
    55
 73
    51
 74
     0
 42
0.0000000001
 43
0.0000000001
 40
0.0
 40
0.0
 40
0.0
 40
0.0
 40
1.010743684496582
 40
2.022833576467832
 40
3.037578957496688
 40
4.056212745003489
 40
5.079857003664532
 40
6.109500240690281
 40
7.145961322679372
 40
8.189895241603872
 40
9.241717795325891
 40
10.30168407291828
 40
11.36983447792315
 40
12.44600489715814
 40
13.52984294512926
 40
14.62081576220742
 40
15.7182257034828
 40
16.82123173843959
 40
17.92886860250316
 40
19.0400688939571
 40
20.15368796660465
 40
21.26852814259644
 40
22.38336992938901
 40
23.49698739941135
 40
24.6081876908653
 40
25.71582455492886
 40
26.81883757994213
 40
27.91624752121713
 40
29.00722033829659
 40
30.09105838626677
 40
31.16722880550176
 40
32.23537921050758
 40
33.29534548809967
 40
34.347168041821
 40
35.39108718934584
 40
36.42754827133493
 40
37.45720575381954
 40
38.48085062012849
 40
39.49948440763516
 40
40.51422944315121
 40
41.52631975251916
 40
42.53706336719636
 40
43.54780698187354
 40
44.55989729124051
 40
45.57464232675757
 40
46.59327611426424
 40
47.6169209805722
 40
48.64656348684535
 40
49.68302456883444
 40
50.58557219878025
 40
50.58557219878025
 40
50.58557219878025
 40
50.58557219878025
 10
-4.472379094804707
 20
-4.699999514021524
 30
0.0
 10
-4.739117884632912
 20
-4.697203127885978
 30
0.0
 10
-5.272950733145477
 20
-4.69160663111384
 30
0.0
 10
-6.073505733965443
 20
-4.646492584274284
 30
0.0
 10
-6.874026562110882
 20
-4.574773034903253
 30
0.0
 10
-7.674497845876339
 20
-4.474255358759922
 30
0.0
 10
-8.474911597818479
 20
-4.346301763074436
 30
0.0
 10
-9.275252027563572
 20
-4.191481237096017
 30
0.0
 10
-10.07552181221487
 20
-4.010836707070369
 30
0.0
 10
-10.87571385499672
 20
-3.80547435366759
 30
0.0
 10
-11.67582270514292
 20
-3.576655089279479
 30
0.0
 10
-12.47585235075379
 20
-3.325815188775257
 30
0.0
 10
-13.27580493446826
 20
-3.054489809542456
 30
0.0
 10
-14.07569045105308
 20
-2.764368020988151
 30
0.0
 10
-14.87551256268213
 20
-2.457232683663433
 30
0.0
 10
-15.67527868589619
 20
-2.134977931569859
 30
0.0
 10
-16.47499769020976
 20
-1.799591819179966
 30
0.0
 10
-17.27467659438387
 20
-1.453136812402125
 30
0.0
 10
-18.07432315939336
 20
-1.097743744302341
 30
0.0
 10
-18.87394594179627
 20
-0.7356000169919634
 30
0.0
 10
-19.67355195504556
 20
-0.3689319412784655
 30
0.0
 10
-20.47315249081675
 20
-0.0000004729916951
 30
0.0
 10
-21.27274943705059
 20
0.3689376362914253
 30
0.0
 10
-22.07235813040493
 20
0.7356000020131253
 30
0.0
 10
-22.87197992566281
 20
1.097744825511947
 30
0.0
 10
-23.67162791643328
 20
1.453139247500915
 30
0.0
 10
-24.47131013805908
 20
1.799591297570892
 30
0.0
 10
-25.27103040454052
 20
2.134979110835025
 30
0.0
 10
-26.07079664321421
 20
2.457233601613218
 30
0.0
 10
-26.87061872574029
 20
2.764369003527344
 30
0.0
 10
-27.67050424437332
 20
3.054490792506042
 30
0.0
 10
-28.47045684846319
 20
3.325816106860854
 30
0.0
 10
-29.27048641150225
 20
3.576656263495692
 30
0.0
 10
-30.07059182307454
 20
3.805473507412626
 30
0.0
 10
-30.87077891759284
 20
4.010838550549864
 30
0.0
 10
-31.67104840538559
 20
4.191486713109754
 30
0.0
 10
-32.47139454982956
 20
4.346289556434969
 30
0.0
 10
-33.27181094611256
 20
4.474282756463217
 30
0.0
 10
-34.07228246717352
 20
4.574681281875564
 30
0.0
 10
-34.87280385154516
 20
4.646836357943698
 30
0.0
 10
-35.67335817358989
 20
4.69031512504084
 30
0.0
 10
-36.47393008733036
 20
4.704839942456866
 30
0.0
 10
-37.27450199989287
 20
4.690315125018122
 30
0.0
 10
-38.07505632547825
 20
4.646836358035157
 30
0.0
 10
-38.87557769681423
 20
4.574681281531401
 30
0.0
 10
-39.67604926674905
 20
4.474282757757225
 30
0.0
 10
-40.4764615771142
 20
4.346290175557586
 30
0.0
 10
-41.27680456849902
 20
4.19148829588546
 30
0.0
 10
-42.04068753940452
 20
4.019038833439924
 30
0.0
 10
-42.53630351027458
 20
3.892924911272586
 30
0.0
 10
-42.76624043417025
 20
3.831463444792825
 30
0.0
  0
SPLINE
  5
2DA7
330
1F
100
AcDbEntity
  8
AM_0
 48
0.5
100
AcDbSpline
210
0.0
220
0.0
230
1.0
 70
     8
 71
     3
 72
    10
 73
     6
 74
     0
 42
0.0000000001
 43
0.0000000001
 40
0.0
 40
0.0
 40
0.0
 40
0.0
 40
2.69986029516136
 40
4.147722969032201
 40
6.285750005020438
 40
6.285750005020438
 40
6.285750005020438
 40
6.285750005020438
 10
-4.390006488760108
 20
0.8506755520930472
 30
0.0
 10
-3.897648004529284
 20
0.4140130736292301
 30
0.0
 10
-3.14125086883231
 20
-0.2568197820132741
 30
0.0
 10
-1.35247325156494
 20
0.0679421554033901
 30
0.0
 10
-1.689352106701205
 20
1.161783333023443
 30
0.0
 10
-1.911940130103157
 20
1.828513220184378
 30
0.0
  0
SPLINE
  5
2DA8
330
1F
100
AcDbEntity
  8
AM_0
 48
0.5
100
AcDbSpline
210
0.0
220
0.0
230
1.0
 70
     8
 71
     3
 72
    25
 73
    21
 74
     0
 42
0.0000000001
 43
0.0000000001
 40
6.846175049578289
 40
6.846175049578289
 40
6.846175049578289
 40
6.846175049578289
 40
7.604337694224321
 40
8.711974558287883
 40
9.814980593243754
 40
10.91239053451967
 40
12.0033633515982
 40
13.08720139956839
 40
14.16337181880432
 40
15.23152222380919
 40
16.29148850140128
 40
17.34331105512262
 40
18.38723020264746
 40
19.42369128463655
 40
20.45333379090873
 40
21.47697865721768
 40
22.49561244472435
 40
23.5103574802404
 40
24.52244778960836
 40
25.53320666051913
 40
25.53320666051913
 40
25.53320666051913
 40
25.53320666051913
 10
-4.390117090205913
 20
0.8507313751892093
 30
0.0
 10
-4.54726732324834
 20
0.9332550162699957
 30
0.0
 10
-4.934336742600939
 20
1.135515684951832
 30
0.0
 10
-5.551900574583054
 20
1.453137745133172
 30
0.0
 10
-6.242930022492608
 20
1.79959295233761
 30
0.0
 10
-6.933994222721876
 20
2.134979010983972
 30
0.0
 10
-7.625099112800294
 20
2.457233778974496
 30
0.0
 10
-8.31625239334183
 20
2.764369106094523
 30
0.0
 10
-9.007460455343386
 20
3.054490919460437
 30
0.0
 10
-9.698726498734247
 20
3.325816210536039
 30
0.0
 10
-10.39005903813872
 20
3.576656435383578
 30
0.0
 10
-11.08145713741001
 20
3.805473432319875
 30
0.0
 10
-11.77292576271561
 20
4.010839385679789
 30
0.0
 10
-12.46446247383092
 20
4.19148331759697
 30
0.0
 10
-13.15606456926404
 20
4.346298010013462
 30
0.0
 10
-13.84772820057439
 20
4.47425727933908
 30
0.0
 10
-14.53944260575359
 20
4.574775490207374
 30
0.0
 10
-15.23120016140686
 20
4.646487355924119
 30
0.0
 10
-15.92298963822459
 20
4.691614009605806
 30
0.0
 10
-16.38429629627659
 20
4.697206300143477
 30
0.0
 10
-16.61479780938097
 20
4.700000604990695
 30
0.0
  0
SPLINE
  5
2DA9
330
1F
100
AcDbEntity
  8
AM_0
 48
0.5
100
AcDbSpline
210
0.0
220
0.0
230
1.0
 70
     8
 71
     3
 72
    16
 73
    12
 74
     0
 42
0.0000000001
 43
0.0000000001
 40
0.0
 40
0.0
 40
0.0
 40
0.0
 40
1.010743614677189
 40
2.022833924044153
 40
3.037578959561199
 40
4.056212747067873
 40
5.079857613375832
 40
6.109500119648989
 40
7.14596120163808
 40
8.18989512056258
 40
8.338453590106137
 40
8.338453590106137
 40
8.338453590106137
 40
8.338453590106137
 10
-4.472379094804383
 20
4.700000485978478
 30
0.0
 10
-4.739117933175859
 20
4.697206115054771
 30
0.0
 10
-5.272951007441995
 20
4.69161365004316
 30
0.0
 10
-6.073505333831156
 20
4.646487258176239
 30
0.0
 10
-6.87402670186339
 20
4.574775299763548
 30
0.0
 10
-7.674498284279202
 20
4.474257426349013
 30
0.0
 10
-8.474910547693962
 20
4.346296891020773
 30
0.0
 10
-9.275253715863101
 20
4.191486964615805
 30
0.0
 10
-10.07551704683619
 20
4.010824209827823
 30
0.0
 10
-10.64496695285136
 20
3.864728795757662
 30
0.0
 10
-10.9482911215175
 20
3.781790868591671
 30
0.0
 10
-10.98605822573876
 20
3.771386072115844
 30
0.0
  0
ELLIPSE
  5
2DAA
330
1F
100
AcDbEntity
  8
AM_11
 48
0.5
100
AcDbEllipse
 10
-17.32962994420959
 20
20.75974830071668
 30
0.0
 11
-23.19725211461352
 21
0.0000000000011501
 31
0.0
210
0.0
220
0.0
230
1.0
 40
0.9894736842105272
 41
1.130070686340317
 42
2.011520147323607
  0
ELLIPSE
  5
2DAB
330
1F
100
AcDbEntity
  8
AM_11
 48
0.5
100
AcDbEllipse
 10
-17.32962994421101
 20
-20.75973323106212
 30
0.0
 11
-23.19725211461349
 21
0.0000000000012634
 31
0.0
210
0.0
220
0.0
230
1.0
 40
0.989473684210527
 41
4.271664206181704
 42
5.153113667165013
  0
ELLIPSE
  5
2DAC
330
1F
100
AcDbEntity
  8
AM_11
 48
0.5
100
AcDbEllipse
 10
2.462036722457095
 20
20.75974830071597
 30
0.0
 11
-23.19725211461445
 21
0.0000000000423824
 31
0.0
210
0.0
220
0.0
230
1.0
 40
0.989473684210499
 41
1.130070686342093
 42
1.291800737382777
  0
ELLIPSE
  5
2DAD
330
1F
100
AcDbEntity
  8
AM_11
 48
0.5
100
AcDbEllipse
 10
-56.91296327753736
 20
20.75974830071807
 30
0.0
 11
-23.19725211461356
 21
0.0000000000017218
 31
0.0
210
0.0
220
0.0
230
1.0
 40
0.9894736842105269
 41
1.130070686340344
 42
2.011520147323633
  0
ELLIPSE
  5
2DAE
330
1F
100
AcDbEntity
  8
AM_11
 48
0.5
100
AcDbEllipse
 10
-56.91296327753881
 20
-20.75973323106073
 30
0.0
 11
-23.19725211461345
 21
0.0000000000026798
 31
0.0
210
0.0
220
0.0
230
1.0
 40
0.9894736842105297
 41
4.271664206181765
 42
5.153113667165075
  0
ELLIPSE
  5
2DAF
330
1F
100
AcDbEntity
  8
AM_11
 48
0.5
100
AcDbEllipse
 10
-37.12129661087769
 20
-20.75973323106144
 30
0.0
 11
-23.19725211461348
 21
0.000000000003061
 31
0.0
210
0.0
220
0.0
230
1.0
 40
0.9894736842105281
 41
4.27166420618178
 42
5.15311366716509
  0
ELLIPSE
  5
2DB0
330
1F
100
AcDbEntity
  8
AM_11
 48
0.5
100
AcDbEllipse
 10
-37.12129661087624
 20
20.75974830071737
 30
0.0
 11
-23.19725211461352
 21
0.0000000000003826
 31
0.0
210
0.0
220
0.0
230
1.0
 40
0.9894736842105269
 41
1.130070686340283
 42
2.011520147323577
  0
ELLIPSE
  5
2DB1
330
1F
100
AcDbEntity
  8
AM_0
 48
0.5
100
AcDbEllipse
 10
-6.979548092655725
 20
7.888304488860445
 30
0.0
 11
7.511490853672721
 21
10.37632716047215
 31
0.0
210
0.0
220
0.0
230
1.0
 40
0.8296359980690002
 41
4.249523982576183
 42
4.309454501774059
  0
ELLIPSE
  5
2DB2
330
1F
100
AcDbEntity
  8
AM_0
 48
0.5
100
AcDbEllipse
 10
-1.705984283308366
 20
-1.670699507973508
 30
0.0
 11
-0.110222281897922
 21
0.7729064243015919
 31
0.0
210
0.0
220
0.0
230
1.0
 40
0.4395810468016104
 41
1.831191016564707
 42
4.966532906276683
  0
ELLIPSE
  5
2DB3
330
1F
100
AcDbEntity
  8
AM_0
 48
0.5
100
AcDbEllipse
 10
-1.705984283308366
 20
-1.670699507973508
 30
0.0
 11
-0.57542718660132
 21
0.4195570271936962
 31
0.0
210
0.0
220
0.0
230
0.9999999999999998
 40
0.5283358019035593
 41
4.570504238546093
 42
7.713944579875603
  0
ELLIPSE
  5
2DB4
330
1F
100
AcDbEntity
  8
AM_0
 48
0.5
100
AcDbEllipse
 10
3.874771282991468
 20
4.635910679683163
 30
0.0
 11
0.0000000000000268
 21
10.19253152330535
 31
0.0
210
0.0
220
0.0
230
1.0
 40
0.8733266583229013
 41
1.951257656000329
 42
2.322034022628317
  0
ELLIPSE
  5
2DB5
330
1F
100
AcDbEntity
  8
AM_0
 48
0.5
100
AcDbEllipse
 10
4.519714929895392
 20
-2.28402669569798
 30
0.0
 11
7.153232731129135
 21
0.7753846525406995
 31
0.0
210
0.0
220
0.0
230
1.0
 40
0.6762691244640763
 41
2.990192615013143
 42
3.498343158639572
  0
ELLIPSE
  5
2DB6
330
1F
100
AcDbEntity
  8
AM_0
 48
0.5
100
AcDbEllipse
 10
-7.233522058627003
 20
8.939917889619483
 30
0.0
 11
-5.611677013021543
 21
10.49378630187199
 31
0.0
210
0.0
220
0.0
230
1.0
 40
0.5771894165626322
 41
3.177986773514056
 42
3.461949311453737
  0
SPLINE
  5
2DB7
330
1F
100
AcDbEntity
  8
AM_0
100
AcDbSpline
210
0.0
220
0.0
230
1.0
 70
     8
 71
     3
 72
    13
 73
     9
 74
     0
 42
0.0000000001
 43
0.0000000001
 40
16.03460056234195
 40
16.03460056234195
 40
16.03460056234195
 40
16.03460056234195
 40
16.35212717791071
 40
17.38177067057215
 40
18.41822498539278
 40
19.46214186516937
 40
20.5139635832251
 40
21.34083983469381
 40
21.34083983469381
 40
21.34083983469381
 40
21.34083983469381
 10
-76.18133058138586
 20
-4.700426958305106
 30
0.0
 10
-76.09908336015553
 20
-4.684561053252433
 30
0.0
 10
-75.75048334865954
 20
-4.615469363140909
 30
0.0
 10
-75.13642151710306
 20
-4.480089446169689
 30
0.0
 10
-74.34120930416097
 20
-4.278783898603486
 30
0.0
 10
-73.54673584880939
 20
-4.052750545025525
 30
0.0
 10
-72.811586545249
 20
-3.821724170575807
 30
0.0
 10
-72.34257423548654
 20
-3.662646070473433
 30
0.0
 10
-72.13682134618171
 20
-3.590741319707244
 30
0.0
  0
ELLIPSE
  5
2DB8
330
1F
100
AcDbEntity
  8
AM_0
 48
0.5
100
AcDbEllipse
 10
-76.32533395930694
 20
-3.133332847352465
 30
0.0
 11
-1.593166398342889
 21
0.5767828531465391
 31
0.0
210
0.0
220
0.0
230
1.0
 40
0.9159700032948173
 41
0.3876323568396662
 42
1.890998110584025
  0
ELLIPSE
  5
2DB9
330
1F
100
AcDbEntity
  8
AM_0
 48
0.5
100
AcDbEllipse
 10
-76.72145720963207
 20
-3.181066027080577
 30
0.0
 11
1.266538182399656
 21
0.2097725196639738
 31
0.0
210
0.0
220
0.0
230
1.0
 40
0.9052407310159546
 41
1.15380259155268
 42
2.93479082804654
  0
LINE
  5
2DBA
330
1F
100
AcDbEntity
  8
AM_11
 48
0.5
100
AcDbLine
 10
-76.18169216955289
 20
-4.699999514019114
 30
0.0
 11
-64.973634130205
 21
-4.699999514019507
 31
0.0
  0
LINE
  5
2DBB
330
1F
100
AcDbEntity
  8
AM_11
 48
0.5
100
AcDbLine
 10
-76.18169216955251
 20
4.700000485980888
 30
0.0
 11
-64.97363413020464
 21
4.700000485980496
 31
0.0
  0
SPLINE
  5
2DBC
330
1F
100
AcDbEntity
  8
AM_0
 48
0.5
100
AcDbSpline
210
0.0
220
0.0
230
1.0
 70
     8
 71
     3
 72
    22
 73
    18
 74
     0
 42
0.0000000001
 43
0.0000000001
 40
0.0
 40
0.0
 40
0.0
 40
0.0
 40
1.010743684496582
 40
2.022833993863546
 40
3.037578683882831
 40
4.056212471389632
 40
5.079857945358201
 40
6.109499720892564
 40
7.145961650132166
 40
8.189873411961459
 40
9.241710626092514
 40
10.30166235592959
 40
11.36982472628033
 40
12.44598212828784
 40
13.52983440361964
 40
14.62080578343036
 40
14.90544694398022
 40
14.90544694398022
 40
14.90544694398022
 40
14.90544694398022
 10
-64.97364017014271
 20
-4.699999514019508
 30
0.0
 10
-65.24037901094015
 20
-4.697203963309989
 30
0.0
 10
-65.77421207161126
 20
-4.691609137348183
 30
0.0
 10
-66.57476623359993
 20
-4.646482523471599
 30
0.0
 10
-67.37528792799357
 20
-4.574775048342051
 30
0.0
 10
-68.17575963739763
 20
-4.474257279535954
 30
0.0
 10
-68.97617120927901
 20
-4.346291746336681
 30
0.0
 10
-69.77651429350465
 20
-4.191484234345725
 30
0.0
 10
-70.57677716220775
 20
-4.010835400675553
 30
0.0
 10
-71.37696531827505
 20
-3.805465917035851
 30
0.0
 10
-72.17707155483451
 20
-3.576658076149353
 30
0.0
 10
-72.97710005316274
 20
-3.325804428309394
 30
0.0
 10
-73.77705597050402
 20
-3.054501269968866
 30
0.0
 10
-74.57693870599759
 20
-2.764361486918974
 30
0.0
 10
-75.37676324450401
 20
-2.4572334009395
 30
0.0
 10
-75.97788728047152
 20
-2.215029675114821
 30
0.0
 10
-76.31285457035994
 20
-2.076593810862767
 30
0.0
 10
-76.38211466739851
 20
-2.047828070494841
 30
0.0
  0
SPLINE
  5
2DBD
330
1F
100
AcDbEntity
  8
AM_0
100
AcDbSpline
210
0.0
220
0.0
230
1.0
 70
     8
 71
     3
 72
    23
 73
    19
 74
     0
 42
0.0000000001
 43
0.0000000001
 40
16.03460024169435
 40
16.03460024169435
 40
16.03460024169435
 40
16.03460024169435
 40
16.35212704903564
 40
17.38177054169784
 40
18.41822485651776
 40
19.46214173629503
 40
20.51396345435107
 40
21.57393551351153
 40
22.64208202342361
 40
23.7182574881101
 40
24.80209208578934
 40
25.89306333925047
 40
26.99048218457928
 40
28.09348763352352
 40
29.20111863782268
 40
30.31232390128032
 40
31.42594612798585
 40
32.5407912310448
 40
32.5407912310486
 40
32.5407912310486
 40
32.5407912310486
 10
-74.59735090895292
 20
4.700668206276981
 30
0.0
 10
-74.51510372105265
 20
4.684801833945174
 30
0.0
 10
-74.16650399801577
 20
4.615708248128409
 30
0.0
 10
-73.55244183172455
 20
4.480329911731013
 30
0.0
 10
-72.75722971885629
 20
4.279023805991149
 30
0.0
 10
-71.9627562364027
 20
4.052990603576014
 30
0.0
 10
-71.16897443829209
 20
3.803538469372229
 30
0.0
 10
-70.37585615180181
 20
3.532058104612479
 30
0.0
 10
-69.58335553659566
 20
3.240101405548567
 30
0.0
 10
-68.79141740594299
 20
2.929367486935862
 30
0.0
 10
-67.99999675907502
 20
2.60161601683853
 30
0.0
 10
-67.20903014492847
 20
2.258754104693262
 30
0.0
 10
-66.41845346450442
 20
1.90277461206637
 30
0.0
 10
-65.62821404393358
 20
1.535724271804291
 30
0.0
 10
-64.83824576484335
 20
1.15973743137015
 30
0.0
 10
-64.04847545944071
 20
0.7770095780666697
 30
0.0
 10
-63.25883881812867
 20
0.3897585161646956
 30
0.0
 10
-62.73255578800494
 20
0.1301278538286356
 30
0.0
 10
-62.46927075231428
 20
0.0002395403412948
 30
0.0
  0
SPLINE
  5
2DBE
330
1F
100
AcDbEntity
  8
AM_0
100
AcDbSpline
210
0.0
220
0.0
230
1.0
 70
     8
 71
     3
 72
    55
 73
    51
 74
     0
 42
0.0000000001
 43
0.0000000001
 40
0.0
 40
0.0
 40
0.0
 40
0.0
 40
1.010743684496582
 40
2.022833576467832
 40
3.037578957496688
 40
4.056212745003489
 40
5.079857003664532
 40
6.109500240690281
 40
7.145961322679372
 40
8.189895241603872
 40
9.241717795325891
 40
10.30168407291828
 40
11.36983447792315
 40
12.44600489715814
 40
13.52984294512926
 40
14.62081576220742
 40
15.7182257034828
 40
16.82123173843959
 40
17.92886860250316
 40
19.0400688939571
 40
20.15368796660465
 40
21.26852814259644
 40
22.38336992938901
 40
23.49698739941135
 40
24.6081876908653
 40
25.71582455492886
 40
26.81883757994213
 40
27.91624752121713
 40
29.00722033829659
 40
30.09105838626677
 40
31.16722880550176
 40
32.23537921050758
 40
33.29534548809967
 40
34.347168041821
 40
35.39108718934584
 40
36.42754827133493
 40
37.45720575381954
 40
38.48085062012849
 40
39.49948440763516
 40
40.51422944315121
 40
41.52631975251916
 40
42.53706336719636
 40
43.54780698187354
 40
44.55989729124051
 40
45.57464232675757
 40
46.59327611426424
 40
47.6169209805722
 40
48.64656348684535
 40
49.68302456883444
 40
50.58557219878025
 40
50.58557219878025
 40
50.58557219878025
 40
50.58557219878025
 10
-32.97197925205221
 20
-4.699999514020627
 30
0.0
 10
-33.23871804188041
 20
-4.69720312788508
 30
0.0
 10
-33.77255089039298
 20
-4.69160663111294
 30
0.0
 10
-34.57310589121294
 20
-4.646492584273385
 30
0.0
 10
-35.37362671935839
 20
-4.574773034902355
 30
0.0
 10
-36.17409800312384
 20
-4.474255358759019
 30
0.0
 10
-36.97451175506599
 20
-4.346301763073538
 30
0.0
 10
-37.7748521848111
 20
-4.191481237095117
 30
0.0
 10
-38.57512196946237
 20
-4.010836707069472
 30
0.0
 10
-39.37531401224418
 20
-3.805474353666692
 30
0.0
 10
-40.17542286239037
 20
-3.576655089278581
 30
0.0
 10
-40.97545250800125
 20
-3.325815188774358
 30
0.0
 10
-41.77540509171572
 20
-3.054489809541556
 30
0.0
 10
-42.57529060830057
 20
-2.764368020987252
 30
0.0
 10
-43.37511271992962
 20
-2.457232683662534
 30
0.0
 10
-44.17487884314368
 20
-2.134977931568958
 30
0.0
 10
-44.97459784745729
 20
-1.799591819179067
 30
0.0
 10
-45.77427675163139
 20
-1.453136812401226
 30
0.0
 10
-46.57392331664079
 20
-1.097743744301442
 30
0.0
 10
-47.37354609904371
 20
-0.7356000169910646
 30
0.0
 10
-48.17315211229304
 20
-0.3689319412775664
 30
0.0
 10
-48.97275264806424
 20
-0.0000004729907959
 30
0.0
 10
-49.77234959429807
 20
0.3689376362923245
 30
0.0
 10
-50.57195828765247
 20
0.7356000020140244
 30
0.0
 10
-51.37158008291035
 20
1.097744825512847
 30
0.0
 10
-52.17122807368072
 20
1.453139247501815
 30
0.0
 10
-52.97091029530652
 20
1.799591297571792
 30
0.0
 10
-53.770630561788
 20
2.134979110835923
 30
0.0
 10
-54.57039680046168
 20
2.457233601614117
 30
0.0
 10
-55.37021888298778
 20
2.764369003528242
 30
0.0
 10
-56.1701044016208
 20
3.054490792506941
 30
0.0
 10
-56.9700570057107
 20
3.325816106861754
 30
0.0
 10
-57.77008656874978
 20
3.576656263496591
 30
0.0
 10
-58.57019198032206
 20
3.805473507413525
 30
0.0
 10
-59.37037907484032
 20
4.010838550550765
 30
0.0
 10
-60.17064856263304
 20
4.191486713110656
 30
0.0
 10
-60.97099470707704
 20
4.346289556435868
 30
0.0
 10
-61.77141110336005
 20
4.474282756464114
 30
0.0
 10
-62.57188262442101
 20
4.574681281876463
 30
0.0
 10
-63.37240400879263
 20
4.646836357944598
 30
0.0
 10
-64.17295833083736
 20
4.690315125041744
 30
0.0
 10
-64.97353024457783
 20
4.704839942457765
 30
0.0
 10
-65.77410215714038
 20
4.690315125019022
 30
0.0
 10
-66.57465648272574
 20
4.646836358036055
 30
0.0
 10
-67.37517785406173
 20
4.574681281532303
 30
0.0
 10
-68.17564942399655
 20
4.474282757758128
 30
0.0
 10
-68.97606173436168
 20
4.346290175558485
 30
0.0
 10
-69.77640472574652
 20
4.19148829588636
 30
0.0
 10
-70.54028769665198
 20
4.019038833440821
 30
0.0
 10
-71.03590366752198
 20
3.892924911273484
 30
0.0
 10
-71.26584059141767
 20
3.831463444793725
 30
0.0
  0
LINE
  5
2DBF
330
1F
100
AcDbEntity
  8
AM_0
 48
0.5
100
AcDbLine
 10
-67.49291011337945
 20
2.381403264605714
 30
0.0
 11
-78.0
 21
-0.2857609756727342
 31
0.0
  0
SPLINE
  5
2DC0
330
1F
100
AcDbEntity
  8
AM_0
 48
0.5
100
AcDbSpline
210
0.0
220
0.0
230
1.0
 70
     8
 71
     3
 72
    26
 73
    22
 74
     0
 42
0.0000000001
 43
0.0000000001
 40
0.0
 40
0.0
 40
0.0
 40
0.0
 40
0.8422864037471089
 40
1.685694647057321
 40
2.531315797913884
 40
3.380177287502886
 40
4.233214169721234
 40
5.09125020057522
 40
5.954967768899448
 40
6.824900391836836
 40
7.701419186604396
 40
8.584724417931369
 40
9.47485577056355
 40
10.37165251267315
 40
11.27486274211709
 40
12.18400675634887
 40
13.09851504074504
 40
14.01768673654235
 40
14.94071745659532
 40
15.8667176994736
 40
16.76607142455336
 40
16.76607142455336
 40
16.76607142455336
 40
16.76607142455336
 10
-62.73263014003185
 20
-4.699999514019583
 30
0.0
 10
-62.99936892989213
 20
-4.697203128005899
 30
0.0
 10
-63.53320177846917
 20
-4.691606631477617
 30
0.0
 10
-64.33375677880659
 20
-4.646492582805621
 30
0.0
 10
-65.13427760879334
 20
-4.574773040426683
 30
0.0
 10
-65.93474888563747
 20
-4.474255338000505
 30
0.0
 10
-66.73516266360667
 20
-4.346301841149147
 30
0.0
 10
-67.53550299535354
 20
-4.191480943036292
 30
0.0
 10
-68.33576934844727
 20
-4.01083867372049
 30
0.0
 10
-69.13595626508897
 20
-3.805472163366838
 30
0.0
 10
-69.93606185355928
 20
-3.576655676859155
 30
0.0
 10
-70.73609269875709
 20
-3.325813387041716
 30
0.0
 10
-71.53604548561585
 20
-3.054494164199103
 30
0.0
 10
-72.33592927782591
 20
-2.764362347724282
 30
0.0
 10
-73.13575477038472
 20
-2.45723587014986
 30
0.0
 10
-73.93552369141492
 20
-2.134977839836344
 30
0.0
 10
-74.73524200277347
 20
-1.799590372159942
 30
0.0
 10
-75.53492439034617
 20
-1.453142735385577
 30
0.0
 10
-76.33455763849387
 20
-1.097721379745241
 30
0.0
 10
-77.12597691588353
 20
-0.7394205048976735
 30
0.0
 10
-77.65032196344432
 20
-0.4987114638422123
 30
0.0
 10
-78.0
 20
-0.2857609756727343
 30
0.0
  0
VIEWPORT
  5
110
330
101
100
AcDbEntity
 67
     1
  8
0
100
AcDbViewport
 10
420.5
 20
297.0
 30
0.0
 40
948.9782706766916
 41
628.452
 68
     1
 69
     1
1001
ACAD
1000
MVIEW
1002
{
1070
    16
1010
0.0
1020
0.0
1030
0.0
1010
0.0
1020
0.0
1030
1.0
1040
0.0
1040
628.452
1040
420.5
1040
297.0
1040
50.0
1040
0.0
1040
0.0
1070
     0
1070
   100
1070
     1
1070
     1
1070
     0
1070
     0
1070
     0
1070
     0
1040
0.0
1040
0.0
1040
0.0
1040
10.0
1040
10.0
1040
10.0
1040
10.0
1070
     0
1002
{
1002
}
1002
}
  0
ENDSEC
  0
SECTION
  2
OBJECTS
  0
DICTIONARY
  5
C
330
0
100
AcDbDictionary
  3
ACAD_GROUP
350
D
  3
ACAD_LAYOUT
350
1A
  3
ACAD_MLINESTYLE
350
17
  3
ACAD_PLOTSETTINGS
350
19
  3
ACAD_PLOTSTYLENAME
350
E
  3
ACDBVARIABLEDICTIONARY
350
34
  3
ACMDICTIONARY
350
43
  3
AMG
350
2B
  3
AMGSNAPSETTINGS
350
6E
  3
DWGPROPS
350
2E0F
  3
ACDBHEADERROUNDTRIPXREC
350
2E1B
  0
DICTIONARY
  5
74
330
1F
100
AcDbDictionary
280
     1
  3
ACAD_INDEX
360
2E11
  3
ACAD_LAYOUTSELFREF
360
2E3E
  0
DICTIONARY
  5
2E43
330
101
100
AcDbDictionary
280
     1
  3
ACAD_LAYOUTSELFREF
360
2E44
  0
DICTIONARY
  5
D
102
{ACAD_REACTORS
330
C
102
}
330
C
100
AcDbDictionary
  0
DICTIONARY
  5
1A
102
{ACAD_REACTORS
330
C
102
}
330
C
100
AcDbDictionary
  0
DICTIONARY
  5
17
102
{ACAD_REACTORS
330
C
102
}
330
C
100
AcDbDictionary
  3
STANDARD
350
18
  0
DICTIONARY
  5
19
102
{ACAD_REACTORS
330
C
102
}
330
C
100
AcDbDictionary
  0
ACDBDICTIONARYWDFLT
  5
E
102
{ACAD_REACTORS
330
C
102
}
330
C
100
AcDbDictionary
281
     1
  3
Normal
350
F
100
AcDbDictionaryWithDefault
340
F
  0
DICTIONARY
  5
34
102
{ACAD_REACTORS
330
C
102
}
330
C
100
AcDbDictionary
  3
INDEXCTL
350
35
  3
SORTENTS
350
B5E
  0
DICTIONARY
  5
43
102
{ACAD_REACTORS
330
C
102
}
330
C
100
AcDbDictionary
  3
ACMSTDDICTIONARY
350
260
  0
DICTIONARY
  5
2B
102
{ACAD_REACTORS
330
C
102
}
330
C
100
AcDbDictionary
  3
ACMGSETTINGS
350
2C
  0
DICTIONARY
  5
6E
102
{ACAD_REACTORS
330
C
102
}
330
C
100
AcDbDictionary
  0
XRECORD
  5
2E0F
102
{ACAD_REACTORS
330
C
102
}
330
C
100
AcDbXrecord
  1
DWGPROPS COOKIE
  2

  3

  4

  6

  7

  8

  9

300
AmdtFileType=82
301
=
302
=
303
=
304
=
305
=
306
=
307
=
308
=
309
=
 40
0.0475014467592593
 41
2452800.443498622
 42
2452948.692168692
  1

 90
        1
  0
DICTIONARY
  5
2E1B
102
{ACAD_REACTORS
330
C
102
}
330
C
100
AcDbDictionary
  3
TSTACKALIGN
350
2E1C
  3
TSTACKSIZE
350
2E1D
  3
HYPERLINKBASE
350
2E1E
  3
STYLESHEET
350
2E1F
  3
LAYOUTDICT
350
2E20
  3
PLOTSETDICT
350
2E21
  3
PLOTSTYLNAMDICT
350
2E22
  3
LWETCUNION
350
2E23
  3
INSUNITS
350
2E24
  3
CEPSNTYPE
350
2E25
  3
FINGERPRINTGUID
350
2E26
  3
VERSIONGUID
350
2E27
  3
PSVPSCALE
350
2E28
  3
DIMSTYLEDATA
350
2E29
  3
PUCSORTHOREF
350
2E2A
  3
PUCSORTHOVIEW
350
2E2B
  3
PUCSBASE
350
2E2C
  3
PUCSORGTOP
350
2E2D
  3
PUCSORGBOTTOM
350
2E2E
  3
PUCSORGLEFT
350
2E2F
  3
PUCSORGRIGHT
350
2E30
  3
PUCSORGFRONT
350
2E31
  3
PUCSORGBACK
350
2E32
  3
UCSORTHOREF
350
2E33
  3
UCSORTHOVIEW
350
2E34
  3
UCSBASE
350
2E35
  3
UCSORGTOP
350
2E36
  3
UCSORGBOTTOM
350
2E37
  3
UCSORGLEFT
350
2E38
  3
UCSORGRIGHT
350
2E39
  3
UCSORGFRONT
350
2E3A
  3
UCSORGBACK
350
2E3B
  0
DICTIONARY
  5
2E11
102
{ACAD_REACTORS
330
74
102
}
330
74
100
AcDbDictionary
  3
*A1
350
2E12
  0
XRECORD
  5
2E3E
102
{ACAD_REACTORS
330
74
102
}
330
74
100
AcDbXrecord
340
1F
  0
XRECORD
  5
2E44
102
{ACAD_REACTORS
330
2E43
102
}
330
2E43
100
AcDbXrecord
340
101
  0
MLINESTYLE
  5
18
102
{ACAD_REACTORS
330
17
102
}
330
17
100
AcDbMlineStyle
  2
STANDARD
 70
     0
  3

 62
   256
 51
90.0
 52
90.0
 71
     2
 49
0.5
 62
   256
  6
BYLAYER
 49
-0.5
 62
   256
  6
BYLAYER
  0
ACDBPLACEHOLDER
  5
F
102
{ACAD_REACTORS
330
E
102
}
330
E
100
AcDbPlaceHolder
280
     0
  0
DICTIONARYVAR
  5
35
102
{ACAD_REACTORS
330
34
102
}
330
34
100
DictionaryVariables
280
     0
  1
1
  0
DICTIONARYVAR
  5
B5E
102
{ACAD_REACTORS
330
34
102
}
330
34
100
DictionaryVariables
280
     0
  1
96
  0
DICTIONARY
  5
260
102
{ACAD_REACTORS
330
43
102
}
330
43
100
AcDbDictionary
  0
DICTIONARY
  5
2C
102
{ACAD_REACTORS
330
2B
102
}
330
2B
100
AcDbDictionary
  3
DWGSETTINGS
350
2D
  0
XRECORD
  5
2E1C
102
{ACAD_REACTORS
330
2E1B
102
}
330
2E1B
100
AcDbXrecord
 90
        1
  0
XRECORD
  5
2E1D
102
{ACAD_REACTORS
330
2E1B
102
}
330
2E1B
100
AcDbXrecord
 90
       70
  0
XRECORD
  5
2E1E
102
{ACAD_REACTORS
330
2E1B
102
}
330
2E1B
100
AcDbXrecord
  1

  0
XRECORD
  5
2E1F
102
{ACAD_REACTORS
330
2E1B
102
}
330
2E1B
100
AcDbXrecord
  1
ASAMI.ctb
  0
XRECORD
  5
2E20
102
{ACAD_REACTORS
330
2E1B
102
}
330
2E1B
100
AcDbXrecord
340
1A
  0
XRECORD
  5
2E21
102
{ACAD_REACTORS
330
2E1B
102
}
330
2E1B
100
AcDbXrecord
340
19
  0
XRECORD
  5
2E22
102
{ACAD_REACTORS
330
2E1B
102
}
330
2E1B
100
AcDbXrecord
340
E
  0
XRECORD
  5
2E23
102
{ACAD_REACTORS
330
2E1B
102
}
330
2E1B
100
AcDbXrecord
 90
    10781
  0
XRECORD
  5
2E24
102
{ACAD_REACTORS
330
2E1B
102
}
330
2E1B
100
AcDbXrecord
 90
        4
  0
XRECORD
  5
2E25
102
{ACAD_REACTORS
330
2E1B
102
}
330
2E1B
100
AcDbXrecord
 90
        0
  0
XRECORD
  5
2E26
102
{ACAD_REACTORS
330
2E1B
102
}
330
2E1B
100
AcDbXrecord
  1
{AFB28963-8C59-40AE-9337-C84526B81ACE}
  0
XRECORD
  5
2E27
102
{ACAD_REACTORS
330
2E1B
102
}
330
2E1B
100
AcDbXrecord
  1
{6E3E1284-8938-4796-8B4A-050CA6A909D0}
  0
XRECORD
  5
2E28
102
{ACAD_REACTORS
330
2E1B
102
}
330
2E1B
100
AcDbXrecord
 40
0.0
  0
XRECORD
  5
2E29
102
{ACAD_REACTORS
330
2E1B
102
}
330
2E1B
100
AcDbXrecord
1000
DSTYLE
1002
{
1070
    79
 70
     2
1070
   341
340
59
1070
   342
340
59
1070
   371
 70
    -1
1070
   372
 70
    -1
1002
}
  0
XRECORD
  5
2E2A
102
{ACAD_REACTORS
330
2E1B
102
}
330
2E1B
100
AcDbXrecord
340
0
  0
XRECORD
  5
2E2B
102
{ACAD_REACTORS
330
2E1B
102
}
330
2E1B
100
AcDbXrecord
 70
     0
  0
XRECORD
  5
2E2C
102
{ACAD_REACTORS
330
2E1B
102
}
330
2E1B
100
AcDbXrecord
340
0
  0
XRECORD
  5
2E2D
102
{ACAD_REACTORS
330
2E1B
102
}
330
2E1B
100
AcDbXrecord
 10
0.0
 20
0.0
 30
0.0
  0
XRECORD
  5
2E2E
102
{ACAD_REACTORS
330
2E1B
102
}
330
2E1B
100
AcDbXrecord
 10
0.0
 20
0.0
 30
0.0
  0
XRECORD
  5
2E2F
102
{ACAD_REACTORS
330
2E1B
102
}
330
2E1B
100
AcDbXrecord
 10
0.0
 20
0.0
 30
0.0
  0
XRECORD
  5
2E30
102
{ACAD_REACTORS
330
2E1B
102
}
330
2E1B
100
AcDbXrecord
 10
0.0
 20
0.0
 30
0.0
  0
XRECORD
  5
2E31
102
{ACAD_REACTORS
330
2E1B
102
}
330
2E1B
100
AcDbXrecord
 10
0.0
 20
0.0
 30
0.0
  0
XRECORD
  5
2E32
102
{ACAD_REACTORS
330
2E1B
102
}
330
2E1B
100
AcDbXrecord
 10
0.0
 20
0.0
 30
0.0
  0
XRECORD
  5
2E33
102
{ACAD_REACTORS
330
2E1B
102
}
330
2E1B
100
AcDbXrecord
340
0
  0
XRECORD
  5
2E34
102
{ACAD_REACTORS
330
2E1B
102
}
330
2E1B
100
AcDbXrecord
 70
     0
  0
XRECORD
  5
2E35
102
{ACAD_REACTORS
330
2E1B
102
}
330
2E1B
100
AcDbXrecord
340
0
  0
XRECORD
  5
2E36
102
{ACAD_REACTORS
330
2E1B
102
}
330
2E1B
100
AcDbXrecord
 10
0.0
 20
0.0
 30
0.0
  0
XRECORD
  5
2E37
102
{ACAD_REACTORS
330
2E1B
102
}
330
2E1B
100
AcDbXrecord
 10
0.0
 20
0.0
 30
0.0
  0
XRECORD
  5
2E38
102
{ACAD_REACTORS
330
2E1B
102
}
330
2E1B
100
AcDbXrecord
 10
0.0
 20
0.0
 30
0.0
  0
XRECORD
  5
2E39
102
{ACAD_REACTORS
330
2E1B
102
}
330
2E1B
100
AcDbXrecord
 10
0.0
 20
0.0
 30
0.0
  0
XRECORD
  5
2E3A
102
{ACAD_REACTORS
330
2E1B
102
}
330
2E1B
100
AcDbXrecord
 10
0.0
 20
0.0
 30
0.0
  0
XRECORD
  5
2E3B
102
{ACAD_REACTORS
330
2E1B
102
}
330
2E1B
100
AcDbXrecord
 10
0.0
 20
0.0
 30
0.0
  0
LAYER_INDEX
  5
2E12
102
{ACAD_REACTORS
330
2E11
102
}
330
2E11
100
AcDbIndex
 40
2453151.68155272
100
AcDbLayerIndex
  8
0
360
2E13
 90
        0
  8
AM_0
360
2E14
 90
       52
  8
AM_7
360
2E15
 90
        1
  8
AM_11
360
2E16
 90
       21
  8
AM_5
360
2E17
 90
        5
  8
Defpoints
360
2E18
 90
        0
  8
AM_6
360
2E19
 90
        1
  0
XRECORD
  5
2D
102
{ACAD_REACTORS
330
2C
102
}
330
2C
100
AcDbXrecord
  1
VERSION
140
15.0
  1
PRODUCT
  2
AutoCAD Mechanical 2000
  0
IDBUFFER
  5
2E13
330
0
100
AcDbIdBuffer
  0
IDBUFFER
  5
2E14
330
0
100
AcDbIdBuffer
330
2DBD
330
2DBE
330
2DBF
330
2DC0
330
2567
330
2568
330
2569
330
256C
330
256D
330
256E
330
256F
330
2570
330
2571
330
27AB
330
27AC
330
27AD
330
27AF
330
27B0
330
27B1
330
2D8F
330
2D90
330
2D91
330
2D92
330
2D93
330
2D94
330
2D95
330
2D96
330
2D97
330
2D98
330
2D9D
330
2D9E
330
2D9F
330
2DA0
330
2DA1
330
2DA2
330
2DA3
330
2DA4
330
2DA5
330
2DA6
330
2DA7
330
2DA8
330
2DA9
330
2DB1
330
2DB2
330
2DB3
330
2DB4
330
2DB5
330
2DB6
330
2DB7
330
2DB8
330
2DB9
330
2DBC
  0
IDBUFFER
  5
2E15
330
0
100
AcDbIdBuffer
330
23EF
  0
IDBUFFER
  5
2E16
330
0
100
AcDbIdBuffer
330
2DAE
330
2DAF
330
2DB0
330
2DBA
330
2DBB
330
24C7
330
24C8
330
24C9
330
24CA
330
24DA
330
24DB
330
24DC
330
24DD
330
2D99
330
2D9A
330
2D9B
330
2D9C
330
2DAA
330
2DAB
330
2DAC
330
2DAD
  0
IDBUFFER
  5
2E17
330
0
100
AcDbIdBuffer
330
CC6
330
2069
330
2599
330
2894
330
2CD8
  0
IDBUFFER
  5
2E18
330
0
100
AcDbIdBuffer
  0
IDBUFFER
  5
2E19
330
0
100
AcDbIdBuffer
330
19BD
  0
ENDSEC
  0
EOF
