  0
SECTION
  2
HEADER
  9
$ACADVER
  1
AC1014
  9
$ACADMAINTVER
 70
     9
  9
$DWGCODEPAGE
  3
ANSI_932
  9
$INSBASE
 10
0.0
 20
0.0
 30
0.0
  9
$EXTMIN
 10
-130.150001
 20
-28.75056505856461
 30
-0.00000001
  9
$EXTMAX
 10
14.19739567786177
 20
13.81102314157902
 30
0.00000001
  9
$LIMMIN
 10
-156.1444050923396
 20
-44.51020785580943
  9
$LIMMAX
 10
20.31336096277607
 20
28.16015358894219
  9
$ORTHOMODE
 70
     0
  9
$REGENMODE
 70
     1
  9
$FILLMODE
 70
     1
  9
$QTEXTMODE
 70
     0
  9
$MIRRTEXT
 70
     0
  9
$DRAGMODE
 70
     2
  9
$LTSCALE
 40
1.0
  9
$OSMODE
 70
    55
  9
$ATTMODE
 70
     1
  9
$TEXTSIZE
 40
2.5
  9
$TRACEWID
 40
1.0
  9
$TEXTSTYLE
  7
STANDARD
  9
$CLAYER
  8
AM_0
  9
$CELTYPE
  6
BYLAYER
  9
$CECOLOR
 62
   256
  9
$CELTSCALE
 40
1.0
  9
$DELOBJ
 70
     1
  9
$DISPSILH
 70
     0
  9
$DIMSCALE
 40
0.5
  9
$DIMASZ
 40
2.5
  9
$DIMEXO
 40
1.0
  9
$DIMDLI
 40
12.0
  9
$DIMRND
 40
0.0
  9
$DIMDLE
 40
0.0
  9
$DIMEXE
 40
1.0
  9
$DIMTP
 40
0.1
  9
$DIMTM
 40
0.1
  9
$DIMTXT
 40
3.2
  9
$DIMCEN
 40
0.0
  9
$DIMTSZ
 40
0.0
  9
$DIMTOL
 70
     0
  9
$DIMLIM
 70
     0
  9
$DIMTIH
 70
     0
  9
$DIMTOH
 70
     0
  9
$DIMSE1
 70
     0
  9
$DIMSE2
 70
     0
  9
$DIMTAD
 70
     3
  9
$DIMZIN
 70
     8
  9
$DIMBLK
  1
OPEN30
  9
$DIMASO
 70
     1
  9
$DIMSHO
 70
     1
  9
$DIMPOST
  1

  9
$DIMAPOST
  1
"
  9
$DIMALT
 70
     0
  9
$DIMALTD
 70
     2
  9
$DIMALTF
 40
0.0393701
  9
$DIMLFAC
 40
1.0
  9
$DIMTOFL
 70
     1
  9
$DIMTVP
 40
0.0
  9
$DIMTIX
 70
     0
  9
$DIMSOXD
 70
     0
  9
$DIMSAH
 70
     0
  9
$DIMBLK1
  1

  9
$DIMBLK2
  1

  9
$DIMSTYLE
  2
AM_JIS
  9
$DIMCLRD
 70
   256
  9
$DIMCLRE
 70
   256
  9
$DIMCLRT
 70
     2
  9
$DIMTFAC
 40
0.71
  9
$DIMGAP
 40
1.5
  9
$DIMJUST
 70
     0
  9
$DIMSD1
 70
     0
  9
$DIMSD2
 70
     0
  9
$DIMTOLJ
 70
     0
  9
$DIMTZIN
 70
     0
  9
$DIMALTZ
 70
     0
  9
$DIMALTTZ
 70
     0
  9
$DIMFIT
 70
     3
  9
$DIMUPT
 70
     0
  9
$DIMUNIT
 70
     2
  9
$DIMDEC
 70
     3
  9
$DIMTDEC
 70
     3
  9
$DIMALTU
 70
     2
  9
$DIMALTTD
 70
     2
  9
$DIMTXSTY
  7
ASAMI
  9
$DIMAUNIT
 70
     0
  9
$LUNITS
 70
     2
  9
$LUPREC
 70
     2
  9
$SKETCHINC
 40
1.0
  9
$FILLETRAD
 40
2.5
  9
$AUNITS
 70
     0
  9
$AUPREC
 70
     0
  9
$MENU
  1
.
  9
$ELEVATION
 40
0.0
  9
$PELEVATION
 40
0.0
  9
$THICKNESS
 40
0.0
  9
$LIMCHECK
 70
     0
  9
$BLIPMODE
 70
     0
  9
$CHAMFERA
 40
0.5
  9
$CHAMFERB
 40
0.5
  9
$CHAMFERC
 40
20.0
  9
$CHAMFERD
 40
0.0
  9
$SKPOLY
 70
     0
  9
$TDCREATE
 40
2452800.443498622
  9
$TDUPDATE
 40
2453151.572946492
  9
$TDINDWG
 40
0.0600661690
  9
$TDUSRTIMER
 40
0.0600661690
  9
$USRTIMER
 70
     1
  9
$ANGBASE
 50
0.0
  9
$ANGDIR
 70
     0
  9
$PDMODE
 70
     0
  9
$PDSIZE
 40
0.0
  9
$PLINEWID
 40
0.0
  9
$COORDS
 70
     1
  9
$SPLFRAME
 70
     0
  9
$SPLINETYPE
 70
     6
  9
$SPLINESEGS
 70
     8
  9
$ATTDIA
 70
     1
  9
$ATTREQ
 70
     1
  9
$HANDLING
 70
 12289
  9
$HANDSEED
  5
32BF
  9
$SURFTAB1
 70
     6
  9
$SURFTAB2
 70
     6
  9
$SURFTYPE
 70
     6
  9
$SURFU
 70
     6
  9
$SURFV
 70
     6
  9
$UCSNAME
  2

  9
$UCSORG
 10
0.0
 20
0.0
 30
0.0
  9
$UCSXDIR
 10
1.0
 20
0.0000000000000027
 30
0.0
  9
$UCSYDIR
 10
-0.0000000000000027
 20
1.0
 30
0.0
  9
$PUCSNAME
  2

  9
$PUCSORG
 10
0.0
 20
0.0
 30
0.0
  9
$PUCSXDIR
 10
1.0
 20
0.0
 30
0.0
  9
$PUCSYDIR
 10
0.0
 20
1.0
 30
0.0
  9
$USERI1
 70
     0
  9
$USERI2
 70
     0
  9
$USERI3
 70
     0
  9
$USERI4
 70
     0
  9
$USERI5
 70
     0
  9
$USERR1
 40
0.0
  9
$USERR2
 40
0.0
  9
$USERR3
 40
0.0
  9
$USERR4
 40
0.0
  9
$USERR5
 40
0.0
  9
$WORLDVIEW
 70
     1
  9
$SHADEDGE
 70
     3
  9
$SHADEDIF
 70
    70
  9
$TILEMODE
 70
     1
  9
$MAXACTVP
 70
    64
  9
$PINSBASE
 10
0.0
 20
0.0
 30
0.0
  9
$PLIMCHECK
 70
     0
  9
$PEXTMIN
 10
1.000000000000000E+20
 20
1.000000000000000E+20
 30
1.000000000000000E+20
  9
$PEXTMAX
 10
-1.000000000000000E+20
 20
-1.000000000000000E+20
 30
-1.000000000000000E+20
  9
$PLIMMIN
 10
0.0
 20
0.0
  9
$PLIMMAX
 10
841.0
 20
594.0
  9
$UNITMODE
 70
     0
  9
$VISRETAIN
 70
     1
  9
$PLINEGEN
 70
     0
  9
$PSLTSCALE
 70
     0
  9
$TREEDEPTH
 70
  3020
  9
$PICKSTYLE
 70
     0
  9
$CMLSTYLE
  2
STANDARD
  9
$CMLJUST
 70
     0
  9
$CMLSCALE
 40
20.0
  9
$PROXYGRAPHICS
 70
     1
  9
$MEASUREMENT
 70
     1
  0
ENDSEC
  0
SECTION
  2
CLASSES
  0
CLASS
  1
ACDBDICTIONARYWDFLT
  2
AcDbDictionaryWithDefault
  3
AutoCAD 2000
 90
        0
280
     0
281
     0
  0
CLASS
  1
ACDBPLACEHOLDER
  2
AcDbPlaceHolder
  3
AutoCAD 2000
 90
        0
280
     0
281
     0
  0
CLASS
  1
LAYOUT
  2
AcDbLayout
  3
AutoCAD 2000
 90
        0
280
     0
281
     0
  0
CLASS
  1
AMGSETTINGSOBJ
  2
AmgSettingsObj
  3
"AcadM|Product Description: AutoCAD Mechanical 2000|Company: Autodesk"
 90
        0
280
     0
281
     0
  0
CLASS
  1
ACME_DOCUMENT
  2
AcMeDbDoc
  3
AcMeServices
 90
        0
280
     0
281
     0
  0
CLASS
  1
ACMESCOPE
  2
AcMeScope
  3
AcMeServices
 90
        0
280
     0
281
     0
  0
CLASS
  1
ACMECOMMANDHISTORY
  2
AcMeCommandHistory
  3
AcMeServices
 90
        0
280
     0
281
     0
  0
CLASS
  1
DICTIONARYVAR
  2
AcDbDictionaryVar
  3
AutoCAD 2000
 90
        0
280
     0
281
     0
  0
CLASS
  1
ACIMSYSVARMAN
  2
AcImSysVarManager
  3
AcMeServices
 90
        0
280
     0
281
     0
  0
CLASS
  1
ACIMREALSYSVAR
  2
AcImRealSysVar
  3
AcMeServices
 90
        0
280
     0
281
     0
  0
CLASS
  1
ACIMINTSYSVAR
  2
AcImIntSysVar
  3
AcMeServices
 90
        0
280
     0
281
     0
  0
CLASS
  1
ACMEDRAWINGMAN
  2
AcMeDrawingMan
  3
AcMeServices
 90
        0
280
     0
281
     0
  0
CLASS
  1
ACMEVIEW
  2
AcMeView
  3
AcMeServices
 90
        0
280
     0
281
     0
  0
CLASS
  1
ACDBENTITYCACHE
  2
AcMeEntityCache
  3
AcMeServices
 90
        0
280
     0
281
     0
  0
CLASS
  1
GSMANAGER
  2
AcMeGSManager
  3
AcMeServices
 90
        0
280
     0
281
     0
  0
CLASS
  1
AmdtInternalReactor
  2
AmdtInternalReactor
  3
AcMeServices
 90
        0
280
     0
281
     0
  0
CLASS
  1
ACMESTATEMGR
  2
AcMeStateMgr
  3
AcMeServices
 90
        0
280
     0
281
     0
  0
CLASS
  1
ACME_DATABASE
  2
AcMeDbDatabase
  3
AcMeServices
 90
        0
280
     0
281
     0
  0
CLASS
  1
ACRFINSADJUSTERMGR
  2
AcRfInsAdjusterMgr
  3
AcMeServices
 90
        0
280
     0
281
     0
  0
CLASS
  1
ACMDATADICTIONARY
  2
AcmDataDictionary
  3
"AcmSymBB|Product Description: AutoCAD Mechanical 2000|Company: Autodesk"
 90
        0
280
     0
281
     0
  0
CLASS
  1
ACMDATAENTRYBLOCK
  2
AcmDataEntryBlock
  3
"AcmSymBB|Product Description: AutoCAD Mechanical 2000|Company: Autodesk"
 90
        0
280
     0
281
     0
  0
CLASS
  1
AMGOBJPROPCFG
  2
AmgObjPropCfg
  3
"AmgLay|Product Description: AutoCAD Mechanical 2000|Company: Autodesk"
 90
        1
280
     0
281
     0
  0
CLASS
  1
ACAMGFILTERDAT
  2
AcAmgFilterDat
  3
"AcadM|Product Description: AutoCAD Mechanical 2000|Company: Autodesk"
 90
        0
280
     0
281
     0
  0
CLASS
  1
LAYER_INDEX
  2
AcDbLayerIndex
  3
AutoCAD 2000
 90
        0
280
     0
281
     0
  0
CLASS
  1
IDBUFFER
  2
AcDbIdBuffer
  3
AutoCAD 2000
 90
        0
280
     0
281
     0
  0
CLASS
  1
ACIMSTRSYSVAR
  2
AcImStrSysVar
  3
AcMeServices
 90
        0
280
     0
281
     0
  0
CLASS
  1
ACMSTANDARDJIS
  2
AcmStandardJIS
  3
"AcmSymBB|Product Description: AutoCAD Mechanical 2000|Company: Autodesk"
 90
        0
280
     0
281
     0
  0
CLASS
  1
ACMSURFSTANDARDJIS
  2
AcmSurfTextStdJIS
  3
"AcmSymBB|Product Description: AutoCAD Mechanical 2000|Company: Autodesk"
 90
        0
280
     0
281
     0
  0
CLASS
  1
ACMFCFSTANDARDJIS
  2
AcmFCFStdJIS
  3
"AcmSymBB|Product Description: AutoCAD Mechanical 2000|Company: Autodesk"
 90
        0
280
     0
281
     0
  0
CLASS
  1
ACMWELDSTANDARDJIS
  2
AcmWeldingStdJIS
  3
"AcmSymBB|Product Description: AutoCAD Mechanical 2000|Company: Autodesk"
 90
        0
280
     0
281
     0
  0
CLASS
  1
ACMIDSTANDARDJIS
  2
AcmIdStdJIS
  3
"AcmSymBB|Product Description: AutoCAD Mechanical 2000|Company: Autodesk"
 90
        0
280
     0
281
     0
  0
CLASS
  1
ACMDATUMSTANDARDJIS
  2
AcmDatumStdJIS
  3
"AcmSymBB|Product Description: AutoCAD Mechanical 2000|Company: Autodesk"
 90
        0
280
     0
281
     0
  0
CLASS
  1
ACMBOMSTANDARDJIS
  2
AcmBOMStdJIS
  3
"AcmSymBB|Product Description: AutoCAD Mechanical 2000|Company: Autodesk"
 90
        0
280
     0
281
     0
  0
CLASS
  1
ACMSTANDARDANSI
  2
AcmStandardANSI
  3
"AcmSymBB|Product Description: AutoCAD Mechanical 2000|Company: Autodesk"
 90
        0
280
     0
281
     0
  0
CLASS
  1
ACMSURFSTANDARDANSI
  2
AcmSurfTextStdANSI
  3
"AcmSymBB|Product Description: AutoCAD Mechanical 2000|Company: Autodesk"
 90
        0
280
     0
281
     0
  0
CLASS
  1
ACMFCFSTANDARDANSI
  2
AcmFCFStdANSI
  3
"AcmSymBB|Product Description: AutoCAD Mechanical 2000|Company: Autodesk"
 90
        0
280
     0
281
     0
  0
CLASS
  1
ACMWELDSTANDARDANSI
  2
AcmWeldingStdANSI
  3
"AcmSymBB|Product Description: AutoCAD Mechanical 2000|Company: Autodesk"
 90
        0
280
     0
281
     0
  0
CLASS
  1
ACMIDSTANDARDANSI
  2
AcmIdStdANSI
  3
"AcmSymBB|Product Description: AutoCAD Mechanical 2000|Company: Autodesk"
 90
        0
280
     0
281
     0
  0
CLASS
  1
ACMDATUMSTANDARDANSI
  2
AcmDatumStdANSI
  3
"AcmSymBB|Product Description: AutoCAD Mechanical 2000|Company: Autodesk"
 90
        0
280
     0
281
     0
  0
CLASS
  1
ACMBOMSTANDARDANSI
  2
AcmBOMStdANSI
  3
"AcmSymBB|Product Description: AutoCAD Mechanical 2000|Company: Autodesk"
 90
        0
280
     0
281
     0
  0
CLASS
  1
ACMSTANDARDBSI
  2
AcmStandardBSI
  3
"AcmSymBB|Product Description: AutoCAD Mechanical 2000|Company: Autodesk"
 90
        0
280
     0
281
     0
  0
CLASS
  1
ACMSURFSTANDARDBSI
  2
AcmSurfTextStdBSI
  3
"AcmSymBB|Product Description: AutoCAD Mechanical 2000|Company: Autodesk"
 90
        0
280
     0
281
     0
  0
CLASS
  1
ACMFCFSTANDARDBSI
  2
AcmFCFStdBSI
  3
"AcmSymBB|Product Description: AutoCAD Mechanical 2000|Company: Autodesk"
 90
        0
280
     0
281
     0
  0
CLASS
  1
ACMWELDSTANDARDBSI
  2
AcmWeldingStdBSI
  3
"AcmSymBB|Product Description: AutoCAD Mechanical 2000|Company: Autodesk"
 90
        0
280
     0
281
     0
  0
CLASS
  1
ACMIDSTANDARDBSI
  2
AcmIdStdBSI
  3
"AcmSymBB|Product Description: AutoCAD Mechanical 2000|Company: Autodesk"
 90
        0
280
     0
281
     0
  0
CLASS
  1
ACMDATUMSTANDARDBSI
  2
AcmDatumStdBSI
  3
"AcmSymBB|Product Description: AutoCAD Mechanical 2000|Company: Autodesk"
 90
        0
280
     0
281
     0
  0
CLASS
  1
ACMBOMSTANDARDBSI
  2
AcmBOMStdBSI
  3
"AcmSymBB|Product Description: AutoCAD Mechanical 2000|Company: Autodesk"
 90
        0
280
     0
281
     0
  0
CLASS
  1
LONG_TRANSACTION
  2
AcDbLongTransaction
  3
AutoCAD 2000
 90
        0
280
     0
281
     0
  0
CLASS
  1
LWPOLYLINE
  2
AcDbPolyline
  3
AutoCAD 2000
 90
        0
280
     0
281
     1
  0
CLASS
  1
HATCH
  2
AcDbHatch
  3
AutoCAD 2000
 90
        0
280
     0
281
     1
  0
CLASS
  1
XRECORD
  2
AcDbXrecord
  3
AutoCAD 2000
 90
        0
280
     0
281
     0
  0
ENDSEC
  0
SECTION
  2
TABLES
  0
TABLE
  2
VPORT
  5
8
330
0
100
AcDbSymbolTable
 70
     3
  0
VPORT
  5
3294
330
8
100
AcDbSymbolTableRecord
100
AcDbViewportTableRecord
  2
*ACTIVE
 70
     0
 10
0.0
 20
0.0
 11
1.0
 21
1.0
 12
-55.29841545119626
 22
-7.470899773513039
 13
0.0
 23
0.0
 14
2.5
 24
2.5
 15
10.0
 25
10.0
 16
0.0
 26
0.0
 36
1.0
 17
0.0
 27
0.0
 37
0.0
 40
96.07655095823762
 41
1.56570841889117
 42
50.0
 43
0.0
 44
0.0
 50
0.0
 51
0.0
 71
     0
 72
   100
 73
     1
 74
     1
 75
     0
 76
     0
 77
     0
 78
     0
  0
ENDTAB
  0
TABLE
  2
LTYPE
  5
5
330
0
100
AcDbSymbolTable
 70
    10
  0
LTYPE
  5
14
330
5
100
AcDbSymbolTableRecord
100
AcDbLinetypeTableRecord
  2
BYBLOCK
 70
     0
  3

 72
    65
 73
     0
 40
0.0
  0
LTYPE
  5
15
330
5
100
AcDbSymbolTableRecord
100
AcDbLinetypeTableRecord
  2
BYLAYER
 70
     0
  3

 72
    65
 73
     0
 40
0.0
  0
LTYPE
  5
16
330
5
100
AcDbSymbolTableRecord
100
AcDbLinetypeTableRecord
  2
CONTINUOUS
 70
     0
  3
Solid line
 72
    65
 73
     0
 40
0.0
  0
LTYPE
  5
4B
330
5
100
AcDbSymbolTableRecord
100
AcDbLinetypeTableRecord
  2
AM_ISO02W050
 70
     0
  3
__ __ __ __ __ __ __ __ __ __ __ __ __ __ __
 72
    65
 73
     2
 40
7.5
 49
6.0
 74
     0
 49
-1.5
 74
     0
  0
LTYPE
  5
4C
330
5
100
AcDbSymbolTableRecord
100
AcDbLinetypeTableRecord
  2
AM_ISO08W050
 70
     0
  3
____ . ____ . ____ . ____ . ____ . ____ . ____
 72
    65
 73
     4
 40
18.0
 49
12.0
 74
     0
 49
-1.5
 74
     0
 49
3.0
 74
     0
 49
-1.5
 74
     0
  0
LTYPE
  5
4D
330
5
100
AcDbSymbolTableRecord
100
AcDbLinetypeTableRecord
  2
AM_ISO09W050
 70
     0
  3
_____ . . _____ . . _____ . . ____ .. ____
 72
    65
 73
     6
 40
22.5
 49
12.0
 74
     0
 49
-1.5
 74
     0
 49
3.0
 74
     0
 49
-1.5
 74
     0
 49
3.0
 74
     0
 49
-1.5
 74
     0
  0
LTYPE
  5
4E
330
5
100
AcDbSymbolTableRecord
100
AcDbLinetypeTableRecord
  2
AMCONSTR
 70
     0
  3
_______________________
 72
    65
 73
     2
 40
9999.0
 49
9999.0
 74
     0
 49
0.0
 74
     0
  0
LTYPE
  5
4F
330
5
100
AcDbSymbolTableRecord
100
AcDbLinetypeTableRecord
  2
AM_ISO02W050X2
 70
     0
  3
 _ _ _ _ _ _ _ _ _ _ _ _
 72
    65
 73
     2
 40
3.75
 49
3.0
 74
     0
 49
-0.75
 74
     0
  0
LTYPE
  5
50
330
5
100
AcDbSymbolTableRecord
100
AcDbLinetypeTableRecord
  2
AM_ISO08W050X2
 70
     0
  3
__ . __ . __ . __ . __ . __
 72
    65
 73
     4
 40
9.0
 49
6.0
 74
     0
 49
-0.75
 74
     0
 49
1.5
 74
     0
 49
-0.75
 74
     0
  0
LTYPE
  5
53
330
5
100
AcDbSymbolTableRecord
100
AcDbLinetypeTableRecord
  2
AMZIGZAG
 70
     0
  3
/\/-/\/-/\/-/\/-/\/-/\/
 72
    65
 73
     2
 40
11.00009999999999
 49
0.0001
 74
     4
 75
   135
340
52
 46
0.04
 50
0.0
 44
0.0
 45
0.0
 49
-11.0
 74
     0
  0
LTYPE
  5
166
330
5
100
AcDbSymbolTableRecord
100
AcDbLinetypeTableRecord
  2
ACJISTGL
 70
     0
  3
_ _ _ _ _
 72
    65
 73
     2
 40
3.0
 49
2.0
 74
     0
 49
-1.0
 74
     0
  0
LTYPE
  5
26A
330
5
100
AcDbSymbolTableRecord
100
AcDbLinetypeTableRecord
  2
ACJISTGB
 70
     0
  3
__ . . __ . .
 72
    65
 73
     6
 40
9.0
 49
4.0
 74
     0
 49
-1.0
 74
     0
 49
1.0
 74
     0
 49
-1.0
 74
     0
 49
1.0
 74
     0
 49
-1.0
 74
     0
  0
ENDTAB
  0
TABLE
  2
LAYER
  5
2
330
0
100
AcDbSymbolTable
 70
     8
  0
LAYER
  5
10
330
2
100
AcDbSymbolTableRecord
100
AcDbLayerTableRecord
  2
0
 70
     0
 62
     7
  6
CONTINUOUS
  0
LAYER
  5
3F9
330
2
100
AcDbSymbolTableRecord
100
AcDbLayerTableRecord
  2
AM_0
 70
     0
 62
     7
  6
CONTINUOUS
  0
LAYER
  5
C7C
330
2
100
AcDbSymbolTableRecord
100
AcDbLayerTableRecord
  2
AM_7
 70
     0
 62
     4
  6
AM_ISO08W050
  0
LAYER
  5
C97
330
2
100
AcDbSymbolTableRecord
100
AcDbLayerTableRecord
  2
AM_11
 70
     0
 62
     3
  6
AM_ISO09W050
  0
LAYER
  5
CC5
330
2
100
AcDbSymbolTableRecord
100
AcDbLayerTableRecord
  2
AM_5
 70
     0
 62
     3
  6
CONTINUOUS
  0
LAYER
  5
CC7
330
2
100
AcDbSymbolTableRecord
100
AcDbLayerTableRecord
  2
DEFPOINTS
 70
     0
 62
     7
  6
CONTINUOUS
  0
LAYER
  5
19BC
330
2
100
AcDbSymbolTableRecord
100
AcDbLayerTableRecord
  2
AM_6
 70
     0
 62
     2
  6
CONTINUOUS
  0
LAYER
  5
3223
330
2
100
AcDbSymbolTableRecord
100
AcDbLayerTableRecord
  2
AM_CL
 70
     0
 62
     1
  6
AMCONSTR
  0
ENDTAB
  0
TABLE
  2
STYLE
  5
3
330
0
100
AcDbSymbolTable
 70
     5
  0
STYLE
  5
11
330
3
100
AcDbSymbolTableRecord
100
AcDbTextStyleTableRecord
  2
STANDARD
 70
     0
 40
0.0
 41
1.0
 50
0.0
 71
     0
 42
2.5
  3
simplex.shx
  4
EXTFONT.SHX
  0
STYLE
  5
52
330
3
100
AcDbSymbolTableRecord
100
AcDbTextStyleTableRecord
  2

 70
     1
 40
0.0
 41
1.0
 50
0.0
 71
     0
 42
2.5
  3
ltypeshp.shx
  4

  0
STYLE
  5
6B
330
3
100
AcDbSymbolTableRecord
100
AcDbTextStyleTableRecord
  2
ASAMI
 70
     0
 40
0.0
 41
1.0
 50
0.0
 71
     0
 42
2.5
  3
simplex.shx
  4
EXTFONT.SHX
  0
STYLE
  5
262
330
3
100
AcDbSymbolTableRecord
100
AcDbTextStyleTableRecord
  2
ACJISTS
 70
     0
 40
1.0
 41
1.0
 50
0.0
 71
     0
 42
2.5
  3
simplex.shx
  4
bigfont.shx
  0
STYLE
  5
269
330
3
100
AcDbSymbolTableRecord
100
AcDbTextStyleTableRecord
  2
ACJISGDT
 70
     0
 40
0.0
 41
1.0
 50
0.0
 71
     0
 42
2.5
  3
amgdtans.shx
  4

  0
ENDTAB
  0
TABLE
  2
VIEW
  5
6
330
0
100
AcDbSymbolTable
 70
     0
  0
ENDTAB
  0
TABLE
  2
UCS
  5
7
330
0
100
AcDbSymbolTable
 70
     0
  0
ENDTAB
  0
TABLE
  2
APPID
  5
9
330
0
100
AcDbSymbolTable
 70
    16
  0
APPID
  5
12
330
9
100
AcDbSymbolTableRecord
100
AcDbRegAppTableRecord
  2
ACAD
 70
     0
  0
APPID
  5
30
330
9
100
AcDbSymbolTableRecord
100
AcDbRegAppTableRecord
  2
MCAD_NO_VIS
 70
     0
  0
APPID
  5
31
330
9
100
AcDbSymbolTableRecord
100
AcDbRegAppTableRecord
  2
ACAD_TEMP_GRAPHIC
 70
     0
  0
APPID
  5
2C2
330
9
100
AcDbSymbolTableRecord
100
AcDbRegAppTableRecord
  2
GENIUS_GENDTOL_13
 70
     0
  0
APPID
  5
339
330
9
100
AcDbSymbolTableRecord
100
AcDbRegAppTableRecord
  2
GENIUS_GENODEF_13
 70
     0
  0
APPID
  5
33A
330
9
100
AcDbSymbolTableRecord
100
AcDbRegAppTableRecord
  2
GENIUS_GENOBJ-N-RSBK_13
 70
     0
  0
APPID
  5
33B
330
9
100
AcDbSymbolTableRecord
100
AcDbRegAppTableRecord
  2
GENIUS_GENOBJ-N-LIB_13
 70
     0
  0
APPID
  5
33C
330
9
100
AcDbSymbolTableRecord
100
AcDbRegAppTableRecord
  2
GENIUS_GENSCALE_13
 70
     0
  0
APPID
  5
378
330
9
100
AcDbSymbolTableRecord
100
AcDbRegAppTableRecord
  2
GENIUS_GENDIMSH_14
 70
     0
  0
APPID
  5
C82
330
9
100
AcDbSymbolTableRecord
100
AcDbRegAppTableRecord
  2
GENIUS_GENOBJ-N-CRS_13
 70
     0
  0
APPID
  5
C83
330
9
100
AcDbSymbolTableRecord
100
AcDbRegAppTableRecord
  2
GENIUS_GENOENT_13
 70
     0
  0
APPID
  5
C84
330
9
100
AcDbSymbolTableRecord
100
AcDbRegAppTableRecord
  2
GENIUS_GENOREF_13
 70
     0
  0
APPID
  5
C85
330
9
100
AcDbSymbolTableRecord
100
AcDbRegAppTableRecord
  2
GENIUS_GENOLIS_13
 70
     0
  0
APPID
  5
CA0
330
9
100
AcDbSymbolTableRecord
100
AcDbRegAppTableRecord
  2
GENIUS_GENOBJ-N-CEN_13
 70
     0
  0
APPID
  5
2796
330
9
100
AcDbSymbolTableRecord
100
AcDbRegAppTableRecord
  2
GENIUS_GENFIL_13
 70
     0
  0
APPID
  5
2797
330
9
100
AcDbSymbolTableRecord
100
AcDbRegAppTableRecord
  2
GENIUS_GENOBJ-N-CHA_13
 70
     0
  0
ENDTAB
  0
TABLE
  2
DIMSTYLE
  5
A
330
0
100
AcDbSymbolTable
 70
     9
  0
DIMSTYLE
105
58
330
A
100
AcDbSymbolTableRecord
100
AcDbDimStyleTableRecord
  2
AM_JIS
 70
     0
  3

  4
"
  5
OPEN30
  6

  7

 40
0.5
 41
2.5
 42
1.0
 43
12.0
 44
1.0
 45
0.0
 46
0.0
 47
0.1
 48
0.1
140
3.2
141
0.0
142
0.0
143
0.0393701
144
1.0
145
0.0
146
0.71
147
1.5
 71
     0
 72
     0
 73
     0
 74
     0
 75
     0
 76
     0
 77
     3
 78
     8
170
     0
171
     2
172
     1
173
     0
174
     0
175
     0
176
   256
177
   256
178
     2
270
     2
271
     3
272
     3
273
     2
274
     2
340
6B
275
     0
280
     0
281
     0
282
     0
283
     0
284
     0
285
     0
286
     0
287
     3
288
     0
  0
DIMSTYLE
105
5F
330
A
100
AcDbSymbolTableRecord
100
AcDbDimStyleTableRecord
  2
AM_JIS$3
 70
     0
  3

  4
"
  5
OPEN30
  6

  7

 40
0.5
 41
2.5
 42
1.0
 43
10.0
 44
1.0
 45
0.0
 46
0.0
 47
0.1
 48
0.1
140
3.2
141
0.0
142
0.0
143
0.0393701
144
1.0
145
0.0
146
0.71
147
1.5
 71
     0
 72
     0
 73
     0
 74
     1
 75
     0
 76
     0
 77
     3
 78
     8
170
     0
171
     2
172
     0
173
     0
174
     0
175
     0
176
   256
177
   256
178
     2
270
     2
271
     2
272
     3
273
     2
274
     2
340
6B
275
     0
280
     0
281
     0
282
     0
283
     0
284
     0
285
     0
286
     0
287
     0
288
     1
  0
DIMSTYLE
105
60
330
A
100
AcDbSymbolTableRecord
100
AcDbDimStyleTableRecord
  2
AM_JIS$4
 70
     0
  3

  4
"
  5
OPEN30
  6

  7

 40
0.5
 41
2.5
 42
1.0
 43
10.0
 44
1.0
 45
0.0
 46
0.0
 47
0.1
 48
0.1
140
3.2
141
0.0
142
0.0
143
0.0393701
144
1.0
145
0.0
146
0.71
147
1.5
 71
     0
 72
     0
 73
     0
 74
     1
 75
     0
 76
     0
 77
     3
 78
     8
170
     0
171
     2
172
     0
173
     0
174
     0
175
     0
176
   256
177
   256
178
     2
270
     2
271
     2
272
     3
273
     2
274
     2
340
6B
275
     0
280
     0
281
     0
282
     0
283
     0
284
     0
285
     0
286
     0
287
     0
288
     1
  0
DIMSTYLE
105
61
330
A
100
AcDbSymbolTableRecord
100
AcDbDimStyleTableRecord
  2
AM_JIS$6
 70
     0
  3

  4
"
  5
OPEN30
  6

  7

 40
0.5
 41
2.5
 42
1.0
 43
10.0
 44
1.0
 45
0.0
 46
0.0
 47
0.1
 48
0.1
140
3.2
141
0.0
142
0.0
143
0.0393701
144
1.0
145
0.0
146
0.71
147
1.5
 71
     0
 72
     0
 73
     0
 74
     0
 75
     0
 76
     0
 77
     0
 78
     8
170
     0
171
     2
172
     1
173
     0
174
     0
175
     0
176
   256
177
   256
178
     2
270
     2
271
     2
272
     2
273
     2
274
     2
340
6B
275
     0
280
     0
281
     0
282
     0
283
     0
284
     0
285
     0
286
     0
287
     3
288
     0
  0
DIMSTYLE
105
62
330
A
100
AcDbSymbolTableRecord
100
AcDbDimStyleTableRecord
  2
AM_JIS$7
 70
     0
  3

  4
"
  5
OPEN30
  6

  7

 40
0.5
 41
2.5
 42
1.0
 43
10.0
 44
1.0
 45
0.0
 46
0.0
 47
0.1
 48
0.1
140
3.2
141
0.0
142
0.0
143
0.0393701
144
1.0
145
0.0
146
0.71
147
1.5
 71
     0
 72
     0
 73
     0
 74
     0
 75
     0
 76
     0
 77
     3
 78
     8
170
     0
171
     2
172
     1
173
     0
174
     0
175
     0
176
   256
177
   256
178
     2
270
     2
271
     2
272
     3
273
     2
274
     2
340
6B
275
     0
280
     0
281
     0
282
     0
283
     0
284
     0
285
     0
286
     0
287
     3
288
     0
  0
DIMSTYLE
105
63
330
A
100
AcDbSymbolTableRecord
100
AcDbDimStyleTableRecord
  2
AM_JIS$SF
 70
     0
  3

  4
"
  5
OPEN30
  6

  7

 40
0.5
 41
2.5
 42
1.0
 43
10.0
 44
1.0
 45
0.0
 46
0.0
 47
0.1
 48
0.1
140
3.2
141
0.0
142
0.0
143
0.0393701
144
1.0
145
0.0
146
0.71
147
1.5
 71
     0
 72
     0
 73
     0
 74
     0
 75
     1
 76
     1
 77
     3
 78
     8
170
     0
171
     2
172
     1
173
     0
174
     0
175
     0
176
   256
177
   256
178
     2
270
     2
271
     2
272
     2
273
     2
274
     2
340
6B
275
     0
280
     0
281
     0
282
     0
283
     0
284
     0
285
     0
286
     0
287
     3
288
     0
  0
DIMSTYLE
105
68
330
A
100
AcDbSymbolTableRecord
100
AcDbDimStyleTableRecord
  2
AM_JIS$SH
 70
     0
  3

  4
"
  5

  6
GENAXEH
  7
OPEN30
 40
0.5
 41
2.5
 42
1.0
 43
10.0
 44
1.0
 45
0.0
 46
0.0
 47
0.1
 48
0.1
140
3.2
141
0.0
142
0.0
143
0.0393701
144
2.0
145
0.0
146
0.71
147
1.5
 71
     0
 72
     0
 73
     0
 74
     0
 75
     1
 76
     1
 77
     3
 78
     8
170
     0
171
     2
172
     1
173
     1
174
     0
175
     0
176
   256
177
   256
178
     2
270
     2
271
     2
272
     2
273
     2
274
     2
340
6B
275
     0
280
     0
281
     0
282
     0
283
     0
284
     0
285
     0
286
     0
287
     3
288
     0
  0
DIMSTYLE
105
B34
102
{ACAD_REACTORS
330
2C81
102
}
330
A
100
AcDbSymbolTableRecord
100
AcDbDimStyleTableRecord
  2
AM_JIS$2
 70
     0
  3

  4
"
  5
OPEN30
  6

  7

 40
0.5
 41
2.5
 42
1.0
 43
12.0
 44
1.0
 45
0.0
 46
0.0
 47
0.1
 48
0.1
140
3.2
141
0.0
142
0.0
143
0.0393701
144
1.0
145
0.0
146
0.71
147
1.5
 71
     0
 72
     0
 73
     0
 74
     0
 75
     0
 76
     0
 77
     3
 78
     8
170
     0
171
     2
172
     1
173
     0
174
     0
175
     0
176
   256
177
   256
178
     2
270
     2
271
     3
272
     3
273
     2
274
     2
340
6B
275
     0
280
     0
281
     0
282
     0
283
     0
284
     0
285
     0
286
     0
287
     3
288
     0
  0
DIMSTYLE
105
BA5
102
{ACAD_REACTORS
330
CC6
330
2069
330
2C16
330
2D60
102
}
330
A
100
AcDbSymbolTableRecord
100
AcDbDimStyleTableRecord
  2
AM_JIS$0
 70
     0
  3

  4
"
  5
OPEN30
  6

  7

 40
0.5
 41
2.5
 42
0.0
 43
10.0
 44
1.0
 45
0.0
 46
0.0
 47
0.1
 48
0.1000000001
140
3.799999999999999
141
0.0
142
0.0
143
0.0393701
144
1.0
145
0.0
146
0.71
147
1.5
 71
     0
 72
     0
 73
     0
 74
     0
 75
     0
 76
     0
 77
     3
 78
     1
170
     0
171
     2
172
     1
173
     0
174
     0
175
     0
176
     3
177
     3
178
     2
270
     2
271
     2
272
     2
273
     2
274
     2
340
11
275
     1
280
     0
281
     0
282
     0
283
     0
284
     8
285
     0
286
     0
287
     0
288
     0
  0
ENDTAB
  0
TABLE
  2
BLOCK_RECORD
  5
1
330
0
100
AcDbSymbolTable
 70
    10
  0
BLOCK_RECORD
  5
1F
102
{ACAD_XDICTIONARY
360
74
102
}
330
1
100
AcDbSymbolTableRecord
100
AcDbBlockTableRecord
  2
*MODEL_SPACE
  0
BLOCK_RECORD
  5
101
102
{ACAD_XDICTIONARY
360
32BD
102
}
330
1
100
AcDbSymbolTableRecord
100
AcDbBlockTableRecord
  2
*PAPER_SPACE
  0
BLOCK_RECORD
  5
59
330
1
100
AcDbSymbolTableRecord
100
AcDbBlockTableRecord
  2
_OPEN30
  0
BLOCK_RECORD
  5
64
330
1
100
AcDbSymbolTableRecord
100
AcDbBlockTableRecord
  2
GENAXEH
  0
BLOCK_RECORD
  5
CC8
330
1
100
AcDbSymbolTableRecord
100
AcDbBlockTableRecord
  2
*D5
  0
BLOCK_RECORD
  5
206A
330
1
100
AcDbSymbolTableRecord
100
AcDbBlockTableRecord
  2
*D6
  0
BLOCK_RECORD
  5
2C17
330
1
100
AcDbSymbolTableRecord
100
AcDbBlockTableRecord
  2
*D7
  0
BLOCK_RECORD
  5
2C82
330
1
100
AcDbSymbolTableRecord
100
AcDbBlockTableRecord
  2
*D8
  0
BLOCK_RECORD
  5
2D61
330
1
100
AcDbSymbolTableRecord
100
AcDbBlockTableRecord
  2
*D9
  0
ENDTAB
  0
ENDSEC
  0
SECTION
  2
BLOCKS
  0
BLOCK
  5
20
330
1F
100
AcDbEntity
  8
0
100
AcDbBlockBegin
  2
*MODEL_SPACE
 70
     0
 10
0.0
 20
0.0
 30
0.0
  3
*MODEL_SPACE
  1

  0
ENDBLK
  5
21
330
1F
100
AcDbEntity
  8
0
100
AcDbBlockEnd
  0
BLOCK
  5
103
330
101
100
AcDbEntity
 67
     1
  8
0
100
AcDbBlockBegin
  2
*PAPER_SPACE
 70
     0
 10
0.0
 20
0.0
 30
0.0
  3
*PAPER_SPACE
  1

  0
ENDBLK
  5
104
330
101
100
AcDbEntity
 67
     1
  8
0
100
AcDbBlockEnd
  0
BLOCK
  5
5D
330
59
100
AcDbEntity
  8
0
100
AcDbBlockBegin
  2
_OPEN30
 70
     0
 10
0.0
 20
0.0
 30
0.0
  3
_OPEN30
  1

  0
LINE
  5
5A
330
59
100
AcDbEntity
  8
0
 62
     0
100
AcDbLine
 10
-1.0
 20
0.26794919
 30
0.0
 11
0.0
 21
0.0
 31
0.0
  0
LINE
  5
5B
330
59
100
AcDbEntity
  8
0
 62
     0
100
AcDbLine
 10
0.0
 20
0.0
 30
0.0
 11
-1.0
 21
-0.26794919
 31
0.0
  0
LINE
  5
5C
330
59
100
AcDbEntity
  8
0
 62
     0
100
AcDbLine
 10
0.0
 20
0.0
 30
0.0
 11
-1.0
 21
0.0
 31
0.0
  0
ENDBLK
  5
5E
330
59
100
AcDbEntity
  8
0
100
AcDbBlockEnd
  0
BLOCK
  5
66
330
64
100
AcDbEntity
  8
0
100
AcDbBlockBegin
  2
GENAXEH
 70
     0
 10
0.0
 20
0.0
 30
0.0
  3
GENAXEH
  1

  0
LINE
  5
65
330
64
100
AcDbEntity
  8
0
100
AcDbLine
 10
-1.0
 20
0.0
 30
0.0
 11
1.0
 21
0.0
 31
0.0
  0
ENDBLK
  5
67
330
64
100
AcDbEntity
  8
0
100
AcDbBlockEnd
  0
BLOCK
  5
CD2
330
CC8
100
AcDbEntity
  8
0
100
AcDbBlockBegin
  2
*D5
 70
     1
 10
0.0
 20
0.0
 30
0.0
  3
*D5
  1

  0
LINE
  5
3240
330
CC8
100
AcDbEntity
  8
AM_5
 62
     3
100
AcDbLine
 10
-117.9999999999999
 20
-4.94999167174515
 30
0.0
 11
-117.9999999999999
 21
-18.00056505856457
 31
0.0
  0
LINE
  5
3241
330
CC8
100
AcDbEntity
  8
AM_5
 62
     3
100
AcDbLine
 10
-1.999999999999928
 20
-5.050009881404634
 30
0.0
 11
-1.999999999999928
 21
-18.00056505856457
 31
0.0
  0
LINE
  5
3242
330
CC8
100
AcDbEntity
  8
AM_5
 62
     3
100
AcDbLine
 10
-116.7499999999999
 20
-17.50056505856457
 30
0.0
 11
-3.249999999999928
 21
-17.50056505856457
 31
0.0
  0
INSERT
  5
3243
330
CC8
100
AcDbEntity
  8
AM_5
 62
     3
100
AcDbBlockReference
  2
_OPEN30
 10
-117.9999999999999
 20
-17.50056505856457
 30
0.0
 41
1.25
 42
1.25
 43
1.25
 50
180.0
  0
INSERT
  5
3244
330
CC8
100
AcDbEntity
  8
AM_5
 62
     3
100
AcDbBlockReference
  2
_OPEN30
 10
-1.999999999999928
 20
-17.50056505856457
 30
0.0
 41
1.25
 42
1.25
 43
1.25
  0
MTEXT
  5
3245
330
CC8
100
AcDbEntity
  8
AM_5
 62
     2
100
AcDbMText
 10
-59.99999999999994
 20
-15.80056505856457
 30
0.0
 40
1.9
 41
0.0
 71
     5
 72
     1
  1
116
1001
ACAD
1000
MTEXTBEGIN
1070
    73
1070
     1
1070
    44
1040
1.0
1070
    74
1070
     0
1000
MTEXTEND
  0
POINT
  5
3246
330
CC8
100
AcDbEntity
  8
DEFPOINTS
 62
     0
100
AcDbPoint
 10
-117.9999999999999
 20
-4.94999167174515
 30
0.0
  0
POINT
  5
3247
330
CC8
100
AcDbEntity
  8
DEFPOINTS
 62
     0
100
AcDbPoint
 10
-1.999999999999928
 20
-5.050009881404634
 30
0.0
  0
POINT
  5
3248
330
CC8
100
AcDbEntity
  8
DEFPOINTS
 62
     0
100
AcDbPoint
 10
-1.999999999999928
 20
-17.50056505856457
 30
0.0
  0
ENDBLK
  5
CD3
330
CC8
100
AcDbEntity
  8
0
100
AcDbBlockEnd
  0
BLOCK
  5
2074
330
206A
100
AcDbEntity
  8
0
100
AcDbBlockBegin
  2
*D6
 70
     1
 10
0.0
 20
0.0
 30
0.0
  3
*D6
  1

  0
LINE
  5
325D
330
206A
100
AcDbEntity
  8
AM_5
 62
     3
100
AcDbLine
 10
-57.00000000000002
 20
-5.499999999999998
 30
0.0
 11
-57.00000000000001
 21
-13.0005650585647
 31
0.0
  0
LINE
  5
325E
330
206A
100
AcDbEntity
  8
AM_5
 62
     3
100
AcDbLine
 10
-1.999999999999913
 20
-5.050009881404641
 30
0.0
 11
-1.99999999999989
 21
-13.00056505856454
 31
0.0
  0
LINE
  5
325F
330
206A
100
AcDbEntity
  8
AM_5
 62
     3
100
AcDbLine
 10
-55.75000000000001
 20
-12.5005650585647
 30
0.0
 11
-3.249999999999892
 21
-12.50056505856454
 31
0.0
  0
INSERT
  5
3260
330
206A
100
AcDbEntity
  8
AM_5
 62
     3
100
AcDbBlockReference
  2
_OPEN30
 10
-57.00000000000001
 20
-12.5005650585647
 30
0.0
 41
1.25
 42
1.25
 43
1.25
 50
180.0000000000001
  0
INSERT
  5
3261
330
206A
100
AcDbEntity
  8
AM_5
 62
     3
100
AcDbBlockReference
  2
_OPEN30
 10
-1.999999999999891
 20
-12.50056505856454
 30
0.0
 41
1.25
 42
1.25
 43
1.25
 50
0.0000000000001527
  0
MTEXT
  5
3262
330
206A
100
AcDbEntity
  8
AM_5
 62
     2
100
AcDbMText
 10
-29.49999999999995
 20
-10.80056505856462
 30
0.0
 40
1.9
 41
0.0
 71
     5
 72
     1
  1
55
1001
ACAD
1000
MTEXTBEGIN
1070
    73
1070
     1
1070
    44
1040
1.0
1070
    74
1070
     0
1000
MTEXTEND
  0
POINT
  5
3263
330
206A
100
AcDbEntity
  8
DEFPOINTS
 62
     0
100
AcDbPoint
 10
-57.00000000000004
 20
-5.499999999999832
 30
0.0
  0
POINT
  5
3264
330
206A
100
AcDbEntity
  8
DEFPOINTS
 62
     0
100
AcDbPoint
 10
-1.999999999999928
 20
-5.050009881404634
 30
0.0
  0
POINT
  5
3265
330
206A
100
AcDbEntity
  8
DEFPOINTS
 62
     0
100
AcDbPoint
 10
-1.999999999999928
 20
-12.50056505856453
 30
0.0
  0
ENDBLK
  5
2075
330
206A
100
AcDbEntity
  8
0
100
AcDbBlockEnd
  0
BLOCK
  5
2C21
330
2C17
100
AcDbEntity
  8
0
100
AcDbBlockBegin
  2
*D7
 70
     1
 10
0.0
 20
0.0
 30
0.0
  3
*D7
  1

  0
LINE
  5
3249
330
2C17
100
AcDbEntity
  8
AM_5
 62
     3
100
AcDbLine
 10
-117.4999999999999
 20
-5.499999999999936
 30
0.0
 11
-128.0000009999999
 21
-5.499999999999972
 31
0.0
  0
LINE
  5
324A
330
2C17
100
AcDbEntity
  8
AM_5
 62
     3
100
AcDbLine
 10
-117.4999999999999
 20
5.500000000000095
 30
0.0
 11
-128.000001
 21
5.500000000000059
 31
0.0
  0
LINE
  5
324B
330
2C17
100
AcDbEntity
  8
AM_5
 62
     3
100
AcDbLine
 10
-127.500001
 20
-4.24999999999997
 30
0.0
 11
-127.500001
 21
4.250000000000061
 31
0.0
  0
INSERT
  5
324C
330
2C17
100
AcDbEntity
  8
AM_5
 62
     3
100
AcDbBlockReference
  2
_OPEN30
 10
-127.500001
 20
-5.49999999999997
 30
0.0
 41
1.25
 42
1.25
 43
1.25
 50
270.0000000000002
  0
INSERT
  5
324D
330
2C17
100
AcDbEntity
  8
AM_5
 62
     3
100
AcDbBlockReference
  2
_OPEN30
 10
-127.500001
 20
5.500000000000061
 30
0.0
 41
1.25
 42
1.25
 43
1.25
 50
90.00000000000019
  0
MTEXT
  5
324E
330
2C17
100
AcDbEntity
  8
AM_5
 62
     2
100
AcDbMText
 10
-129.200001
 20
0.0000118250604451
 30
0.0
 40
1.9
 41
0.0
 71
     5
 72
     1
  1
%%c11
 11
-0.0000000000000037
 21
1.0
 31
0.0
1001
ACAD
1000
MTEXTBEGIN
1070
    73
1070
     1
1070
    44
1040
1.0
1070
    74
1070
     0
1000
MTEXTEND
  0
POINT
  5
324F
330
2C17
100
AcDbEntity
  8
DEFPOINTS
 62
     0
100
AcDbPoint
 10
-117.4999999999999
 20
-5.499999999999492
 30
0.0
  0
POINT
  5
3250
330
2C17
100
AcDbEntity
  8
DEFPOINTS
 62
     0
100
AcDbPoint
 10
-117.4999999999999
 20
5.500000000000539
 30
0.0
  0
POINT
  5
3251
330
2C17
100
AcDbEntity
  8
DEFPOINTS
 62
     0
100
AcDbPoint
 10
-127.500001
 20
5.500000000000542
 30
0.0
  0
ENDBLK
  5
2C22
330
2C17
100
AcDbEntity
  8
0
100
AcDbBlockEnd
  0
BLOCK
  5
2C90
330
2C82
100
AcDbEntity
  8
0
100
AcDbBlockBegin
  2
*D8
 70
     1
 10
0.0
 20
0.0
 30
0.0
  3
*D8
  1

  0
LINE
  5
3252
330
2C82
100
AcDbEntity
  8
AM_5
100
AcDbLine
 10
0.171010070407992
 20
-0.4698463108498141
 30
0.0
 11
5.026805339375113
 21
-13.81103427669051
 31
0.0
  0
LINE
  5
3253
330
2C82
100
AcDbEntity
  8
AM_5
100
AcDbLine
 10
0.1710111111829045
 20
0.4698459320371243
 30
0.0
 11
5.026835932736517
 21
13.81102314157902
 31
0.0
  0
ARC
  5
3254
330
2C82
100
AcDbEntity
  8
AM_5
100
AcDbCircle
 10
-0.0000000000000588
 20
-0.0000000000001491
 30
0.0
 40
14.19739567787052
100
AcDbArc
 50
295.0461983747119
 51
64.95367470711797
  0
INSERT
  5
3255
330
2C82
100
AcDbEntity
  8
AM_5
100
AcDbBlockReference
  2
_OPEN30
 10
4.855795268967064
 20
-13.34118796584085
 30
0.0
 41
1.25
 42
1.25
 43
1.25
 50
202.523099110848
  0
INSERT
  5
3256
330
2C82
100
AcDbEntity
  8
AM_5
100
AcDbBlockReference
  2
_OPEN30
 10
4.855824821553556
 20
13.34117720954175
 30
0.0
 41
1.25
 42
1.25
 43
1.25
 50
157.4767739709819
  0
MTEXT
  5
3257
330
2C82
100
AcDbEntity
  8
AM_5
 62
     2
100
AcDbMText
 10
12.6473956778627
 20
-0.0000140078758509
 30
0.0
 40
1.6
 41
0.0
 71
     5
 72
     1
  1
140°
  7
ASAMI
 11
0.0000011075699733
 21
0.9999999999993868
 31
0.0
1001
ACAD
1000
MTEXTBEGIN
1070
    73
1070
     1
1070
    44
1040
1.0
1070
    74
1070
     0
1000
MTEXTEND
  0
POINT
  5
3258
330
2C82
100
AcDbEntity
  8
DEFPOINTS
 62
     0
100
AcDbPoint
 10
13.03627323003053
 20
-5.62331079578624
 30
0.0
  0
POINT
  5
3259
330
2C82
100
AcDbEntity
  8
DEFPOINTS
 62
     0
100
AcDbPoint
 10
-0.0000000000000567
 20
-0.0000000000001434
 30
0.0
  0
POINT
  5
325A
330
2C82
100
AcDbEntity
  8
DEFPOINTS
 62
     0
100
AcDbPoint
 10
-0.0000000000000565
 20
-0.0000000000001553
 30
0.0
  0
POINT
  5
325B
330
2C82
100
AcDbEntity
  8
DEFPOINTS
 62
     0
100
AcDbPoint
 10
-0.6288636867983052
 20
1.72778879375014
 30
0.0
  0
POINT
  5
325C
330
2C82
100
AcDbEntity
  8
DEFPOINTS
 62
     0
100
AcDbPoint
 10
-0.6288762571457034
 20
-1.727811421905819
 30
0.0
  0
ENDBLK
  5
2C91
330
2C82
100
AcDbEntity
  8
0
100
AcDbBlockEnd
  0
BLOCK
  5
2D6B
330
2D61
100
AcDbEntity
  8
0
100
AcDbBlockBegin
  2
*D9
 70
     1
 10
0.0
 20
0.0
 30
0.0
  3
*D9
  1

  0
LINE
  5
3266
330
2D61
100
AcDbEntity
  8
AM_5
 62
     3
100
AcDbLine
 10
-2.000000001518199
 20
5.050000522168086
 30
0.0
 11
9.819918757261595
 21
5.049959032412133
 31
0.0
  0
LINE
  5
3267
330
2D61
100
AcDbEntity
  8
AM_5
 62
     3
100
AcDbLine
 10
-1.999999999999927
 20
-5.050009881404634
 30
0.0
 11
9.81988330465187
 21
-5.050051371036138
 31
0.0
  0
LINE
  5
3268
330
2D61
100
AcDbEntity
  8
AM_5
 62
     3
100
AcDbLine
 10
9.319914369569971
 20
3.799960787497716
 30
0.0
 11
9.319887692349654
 21
-3.800049615965956
 31
0.0
  0
INSERT
  5
3269
330
2D61
100
AcDbEntity
  8
AM_5
 62
     3
100
AcDbBlockReference
  2
_OPEN30
 10
9.319918757264675
 20
5.049960787490015
 30
0.0
 41
1.25
 42
1.25
 43
1.25
 50
89.99979888288931
  0
INSERT
  5
326A
330
2D61
100
AcDbEntity
  8
AM_5
 62
     3
100
AcDbBlockReference
  2
_OPEN30
 10
9.31988330465495
 20
-5.050049615958256
 30
0.0
 41
1.25
 42
1.25
 43
1.25
 50
269.9997988828893
  0
MTEXT
  5
326B
330
2D61
100
AcDbEntity
  8
AM_5
 62
     2
100
AcDbMText
 10
7.619901030970286
 20
-0.0000384469693231
 30
0.0
 40
1.9
 41
0.0
 71
     5
 72
     1
  1
%%c10.1
 11
0.0000035101557632
 21
0.9999999999938395
 31
0.0
1001
ACAD
1000
MTEXTBEGIN
1070
    73
1070
     1
1070
    44
1040
1.0
1070
    74
1070
     0
1000
MTEXTEND
  0
POINT
  5
326C
330
2D61
100
AcDbEntity
  8
DEFPOINTS
 62
     0
100
AcDbPoint
 10
-2.000000001518185
 20
5.050000522168093
 30
0.0
  0
POINT
  5
326D
330
2D61
100
AcDbEntity
  8
DEFPOINTS
 62
     0
100
AcDbPoint
 10
-1.999999999999942
 20
-5.050009881404629
 30
0.0
  0
POINT
  5
326E
330
2D61
100
AcDbEntity
  8
DEFPOINTS
 62
     0
100
AcDbPoint
 10
9.319883304654936
 20
-5.050049615958283
 30
0.0
  0
ENDBLK
  5
2D6C
330
2D61
100
AcDbEntity
  8
0
100
AcDbBlockEnd
  0
ENDSEC
  0
SECTION
  2
ENTITIES
  0
LINE
  5
C1D
330
1F
100
AcDbEntity
  8
AM_0
 48
0.5
100
AcDbLine
 10
-0.0000000000000565
 20
-0.0000000000001553
 30
0.0
 11
-0.6288636867983052
 21
1.727788793750139
 31
0.0
  0
LINE
  5
C20
330
1F
100
AcDbEntity
  8
AM_0
 48
0.5
100
AcDbLine
 10
-0.0000000000000565
 20
-0.0000000000001553
 30
0.0
 11
-0.6288762571457033
 21
-1.727811421905818
 31
0.0
  0
DIMENSION
  5
CC6
330
1F
100
AcDbEntity
  8
AM_5
100
AcDbDimension
  2
*D5
 10
-1.999999999999928
 20
-17.50056505856457
 30
0.0
 11
-59.99999999999994
 21
-15.80056505856457
 31
0.0
 70
    32
  1
<>
  3
AM_JIS$0
100
AcDbAlignedDimension
 13
-117.9999999999999
 23
-4.94999167174515
 33
0.0
 14
-1.999999999999928
 24
-5.050009881404634
 34
0.0
 50
0.0000000000001132
100
AcDbRotatedDimension
1001
GENIUS_GENDTOL_13
1000

1000
h7
1000

1040
0.0
1001
ACAD
1000
DSTYLE
1002
{
1070
   271
1070
     0
1002
}
  0
TEXT
  5
19BD
330
1F
100
AcDbEntity
  8
AM_6
100
AcDbText
 10
-70.77380952380945
 20
-28.75056505856461
 30
0.0
 40
2.5
  1
MDW101MHK
 50
0.0000000000001527
 72
     4
 11
-59.99999999999992
 21
-27.50056505856457
 31
0.0
100
AcDbText
  0
DIMENSION
  5
2069
330
1F
100
AcDbEntity
  8
AM_5
100
AcDbDimension
  2
*D6
 10
-1.999999999999928
 20
-12.50056505856453
 30
0.0
 11
-29.49999999999998
 21
-10.80056505856453
 31
0.0
 70
    32
  1
<>
 51
359.9999999999998
  3
AM_JIS$0
100
AcDbAlignedDimension
 13
-57.00000000000004
 23
-5.499999999999832
 33
0.0
 14
-1.999999999999928
 24
-5.050009881404634
 34
0.0
 50
0.0000000000001527
100
AcDbRotatedDimension
1001
ACAD
1000
DSTYLE
1002
{
1070
   271
1070
     0
1070
   174
1070
     1
1002
}
1001
GENIUS_GENDTOL_13
1000

1000
h7
1000

1040
0.0
  0
LINE
  5
23EF
330
1F
100
AcDbEntity
  8
AM_7
100
AcDbLine
 10
-120.4999999999999
 20
0.0000000000005242
 30
0.0
 11
2.319900031072573
 21
-0.0000000000001666
 31
0.0
1001
GENIUS_GENODEF_13
1002
{
1000
HIER
1070
     0
1002
}
1002
{
1000
MANEDIT
1070
     0
1002
}
1002
{
1000
NOSEL
1070
     0
1002
}
1002
{
1000
BEHIND
1070
     0
1002
}
1002
{
1000
REACTOR
1002
}
1001
GENIUS_GENOBJ-N-CEN_13
1002
{
1000
OWNER
1000
GEN
1002
}
  0
LINE
  5
2496
330
1F
100
AcDbEntity
  8
AM_0
 48
0.5
100
AcDbLine
 10
-0.0000000000000565
 20
-0.0000000000001553
 30
0.0
 11
-2.590947267588076
 21
1.939047127595816
 31
0.0
  0
ELLIPSE
  5
2497
330
1F
100
AcDbEntity
  8
AM_0
 48
0.5
100
AcDbEllipse
 10
-9.126053634831858
 20
8.561344700685539
 30
0.0
 11
11.4152702203954
 21
8.632250210199018
 31
0.0
210
0.0
220
0.0
230
1.0
 40
0.8713253931280444
 41
-1.53352190023699
 42
-1.422454380818949
  0
LINE
  5
24A7
330
1F
100
AcDbEntity
  8
AM_0
 48
0.5
100
AcDbLine
 10
-1.552914286975364
 20
4.629174220165445
 30
0.0
 11
-1.999999999999983
 21
5.05000052216809
 31
0.0
  0
LINE
  5
24A9
330
1F
100
AcDbEntity
  8
AM_0
 48
0.5
100
AcDbLine
 10
-4.963849325002941
 20
-5.049999477831828
 30
0.0
 11
-1.999999999999956
 21
-5.050009881404621
 31
0.0
  0
LINE
  5
24AA
330
1F
100
AcDbEntity
  8
AM_0
 48
0.5
100
AcDbLine
 10
-4.963849325002664
 20
5.050000522168175
 30
0.0
 11
-1.999999999999983
 21
5.050000522168091
 31
0.0
  0
LINE
  5
24AB
330
1F
100
AcDbEntity
  8
AM_0
 48
0.5
100
AcDbLine
 10
-36.59527367535455
 20
-5.049999477831114
 30
0.0
 11
-21.7014247444743
 21
-5.050009109941907
 31
0.0
  0
LINE
  5
24AC
330
1F
100
AcDbEntity
  8
AM_11
 48
0.5
100
AcDbLine
 10
-21.70143030557569
 20
5.050000522168605
 30
0.0
 11
-4.963849325002664
 21
5.050000522168175
 31
0.0
  0
LINE
  5
24AD
330
1F
100
AcDbEntity
  8
AM_11
 48
0.5
100
AcDbLine
 10
-21.7014247444743
 20
-5.050009109941907
 30
0.0
 11
-4.963849325002941
 21
-5.049999477831828
 31
0.0
  0
SPLINE
  5
24AE
330
1F
100
AcDbEntity
  8
AM_0
 48
0.5
100
AcDbSpline
210
0.0
220
0.0
230
1.0
 70
     8
 71
     3
 72
    10
 73
     6
 74
     0
 42
0.0000000001
 43
0.0000000001
 40
0.0
 40
0.0
 40
0.0
 40
0.0
 40
2.69986029516136
 40
4.147722969032201
 40
6.285750005020438
 40
6.285750005020438
 40
6.285750005020438
 40
6.285750005020438
 10
-5.999954645133336
 20
0.9140236036296911
 30
0.0
 10
-5.367571273212506
 20
0.4448437065568715
 30
0.0
 10
-4.396057657618836
 20
-0.2759447872717704
 30
0.0
 10
-2.098558462512639
 20
0.0730015497397551
 30
0.0
 10
-2.531244387835346
 20
1.248298985267686
 30
0.0
 10
-2.590947267588076
 20
1.939047127595816
 30
0.0
  0
ELLIPSE
  5
24AF
330
1F
100
AcDbEntity
  8
AM_0
 48
0.5
100
AcDbEllipse
 10
-5.991234246712164
 20
5.151954744645371
 30
0.0
 11
5.547907291512345
 21
5.547907291512345
 31
0.0
210
0.0
220
0.0
230
1.0
 40
0.9999999999999984
 41
4.302452672480132
 42
4.467219734253634
  0
ELLIPSE
  5
24B0
330
1F
100
AcDbEntity
  8
AM_0
 48
0.5
100
AcDbEllipse
 10
-1.57066393802194
 20
-1.314311069182534
 30
0.0
 11
-0.1556839853433327
 21
0.8280284310398762
 31
0.0
210
0.0
220
0.0
230
1.0
 40
0.519712475454302
 41
1.794173806390921
 42
4.929515696102897
  0
ELLIPSE
  5
24B1
330
1F
100
AcDbEntity
  8
AM_0
 48
0.5
100
AcDbEllipse
 10
-1.570739693072227
 20
-1.316102173297333
 30
0.0
 11
-0.7659877053293503
 21
0.4119870799677845
 31
0.0
210
0.0
220
0.0
230
0.9999999999999998
 40
0.4888125292605329
 41
4.459892566678187
 42
7.603332908007699
  0
SPLINE
  5
24B2
330
1F
100
AcDbEntity
  8
AM_0
 48
0.5
100
AcDbSpline
210
0.0
220
0.0
230
1.0
 70
     8
 71
     3
 72
    17
 73
    13
 74
     0
 42
0.0000000001
 43
0.0000000001
 40
0.0
 40
0.0
 40
0.0
 40
0.0
 40
1.010743614677189
 40
2.022833924044153
 40
3.037578959561199
 40
4.056212747067873
 40
5.079857613375832
 40
6.109500119648989
 40
7.14596120163808
 40
8.18989512056258
 40
9.241717674284874
 40
9.693948937866434
 40
9.693948937866434
 40
9.693948937866434
 40
9.693948937866434
 10
-4.963849325002663
 20
5.050000522168174
 30
0.0
 10
-5.259900123634742
 20
5.046998059792699
 30
0.0
 10
-5.852396173094959
 20
5.040989134620644
 30
0.0
 10
-6.740923502384027
 20
4.992502266763626
 30
0.0
 10
-7.629414251518703
 20
4.915450056128705
 30
0.0
 10
-8.517849744090097
 20
4.807446809162018
 30
0.0
 10
-9.406219399088895
 20
4.669957297798691
 30
0.0
 10
-10.29451236595793
 20
4.503618972618876
 30
0.0
 10
-11.18271672231268
 20
4.309502608431783
 30
0.0
 10
-12.0708669340475
 20
4.08891504659387
 30
0.0
 10
-12.78780494461119
 20
3.890198997734243
 30
0.0
 10
-13.20883297926384
 20
3.765972890578763
 30
0.0
 10
-13.33520300683326
 20
3.727948110784534
 30
0.0
  0
SPLINE
  5
24B3
330
1F
100
AcDbEntity
  8
AM_0
 48
0.5
100
AcDbSpline
210
0.0
220
0.0
230
1.0
 70
     8
 71
     3
 72
    16
 73
    12
 74
     0
 42
0.0000000001
 43
0.0000000001
 40
0.0
 40
0.0
 40
0.0
 40
0.0
 40
1.010743614677189
 40
2.022833924044153
 40
3.037578959561199
 40
4.056212747067873
 40
5.079857613375832
 40
6.109500119648989
 40
7.14596120163808
 40
8.18989512056258
 40
8.545190612624931
 40
8.545190612624931
 40
8.545190612624931
 40
8.545190612624931
 10
-4.963849325002663
 20
5.050000522168174
 30
0.0
 10
-5.25988366513779
 20
5.049970175964392
 30
0.0
 10
-5.852403823496689
 20
5.039608017855967
 30
0.0
 10
-6.740921438330937
 20
4.992873553812564
 30
0.0
 10
-7.629414834742985
 20
4.915350126448807
 30
0.0
 10
-8.517849484262075
 20
4.807473493213689
 30
0.0
 10
-9.406219854739894
 20
4.669951127984385
 30
0.0
 10
-10.29451079098434
 20
4.503616724713074
 30
0.0
 10
-11.18272262214553
 20
4.309517985219042
 30
0.0
 10
-11.87334848818264
 20
4.137925066589188
 30
0.0
 10
-12.26809611271074
 20
4.032391173008375
 30
0.0
 10
-12.36820190566765
 20
4.005157385804576
 30
0.0
  0
SPLINE
  5
24B4
330
1F
100
AcDbEntity
  8
AM_0
 48
0.5
100
AcDbSpline
210
0.0
220
0.0
230
1.0
 70
     8
 71
     3
 72
    25
 73
    21
 74
     0
 42
0.0000000001
 43
0.0000000001
 40
6.846175049578289
 40
6.846175049578289
 40
6.846175049578289
 40
6.846175049578289
 40
7.604337694224321
 40
8.711974558287883
 40
9.814980593243754
 40
10.91239053451967
 40
12.0033633515982
 40
13.08720139956839
 40
14.16337181880432
 40
15.23152222380919
 40
16.29148850140128
 40
17.34331105512262
 40
18.38723020264746
 40
19.42369128463655
 40
20.45333379090873
 40
21.47697865721768
 40
22.49561244472435
 40
23.5103574802404
 40
24.52244778960836
 40
25.53320666051913
 40
25.53320666051913
 40
25.53320666051913
 40
25.53320666051913
 10
-6.000096701211316
 20
0.9140835837649323
 30
0.0
 10
-6.201939865191254
 20
1.002752602373002
 30
0.0
 10
-6.69909036105409
 20
1.220075235743925
 30
0.0
 10
-7.492287007305243
 20
1.561350002534508
 30
0.0
 10
-8.379842612340272
 20
1.933605065594587
 30
0.0
 10
-9.267442853123123
 20
2.29396668179972
 30
0.0
 10
-10.15509535579403
 20
2.640219145278896
 30
0.0
 10
-11.04281001099249
 20
2.97022625207807
 30
0.0
 10
-11.93059502729065
 20
3.281952881332937
 30
0.0
 10
-12.81845451466558
 20
3.573483247275866
 30
0.0
 10
-13.70639940926848
 20
3.843003063335457
 30
0.0
 10
-14.59442850871596
 20
4.088859623873378
 30
0.0
 10
-15.48254819153473
 20
4.309518786526049
 30
0.0
 10
-16.37075532350954
 20
4.503614926139197
 30
0.0
 10
-17.25904643485447
 20
4.669958372246274
 30
0.0
 10
-18.14741658264699
 20
4.807446523330184
 30
0.0
 10
-19.03585194420429
 20
4.915450132880159
 30
0.0
 10
-19.92434272806704
 20
4.992502243916219
 30
0.0
 10
-20.81287451135248
 20
5.040989393084842
 30
0.0
 10
-21.40537503536434
 20
5.046998130790214
 30
0.0
 10
-21.70143030557569
 20
5.050000522168605
 30
0.0
  0
SPLINE
  5
24B5
330
1F
100
AcDbEntity
  8
AM_0
100
AcDbSpline
210
0.0
220
0.0
230
1.0
 70
     8
 71
     3
 72
    11
 73
     7
 74
     0
 42
0.0000000001
 43
0.0000000001
 40
11.27226913003534
 40
11.27226913003534
 40
11.27226913003534
 40
11.2722691300354
 40
12.28301561507924
 40
13.29510212255852
 40
14.30984805882082
 40
15.18258238371378
 40
15.18258238371378
 40
15.18258238371378
 40
15.18258238371378
 10
-21.70142474447435
 20
-5.050009109941908
 30
0.0
 10
-21.99635531575882
 20
-5.025283310310972
 30
0.0
 10
-22.58564905147339
 20
-4.965446544435559
 30
0.0
 10
-23.46654665205417
 20
-4.844740987075915
 30
0.0
 10
-24.30253400764877
 20
-4.700571433658013
 30
0.0
 10
-24.84320155777407
 20
-4.58974400718452
 30
0.0
 10
-25.09235656036622
 20
-4.53499831967044
 30
0.0
  0
SPLINE
  5
24B6
330
1F
100
AcDbEntity
  8
AM_0
100
AcDbSpline
210
0.0
220
0.0
230
1.0
 70
     8
 71
     3
 72
    17
 73
    13
 74
     0
 42
0.0000000001
 43
0.0000000001
 40
1.580019955310467
 40
1.580019955310467
 40
1.580019955310467
 40
1.580019955310467
 40
2.030549285115227
 40
3.082371838836284
 40
4.126290986361125
 40
5.162752068350215
 40
6.192395305374981
 40
7.216039564037012
 40
8.234688489606833
 40
9.249433870634691
 40
10.26152376260694
 40
11.27226744710342
 40
11.27226744710342
 40
11.27226744710342
 40
11.27226744710352
 10
-13.33198688727014
 20
-3.72704818311293
 30
0.0
 10
-13.45769877940175
 20
-3.765433688576725
 30
0.0
 10
-13.87761873356464
 20
-3.891247309851446
 30
0.0
 10
-14.59452623111136
 20
-4.088590476510328
 30
0.0
 10
-15.48252222216449
 20
-4.309588643806455
 30
0.0
 10
-16.37076267768257
 20
-4.503595692402177
 30
0.0
 10
-17.25904383206823
 20
-4.669960103024622
 30
0.0
 10
-18.14742176309367
 20
-4.807471732916706
 30
0.0
 10
-19.03586106960117
 20
-4.915345863840874
 30
0.0
 10
-19.92435569745176
 20
-4.99288343533362
 30
0.0
 10
-20.81288375643874
 20
-5.039585329042641
 30
0.0
 10
-21.40537956472732
 20
-5.049999506727776
 30
0.0
 10
-21.7014247444743
 20
-5.050009109941908
 30
0.0
  0
ELLIPSE
  5
24B7
330
1F
100
AcDbEntity
  8
AM_11
 48
0.5
100
AcDbEllipse
 10
-17.32962994420971
 20
20.09720314218288
 30
0.0
 11
-23.19725211461353
 21
0.0000000000001765
 31
0.0
210
0.0
220
0.0
230
1.0
 40
0.9578947368421058
 41
1.130070686340284
 42
2.011520147323574
  0
ELLIPSE
  5
24B8
330
1F
100
AcDbEntity
  8
AM_11
 48
0.5
100
AcDbEllipse
 10
-17.32962994421081
 20
-20.09718855347532
 30
0.0
 11
-23.1972521146135
 21
0.0000000000001044
 31
0.0
210
0.0
220
0.0
230
1.0
 40
0.9578947368421054
 41
4.271664206181664
 42
5.153113667164971
  0
ELLIPSE
  5
24B9
330
1F
100
AcDbEntity
  8
AM_11
 48
0.5
100
AcDbEllipse
 10
2.462036722456976
 20
20.09720314218236
 30
0.0
 11
-23.19725211461348
 21
0.0000000000018145
 31
0.0
210
0.0
220
0.0
230
1.0
 40
0.9578947368421141
 41
1.130070686340349
 42
1.291800737381041
  0
ELLIPSE
  5
24BA
330
1F
100
AcDbEntity
  8
AM_0
 48
0.5
100
AcDbEllipse
 10
3.165566634226963
 20
6.062836215527311
 30
0.0
 11
-10.62538045579245
 21
0.0000000000006235
 31
0.0
210
0.0
220
0.0
230
1.0
 40
0.9578947368421058
 41
0.530367553234127
 42
0.938488483429019
  0
SPLINE
  5
24BB
330
1F
100
AcDbEntity
  8
AM_0
100
AcDbSpline
210
0.0
220
0.0
230
1.0
 70
     8
 71
     3
 72
    22
 73
    18
 74
     0
 42
0.0000000001
 43
0.0000000001
 40
17.17441611292
 40
17.17441611292
 40
17.17441611292
 40
17.17441611292
 40
17.38177636558528
 40
18.41823744757437
 40
19.46215659509824
 40
20.51397914882054
 40
21.57394542641293
 40
22.64209583141747
 40
23.71826625065247
 40
24.80210429862395
 40
25.8930771157021
 40
26.99048705697709
 40
28.09349309193389
 40
29.20112995599786
 40
30.31233024745139
 40
31.42594771747373
 40
32.5407895042663
 40
32.54078950426994
 40
32.54078950426994
 40
32.54078950426994
 10
-25.09274514432005
 20
-4.534936027959056
 30
0.0
 10
-25.15224224983038
 20
-4.523245773271994
 30
0.0
 10
-25.50889490410298
 20
-4.452039154196755
 30
0.0
 10
-26.16226246943333
 20
-4.309260615203089
 30
0.0
 10
-27.05038208470489
 20
-4.088601796602928
 30
0.0
 10
-27.93841120245192
 20
-3.842745142828249
 30
0.0
 10
-28.82635609211021
 20
-3.573225352072836
 30
0.0
 10
-29.7142155807663
 20
-3.281694979144032
 30
0.0
 10
-30.60200059694098
 20
-2.969968352267189
 30
0.0
 10
-31.48971525132841
 20
-2.639961242992822
 30
0.0
 10
-32.37736775740009
 20
-2.293708787081532
 30
0.0
 10
-33.26496798528904
 20
-1.933347142866332
 30
0.0
 10
-34.15252363882981
 20
-1.5610921849951
 30
0.0
 10
-35.04004365270492
 20
-1.179234088872192
 30
0.0
 10
-35.92753589400688
 20
-0.7901208495502594
 30
0.0
 10
-36.81501351016143
 20
-0.3961535060347307
 30
0.0
 10
-37.40654912011243
 20
-0.1319279656240812
 30
0.0
 10
-37.70247942417875
 20
0.0002573784522183
 30
0.0
  0
ELLIPSE
  5
24BC
330
1F
100
AcDbEntity
  8
AM_0
 48
0.5
100
AcDbEllipse
 10
5.277632195533803
 20
-1.348676863267296
 30
0.0
 11
-6.817677630583637
 21
5.681404868825658
 31
0.0
210
0.0
220
0.0
230
1.0
 40
0.9072604495748125
 41
0.8381983719074558
 42
1.199334235732587
  0
SPLINE
  5
24BD
330
1F
100
AcDbEntity
  8
AM_0
100
AcDbSpline
210
0.0
220
0.0
230
1.0
 70
     8
 71
     3
 72
    46
 73
    42
 74
     0
 42
0.0000000001
 43
0.0000000001
 40
0.0
 40
0.0
 40
0.0
 40
0.0
 40
1.685415058684571
 40
2.531036209541119
 40
3.379897699130121
 40
4.232934581347655
 40
5.090970612202441
 40
5.954688180526682
 40
6.824620803463246
 40
7.701151815239689
 40
8.584457046566678
 40
9.474582384070741
 40
10.37139106676737
 40
11.27458944007583
 40
12.18373345430765
 40
13.09824173870457
 40
14.01741343450111
 40
14.9404441545541
 40
15.86644439743314
 40
16.79446029130534
 40
17.7234937712985
 40
18.65252725129241
 40
19.58054314516461
 40
20.50654338804289
 40
21.42957410809586
 40
22.34874580389317
 40
23.26325408828901
 40
24.17239810252111
 40
25.07560240389441
 40
25.97241108659103
 40
26.8625364240951
 40
27.74584165542183
 40
28.62236045019041
 40
29.49229307312697
 40
30.35601064145121
 40
31.21404606334468
 40
32.06708345193547
 40
32.91595755657689
 40
33.76157841950693
 40
34.60498701064689
 40
35.44727335621125
 40
35.44727335621125
 40
35.44727335621125
 40
35.44727335621125
 10
-2.476574456418338
 20
-5.049999477831899
 30
0.0
 10
-3.069099203717396
 20
-5.03849518746226
 30
0.0
 10
-3.958910637841878
 20
-5.021218864137285
 30
0.0
 10
-5.142131704905064
 20
-4.914851715254969
 30
0.0
 10
-6.030576411321398
 20
-4.807605334265711
 30
0.0
 10
-6.918945176865146
 20
-4.669919198576753
 30
0.0
 10
-7.807235661268792
 20
-4.503624170605501
 30
0.0
 10
-8.695443301209914
 20
-4.309515282255826
 30
0.0
 10
-9.583566609074171
 20
-4.088857029715732
 30
0.0
 10
-10.47160163239914
 20
-3.843004287320242
 30
0.0
 10
-11.35955014615387
 20
-3.573481924950586
 30
0.0
 10
-12.24740976202685
 20
-3.281951912130312
 30
0.0
 10
-13.1351947439578
 20
-2.97022518814648
 30
0.0
 10
-14.02290940675925
 20
-2.640218103393694
 30
0.0
 10
-14.91056191379539
 20
-2.293965647546705
 30
0.0
 10
-15.79816212922099
 20
-1.933603978090803
 30
0.0
 10
-16.68571783200924
 20
-1.5613491218741
 30
0.0
 10
-17.57323766031653
 20
-1.179490642217412
 30
0.0
 10
-18.46073102438309
 20
-0.7903786543094422
 30
0.0
 10
-19.34820603151874
 20
-0.3964059233540739
 30
0.0
 10
-20.23567357838282
 20
0.0000005220883597
 30
0.0
 10
-21.12314112505192
 20
0.3964069680125073
 30
0.0
 10
-22.01061613277237
 20
0.7903796975234383
 30
0.0
 10
-22.89810949470141
 20
1.179491690710184
 30
0.0
 10
-23.78562933093475
 20
1.561350150789816
 30
0.0
 10
-24.67318500433391
 20
1.933605079596256
 30
0.0
 10
-25.56078532859732
 20
2.293966480226829
 30
0.0
 10
-26.44843936276263
 20
2.640220683199273
 30
0.0
 10
-27.336157474795
 20
2.970224769670404
 30
0.0
 10
-28.22394404039832
 20
3.281953092082124
 30
0.0
 10
-29.11180363559938
 20
3.57348319164809
 30
0.0
 10
-29.99974850176249
 20
3.843003077337566
 30
0.0
 10
-30.88777760829271
 20
4.088859622866719
 30
0.0
 10
-31.77589729089721
 20
4.309518776819922
 30
0.0
 10
-32.6641044167904
 20
4.503614965547066
 30
0.0
 10
-33.55239555243427
 20
4.669958225629469
 30
0.0
 10
-34.44076998761603
 20
4.807447743751156
 30
0.0
 10
-35.32921011610202
 20
4.915449119283482
 30
0.0
 10
-36.21770521194639
 20
4.992502413792408
 30
0.0
 10
-37.10623255950187
 20
5.040989097961546
 30
0.0
 10
-37.69872860653147
 20
5.046998047579012
 30
0.0
 10
-37.99477940394893
 20
5.05000052216903
 30
0.0
  0
ELLIPSE
  5
24BE
330
1F
100
AcDbEntity
  8
AM_0
 48
0.5
100
AcDbEllipse
 10
7.381806094752846
 20
6.243325914572929
 30
0.0
 11
8.104082925716948
 21
4.346823266509869
 31
0.0
210
0.0
220
0.0
230
0.9999999999999998
 40
0.8865390934601007
 41
2.790918318021922
 42
3.165246863909731
  0
LINE
  5
24C0
330
1F
100
AcDbEntity
  8
AM_11
 48
0.5
100
AcDbLine
 10
-51.1633156419826
 20
5.050717966317367
 30
0.0
 11
-40.48203315288634
 21
5.050000522169096
 31
0.0
  0
LINE
  5
24C5
330
1F
100
AcDbEntity
  8
AM_0
 48
0.5
100
AcDbLine
 10
-56.21928748365809
 20
-5.050007496616404
 30
0.0
 11
-52.17917663187094
 21
-5.050009851375848
 31
0.0
  0
ELLIPSE
  5
24C7
330
1F
100
AcDbEntity
  8
AM_11
 48
0.5
100
AcDbEllipse
 10
-76.70462994420415
 20
20.09720314218439
 30
0.0
 11
-23.19725211461353
 21
0.0000000000005165
 31
0.0
210
0.0
220
0.0
230
1.0
 40
0.9578947368421058
 41
1.130070686340301
 42
2.011520147323591
  0
ELLIPSE
  5
24C8
330
1F
100
AcDbEntity
  8
AM_11
 48
0.5
100
AcDbEllipse
 10
-76.70462994420528
 20
-20.09718855347381
 30
0.0
 11
23.1972521146135
 21
0.0000000000003877
 31
0.0
210
0.0
220
0.0
230
1.0
 40
0.957894736842107
 41
1.13007155259185
 42
2.011521013575156
  0
ELLIPSE
  5
24D4
330
1F
100
AcDbEntity
  8
AM_11
 48
0.5
100
AcDbEllipse
 10
-56.91296327753748
 20
20.09720314218391
 30
0.0
 11
-23.19725211461356
 21
0.0000000000001353
 31
0.0
210
0.0
220
0.0
230
1.0
 40
0.9578947368421049
 41
1.130070686340283
 42
2.011520147323574
  0
ELLIPSE
  5
24D5
330
1F
100
AcDbEntity
  8
AM_11
 48
0.5
100
AcDbEllipse
 10
-56.91296327753859
 20
-20.09718855347429
 30
0.0
 11
-23.19725211461346
 21
0.0000000000004186
 31
0.0
210
0.0
220
0.0
230
1.0
 40
0.9578947368421083
 41
4.271664206181676
 42
5.153113667164986
  0
LINE
  5
24DE
330
1F
100
AcDbEntity
  8
AM_0
 48
0.5
100
AcDbLine
 10
-51.16331564198261
 20
5.05009977283979
 30
0.0
 11
-56.21929447725172
 21
5.050011534369927
 31
0.0
  0
SPLINE
  5
24E2
330
1F
100
AcDbEntity
  8
AM_0
100
AcDbSpline
210
0.0
220
0.0
230
1.0
 70
     8
 71
     3
 72
    23
 73
    19
 74
     0
 42
0.0000000001
 43
0.0000000001
 40
16.03460024169435
 40
16.03460024169435
 40
16.03460024169435
 40
16.03460024169435
 40
16.35212704903564
 40
17.38177054169784
 40
18.41822485651776
 40
19.46214173629503
 40
20.51396345435107
 40
21.57393551351153
 40
22.64208202342361
 40
23.7182574881101
 40
24.80209208578934
 40
25.89306333925047
 40
26.99048218457928
 40
28.09348763352352
 40
29.20111863782268
 40
30.31232390128032
 40
31.42594612798585
 40
32.5407912310448
 40
32.5407912310486
 40
32.5407912310486
 40
32.5407912310486
 10
-51.16331564198261
 20
5.050717966317365
 30
0.0
 10
-51.07203030156582
 20
5.033670055620423
 30
0.0
 10
-50.68512291665675
 20
4.959431202774754
 30
0.0
 10
-50.00358139143241
 20
4.813971500900962
 30
0.0
 10
-49.12098333209513
 20
4.597674514946435
 30
0.0
 10
-48.23920507134994
 20
4.354809052776989
 30
0.0
 10
-47.35819450421625
 20
4.086780695813353
 30
0.0
 10
-46.47792036206769
 20
3.795083708145969
 30
0.0
 10
-45.59833176716857
 20
3.481385552768792
 30
0.0
 10
-44.71936746831231
 20
3.147511874259404
 30
0.0
 10
-43.84097751959056
 20
2.795353379793129
 30
0.0
 10
-42.96309149729601
 20
2.426959197594497
 30
0.0
 10
-42.08563825858361
 20
2.044470593814546
 30
0.0
 10
-41.20855934124672
 20
1.65008671757551
 30
0.0
 10
-40.33178136115765
 20
1.246100857109047
 30
0.0
 10
-39.45522311010636
 20
0.8348719934531864
 30
0.0
 10
-38.5788132115073
 20
0.4187830865159662
 30
0.0
 10
-37.99469688136995
 20
0.1398182259208422
 30
0.0
 10
-37.70247942417483
 20
0.0002573784504038
 30
0.0
  0
LINE
  5
24E3
330
1F
100
AcDbEntity
  8
AM_11
 48
0.5
100
AcDbLine
 10
-52.17915351842979
 20
-5.050007838102199
 30
0.0
 11
-36.59527367535456
 21
-5.050716921979094
 31
0.0
  0
ELLIPSE
  5
24E6
330
1F
100
AcDbEntity
  8
AM_11
 48
0.5
100
AcDbEllipse
 10
-37.12129661087748
 20
-20.09718855347482
 30
0.0
 11
-23.19725211461349
 21
0.0000000000006298
 31
0.0
210
0.0
220
0.0
230
1.0
 40
0.957894736842106
 41
4.271664206181685
 42
5.153113667164993
  0
ELLIPSE
  5
24E7
330
1F
100
AcDbEntity
  8
AM_11
 48
0.5
100
AcDbEllipse
 10
-37.12129661087637
 20
20.09720314218338
 30
0.0
 11
23.19725211461354
 21
0.0000000000000375
 31
0.0
210
0.0
220
0.0
230
1.0
 40
0.9578947368421051
 41
4.271663339930067
 42
5.153112800913361
  0
LINE
  5
24E8
330
1F
100
AcDbEntity
  8
AM_0
 48
0.5
100
AcDbLine
 10
-40.48204756886639
 20
5.050000522169096
 30
0.0
 11
-21.70143030557569
 21
5.050000522168605
 31
0.0
  0
SPLINE
  5
24E9
330
1F
100
AcDbEntity
  8
AM_0
100
AcDbSpline
210
0.0
220
0.0
230
1.0
 70
     8
 71
     3
 72
    55
 73
    51
 74
     0
 42
0.0000000001
 43
0.0000000001
 40
0.0
 40
0.0
 40
0.0
 40
0.0
 40
1.010743684496582
 40
2.022833576467832
 40
3.037578957496688
 40
4.056212745003489
 40
5.079857003664532
 40
6.109500240690281
 40
7.145961322679372
 40
8.189895241603872
 40
9.241717795325891
 40
10.30168407291828
 40
11.36983447792315
 40
12.44600489715814
 40
13.52984294512926
 40
14.62081576220742
 40
15.7182257034828
 40
16.82123173843959
 40
17.92886860250316
 40
19.0400688939571
 40
20.15368796660465
 40
21.26852814259644
 40
22.38336992938901
 40
23.49698739941135
 40
24.6081876908653
 40
25.71582455492886
 40
26.81883757994213
 40
27.91624752121713
 40
29.00722033829659
 40
30.09105838626677
 40
31.16722880550176
 40
32.23537921050758
 40
33.29534548809967
 40
34.347168041821
 40
35.39108718934584
 40
36.42754827133493
 40
37.45720575381954
 40
38.48085062012849
 40
39.49948440763516
 40
40.51422944315121
 40
41.52631975251916
 40
42.53706336719636
 40
43.54780698187354
 40
44.55989729124051
 40
45.57464232675757
 40
46.59327611426424
 40
47.6169209805722
 40
48.64656348684535
 40
49.68302456883444
 40
50.58557219878025
 40
50.58557219878025
 40
50.58557219878025
 40
50.58557219878025
 10
-4.96384932500294
 20
-5.049999477831828
 30
0.0
 10
-5.259900069757322
 20
-5.046994850175553
 30
0.0
 10
-5.852395868655883
 20
-5.040981593005496
 30
0.0
 10
-6.740923946489033
 20
-4.992507989486404
 30
0.0
 10
-7.629414096408698
 20
-4.915447622609029
 30
0.0
 10
-8.517849257511018
 20
-4.807444587603966
 30
0.0
 10
-9.40622056461164
 20
-4.669962532665312
 30
0.0
 10
-10.29451049213091
 20
-4.503612818582125
 30
0.0
 10
-11.18272201135928
 20
-4.30951603632053
 30
0.0
 10
-12.07084724565562
 20
-4.088860741706914
 30
0.0
 10
-12.95888014526845
 20
-3.843001744864376
 30
0.0
 10
-13.84682513655084
 20
-3.573482277301336
 30
0.0
 10
-14.73468459759657
 20
-3.281951816636312
 30
0.0
 10
-15.6224696214984
 20
-2.970225214040735
 30
0.0
 10
-16.51018427286691
 20
-2.640218096276949
 30
0.0
 10
-17.39783678324735
 20
-2.293965649878543
 30
0.0
 10
-18.28543699682616
 20
-1.933603975927707
 30
0.0
 10
-19.17299270365677
 20
-1.561349128219608
 30
0.0
 10
-20.0605125175684
 20
-1.179490618878357
 30
0.0
 10
-20.94800593540021
 20
-0.7903787416618953
 30
0.0
 10
-21.83548074131426
 20
-0.3964055964803778
 30
0.0
 10
-22.72294946782954
 20
-0.0000005082148124
 30
0.0
 10
-23.61041421035281
 20
0.3964117155893844
 30
0.0
 10
-24.49789199088896
 20
0.7903787255669485
 30
0.0
 10
-25.38538431309826
 20
1.179491780602911
 30
0.0
 10
-26.2729057094479
 20
1.56135174465488
 30
0.0
 10
-27.16046509828532
 20
1.933603415474741
 30
0.0
 10
-28.04806671273176
 20
2.293966916960663
 30
0.0
 10
-28.9357193512597
 20
2.640219082584036
 30
0.0
 10
-29.82343397032712
 20
2.970226269747077
 30
0.0
 10
-30.71121899650224
 20
3.28195287279865
 30
0.0
 10
-31.59907848016242
 20
3.573483263754345
 30
0.0
 10
-32.4870233797992
 20
3.843003006521558
 30
0.0
 10
-33.37505246297284
 20
4.0888598324323
 30
0.0
 10
-34.26317220524039
 20
4.30951801707975
 30
0.0
 10
-35.1513833949884
 20
4.503618702383454
 30
0.0
 10
-36.03967966519546
 20
4.669949417020116
 30
0.0
 10
-36.92805390722384
 20
4.807474025561098
 30
0.0
 10
-37.81648933169809
 20
4.915349036908401
 30
0.0
 10
-38.70498009896771
 20
4.992877363322024
 30
0.0
 10
-39.59350742343495
 20
5.039593910947672
 30
0.0
 10
-40.48205427275128
 20
5.055200363703183
 30
0.0
 10
-41.37060112076023
 20
5.039593910923247
 30
0.0
 10
-42.25912844915718
 20
4.992877363420268
 30
0.0
 10
-43.14761920195866
 20
4.915349036538564
 30
0.0
 10
-44.03605468067752
 20
4.807474026951412
 30
0.0
 10
-44.92442438778609
 20
4.669950082247539
 30
0.0
 10
-45.81271715844398
 20
4.503620403025351
 30
0.0
 10
-46.66054331296544
 20
4.318328959333865
 30
0.0
 10
-47.2106225773377
 20
4.182823574877466
 30
0.0
 10
-47.46582729506807
 20
4.116785190681124
 30
0.0
  0
LINE
  5
2572
330
1F
100
AcDbEntity
  8
AM_0
100
AcDbLine
 10
-56.21929447725174
 20
5.050629727847502
 30
0.0
 11
-56.21928748365809
 21
-5.050007496616404
 31
0.0
  0
LINE
  5
2809
330
1F
100
AcDbEntity
  8
AM_0
 48
0.5
100
AcDbLine
 10
-42.96244615758764
 20
2.424302627199721
 30
0.0
 11
-53.99999999999999
 21
-0.4086743990574079
 31
0.0
  0
SPLINE
  5
280A
330
1F
100
AcDbEntity
  8
AM_0
 48
0.5
100
AcDbSpline
210
0.0
220
0.0
230
1.0
 70
     8
 71
     3
 72
    26
 73
    22
 74
     0
 42
0.0000000001
 43
0.0000000001
 40
0.0
 40
0.0
 40
0.0
 40
0.0
 40
0.8422864037471089
 40
1.685694647057321
 40
2.531315797913884
 40
3.380177287502886
 40
4.233214169721234
 40
5.09125020057522
 40
5.954967768899448
 40
6.824900391836836
 40
7.701419186604396
 40
8.584724417931369
 40
9.47485577056355
 40
10.37165251267315
 40
11.27486274211709
 40
12.18400675634887
 40
13.09851504074504
 40
14.01768673654235
 40
14.94071745659532
 40
15.8667176994736
 40
16.76607142455336
 40
16.76607142455336
 40
16.76607142455336
 40
16.76607142455336
 10
-37.15627316066231
 20
-5.050256856282228
 30
0.0
 10
-37.4523239054523
 20
-5.047252228756889
 30
0.0
 10
-38.04481970442241
 20
-5.041238971848847
 30
0.0
 10
-38.93334778171999
 20
-4.992765366360858
 30
0.0
 10
-39.82183793368331
 20
-4.915705006996261
 30
0.0
 10
-40.71027308710372
 20
-4.807701943751119
 30
0.0
 10
-41.59864442309151
 20
-4.670219995006581
 30
0.0
 10
-42.48693424184352
 20
-4.503869881076821
 30
0.0
 10
-43.37514195242009
 20
-4.309775527875805
 30
0.0
 10
-44.26326149726416
 20
-4.089115766751143
 30
0.0
 10
-45.15129077677517
 20
-3.84325975465247
 30
0.0
 10
-46.03923709946725
 20
-3.573737719848631
 30
0.0
 10
-46.92709678598081
 20
-3.282213874028384
 30
0.0
 10
-47.81487989601616
 20
-2.970476496752255
 30
0.0
 10
-48.70259829984522
 20
-2.640478898507404
 30
0.0
 10
-49.59025391549412
 20
-2.294222929766293
 30
0.0
 10
-50.477853359969
 20
-1.933859799603357
 30
0.0
 10
-51.36541293298925
 20
-1.561612870728779
 30
0.0
 10
-52.2529179666477
 20
-1.179723967328001
 30
0.0
 10
-53.13130639539884
 20
-0.7947411124386
 30
0.0
 10
-53.71327177785643
 20
-0.5361069300279495
 30
0.0
 10
-54.00000670366712
 20
-0.4086776097607246
 30
0.0
  0
ELLIPSE
  5
280B
330
1F
100
AcDbEntity
  8
AM_0
 48
0.5
100
AcDbEllipse
 10
-52.24278513358735
 20
-3.366923522948529
 30
0.0
 11
-1.642039225754482
 21
0.6742282485342898
 31
0.0
210
0.0
220
0.0
230
1.0
 40
0.9391966939239335
 41
0.4233954515941799
 42
1.975011760044531
  0
SPLINE
  5
280C
330
1F
100
AcDbEntity
  8
AM_0
 48
0.5
100
AcDbSpline
210
0.0
220
0.0
230
1.0
 70
     8
 71
     3
 72
    22
 73
    18
 74
     0
 42
0.0000000001
 43
0.0000000001
 40
0.0
 40
0.0
 40
0.0
 40
0.0
 40
1.010743684496582
 40
2.022833993863546
 40
3.037578683882831
 40
4.056212471389632
 40
5.079857945358201
 40
6.109499720892564
 40
7.145961650132166
 40
8.189873411961459
 40
9.241710626092514
 40
10.30166235592959
 40
11.36982472628033
 40
12.44598212828784
 40
13.52983440361964
 40
14.62080578343036
 40
14.90544694398022
 40
14.90544694398022
 40
14.90544694398022
 40
14.90544694398022
 10
-39.6435480292469
 20
-5.050256856282168
 30
0.0
 10
-39.93959883057152
 20
-5.047253126264496
 30
0.0
 10
-40.53209486494275
 20
-5.041241664326813
 30
0.0
 10
-41.42062201176535
 20
-4.992754557927513
 30
0.0
 10
-42.30911312312532
 20
-4.915707164437261
 30
0.0
 10
-43.19754875663972
 20
-4.807704029869016
 30
0.0
 10
-44.08591764411247
 20
-4.670209148452782
 30
0.0
 10
-44.97421051781343
 20
-4.503873417483782
 30
0.0
 10
-45.8624143610993
 20
-4.309772011093498
 30
0.0
 10
-46.7505352815696
 20
-4.089109055267868
 30
0.0
 10
-47.63856528038835
 20
-3.843262332613233
 30
0.0
 10
-48.52650899831309
 20
-3.57372809397669
 30
0.0
 10
-49.41437215931824
 20
-3.282221508951236
 30
0.0
 10
-50.30215409651439
 20
-2.970475571844443
 30
0.0
 10
-51.18987144145016
 20
-2.640476245419696
 30
0.0
 10
-51.85705306378771
 20
-2.380236071927227
 30
0.0
 10
-52.22882994597156
 20
-2.231491153954279
 30
0.0
 10
-52.3057010426847
 20
-2.200583283984486
 30
0.0
  0
LINE
  5
280D
330
1F
100
AcDbEntity
  8
AM_11
 48
0.5
100
AcDbLine
 10
-52.17917663187094
 20
-5.050009851375848
 30
0.0
 11
-40.48147136214819
 21
-5.050256856282169
 31
0.0
  0
ELLIPSE
  5
280E
330
1F
100
AcDbEntity
  8
AM_0
 48
0.5
100
AcDbEllipse
 10
-52.68243841142073
 20
-3.418211301167035
 30
0.0
 11
1.313600866257173
 21
0.115093585663579
 31
0.0
210
0.0
220
0.0
230
1.0
 40
0.9613451206954984
 41
1.196938670792599
 42
3.025184853054413
  0
SPLINE
  5
280F
330
1F
100
AcDbEntity
  8
AM_0
100
AcDbSpline
210
0.0
220
0.0
230
1.0
 70
     8
 71
     3
 72
    13
 73
     9
 74
     0
 42
0.0000000001
 43
0.0000000001
 40
16.03460056234195
 40
16.03460056234195
 40
16.03460056234195
 40
16.03460056234195
 40
16.35212717791071
 40
17.38177067057215
 40
18.41822498539278
 40
19.46214186516937
 40
20.5139635832251
 40
21.34083983469381
 40
21.34083983469381
 40
21.34083983469381
 40
21.34083983469381
 10
-52.17917663186836
 20
-5.050009851375868
 30
0.0
 10
-51.9915673939864
 20
-5.033668722904875
 30
0.0
 10
-51.60465968891942
 20
-4.959431906933979
 30
0.0
 10
-50.92311853521388
 20
-4.813970506784046
 30
0.0
 10
-50.04052036480562
 20
-4.59767412056929
 30
0.0
 10
-49.15874213414069
 20
-4.354808495980198
 30
0.0
 10
-48.34280719282641
 20
-4.106578029816132
 30
0.0
 10
-47.82225506880433
 20
-3.935653688216768
 30
0.0
 10
-47.59389197188358
 20
-3.858394328350968
 30
0.0
  0
ELLIPSE
  5
2BF2
330
1F
100
AcDbEntity
  8
AM_11
 48
0.5
100
AcDbEllipse
 10
-116.2879632775293
 20
20.09720314218426
 30
0.0
 11
-23.19725211461353
 21
0.0000000000005165
 31
0.0
210
0.0
220
0.0
230
1.0
 40
0.9578947368421058
 41
1.49692573364896
 42
2.011520147323591
  0
ELLIPSE
  5
2BF3
330
1F
100
AcDbEntity
  8
AM_11
 48
0.5
100
AcDbEllipse
 10
-96.49629661086267
 20
20.09720314218377
 30
0.0
 11
-23.19725211461356
 21
0.0000000000001353
 31
0.0
210
0.0
220
0.0
230
1.0
 40
0.9578947368421049
 41
1.130070686340283
 42
2.011520147323574
  0
ELLIPSE
  5
2BF4
330
1F
100
AcDbEntity
  8
AM_11
 48
0.5
100
AcDbEllipse
 10
-116.2879632775304
 20
-20.09718855347394
 30
0.0
 11
23.1972521146135
 21
0.0000000000003877
 31
0.0
210
0.0
220
0.0
230
1.0
 40
0.957894736842107
 41
1.13007155259185
 42
1.644666919940789
  0
ELLIPSE
  5
2BF5
330
1F
100
AcDbEntity
  8
AM_11
 48
0.5
100
AcDbEllipse
 10
-96.49629661086379
 20
-20.09718855347442
 30
0.0
 11
-23.19725211461346
 21
0.0000000000004186
 31
0.0
210
0.0
220
0.0
230
1.0
 40
0.9578947368421083
 41
4.271664206181676
 42
5.153113667164986
  0
LINE
  5
2C0E
330
1F
100
AcDbEntity
  8
AM_0
 48
0.5
100
AcDbLine
 10
-57.00000000000004
 20
-5.499999999999832
 30
0.0
 11
-57.00000000000004
 21
5.500651318728603
 31
0.0
  0
LINE
  5
2C11
330
1F
100
AcDbEntity
  8
AM_0
 48
0.5
100
AcDbLine
 10
-117.4999999999999
 20
-5.499999999999492
 30
0.0
 11
-117.9999999999999
 21
-4.949999999999493
 31
0.0
1001
GENIUS_GENFIL_13
1070
     0
1040
0.5
1040
0.5
1040
20.0
1040
0.0
1002
{
1002
}
1001
GENIUS_GENODEF_13
1002
{
1000
HIER
1070
     0
1002
}
1002
{
1000
MANEDIT
1070
     0
1002
}
1002
{
1000
NOSEL
1070
     0
1002
}
1002
{
1000
BEHIND
1070
     0
1002
}
1002
{
1000
REACTOR
1002
}
1001
GENIUS_GENOBJ-N-CHA_13
1002
{
1000
OWNER
1000
GEN
1002
}
  0
LINE
  5
2C12
330
1F
100
AcDbEntity
  8
AM_0
100
AcDbLine
 10
-117.4999999999999
 20
-5.499999999999492
 30
0.0
 11
-56.9999999999994
 21
-5.499999999999427
 31
0.0
  0
LINE
  5
2C13
330
1F
100
AcDbEntity
  8
AM_0
 48
0.5
100
AcDbLine
 10
-117.4999999999999
 20
5.500000000000507
 30
0.0
 11
-117.9999999999999
 21
4.950000000000505
 31
0.0
1001
GENIUS_GENFIL_13
1070
     0
1040
0.5
1040
0.5
1040
20.0
1040
0.0
1002
{
1002
}
1001
GENIUS_GENODEF_13
1002
{
1000
HIER
1070
     0
1002
}
1002
{
1000
MANEDIT
1070
     0
1002
}
1002
{
1000
NOSEL
1070
     0
1002
}
1002
{
1000
BEHIND
1070
     0
1002
}
1002
{
1000
REACTOR
1002
}
1001
GENIUS_GENOBJ-N-CHA_13
1002
{
1000
OWNER
1000
GEN
1002
}
  0
LINE
  5
2C14
330
1F
100
AcDbEntity
  8
AM_0
 48
0.5
100
AcDbLine
 10
-117.4999999999999
 20
-5.499999999999522
 30
0.0
 11
-117.4999999999999
 21
5.499991671746173
 31
0.0
  0
LINE
  5
2C15
330
1F
100
AcDbEntity
  8
AM_0
 48
0.5
100
AcDbLine
 10
-117.9999999999999
 20
-4.949991671745134
 30
0.0
 11
-117.9999999999999
 21
4.950000000000505
 31
0.0
  0
DIMENSION
  5
2C16
330
1F
100
AcDbEntity
  8
AM_5
100
AcDbDimension
  2
*D7
 10
-127.500001
 20
5.500000000000542
 30
0.0
 11
-127.500001
 21
0.0000118250609356
 31
0.0
 70
   160
  1
%%c<>
 51
359.9999999999997
  3
AM_JIS$0
100
AcDbAlignedDimension
 13
-117.4999999999999
 23
-5.499999999999492
 33
0.0
 14
-117.4999999999999
 24
5.500000000000539
 34
0.0
 50
270.0
100
AcDbRotatedDimension
1001
ACAD
1000
DSTYLE
1002
{
1070
   271
1070
     0
1002
}
1001
GENIUS_GENDTOL_13
1000

1000
h7
1000

1040
0.0
  0
LINE
  5
2C23
330
1F
100
AcDbEntity
  8
AM_0
100
AcDbLine
 10
-57.00000000000002
 20
5.50000000000057
 30
0.0
 11
-117.4999999999999
 21
5.500000000000507
 31
0.0
  0
ELLIPSE
  5
2C72
330
1F
100
AcDbEntity
  8
AM_0
 48
0.5
100
AcDbEllipse
 10
7.381806094752775
 20
-6.24332591457332
 30
0.0
 11
8.104082925716896
 21
-4.346823266509962
 31
0.0
210
0.0
220
0.0
230
-0.9999999999999998
 40
0.8865390934601007
 41
2.790918318021922
 42
3.165246863909731
  0
LINE
  5
2C73
330
1F
100
AcDbEntity
  8
AM_0
 48
0.5
100
AcDbLine
 10
-1.552914286975417
 20
-4.629174220165734
 30
0.0
 11
-2.00000000000004
 21
-5.050000522168375
 31
0.0
  0
DIMENSION
  5
2C81
330
1F
100
AcDbEntity
  8
AM_5
100
AcDbDimension
  2
*D8
 10
-0.6288762571457033
 20
-1.727811421905818
 30
0.0
 11
12.6473956778627
 21
-0.0000140078758869
 31
0.0
 70
    34
  1
<>
 51
359.9999999999998
  3
AM_JIS$2
100
AcDb2LineAngularDimension
 13
-0.0000000000000565
 23
-0.0000000000001553
 33
0.0
 14
-0.6288636867983052
 24
1.727788793750139
 34
0.0
 15
-0.0000000000000567
 25
-0.0000000000001434
 35
0.0
 16
13.03627323003053
 26
-5.62331079578624
 36
0.0
1001
ACAD
1000
DSTYLE
1002
{
1070
   179
1070
     3
1002
}
1001
GENIUS_GENDTOL_13
1000

1000
h7
1000

1040
0.0
  0
DIMENSION
  5
2D60
330
1F
100
AcDbEntity
  8
AM_5
100
AcDbDimension
  2
*D9
 10
9.319883304654936
 20
-5.050049615958283
 30
0.0
 11
7.619901030970286
 21
-0.0000384469693452
 31
0.0
 70
    32
  1
%%c<>
 51
359.9999999999998
  3
AM_JIS$0
100
AcDbAlignedDimension
 13
-2.000000001518185
 23
5.050000522168091
 33
0.0
 14
-1.999999999999942
 24
-5.050009881404628
 34
0.0
 50
89.99979888288933
100
AcDbRotatedDimension
1001
ACAD
1000
DSTYLE
1002
{
1070
   271
1070
     1
1002
}
1001
GENIUS_GENDTOL_13
1000

1000
h7
1000

1040
0.0
  0
LINE
  5
2FB7
330
1F
100
AcDbEntity
  8
AM_0
100
AcDbLine
 10
-56.99967434063601
 20
5.500564058565019
 30
0.0
 11
-56.21929447725172
 21
5.050011534369927
 31
0.0
  0
LINE
  5
2FB9
330
1F
100
AcDbEntity
  8
AM_0
100
AcDbLine
 10
-56.99967434063609
 20
-5.500564058564685
 30
0.0
 11
-56.21928748365809
 21
-5.050007496616404
 31
0.0
  0
VIEWPORT
  5
110
330
101
100
AcDbEntity
 67
     1
  8
0
100
AcDbViewport
 10
420.5
 20
297.0
 30
0.0
 40
948.9782706766916
 41
628.452
 68
     1
 69
     1
1001
ACAD
1000
MVIEW
1002
{
1070
    16
1010
0.0
1020
0.0
1030
0.0
1010
0.0
1020
0.0
1030
1.0
1040
0.0
1040
628.452
1040
420.5
1040
297.0
1040
50.0
1040
0.0
1040
0.0
1070
     0
1070
   100
1070
     1
1070
     1
1070
     0
1070
     0
1070
     0
1070
     0
1040
0.0
1040
0.0
1040
0.0
1040
10.0
1040
10.0
1040
10.0
1040
10.0
1070
     0
1002
{
1002
}
1002
}
  0
ENDSEC
  0
SECTION
  2
OBJECTS
  0
DICTIONARY
  5
C
330
0
100
AcDbDictionary
  3
ACAD_GROUP
350
D
  3
ACAD_LAYOUT
350
1A
  3
ACAD_MLINESTYLE
350
17
  3
ACAD_PLOTSETTINGS
350
19
  3
ACAD_PLOTSTYLENAME
350
E
  3
ACDBVARIABLEDICTIONARY
350
34
  3
ACMDICTIONARY
350
43
  3
AMG
350
2B
  3
AMGSNAPSETTINGS
350
6E
  3
DWGPROPS
350
3288
  3
ACDBHEADERROUNDTRIPXREC
350
3295
  0
DICTIONARY
  5
74
330
1F
100
AcDbDictionary
280
     1
  3
ACAD_INDEX
360
328A
  3
ACAD_LAYOUTSELFREF
360
32B8
  0
DICTIONARY
  5
32BD
330
101
100
AcDbDictionary
280
     1
  3
ACAD_LAYOUTSELFREF
360
32BE
  0
DICTIONARY
  5
D
102
{ACAD_REACTORS
330
C
102
}
330
C
100
AcDbDictionary
  0
DICTIONARY
  5
1A
102
{ACAD_REACTORS
330
C
102
}
330
C
100
AcDbDictionary
  0
DICTIONARY
  5
17
102
{ACAD_REACTORS
330
C
102
}
330
C
100
AcDbDictionary
  3
STANDARD
350
18
  0
DICTIONARY
  5
19
102
{ACAD_REACTORS
330
C
102
}
330
C
100
AcDbDictionary
  0
ACDBDICTIONARYWDFLT
  5
E
102
{ACAD_REACTORS
330
C
102
}
330
C
100
AcDbDictionary
281
     1
  3
Normal
350
F
100
AcDbDictionaryWithDefault
340
F
  0
DICTIONARY
  5
34
102
{ACAD_REACTORS
330
C
102
}
330
C
100
AcDbDictionary
  3
INDEXCTL
350
35
  3
SORTENTS
350
B5E
  0
DICTIONARY
  5
43
102
{ACAD_REACTORS
330
C
102
}
330
C
100
AcDbDictionary
  3
ACMSTDDICTIONARY
350
260
  0
DICTIONARY
  5
2B
102
{ACAD_REACTORS
330
C
102
}
330
C
100
AcDbDictionary
  3
ACMGSETTINGS
350
2C
  0
DICTIONARY
  5
6E
102
{ACAD_REACTORS
330
C
102
}
330
C
100
AcDbDictionary
  0
XRECORD
  5
3288
102
{ACAD_REACTORS
330
C
102
}
330
C
100
AcDbXrecord
  1
DWGPROPS COOKIE
  2

  3

  4

  6

  7

  8

  9

300
AmdtFileType=82
301
=
302
=
303
=
304
=
305
=
306
=
307
=
308
=
309
=
 40
0.0599808101851852
 41
2452800.443498622
 42
2452946.620690278
  1

 90
        1
  0
DICTIONARY
  5
3295
102
{ACAD_REACTORS
330
C
102
}
330
C
100
AcDbDictionary
  3
TSTACKALIGN
350
3296
  3
TSTACKSIZE
350
3297
  3
HYPERLINKBASE
350
3298
  3
STYLESHEET
350
3299
  3
LAYOUTDICT
350
329A
  3
PLOTSETDICT
350
329B
  3
PLOTSTYLNAMDICT
350
329C
  3
LWETCUNION
350
329D
  3
INSUNITS
350
329E
  3
CEPSNTYPE
350
329F
  3
FINGERPRINTGUID
350
32A0
  3
VERSIONGUID
350
32A1
  3
PSVPSCALE
350
32A2
  3
DIMSTYLEDATA
350
32A3
  3
PUCSORTHOREF
350
32A4
  3
PUCSORTHOVIEW
350
32A5
  3
PUCSBASE
350
32A6
  3
PUCSORGTOP
350
32A7
  3
PUCSORGBOTTOM
350
32A8
  3
PUCSORGLEFT
350
32A9
  3
PUCSORGRIGHT
350
32AA
  3
PUCSORGFRONT
350
32AB
  3
PUCSORGBACK
350
32AC
  3
UCSORTHOREF
350
32AD
  3
UCSORTHOVIEW
350
32AE
  3
UCSBASE
350
32AF
  3
UCSORGTOP
350
32B0
  3
UCSORGBOTTOM
350
32B1
  3
UCSORGLEFT
350
32B2
  3
UCSORGRIGHT
350
32B3
  3
UCSORGFRONT
350
32B4
  3
UCSORGBACK
350
32B5
  0
DICTIONARY
  5
328A
102
{ACAD_REACTORS
330
74
102
}
330
74
100
AcDbDictionary
  3
*A1
350
328B
  0
XRECORD
  5
32B8
102
{ACAD_REACTORS
330
74
102
}
330
74
100
AcDbXrecord
340
1F
  0
XRECORD
  5
32BE
102
{ACAD_REACTORS
330
32BD
102
}
330
32BD
100
AcDbXrecord
340
101
  0
MLINESTYLE
  5
18
102
{ACAD_REACTORS
330
17
102
}
330
17
100
AcDbMlineStyle
  2
STANDARD
 70
     0
  3

 62
   256
 51
90.0
 52
90.0
 71
     2
 49
0.5
 62
   256
  6
BYLAYER
 49
-0.5
 62
   256
  6
BYLAYER
  0
ACDBPLACEHOLDER
  5
F
102
{ACAD_REACTORS
330
E
102
}
330
E
100
AcDbPlaceHolder
280
     0
  0
DICTIONARYVAR
  5
35
102
{ACAD_REACTORS
330
34
102
}
330
34
100
DictionaryVariables
280
     0
  1
1
  0
DICTIONARYVAR
  5
B5E
102
{ACAD_REACTORS
330
34
102
}
330
34
100
DictionaryVariables
280
     0
  1
96
  0
DICTIONARY
  5
260
102
{ACAD_REACTORS
330
43
102
}
330
43
100
AcDbDictionary
  0
DICTIONARY
  5
2C
102
{ACAD_REACTORS
330
2B
102
}
330
2B
100
AcDbDictionary
  3
DWGSETTINGS
350
2D
  0
XRECORD
  5
3296
102
{ACAD_REACTORS
330
3295
102
}
330
3295
100
AcDbXrecord
 90
        1
  0
XRECORD
  5
3297
102
{ACAD_REACTORS
330
3295
102
}
330
3295
100
AcDbXrecord
 90
       70
  0
XRECORD
  5
3298
102
{ACAD_REACTORS
330
3295
102
}
330
3295
100
AcDbXrecord
  1

  0
XRECORD
  5
3299
102
{ACAD_REACTORS
330
3295
102
}
330
3295
100
AcDbXrecord
  1
ASAMI.ctb
  0
XRECORD
  5
329A
102
{ACAD_REACTORS
330
3295
102
}
330
3295
100
AcDbXrecord
340
1A
  0
XRECORD
  5
329B
102
{ACAD_REACTORS
330
3295
102
}
330
3295
100
AcDbXrecord
340
19
  0
XRECORD
  5
329C
102
{ACAD_REACTORS
330
3295
102
}
330
3295
100
AcDbXrecord
340
E
  0
XRECORD
  5
329D
102
{ACAD_REACTORS
330
3295
102
}
330
3295
100
AcDbXrecord
 90
    10781
  0
XRECORD
  5
329E
102
{ACAD_REACTORS
330
3295
102
}
330
3295
100
AcDbXrecord
 90
        4
  0
XRECORD
  5
329F
102
{ACAD_REACTORS
330
3295
102
}
330
3295
100
AcDbXrecord
 90
        0
  0
XRECORD
  5
32A0
102
{ACAD_REACTORS
330
3295
102
}
330
3295
100
AcDbXrecord
  1
{AFB28963-8C59-40AE-9337-C84526B81ACE}
  0
XRECORD
  5
32A1
102
{ACAD_REACTORS
330
3295
102
}
330
3295
100
AcDbXrecord
  1
{94E78FC5-ED5E-45D9-A794-1CC74EC6727B}
  0
XRECORD
  5
32A2
102
{ACAD_REACTORS
330
3295
102
}
330
3295
100
AcDbXrecord
 40
0.0
  0
XRECORD
  5
32A3
102
{ACAD_REACTORS
330
3295
102
}
330
3295
100
AcDbXrecord
1000
DSTYLE
1002
{
1070
    79
 70
     2
1070
   341
340
59
1070
   342
340
59
1070
   371
 70
    -1
1070
   372
 70
    -1
1002
}
  0
XRECORD
  5
32A4
102
{ACAD_REACTORS
330
3295
102
}
330
3295
100
AcDbXrecord
340
0
  0
XRECORD
  5
32A5
102
{ACAD_REACTORS
330
3295
102
}
330
3295
100
AcDbXrecord
 70
     0
  0
XRECORD
  5
32A6
102
{ACAD_REACTORS
330
3295
102
}
330
3295
100
AcDbXrecord
340
0
  0
XRECORD
  5
32A7
102
{ACAD_REACTORS
330
3295
102
}
330
3295
100
AcDbXrecord
 10
0.0
 20
0.0
 30
0.0
  0
XRECORD
  5
32A8
102
{ACAD_REACTORS
330
3295
102
}
330
3295
100
AcDbXrecord
 10
0.0
 20
0.0
 30
0.0
  0
XRECORD
  5
32A9
102
{ACAD_REACTORS
330
3295
102
}
330
3295
100
AcDbXrecord
 10
0.0
 20
0.0
 30
0.0
  0
XRECORD
  5
32AA
102
{ACAD_REACTORS
330
3295
102
}
330
3295
100
AcDbXrecord
 10
0.0
 20
0.0
 30
0.0
  0
XRECORD
  5
32AB
102
{ACAD_REACTORS
330
3295
102
}
330
3295
100
AcDbXrecord
 10
0.0
 20
0.0
 30
0.0
  0
XRECORD
  5
32AC
102
{ACAD_REACTORS
330
3295
102
}
330
3295
100
AcDbXrecord
 10
0.0
 20
0.0
 30
0.0
  0
XRECORD
  5
32AD
102
{ACAD_REACTORS
330
3295
102
}
330
3295
100
AcDbXrecord
340
0
  0
XRECORD
  5
32AE
102
{ACAD_REACTORS
330
3295
102
}
330
3295
100
AcDbXrecord
 70
     0
  0
XRECORD
  5
32AF
102
{ACAD_REACTORS
330
3295
102
}
330
3295
100
AcDbXrecord
340
0
  0
XRECORD
  5
32B0
102
{ACAD_REACTORS
330
3295
102
}
330
3295
100
AcDbXrecord
 10
0.0
 20
0.0
 30
0.0
  0
XRECORD
  5
32B1
102
{ACAD_REACTORS
330
3295
102
}
330
3295
100
AcDbXrecord
 10
0.0
 20
0.0
 30
0.0
  0
XRECORD
  5
32B2
102
{ACAD_REACTORS
330
3295
102
}
330
3295
100
AcDbXrecord
 10
0.0
 20
0.0
 30
0.0
  0
XRECORD
  5
32B3
102
{ACAD_REACTORS
330
3295
102
}
330
3295
100
AcDbXrecord
 10
0.0
 20
0.0
 30
0.0
  0
XRECORD
  5
32B4
102
{ACAD_REACTORS
330
3295
102
}
330
3295
100
AcDbXrecord
 10
0.0
 20
0.0
 30
0.0
  0
XRECORD
  5
32B5
102
{ACAD_REACTORS
330
3295
102
}
330
3295
100
AcDbXrecord
 10
0.0
 20
0.0
 30
0.0
  0
LAYER_INDEX
  5
328B
102
{ACAD_REACTORS
330
328A
102
}
330
328A
100
AcDbIndex
 40
2453151.572946492
100
AcDbLayerIndex
  8
0
360
328C
 90
        0
  8
AM_0
360
328D
 90
       45
  8
AM_7
360
328E
 90
        1
  8
AM_11
360
328F
 90
       18
  8
AM_5
360
3290
 90
        5
  8
Defpoints
360
3291
 90
        0
  8
AM_6
360
3292
 90
        1
  8
AM_CL
360
3293
 90
        0
  0
XRECORD
  5
2D
102
{ACAD_REACTORS
330
2C
102
}
330
2C
100
AcDbXrecord
  1
VERSION
140
15.0
  1
PRODUCT
  2
AutoCAD Mechanical 2000
  0
IDBUFFER
  5
328C
330
0
100
AcDbIdBuffer
  0
IDBUFFER
  5
328D
330
0
100
AcDbIdBuffer
330
24B6
330
24BA
330
24BB
330
24BC
330
24BD
330
24BE
330
24C5
330
24DE
330
24E2
330
24E8
330
24E9
330
2572
330
2809
330
280A
330
280B
330
280C
330
280E
330
280F
330
2C0E
330
2C11
330
2C12
330
2C13
330
2C14
330
2C15
330
2C23
330
2C72
330
2C73
330
2FB7
330
2FB9
330
C1D
330
C20
330
2496
330
2497
330
24A7
330
24A9
330
24AA
330
24AB
330
24AE
330
24AF
330
24B0
330
24B1
330
24B2
330
24B3
330
24B4
330
24B5
  0
IDBUFFER
  5
328E
330
0
100
AcDbIdBuffer
330
23EF
  0
IDBUFFER
  5
328F
330
0
100
AcDbIdBuffer
330
2BF4
330
2BF5
330
24AC
330
24AD
330
24B7
330
24B8
330
24B9
330
24C0
330
24C7
330
24C8
330
24D4
330
24D5
330
24E3
330
24E6
330
24E7
330
280D
330
2BF2
330
2BF3
  0
IDBUFFER
  5
3290
330
0
100
AcDbIdBuffer
330
CC6
330
2069
330
2C16
330
2C81
330
2D60
  0
IDBUFFER
  5
3291
330
0
100
AcDbIdBuffer
  0
IDBUFFER
  5
3292
330
0
100
AcDbIdBuffer
330
19BD
  0
IDBUFFER
  5
3293
330
0
100
AcDbIdBuffer
  0
ENDSEC
  0
EOF
