  0
SECTION
  2
HEADER
  9
$ACADVER
  1
AC1014
  9
$ACADMAINTVER
 70
     9
  9
$DWGCODEPAGE
  3
ANSI_932
  9
$INSBASE
 10
0.0
 20
0.0
 30
0.0
  9
$EXTMIN
 10
-170.3000009999999
 20
-51.99998879310997
 30
-0.00000001
  9
$EXTMAX
 10
34.54131093886835
 20
33.45739783996875
 30
0.00000001
  9
$LIMMIN
 10
-181.7530699316048
 20
-80.78228125506441
  9
$LIMMAX
 10
40.19963407029672
 20
52.07017141896585
  9
$ORTHOMODE
 70
     0
  9
$REGENMODE
 70
     1
  9
$FILLMODE
 70
     1
  9
$QTEXTMODE
 70
     0
  9
$MIRRTEXT
 70
     0
  9
$DRAGMODE
 70
     2
  9
$LTSCALE
 40
1.0
  9
$OSMODE
 70
    55
  9
$ATTMODE
 70
     1
  9
$TEXTSIZE
 40
2.5
  9
$TRACEWID
 40
1.0
  9
$TEXTSTYLE
  7
STANDARD
  9
$CLAYER
  8
AM_0
  9
$CELTYPE
  6
BYLAYER
  9
$CECOLOR
 62
   256
  9
$CELTSCALE
 40
1.0
  9
$DELOBJ
 70
     1
  9
$DISPSILH
 70
     0
  9
$DIMSCALE
 40
1.0
  9
$DIMASZ
 40
2.5
  9
$DIMEXO
 40
1.0
  9
$DIMDLI
 40
12.0
  9
$DIMRND
 40
0.0
  9
$DIMDLE
 40
0.0
  9
$DIMEXE
 40
1.0
  9
$DIMTP
 40
0.1
  9
$DIMTM
 40
0.1
  9
$DIMTXT
 40
3.2
  9
$DIMCEN
 40
0.0
  9
$DIMTSZ
 40
0.0
  9
$DIMTOL
 70
     0
  9
$DIMLIM
 70
     0
  9
$DIMTIH
 70
     0
  9
$DIMTOH
 70
     0
  9
$DIMSE1
 70
     0
  9
$DIMSE2
 70
     0
  9
$DIMTAD
 70
     3
  9
$DIMZIN
 70
     8
  9
$DIMBLK
  1
OPEN30
  9
$DIMASO
 70
     1
  9
$DIMSHO
 70
     1
  9
$DIMPOST
  1

  9
$DIMAPOST
  1
"
  9
$DIMALT
 70
     0
  9
$DIMALTD
 70
     2
  9
$DIMALTF
 40
0.0393701
  9
$DIMLFAC
 40
1.0
  9
$DIMTOFL
 70
     1
  9
$DIMTVP
 40
0.0
  9
$DIMTIX
 70
     0
  9
$DIMSOXD
 70
     0
  9
$DIMSAH
 70
     0
  9
$DIMBLK1
  1

  9
$DIMBLK2
  1

  9
$DIMSTYLE
  2
AM_JIS
  9
$DIMCLRD
 70
   256
  9
$DIMCLRE
 70
   256
  9
$DIMCLRT
 70
     2
  9
$DIMTFAC
 40
0.71
  9
$DIMGAP
 40
1.5
  9
$DIMJUST
 70
     0
  9
$DIMSD1
 70
     0
  9
$DIMSD2
 70
     0
  9
$DIMTOLJ
 70
     0
  9
$DIMTZIN
 70
     0
  9
$DIMALTZ
 70
     0
  9
$DIMALTTZ
 70
     0
  9
$DIMFIT
 70
     3
  9
$DIMUPT
 70
     0
  9
$DIMUNIT
 70
     2
  9
$DIMDEC
 70
     3
  9
$DIMTDEC
 70
     3
  9
$DIMALTU
 70
     2
  9
$DIMALTTD
 70
     2
  9
$DIMTXSTY
  7
ASAMI
  9
$DIMAUNIT
 70
     0
  9
$LUNITS
 70
     2
  9
$LUPREC
 70
     2
  9
$SKETCHINC
 40
1.0
  9
$FILLETRAD
 40
2.5
  9
$AUNITS
 70
     0
  9
$AUPREC
 70
     0
  9
$MENU
  1
.
  9
$ELEVATION
 40
0.0
  9
$PELEVATION
 40
0.0
  9
$THICKNESS
 40
0.0
  9
$LIMCHECK
 70
     0
  9
$BLIPMODE
 70
     0
  9
$CHAMFERA
 40
2.5
  9
$CHAMFERB
 40
2.5
  9
$CHAMFERC
 40
20.0
  9
$CHAMFERD
 40
0.0
  9
$SKPOLY
 70
     0
  9
$TDCREATE
 40
2452800.443498622
  9
$TDUPDATE
 40
2453151.683086828
  9
$TDINDWG
 40
0.0557494329
  9
$TDUSRTIMER
 40
0.0557494329
  9
$USRTIMER
 70
     1
  9
$ANGBASE
 50
0.0
  9
$ANGDIR
 70
     0
  9
$PDMODE
 70
     0
  9
$PDSIZE
 40
0.0
  9
$PLINEWID
 40
0.0
  9
$COORDS
 70
     1
  9
$SPLFRAME
 70
     0
  9
$SPLINETYPE
 70
     6
  9
$SPLINESEGS
 70
     8
  9
$ATTDIA
 70
     1
  9
$ATTREQ
 70
     1
  9
$HANDLING
 70
 12289
  9
$HANDSEED
  5
2977
  9
$SURFTAB1
 70
     6
  9
$SURFTAB2
 70
     6
  9
$SURFTYPE
 70
     6
  9
$SURFU
 70
     6
  9
$SURFV
 70
     6
  9
$UCSNAME
  2

  9
$UCSORG
 10
-0.000000000000007
 20
-0.000000000000009
 30
0.0
  9
$UCSXDIR
 10
1.0
 20
0.0000000000000027
 30
0.0
  9
$UCSYDIR
 10
-0.0000000000000027
 20
1.0
 30
0.0
  9
$PUCSNAME
  2

  9
$PUCSORG
 10
0.0
 20
0.0
 30
0.0
  9
$PUCSXDIR
 10
1.0
 20
0.0
 30
0.0
  9
$PUCSYDIR
 10
0.0
 20
1.0
 30
0.0
  9
$USERI1
 70
     0
  9
$USERI2
 70
     0
  9
$USERI3
 70
     0
  9
$USERI4
 70
     0
  9
$USERI5
 70
     0
  9
$USERR1
 40
0.0
  9
$USERR2
 40
0.0
  9
$USERR3
 40
0.0
  9
$USERR4
 40
0.0
  9
$USERR5
 40
0.0
  9
$WORLDVIEW
 70
     1
  9
$SHADEDGE
 70
     3
  9
$SHADEDIF
 70
    70
  9
$TILEMODE
 70
     1
  9
$MAXACTVP
 70
    64
  9
$PINSBASE
 10
0.0
 20
0.0
 30
0.0
  9
$PLIMCHECK
 70
     0
  9
$PEXTMIN
 10
1.000000000000000E+20
 20
1.000000000000000E+20
 30
1.000000000000000E+20
  9
$PEXTMAX
 10
-1.000000000000000E+20
 20
-1.000000000000000E+20
 30
-1.000000000000000E+20
  9
$PLIMMIN
 10
0.0
 20
0.0
  9
$PLIMMAX
 10
841.0
 20
594.0
  9
$UNITMODE
 70
     0
  9
$VISRETAIN
 70
     1
  9
$PLINEGEN
 70
     0
  9
$PSLTSCALE
 70
     0
  9
$TREEDEPTH
 70
  3020
  9
$PICKSTYLE
 70
     0
  9
$CMLSTYLE
  2
STANDARD
  9
$CMLJUST
 70
     0
  9
$CMLSCALE
 40
20.0
  9
$PROXYGRAPHICS
 70
     1
  9
$MEASUREMENT
 70
     1
  0
ENDSEC
  0
SECTION
  2
CLASSES
  0
CLASS
  1
ACDBDICTIONARYWDFLT
  2
AcDbDictionaryWithDefault
  3
AutoCAD 2000
 90
        0
280
     0
281
     0
  0
CLASS
  1
ACDBPLACEHOLDER
  2
AcDbPlaceHolder
  3
AutoCAD 2000
 90
        0
280
     0
281
     0
  0
CLASS
  1
LAYOUT
  2
AcDbLayout
  3
AutoCAD 2000
 90
        0
280
     0
281
     0
  0
CLASS
  1
AMGSETTINGSOBJ
  2
AmgSettingsObj
  3
"AcadM|Product Description: AutoCAD Mechanical 2000|Company: Autodesk"
 90
        0
280
     0
281
     0
  0
CLASS
  1
ACME_DOCUMENT
  2
AcMeDbDoc
  3
AcMeServices
 90
        0
280
     0
281
     0
  0
CLASS
  1
ACMESCOPE
  2
AcMeScope
  3
AcMeServices
 90
        0
280
     0
281
     0
  0
CLASS
  1
ACMECOMMANDHISTORY
  2
AcMeCommandHistory
  3
AcMeServices
 90
        0
280
     0
281
     0
  0
CLASS
  1
DICTIONARYVAR
  2
AcDbDictionaryVar
  3
AutoCAD 2000
 90
        0
280
     0
281
     0
  0
CLASS
  1
ACIMSYSVARMAN
  2
AcImSysVarManager
  3
AcMeServices
 90
        0
280
     0
281
     0
  0
CLASS
  1
ACIMREALSYSVAR
  2
AcImRealSysVar
  3
AcMeServices
 90
        0
280
     0
281
     0
  0
CLASS
  1
ACIMINTSYSVAR
  2
AcImIntSysVar
  3
AcMeServices
 90
        0
280
     0
281
     0
  0
CLASS
  1
ACMEDRAWINGMAN
  2
AcMeDrawingMan
  3
AcMeServices
 90
        0
280
     0
281
     0
  0
CLASS
  1
ACMEVIEW
  2
AcMeView
  3
AcMeServices
 90
        0
280
     0
281
     0
  0
CLASS
  1
ACDBENTITYCACHE
  2
AcMeEntityCache
  3
AcMeServices
 90
        0
280
     0
281
     0
  0
CLASS
  1
GSMANAGER
  2
AcMeGSManager
  3
AcMeServices
 90
        0
280
     0
281
     0
  0
CLASS
  1
AmdtInternalReactor
  2
AmdtInternalReactor
  3
AcMeServices
 90
        0
280
     0
281
     0
  0
CLASS
  1
ACMESTATEMGR
  2
AcMeStateMgr
  3
AcMeServices
 90
        0
280
     0
281
     0
  0
CLASS
  1
ACME_DATABASE
  2
AcMeDbDatabase
  3
AcMeServices
 90
        0
280
     0
281
     0
  0
CLASS
  1
ACRFINSADJUSTERMGR
  2
AcRfInsAdjusterMgr
  3
AcMeServices
 90
        0
280
     0
281
     0
  0
CLASS
  1
ACMDATADICTIONARY
  2
AcmDataDictionary
  3
"AcmSymBB|Product Description: AutoCAD Mechanical 2000|Company: Autodesk"
 90
        0
280
     0
281
     0
  0
CLASS
  1
ACMDATAENTRYBLOCK
  2
AcmDataEntryBlock
  3
"AcmSymBB|Product Description: AutoCAD Mechanical 2000|Company: Autodesk"
 90
        0
280
     0
281
     0
  0
CLASS
  1
AMGOBJPROPCFG
  2
AmgObjPropCfg
  3
"AmgLay|Product Description: AutoCAD Mechanical 2000|Company: Autodesk"
 90
        1
280
     0
281
     0
  0
CLASS
  1
ACAMGFILTERDAT
  2
AcAmgFilterDat
  3
"AcadM|Product Description: AutoCAD Mechanical 2000|Company: Autodesk"
 90
        0
280
     0
281
     0
  0
CLASS
  1
LAYER_INDEX
  2
AcDbLayerIndex
  3
AutoCAD 2000
 90
        0
280
     0
281
     0
  0
CLASS
  1
IDBUFFER
  2
AcDbIdBuffer
  3
AutoCAD 2000
 90
        0
280
     0
281
     0
  0
CLASS
  1
ACIMSTRSYSVAR
  2
AcImStrSysVar
  3
AcMeServices
 90
        0
280
     0
281
     0
  0
CLASS
  1
ACMSTANDARDJIS
  2
AcmStandardJIS
  3
"AcmSymBB|Product Description: AutoCAD Mechanical 2000|Company: Autodesk"
 90
        0
280
     0
281
     0
  0
CLASS
  1
ACMSURFSTANDARDJIS
  2
AcmSurfTextStdJIS
  3
"AcmSymBB|Product Description: AutoCAD Mechanical 2000|Company: Autodesk"
 90
        0
280
     0
281
     0
  0
CLASS
  1
ACMFCFSTANDARDJIS
  2
AcmFCFStdJIS
  3
"AcmSymBB|Product Description: AutoCAD Mechanical 2000|Company: Autodesk"
 90
        0
280
     0
281
     0
  0
CLASS
  1
ACMWELDSTANDARDJIS
  2
AcmWeldingStdJIS
  3
"AcmSymBB|Product Description: AutoCAD Mechanical 2000|Company: Autodesk"
 90
        0
280
     0
281
     0
  0
CLASS
  1
ACMIDSTANDARDJIS
  2
AcmIdStdJIS
  3
"AcmSymBB|Product Description: AutoCAD Mechanical 2000|Company: Autodesk"
 90
        0
280
     0
281
     0
  0
CLASS
  1
ACMDATUMSTANDARDJIS
  2
AcmDatumStdJIS
  3
"AcmSymBB|Product Description: AutoCAD Mechanical 2000|Company: Autodesk"
 90
        0
280
     0
281
     0
  0
CLASS
  1
ACMBOMSTANDARDJIS
  2
AcmBOMStdJIS
  3
"AcmSymBB|Product Description: AutoCAD Mechanical 2000|Company: Autodesk"
 90
        0
280
     0
281
     0
  0
CLASS
  1
ACMSTANDARDANSI
  2
AcmStandardANSI
  3
"AcmSymBB|Product Description: AutoCAD Mechanical 2000|Company: Autodesk"
 90
        0
280
     0
281
     0
  0
CLASS
  1
ACMSURFSTANDARDANSI
  2
AcmSurfTextStdANSI
  3
"AcmSymBB|Product Description: AutoCAD Mechanical 2000|Company: Autodesk"
 90
        0
280
     0
281
     0
  0
CLASS
  1
ACMFCFSTANDARDANSI
  2
AcmFCFStdANSI
  3
"AcmSymBB|Product Description: AutoCAD Mechanical 2000|Company: Autodesk"
 90
        0
280
     0
281
     0
  0
CLASS
  1
ACMWELDSTANDARDANSI
  2
AcmWeldingStdANSI
  3
"AcmSymBB|Product Description: AutoCAD Mechanical 2000|Company: Autodesk"
 90
        0
280
     0
281
     0
  0
CLASS
  1
ACMIDSTANDARDANSI
  2
AcmIdStdANSI
  3
"AcmSymBB|Product Description: AutoCAD Mechanical 2000|Company: Autodesk"
 90
        0
280
     0
281
     0
  0
CLASS
  1
ACMDATUMSTANDARDANSI
  2
AcmDatumStdANSI
  3
"AcmSymBB|Product Description: AutoCAD Mechanical 2000|Company: Autodesk"
 90
        0
280
     0
281
     0
  0
CLASS
  1
ACMBOMSTANDARDANSI
  2
AcmBOMStdANSI
  3
"AcmSymBB|Product Description: AutoCAD Mechanical 2000|Company: Autodesk"
 90
        0
280
     0
281
     0
  0
CLASS
  1
ACMSTANDARDBSI
  2
AcmStandardBSI
  3
"AcmSymBB|Product Description: AutoCAD Mechanical 2000|Company: Autodesk"
 90
        0
280
     0
281
     0
  0
CLASS
  1
ACMSURFSTANDARDBSI
  2
AcmSurfTextStdBSI
  3
"AcmSymBB|Product Description: AutoCAD Mechanical 2000|Company: Autodesk"
 90
        0
280
     0
281
     0
  0
CLASS
  1
ACMFCFSTANDARDBSI
  2
AcmFCFStdBSI
  3
"AcmSymBB|Product Description: AutoCAD Mechanical 2000|Company: Autodesk"
 90
        0
280
     0
281
     0
  0
CLASS
  1
ACMWELDSTANDARDBSI
  2
AcmWeldingStdBSI
  3
"AcmSymBB|Product Description: AutoCAD Mechanical 2000|Company: Autodesk"
 90
        0
280
     0
281
     0
  0
CLASS
  1
ACMIDSTANDARDBSI
  2
AcmIdStdBSI
  3
"AcmSymBB|Product Description: AutoCAD Mechanical 2000|Company: Autodesk"
 90
        0
280
     0
281
     0
  0
CLASS
  1
ACMDATUMSTANDARDBSI
  2
AcmDatumStdBSI
  3
"AcmSymBB|Product Description: AutoCAD Mechanical 2000|Company: Autodesk"
 90
        0
280
     0
281
     0
  0
CLASS
  1
ACMBOMSTANDARDBSI
  2
AcmBOMStdBSI
  3
"AcmSymBB|Product Description: AutoCAD Mechanical 2000|Company: Autodesk"
 90
        0
280
     0
281
     0
  0
CLASS
  1
LONG_TRANSACTION
  2
AcDbLongTransaction
  3
AutoCAD 2000
 90
        0
280
     0
281
     0
  0
CLASS
  1
LWPOLYLINE
  2
AcDbPolyline
  3
AutoCAD 2000
 90
        0
280
     0
281
     1
  0
CLASS
  1
HATCH
  2
AcDbHatch
  3
AutoCAD 2000
 90
        0
280
     0
281
     1
  0
CLASS
  1
XRECORD
  2
AcDbXrecord
  3
AutoCAD 2000
 90
        0
280
     0
281
     0
  0
ENDSEC
  0
SECTION
  2
TABLES
  0
TABLE
  2
VPORT
  5
8
330
0
100
AcDbSymbolTable
 70
     3
  0
VPORT
  5
2941
330
8
100
AcDbSymbolTableRecord
100
AcDbViewportTableRecord
  2
*ACTIVE
 70
     0
 10
0.0
 20
0.0
 11
1.0
 21
1.0
 12
-64.04965854462071
 22
-7.154167279221368
 13
0.0
 23
0.0
 14
2.5
 24
2.5
 15
10.0
 25
10.0
 16
0.0
 26
0.0
 36
1.0
 17
0.0
 27
0.0
 37
0.0
 40
136.3975920951044
 41
1.56570841889117
 42
50.0
 43
0.0
 44
0.0
 50
0.0
 51
0.0
 71
     0
 72
   100
 73
     1
 74
     1
 75
     0
 76
     0
 77
     0
 78
     0
  0
ENDTAB
  0
TABLE
  2
LTYPE
  5
5
330
0
100
AcDbSymbolTable
 70
    10
  0
LTYPE
  5
14
330
5
100
AcDbSymbolTableRecord
100
AcDbLinetypeTableRecord
  2
BYBLOCK
 70
     0
  3

 72
    65
 73
     0
 40
0.0
  0
LTYPE
  5
15
330
5
100
AcDbSymbolTableRecord
100
AcDbLinetypeTableRecord
  2
BYLAYER
 70
     0
  3

 72
    65
 73
     0
 40
0.0
  0
LTYPE
  5
16
330
5
100
AcDbSymbolTableRecord
100
AcDbLinetypeTableRecord
  2
CONTINUOUS
 70
     0
  3
Solid line
 72
    65
 73
     0
 40
0.0
  0
LTYPE
  5
4B
330
5
100
AcDbSymbolTableRecord
100
AcDbLinetypeTableRecord
  2
AM_ISO02W050
 70
     0
  3
__ __ __ __ __ __ __ __ __ __ __ __ __ __ __
 72
    65
 73
     2
 40
7.5
 49
6.0
 74
     0
 49
-1.5
 74
     0
  0
LTYPE
  5
4C
330
5
100
AcDbSymbolTableRecord
100
AcDbLinetypeTableRecord
  2
AM_ISO08W050
 70
     0
  3
____ . ____ . ____ . ____ . ____ . ____ . ____
 72
    65
 73
     4
 40
18.0
 49
12.0
 74
     0
 49
-1.5
 74
     0
 49
3.0
 74
     0
 49
-1.5
 74
     0
  0
LTYPE
  5
4D
330
5
100
AcDbSymbolTableRecord
100
AcDbLinetypeTableRecord
  2
AM_ISO09W050
 70
     0
  3
_____ . . _____ . . _____ . . ____ .. ____
 72
    65
 73
     6
 40
22.5
 49
12.0
 74
     0
 49
-1.5
 74
     0
 49
3.0
 74
     0
 49
-1.5
 74
     0
 49
3.0
 74
     0
 49
-1.5
 74
     0
  0
LTYPE
  5
4E
330
5
100
AcDbSymbolTableRecord
100
AcDbLinetypeTableRecord
  2
AMCONSTR
 70
     0
  3
_______________________
 72
    65
 73
     2
 40
9999.0
 49
9999.0
 74
     0
 49
0.0
 74
     0
  0
LTYPE
  5
4F
330
5
100
AcDbSymbolTableRecord
100
AcDbLinetypeTableRecord
  2
AM_ISO02W050X2
 70
     0
  3
 _ _ _ _ _ _ _ _ _ _ _ _
 72
    65
 73
     2
 40
3.75
 49
3.0
 74
     0
 49
-0.75
 74
     0
  0
LTYPE
  5
50
330
5
100
AcDbSymbolTableRecord
100
AcDbLinetypeTableRecord
  2
AM_ISO08W050X2
 70
     0
  3
__ . __ . __ . __ . __ . __
 72
    65
 73
     4
 40
9.0
 49
6.0
 74
     0
 49
-0.75
 74
     0
 49
1.5
 74
     0
 49
-0.75
 74
     0
  0
LTYPE
  5
53
330
5
100
AcDbSymbolTableRecord
100
AcDbLinetypeTableRecord
  2
AMZIGZAG
 70
     0
  3
/\/-/\/-/\/-/\/-/\/-/\/
 72
    65
 73
     2
 40
11.00009999999999
 49
0.0001
 74
     4
 75
   135
340
52
 46
0.04
 50
0.0
 44
0.0
 45
0.0
 49
-11.0
 74
     0
  0
LTYPE
  5
166
330
5
100
AcDbSymbolTableRecord
100
AcDbLinetypeTableRecord
  2
ACJISTGL
 70
     0
  3
_ _ _ _ _
 72
    65
 73
     2
 40
3.0
 49
2.0
 74
     0
 49
-1.0
 74
     0
  0
LTYPE
  5
26A
330
5
100
AcDbSymbolTableRecord
100
AcDbLinetypeTableRecord
  2
ACJISTGB
 70
     0
  3
__ . . __ . .
 72
    65
 73
     6
 40
9.0
 49
4.0
 74
     0
 49
-1.0
 74
     0
 49
1.0
 74
     0
 49
-1.0
 74
     0
 49
1.0
 74
     0
 49
-1.0
 74
     0
  0
ENDTAB
  0
TABLE
  2
LAYER
  5
2
330
0
100
AcDbSymbolTable
 70
     8
  0
LAYER
  5
10
330
2
100
AcDbSymbolTableRecord
100
AcDbLayerTableRecord
  2
0
 70
     0
 62
     7
  6
CONTINUOUS
  0
LAYER
  5
3F9
330
2
100
AcDbSymbolTableRecord
100
AcDbLayerTableRecord
  2
AM_0
 70
     0
 62
     7
  6
CONTINUOUS
  0
LAYER
  5
C7C
330
2
100
AcDbSymbolTableRecord
100
AcDbLayerTableRecord
  2
AM_7
 70
     0
 62
     4
  6
AM_ISO08W050
  0
LAYER
  5
C97
330
2
100
AcDbSymbolTableRecord
100
AcDbLayerTableRecord
  2
AM_11
 70
     0
 62
     3
  6
AM_ISO09W050
  0
LAYER
  5
CC5
330
2
100
AcDbSymbolTableRecord
100
AcDbLayerTableRecord
  2
AM_5
 70
     0
 62
     3
  6
CONTINUOUS
  0
LAYER
  5
CC7
330
2
100
AcDbSymbolTableRecord
100
AcDbLayerTableRecord
  2
DEFPOINTS
 70
     0
 62
     7
  6
CONTINUOUS
  0
LAYER
  5
19BC
330
2
100
AcDbSymbolTableRecord
100
AcDbLayerTableRecord
  2
AM_6
 70
     0
 62
     2
  6
CONTINUOUS
  0
LAYER
  5
2481
330
2
100
AcDbSymbolTableRecord
100
AcDbLayerTableRecord
  2
AM_CL
 70
     0
 62
     1
  6
AMCONSTR
  0
ENDTAB
  0
TABLE
  2
STYLE
  5
3
330
0
100
AcDbSymbolTable
 70
     5
  0
STYLE
  5
11
330
3
100
AcDbSymbolTableRecord
100
AcDbTextStyleTableRecord
  2
STANDARD
 70
     0
 40
0.0
 41
1.0
 50
0.0
 71
     0
 42
2.5
  3
simplex.shx
  4
EXTFONT.SHX
  0
STYLE
  5
52
330
3
100
AcDbSymbolTableRecord
100
AcDbTextStyleTableRecord
  2

 70
     1
 40
0.0
 41
1.0
 50
0.0
 71
     0
 42
2.5
  3
ltypeshp.shx
  4

  0
STYLE
  5
6B
330
3
100
AcDbSymbolTableRecord
100
AcDbTextStyleTableRecord
  2
ASAMI
 70
     0
 40
0.0
 41
1.0
 50
0.0
 71
     0
 42
2.5
  3
simplex.shx
  4
EXTFONT.SHX
  0
STYLE
  5
262
330
3
100
AcDbSymbolTableRecord
100
AcDbTextStyleTableRecord
  2
ACJISTS
 70
     0
 40
1.0
 41
1.0
 50
0.0
 71
     0
 42
2.5
  3
simplex.shx
  4
bigfont.shx
  0
STYLE
  5
269
330
3
100
AcDbSymbolTableRecord
100
AcDbTextStyleTableRecord
  2
ACJISGDT
 70
     0
 40
0.0
 41
1.0
 50
0.0
 71
     0
 42
2.5
  3
amgdtans.shx
  4

  0
ENDTAB
  0
TABLE
  2
VIEW
  5
6
330
0
100
AcDbSymbolTable
 70
     0
  0
ENDTAB
  0
TABLE
  2
UCS
  5
7
330
0
100
AcDbSymbolTable
 70
     0
  0
ENDTAB
  0
TABLE
  2
APPID
  5
9
330
0
100
AcDbSymbolTable
 70
    14
  0
APPID
  5
12
330
9
100
AcDbSymbolTableRecord
100
AcDbRegAppTableRecord
  2
ACAD
 70
     0
  0
APPID
  5
30
330
9
100
AcDbSymbolTableRecord
100
AcDbRegAppTableRecord
  2
MCAD_NO_VIS
 70
     0
  0
APPID
  5
31
330
9
100
AcDbSymbolTableRecord
100
AcDbRegAppTableRecord
  2
ACAD_TEMP_GRAPHIC
 70
     0
  0
APPID
  5
2C2
330
9
100
AcDbSymbolTableRecord
100
AcDbRegAppTableRecord
  2
GENIUS_GENDTOL_13
 70
     0
  0
APPID
  5
339
330
9
100
AcDbSymbolTableRecord
100
AcDbRegAppTableRecord
  2
GENIUS_GENODEF_13
 70
     0
  0
APPID
  5
33A
330
9
100
AcDbSymbolTableRecord
100
AcDbRegAppTableRecord
  2
GENIUS_GENOBJ-N-RSBK_13
 70
     0
  0
APPID
  5
33B
330
9
100
AcDbSymbolTableRecord
100
AcDbRegAppTableRecord
  2
GENIUS_GENOBJ-N-LIB_13
 70
     0
  0
APPID
  5
33C
330
9
100
AcDbSymbolTableRecord
100
AcDbRegAppTableRecord
  2
GENIUS_GENSCALE_13
 70
     0
  0
APPID
  5
378
330
9
100
AcDbSymbolTableRecord
100
AcDbRegAppTableRecord
  2
GENIUS_GENDIMSH_14
 70
     0
  0
APPID
  5
C82
330
9
100
AcDbSymbolTableRecord
100
AcDbRegAppTableRecord
  2
GENIUS_GENOBJ-N-CRS_13
 70
     0
  0
APPID
  5
C83
330
9
100
AcDbSymbolTableRecord
100
AcDbRegAppTableRecord
  2
GENIUS_GENOENT_13
 70
     0
  0
APPID
  5
C84
330
9
100
AcDbSymbolTableRecord
100
AcDbRegAppTableRecord
  2
GENIUS_GENOREF_13
 70
     0
  0
APPID
  5
C85
330
9
100
AcDbSymbolTableRecord
100
AcDbRegAppTableRecord
  2
GENIUS_GENOLIS_13
 70
     0
  0
APPID
  5
CA0
330
9
100
AcDbSymbolTableRecord
100
AcDbRegAppTableRecord
  2
GENIUS_GENOBJ-N-CEN_13
 70
     0
  0
ENDTAB
  0
TABLE
  2
DIMSTYLE
  5
A
330
0
100
AcDbSymbolTable
 70
     9
  0
DIMSTYLE
105
58
330
A
100
AcDbSymbolTableRecord
100
AcDbDimStyleTableRecord
  2
AM_JIS
 70
     0
  3

  4
"
  5
OPEN30
  6

  7

 40
1.0
 41
2.5
 42
1.0
 43
12.0
 44
1.0
 45
0.0
 46
0.0
 47
0.1
 48
0.1
140
3.2
141
0.0
142
0.0
143
0.0393701
144
1.0
145
0.0
146
0.71
147
1.5
 71
     0
 72
     0
 73
     0
 74
     0
 75
     0
 76
     0
 77
     3
 78
     8
170
     0
171
     2
172
     1
173
     0
174
     0
175
     0
176
   256
177
   256
178
     2
270
     2
271
     3
272
     3
273
     2
274
     2
340
6B
275
     0
280
     0
281
     0
282
     0
283
     0
284
     0
285
     0
286
     0
287
     3
288
     0
  0
DIMSTYLE
105
5F
330
A
100
AcDbSymbolTableRecord
100
AcDbDimStyleTableRecord
  2
AM_JIS$3
 70
     0
  3

  4
"
  5
OPEN30
  6

  7

 40
1.0
 41
2.5
 42
1.0
 43
10.0
 44
1.0
 45
0.0
 46
0.0
 47
0.1
 48
0.1
140
3.2
141
0.0
142
0.0
143
0.0393701
144
1.0
145
0.0
146
0.71
147
1.5
 71
     0
 72
     0
 73
     0
 74
     1
 75
     0
 76
     0
 77
     3
 78
     8
170
     0
171
     2
172
     0
173
     0
174
     0
175
     0
176
   256
177
   256
178
     2
270
     2
271
     2
272
     3
273
     2
274
     2
340
6B
275
     0
280
     0
281
     0
282
     0
283
     0
284
     0
285
     0
286
     0
287
     0
288
     1
  0
DIMSTYLE
105
60
330
A
100
AcDbSymbolTableRecord
100
AcDbDimStyleTableRecord
  2
AM_JIS$4
 70
     0
  3

  4
"
  5
OPEN30
  6

  7

 40
1.0
 41
2.5
 42
1.0
 43
10.0
 44
1.0
 45
0.0
 46
0.0
 47
0.1
 48
0.1
140
3.2
141
0.0
142
0.0
143
0.0393701
144
1.0
145
0.0
146
0.71
147
1.5
 71
     0
 72
     0
 73
     0
 74
     1
 75
     0
 76
     0
 77
     3
 78
     8
170
     0
171
     2
172
     0
173
     0
174
     0
175
     0
176
   256
177
   256
178
     2
270
     2
271
     2
272
     3
273
     2
274
     2
340
6B
275
     0
280
     0
281
     0
282
     0
283
     0
284
     0
285
     0
286
     0
287
     0
288
     1
  0
DIMSTYLE
105
61
330
A
100
AcDbSymbolTableRecord
100
AcDbDimStyleTableRecord
  2
AM_JIS$6
 70
     0
  3

  4
"
  5
OPEN30
  6

  7

 40
1.0
 41
2.5
 42
1.0
 43
10.0
 44
1.0
 45
0.0
 46
0.0
 47
0.1
 48
0.1
140
3.2
141
0.0
142
0.0
143
0.0393701
144
1.0
145
0.0
146
0.71
147
1.5
 71
     0
 72
     0
 73
     0
 74
     0
 75
     0
 76
     0
 77
     0
 78
     8
170
     0
171
     2
172
     1
173
     0
174
     0
175
     0
176
   256
177
   256
178
     2
270
     2
271
     2
272
     2
273
     2
274
     2
340
6B
275
     0
280
     0
281
     0
282
     0
283
     0
284
     0
285
     0
286
     0
287
     3
288
     0
  0
DIMSTYLE
105
62
330
A
100
AcDbSymbolTableRecord
100
AcDbDimStyleTableRecord
  2
AM_JIS$7
 70
     0
  3

  4
"
  5
OPEN30
  6

  7

 40
1.0
 41
2.5
 42
1.0
 43
10.0
 44
1.0
 45
0.0
 46
0.0
 47
0.1
 48
0.1
140
3.2
141
0.0
142
0.0
143
0.0393701
144
1.0
145
0.0
146
0.71
147
1.5
 71
     0
 72
     0
 73
     0
 74
     0
 75
     0
 76
     0
 77
     3
 78
     8
170
     0
171
     2
172
     1
173
     0
174
     0
175
     0
176
   256
177
   256
178
     2
270
     2
271
     2
272
     3
273
     2
274
     2
340
6B
275
     0
280
     0
281
     0
282
     0
283
     0
284
     0
285
     0
286
     0
287
     3
288
     0
  0
DIMSTYLE
105
63
330
A
100
AcDbSymbolTableRecord
100
AcDbDimStyleTableRecord
  2
AM_JIS$SF
 70
     0
  3

  4
"
  5
OPEN30
  6

  7

 40
1.0
 41
2.5
 42
1.0
 43
10.0
 44
1.0
 45
0.0
 46
0.0
 47
0.1
 48
0.1
140
3.2
141
0.0
142
0.0
143
0.0393701
144
1.0
145
0.0
146
0.71
147
1.5
 71
     0
 72
     0
 73
     0
 74
     0
 75
     1
 76
     1
 77
     3
 78
     8
170
     0
171
     2
172
     1
173
     0
174
     0
175
     0
176
   256
177
   256
178
     2
270
     2
271
     2
272
     2
273
     2
274
     2
340
6B
275
     0
280
     0
281
     0
282
     0
283
     0
284
     0
285
     0
286
     0
287
     3
288
     0
  0
DIMSTYLE
105
68
330
A
100
AcDbSymbolTableRecord
100
AcDbDimStyleTableRecord
  2
AM_JIS$SH
 70
     0
  3

  4
"
  5

  6
GENAXEH
  7
OPEN30
 40
1.0
 41
2.5
 42
1.0
 43
10.0
 44
1.0
 45
0.0
 46
0.0
 47
0.1
 48
0.1
140
3.2
141
0.0
142
0.0
143
0.0393701
144
2.0
145
0.0
146
0.71
147
1.5
 71
     0
 72
     0
 73
     0
 74
     0
 75
     1
 76
     1
 77
     3
 78
     8
170
     0
171
     2
172
     1
173
     1
174
     0
175
     0
176
   256
177
   256
178
     2
270
     2
271
     2
272
     2
273
     2
274
     2
340
6B
275
     0
280
     0
281
     0
282
     0
283
     0
284
     0
285
     0
286
     0
287
     3
288
     0
  0
DIMSTYLE
105
B34
102
{ACAD_REACTORS
330
2700
102
}
330
A
100
AcDbSymbolTableRecord
100
AcDbDimStyleTableRecord
  2
AM_JIS$2
 70
     0
  3

  4
"
  5
OPEN30
  6

  7

 40
1.0
 41
2.5
 42
1.0
 43
12.0
 44
1.0
 45
0.0
 46
0.0
 47
0.1
 48
0.1
140
3.2
141
0.0
142
0.0
143
0.0393701
144
1.0
145
0.0
146
0.71
147
1.5
 71
     0
 72
     0
 73
     0
 74
     0
 75
     0
 76
     0
 77
     3
 78
     8
170
     0
171
     2
172
     1
173
     0
174
     0
175
     0
176
   256
177
   256
178
     2
270
     2
271
     3
272
     3
273
     2
274
     2
340
6B
275
     0
280
     0
281
     0
282
     0
283
     0
284
     0
285
     0
286
     0
287
     3
288
     0
  0
DIMSTYLE
105
BA5
102
{ACAD_REACTORS
330
DF5
330
10FC
330
2387
330
2606
102
}
330
A
100
AcDbSymbolTableRecord
100
AcDbDimStyleTableRecord
  2
AM_JIS$0
 70
     0
  3

  4
"
  5
OPEN30
  6

  7

 40
1.0
 41
2.5
 42
0.0
 43
10.0
 44
1.0
 45
0.0
 46
0.0
 47
0.1
 48
0.1000000001
140
3.799999999999999
141
0.0
142
0.0
143
0.0393701
144
1.0
145
0.0
146
0.71
147
1.5
 71
     0
 72
     0
 73
     0
 74
     0
 75
     0
 76
     0
 77
     3
 78
     1
170
     0
171
     2
172
     1
173
     0
174
     0
175
     0
176
     3
177
     3
178
     2
270
     2
271
     2
272
     2
273
     2
274
     2
340
11
275
     1
280
     0
281
     0
282
     0
283
     0
284
     8
285
     0
286
     0
287
     0
288
     0
  0
ENDTAB
  0
TABLE
  2
BLOCK_RECORD
  5
1
330
0
100
AcDbSymbolTable
 70
    10
  0
BLOCK_RECORD
  5
1F
102
{ACAD_XDICTIONARY
360
74
102
}
330
1
100
AcDbSymbolTableRecord
100
AcDbBlockTableRecord
  2
*MODEL_SPACE
  0
BLOCK_RECORD
  5
101
102
{ACAD_XDICTIONARY
360
296A
102
}
330
1
100
AcDbSymbolTableRecord
100
AcDbBlockTableRecord
  2
*PAPER_SPACE
  0
BLOCK_RECORD
  5
59
330
1
100
AcDbSymbolTableRecord
100
AcDbBlockTableRecord
  2
_OPEN30
  0
BLOCK_RECORD
  5
64
330
1
100
AcDbSymbolTableRecord
100
AcDbBlockTableRecord
  2
GENAXEH
  0
BLOCK_RECORD
  5
DF6
330
1
100
AcDbSymbolTableRecord
100
AcDbBlockTableRecord
  2
*D5
  0
BLOCK_RECORD
  5
10FD
330
1
100
AcDbSymbolTableRecord
100
AcDbBlockTableRecord
  2
*D6
  0
BLOCK_RECORD
  5
2388
330
1
100
AcDbSymbolTableRecord
100
AcDbBlockTableRecord
  2
*D7
  0
BLOCK_RECORD
  5
2607
330
1
100
AcDbSymbolTableRecord
100
AcDbBlockTableRecord
  2
*D8
  0
BLOCK_RECORD
  5
2701
330
1
100
AcDbSymbolTableRecord
100
AcDbBlockTableRecord
  2
*D9
  0
ENDTAB
  0
ENDSEC
  0
SECTION
  2
BLOCKS
  0
BLOCK
  5
20
330
1F
100
AcDbEntity
  8
0
100
AcDbBlockBegin
  2
*MODEL_SPACE
 70
     0
 10
0.0
 20
0.0
 30
0.0
  3
*MODEL_SPACE
  1

  0
ENDBLK
  5
21
330
1F
100
AcDbEntity
  8
0
100
AcDbBlockEnd
  0
BLOCK
  5
103
330
101
100
AcDbEntity
 67
     1
  8
0
100
AcDbBlockBegin
  2
*PAPER_SPACE
 70
     0
 10
0.0
 20
0.0
 30
0.0
  3
*PAPER_SPACE
  1

  0
ENDBLK
  5
104
330
101
100
AcDbEntity
 67
     1
  8
0
100
AcDbBlockEnd
  0
BLOCK
  5
5D
330
59
100
AcDbEntity
  8
0
100
AcDbBlockBegin
  2
_OPEN30
 70
     0
 10
0.0
 20
0.0
 30
0.0
  3
_OPEN30
  1

  0
LINE
  5
5A
330
59
100
AcDbEntity
  8
0
 62
     0
100
AcDbLine
 10
-1.0
 20
0.26794919
 30
0.0
 11
0.0
 21
0.0
 31
0.0
  0
LINE
  5
5B
330
59
100
AcDbEntity
  8
0
 62
     0
100
AcDbLine
 10
0.0
 20
0.0
 30
0.0
 11
-1.0
 21
-0.26794919
 31
0.0
  0
LINE
  5
5C
330
59
100
AcDbEntity
  8
0
 62
     0
100
AcDbLine
 10
0.0
 20
0.0
 30
0.0
 11
-1.0
 21
0.0
 31
0.0
  0
ENDBLK
  5
5E
330
59
100
AcDbEntity
  8
0
100
AcDbBlockEnd
  0
BLOCK
  5
66
330
64
100
AcDbEntity
  8
0
100
AcDbBlockBegin
  2
GENAXEH
 70
     0
 10
0.0
 20
0.0
 30
0.0
  3
GENAXEH
  1

  0
LINE
  5
65
330
64
100
AcDbEntity
  8
0
100
AcDbLine
 10
-1.0
 20
0.0
 30
0.0
 11
1.0
 21
0.0
 31
0.0
  0
ENDBLK
  5
67
330
64
100
AcDbEntity
  8
0
100
AcDbBlockEnd
  0
BLOCK
  5
E00
330
DF6
100
AcDbEntity
  8
0
100
AcDbBlockBegin
  2
*D5
 70
     1
 10
0.0
 20
0.0
 30
0.0
  3
*D5
  1

  0
LINE
  5
28EE
330
DF6
100
AcDbEntity
  8
AM_5
 62
     3
100
AcDbLine
 10
-89.99999999999991
 20
-5.499987793109898
 30
0.0
 11
-89.99999999999991
 21
-20.49998879310981
 31
0.0
  0
LINE
  5
28EF
330
DF6
100
AcDbEntity
  8
AM_5
 62
     3
100
AcDbLine
 10
-1.999999999999933
 20
-5.099999597350426
 30
0.0
 11
-1.999999999999934
 21
-20.49998879310981
 31
0.0
  0
LINE
  5
28F0
330
DF6
100
AcDbEntity
  8
AM_5
 62
     3
100
AcDbLine
 10
-87.49999999999991
 20
-19.49998879310981
 30
0.0
 11
-4.499999999999934
 21
-19.49998879310981
 31
0.0
  0
INSERT
  5
28F1
330
DF6
100
AcDbEntity
  8
AM_5
 62
     3
100
AcDbBlockReference
  2
_OPEN30
 10
-89.99999999999991
 20
-19.49998879310981
 30
0.0
 41
2.5
 42
2.5
 43
2.5
 50
180.0
  0
INSERT
  5
28F2
330
DF6
100
AcDbEntity
  8
AM_5
 62
     3
100
AcDbBlockReference
  2
_OPEN30
 10
-1.999999999999934
 20
-19.49998879310981
 30
0.0
 41
2.5
 42
2.5
 43
2.5
  0
MTEXT
  5
28F3
330
DF6
100
AcDbEntity
  8
AM_5
 62
     2
100
AcDbMText
 10
-45.99999999999991
 20
-16.09998879310981
 30
0.0
 40
3.799999999999999
 41
0.0
 71
     5
 72
     1
  1
88
1001
ACAD
1000
MTEXTBEGIN
1070
    73
1070
     1
1070
    44
1040
1.0
1070
    74
1070
     0
1000
MTEXTEND
  0
POINT
  5
28F4
330
DF6
100
AcDbEntity
  8
DEFPOINTS
 62
     0
100
AcDbPoint
 10
-89.99999999999991
 20
-5.499987793109898
 30
0.0
  0
POINT
  5
28F5
330
DF6
100
AcDbEntity
  8
DEFPOINTS
 62
     0
100
AcDbPoint
 10
-1.999999999999933
 20
-5.099999597350426
 30
0.0
  0
POINT
  5
28F6
330
DF6
100
AcDbEntity
  8
DEFPOINTS
 62
     0
100
AcDbPoint
 10
-1.999999999999934
 20
-19.49998879310981
 30
0.0
  0
ENDBLK
  5
E01
330
DF6
100
AcDbEntity
  8
0
100
AcDbBlockEnd
  0
BLOCK
  5
1107
330
10FD
100
AcDbEntity
  8
0
100
AcDbBlockBegin
  2
*D6
 70
     1
 10
0.0
 20
0.0
 30
0.0
  3
*D6
  1

  0
LINE
  5
2900
330
10FD
100
AcDbEntity
  8
AM_5
 62
     3
100
AcDbLine
 10
-1.999999999999932
 20
-5.099999597350425
 30
0.0
 11
17.31955770832509
 21
-5.099999597350429
 31
0.0
  0
LINE
  5
2901
330
10FD
100
AcDbEntity
  8
AM_5
 62
     3
100
AcDbLine
 10
-2.018674667155136
 20
5.10000011200206
 30
0.0
 11
17.31955770832509
 21
5.100000112002055
 31
0.0
  0
LINE
  5
2902
330
10FD
100
AcDbEntity
  8
AM_5
 62
     3
100
AcDbLine
 10
16.31955770832508
 20
-7.599999597350429
 30
0.0
 11
16.31955770832508
 21
-10.09999959735042
 31
0.0
  0
LINE
  5
2903
330
10FD
100
AcDbEntity
  8
AM_5
 62
     3
100
AcDbLine
 10
16.31955770832508
 20
7.600000112002055
 30
0.0
 11
16.31955770832509
 21
27.39523820724014
 31
0.0
  0
LINE
  5
2904
330
10FD
100
AcDbEntity
  8
AM_5
 62
     3
100
AcDbLine
 10
16.31955770832508
 20
-5.099999597350429
 30
0.0
 11
16.31955770832508
 21
5.100000112002055
 31
0.0
  0
INSERT
  5
2905
330
10FD
100
AcDbEntity
  8
AM_5
 62
     3
100
AcDbBlockReference
  2
_OPEN30
 10
16.31955770832508
 20
-5.099999597350429
 30
0.0
 41
2.5
 42
2.5
 43
2.5
 50
90.0
  0
INSERT
  5
2906
330
10FD
100
AcDbEntity
  8
AM_5
 62
     3
100
AcDbBlockReference
  2
_OPEN30
 10
16.31955770832508
 20
5.100000112002055
 30
0.0
 41
2.5
 42
2.5
 43
2.5
 50
270.0
  0
MTEXT
  5
2907
330
10FD
100
AcDbEntity
  8
AM_5
 62
     2
100
AcDbMText
 10
12.91955770832509
 20
18.7476191596211
 30
0.0
 40
3.799999999999999
 41
0.0
 71
     5
 72
     1
  1
%%c10.2
 11
0.0000000000000001
 21
1.0
 31
0.0
1001
ACAD
1000
MTEXTBEGIN
1070
    73
1070
     1
1070
    44
1040
1.0
1070
    74
1070
     0
1000
MTEXTEND
  0
POINT
  5
2908
330
10FD
100
AcDbEntity
  8
DEFPOINTS
 62
     0
100
AcDbPoint
 10
-1.999999999999932
 20
-5.099999597350425
 30
0.0
  0
POINT
  5
2909
330
10FD
100
AcDbEntity
  8
DEFPOINTS
 62
     0
100
AcDbPoint
 10
-2.018674667155136
 20
5.10000011200206
 30
0.0
  0
POINT
  5
290A
330
10FD
100
AcDbEntity
  8
DEFPOINTS
 62
     0
100
AcDbPoint
 10
16.31955770832508
 20
5.100000112002055
 30
0.0
  0
ENDBLK
  5
1108
330
10FD
100
AcDbEntity
  8
0
100
AcDbBlockEnd
  0
BLOCK
  5
2392
330
2388
100
AcDbEntity
  8
0
100
AcDbBlockBegin
  2
*D7
 70
     1
 10
0.0
 20
0.0
 30
0.0
  3
*D7
  1

  0
LINE
  5
28F7
330
2388
100
AcDbEntity
  8
AM_5
 62
     3
100
AcDbLine
 10
-1.999999999999918
 20
-5.099999597350432
 30
0.0
 11
-1.999999999999841
 21
-31.87432054701595
 31
0.0
  0
LINE
  5
28F8
330
2388
100
AcDbEntity
  8
AM_5
 62
     3
100
AcDbLine
 10
-150.9999999999998
 20
-5.217144775532252
 30
0.0
 11
-150.9999999999997
 21
-31.87432054701638
 31
0.0
  0
LINE
  5
28F9
330
2388
100
AcDbEntity
  8
AM_5
 62
     3
100
AcDbLine
 10
-4.499999999999844
 20
-30.87432054701595
 30
0.0
 11
-148.4999999999997
 21
-30.87432054701637
 31
0.0
  0
INSERT
  5
28FA
330
2388
100
AcDbEntity
  8
AM_5
 62
     3
100
AcDbBlockReference
  2
_OPEN30
 10
-1.999999999999844
 20
-30.87432054701594
 30
0.0
 41
2.5
 42
2.5
 43
2.5
 50
0.0000000000001527
  0
INSERT
  5
28FB
330
2388
100
AcDbEntity
  8
AM_5
 62
     3
100
AcDbBlockReference
  2
_OPEN30
 10
-150.9999999999997
 20
-30.87432054701638
 30
0.0
 41
2.5
 42
2.5
 43
2.5
 50
180.0000000000001
  0
MTEXT
  5
28FC
330
2388
100
AcDbEntity
  8
AM_5
 62
     2
100
AcDbMText
 10
-76.49999999999981
 20
-27.47432054701616
 30
0.0
 40
3.799999999999999
 41
0.0
 71
     5
 72
     1
  1
149
1001
ACAD
1000
MTEXTBEGIN
1070
    73
1070
     1
1070
    44
1040
1.0
1070
    74
1070
     0
1000
MTEXTEND
  0
POINT
  5
28FD
330
2388
100
AcDbEntity
  8
DEFPOINTS
 62
     0
100
AcDbPoint
 10
-1.999999999999933
 20
-5.099999597350426
 30
0.0
  0
POINT
  5
28FE
330
2388
100
AcDbEntity
  8
DEFPOINTS
 62
     0
100
AcDbPoint
 10
-150.9999999999998
 20
-5.217144775531813
 30
0.0
  0
POINT
  5
28FF
330
2388
100
AcDbEntity
  8
DEFPOINTS
 62
     0
100
AcDbPoint
 10
-150.9999999999998
 20
-30.87432054701594
 30
0.0
  0
ENDBLK
  5
2393
330
2388
100
AcDbEntity
  8
0
100
AcDbBlockEnd
  0
BLOCK
  5
2611
330
2607
100
AcDbEntity
  8
0
100
AcDbBlockBegin
  2
*D8
 70
     1
 10
0.0
 20
0.0
 30
0.0
  3
*D8
  1

  0
LINE
  5
2838
330
2607
100
AcDbEntity
  8
AM_5
 62
     3
100
AcDbLine
 10
-150.7054163614916
 20
5.499999999999405
 30
0.0
 11
-166.0000009999999
 21
5.499999999999362
 31
0.0
  0
LINE
  5
2839
330
2607
100
AcDbEntity
  8
AM_5
 62
     3
100
AcDbLine
 10
-150.7053654988582
 20
-5.500000000000593
 30
0.0
 11
-166.0000009999999
 21
-5.500000000000636
 31
0.0
  0
LINE
  5
283A
330
2607
100
AcDbEntity
  8
AM_5
 62
     3
100
AcDbLine
 10
-165.0000009999999
 20
2.999999999999365
 30
0.0
 11
-165.0000009999999
 21
-3.000000000000633
 31
0.0
  0
INSERT
  5
283B
330
2607
100
AcDbEntity
  8
AM_5
 62
     3
100
AcDbBlockReference
  2
_OPEN30
 10
-165.0000009999999
 20
5.499999999999365
 30
0.0
 41
2.5
 42
2.5
 43
2.5
 50
90.00000000000017
  0
INSERT
  5
283C
330
2607
100
AcDbEntity
  8
AM_5
 62
     3
100
AcDbBlockReference
  2
_OPEN30
 10
-165.0000009999998
 20
-5.500000000000633
 30
0.0
 41
2.5
 42
2.5
 43
2.5
 50
270.0000000000001
  0
MTEXT
  5
283D
330
2607
100
AcDbEntity
  8
AM_5
 62
     2
100
AcDbMText
 10
-168.4000009999999
 20
-0.0000000000006371
 30
0.0
 40
3.799999999999999
 41
0.0
 71
     5
 72
     1
  1
%%c11
 11
-0.0000000000000028
 21
1.0
 31
0.0
1001
ACAD
1000
MTEXTBEGIN
1070
    73
1070
     1
1070
    44
1040
1.0
1070
    74
1070
     0
1000
MTEXTEND
  0
POINT
  5
283E
330
2607
100
AcDbEntity
  8
DEFPOINTS
 62
     0
100
AcDbPoint
 10
-150.7054163614915
 20
5.499999999999874
 30
0.0
  0
POINT
  5
283F
330
2607
100
AcDbEntity
  8
DEFPOINTS
 62
     0
100
AcDbPoint
 10
-150.7053654988582
 20
-5.500000000000124
 30
0.0
  0
POINT
  5
2840
330
2607
100
AcDbEntity
  8
DEFPOINTS
 62
     0
100
AcDbPoint
 10
-165.0000009999999
 20
-5.50000000000012
 30
0.0
  0
ENDBLK
  5
2612
330
2607
100
AcDbEntity
  8
0
100
AcDbBlockEnd
  0
BLOCK
  5
270F
330
2701
100
AcDbEntity
  8
0
100
AcDbBlockBegin
  2
*D9
 70
     1
 10
0.0
 20
0.0
 30
0.0
  3
*D9
  1

  0
LINE
  5
296C
330
2701
100
AcDbEntity
  8
AM_5
100
AcDbLine
 10
0.3420201433256726
 20
-0.9396926207859074
 30
0.0
 11
12.17749692975108
 21
-33.45739783996867
 31
0.0
  0
LINE
  5
296D
330
2701
100
AcDbEntity
  8
AM_5
100
AcDbLine
 10
0.3420201433256659
 20
0.9396926207859099
 30
0.0
 11
12.17749692975084
 21
33.45739783996875
 31
0.0
  0
ARC
  5
296E
330
2701
100
AcDbEntity
  8
AM_5
100
AcDbCircle
 10
-0.0000000000000002
 20
0.0
 30
0.0
 40
34.60461910617831
100
AcDbArc
 50
294.1402165711538
 51
65.85978342884661
  0
INSERT
  5
296F
330
2701
100
AcDbEntity
  8
AM_5
100
AcDbBlockReference
  2
_OPEN30
 10
11.83547678642541
 20
-32.51770521918276
 30
0.0
 41
2.5
 42
2.5
 43
2.5
 50
202.070108285577
  0
INSERT
  5
2970
330
2701
100
AcDbEntity
  8
AM_5
100
AcDbBlockReference
  2
_OPEN30
 10
11.83547678642518
 20
32.51770521918285
 30
0.0
 41
2.5
 42
2.5
 43
2.5
 50
157.9298917144233
  0
MTEXT
  5
2971
330
2701
100
AcDbEntity
  8
AM_5
 62
     2
100
AcDbMText
 10
31.50461910617831
 20
0.0000000000001143
 30
0.0
 40
3.2
 41
0.0
 71
     5
 72
     1
  1
140°
  7
ASAMI
 11
-0.0000000000000028
 21
1.0
 31
0.0
  0
POINT
  5
2972
330
2701
100
AcDbEntity
  8
DEFPOINTS
 62
     0
100
AcDbPoint
 10
31.7745186357498
 20
-13.70618943944922
 30
0.0
  0
POINT
  5
2973
330
2701
100
AcDbEntity
  8
DEFPOINTS
 62
     0
100
AcDbPoint
 10
0.0
 20
0.0000000000000005
 30
0.0
  0
POINT
  5
2974
330
2701
100
AcDbEntity
  8
DEFPOINTS
 62
     0
100
AcDbPoint
 10
0.0
 20
-0.0000000000000005
 30
0.0
  0
POINT
  5
2975
330
2701
100
AcDbEntity
  8
DEFPOINTS
 62
     0
100
AcDbPoint
 10
-0.6556852918174043
 20
1.801480533536825
 30
0.0
  0
POINT
  5
2976
330
2701
100
AcDbEntity
  8
DEFPOINTS
 62
     0
100
AcDbPoint
 10
-0.6556852918174013
 20
-1.801480533536826
 30
0.0
  0
ENDBLK
  5
2710
330
2701
100
AcDbEntity
  8
0
100
AcDbBlockEnd
  0
ENDSEC
  0
SECTION
  2
ENTITIES
  0
LINE
  5
C1D
330
1F
100
AcDbEntity
  8
AM_0
 48
0.5
100
AcDbLine
 10
0.0
 20
-0.0000000000000005
 30
0.0
 11
-0.6556852918174043
 21
1.801480533536825
 31
0.0
  0
LINE
  5
C9F
330
1F
100
AcDbEntity
  8
AM_7
100
AcDbLine
 10
-153.5003433227474
 20
-0.000000000000131
 30
0.0
 11
2.319556708325104
 21
0.000000000000002
 31
0.0
1001
GENIUS_GENODEF_13
1002
{
1000
HIER
1070
     0
1002
}
1002
{
1000
MANEDIT
1070
     0
1002
}
1002
{
1000
NOSEL
1070
     0
1002
}
1002
{
1000
BEHIND
1070
     0
1002
}
1002
{
1000
REACTOR
1002
}
1001
GENIUS_GENOBJ-N-CEN_13
1002
{
1000
OWNER
1000
GEN
1002
}
  0
DIMENSION
  5
DF5
330
1F
100
AcDbEntity
  8
AM_5
100
AcDbDimension
  2
*D5
 10
-1.999999999999934
 20
-19.49998879310981
 30
0.0
 11
-45.99999999999991
 21
-16.09998879310981
 31
0.0
 70
    32
  1
<>
  3
AM_JIS$0
100
AcDbAlignedDimension
 13
-89.99999999999991
 23
-5.499987793109898
 33
0.0
 14
-1.999999999999933
 24
-5.099999597350426
 34
0.0
 50
0.0000000000001527
100
AcDbRotatedDimension
1001
ACAD
1000
DSTYLE
1002
{
1070
   271
1070
     0
1002
}
1001
GENIUS_GENDTOL_13
1000

1000
h7
1000

1040
0.0
  0
DIMENSION
  5
10FC
330
1F
100
AcDbEntity
  8
AM_5
100
AcDbDimension
  2
*D6
 10
16.31955770832508
 20
5.100000112002055
 30
0.0
 11
16.31955770832508
 21
18.7476191596211
 31
0.0
 70
   160
  1
%%c<>
  3
AM_JIS$0
100
AcDbAlignedDimension
 13
-1.999999999999932
 23
-5.099999597350425
 33
0.0
 14
-2.018674667155136
 24
5.10000011200206
 34
0.0
 50
90.00000000000003
100
AcDbRotatedDimension
1001
GENIUS_GENDTOL_13
1000

1000
h7
1000

1040
0.0
1001
ACAD
1000
DSTYLE
1002
{
1070
   271
1070
     1
1002
}
  0
TEXT
  5
19BD
330
1F
100
AcDbEntity
  8
AM_6
100
AcDbText
 10
-97.69998518542742
 20
-51.99998879310997
 30
0.0
 40
5.0
  1
MDW102LHK
 50
0.0000000000001527
 72
     4
 11
-76.50950899495123
 21
-49.49998879310991
 31
0.0
100
AcDbText
  0
LINE
  5
1AED
330
1F
100
AcDbEntity
  8
AM_0
 48
0.5
100
AcDbLine
 10
-1.685055819425087
 20
-4.583330225765755
 30
0.0
 11
-1.999999999999932
 21
-5.099999597350425
 31
0.0
  0
ELLIPSE
  5
1AEE
330
1F
100
AcDbEntity
  8
AM_0
 48
0.5
100
AcDbEllipse
 10
7.071694139679321
 20
6.181507039249205
 30
0.0
 11
8.90429828083378
 21
0.0029979848981374
 31
0.0
210
0.0
220
0.0
230
1.0
 40
0.9899886394734918
 41
3.323558732911947
 42
3.661246186326368
  0
LINE
  5
1AEF
330
1F
100
AcDbEntity
  8
AM_0
 48
0.5
100
AcDbLine
 10
-1.685062241473876
 20
4.583352335473399
 30
0.0
 11
-2.018674667155136
 21
5.10000011200206
 31
0.0
  0
ELLIPSE
  5
1AFA
330
1F
100
AcDbEntity
  8
AM_11
 48
0.5
100
AcDbEllipse
 10
2.600753784180226
 20
21.8639897515661
 30
0.0
 11
24.41816012064572
 21
0.0000000000037752
 31
0.0
210
0.0
220
0.0
230
1.0
 40
0.9900000000000041
 41
4.271663339929942
 42
4.433393390970634
  0
ELLIPSE
  5
1AFE
330
1F
100
AcDbEntity
  8
AM_11
 48
0.5
100
AcDbEllipse
 10
-18.23257954915325
 20
-21.86397484041365
 30
0.0
 11
-24.41816012064585
 21
0.0000000000000394
 31
0.0
210
0.0
220
0.0
230
1.0
 40
0.9899999999999995
 41
4.271664206181686
 42
5.153113667164993
  0
ELLIPSE
  5
1AFF
330
1F
100
AcDbEntity
  8
AM_11
 48
0.5
100
AcDbEllipse
 10
-18.23257954915312
 20
21.86398975156615
 30
0.0
 11
24.41816012064583
 21
0.0000000000000774
 31
0.0
210
0.0
220
0.0
230
1.0
 40
0.9899999999999998
 41
4.271663339930094
 42
5.153112800913385
  0
ELLIPSE
  5
1B09
330
1F
100
AcDbEntity
  8
AM_11
 48
0.5
100
AcDbEllipse
 10
-39.06591288248646
 20
21.86398975156621
 30
0.0
 11
24.41816012064585
 21
0.0000000000000394
 31
0.0
210
0.0
220
0.0
230
1.0
 40
0.9899999999999996
 41
4.271663339930095
 42
5.153112800913387
  0
ELLIPSE
  5
1B0A
330
1F
100
AcDbEntity
  8
AM_11
 48
0.5
100
AcDbEllipse
 10
-39.06591288248657
 20
-21.86397484041359
 30
0.0
 11
-24.41816012064583
 21
0.0000000000001533
 31
0.0
210
0.0
220
0.0
230
1.0
 40
0.9900000000000002
 41
4.27166420618169
 42
5.153113667164998
  0
ELLIPSE
  5
1B10
330
1F
100
AcDbEntity
  8
AM_11
 48
0.5
100
AcDbEllipse
 10
-59.89924621581407
 20
-21.86397484041354
 30
0.0
 11
-24.41816012064581
 21
0.0000000000000394
 31
0.0
210
0.0
220
0.0
230
1.0
 40
0.9900000000000005
 41
4.271664206181686
 42
5.153113667164993
  0
ELLIPSE
  5
1B11
330
1F
100
AcDbEntity
  8
AM_11
 48
0.5
100
AcDbEllipse
 10
-59.89924621581395
 20
21.86398975156627
 30
0.0
 11
24.41816012064584
 21
0.0000000000000774
 31
0.0
210
0.0
220
0.0
230
1.0
 40
0.99
 41
4.271663339930094
 42
5.153112800913385
  0
ELLIPSE
  5
1B15
330
1F
100
AcDbEntity
  8
AM_11
 48
0.5
100
AcDbEllipse
 10
-101.5659128824804
 20
21.86398975156631
 30
0.0
 11
24.41816012064585
 21
0.0000000000003431
 31
0.0
210
0.0
220
0.0
230
1.0
 40
0.9899999999999996
 41
4.271663339930083
 42
5.153112800913374
  0
ELLIPSE
  5
1B16
330
1F
100
AcDbEntity
  8
AM_11
 48
0.5
100
AcDbEllipse
 10
-101.5659128824805
 20
-21.8639748404135
 30
0.0
 11
24.41816012064584
 21
0.0000000000001533
 31
0.0
210
0.0
220
0.0
230
1.0
 40
0.99
 41
1.130071552591885
 42
2.011521013575192
  0
ELLIPSE
  5
1B1A
330
1F
100
AcDbEntity
  8
AM_11
 48
0.5
100
AcDbEllipse
 10
-80.73257954914742
 20
-21.86397484041348
 30
0.0
 11
24.41816012064583
 21
0.0000000000002292
 31
0.0
210
0.0
220
0.0
230
1.0
 40
0.9900000000000002
 41
1.130071552591882
 42
2.011521013575189
  0
ELLIPSE
  5
1B1B
330
1F
100
AcDbEntity
  8
AM_11
 48
0.5
100
AcDbEllipse
 10
-80.73257954914728
 20
21.86398975156631
 30
0.0
 11
24.41816012064584
 21
0.000000000000419
 31
0.0
210
0.0
220
0.0
230
1.0
 40
0.99
 41
4.27166333993008
 42
5.153112800913372
  0
ELLIPSE
  5
1B2D
330
1F
100
AcDbEntity
  8
AM_11
 48
0.5
100
AcDbEllipse
 10
-122.3992887731485
 20
21.86400962369078
 30
0.0
 11
24.41816012064581
 21
0.0000000000000394
 31
0.0
210
0.0
220
0.0
230
1.0
 40
0.9900000000000005
 41
4.271663339930094
 42
5.153112800913387
  0
ELLIPSE
  5
1B2E
330
1F
100
AcDbEntity
  8
AM_11
 48
0.5
100
AcDbEllipse
 10
-122.3992887731486
 20
-21.86395496828902
 30
0.0
 11
24.41816012064581
 21
0.0000000000004569
 31
0.0
210
0.0
220
0.0
230
1.0
 40
0.9900000000000005
 41
1.130071552591872
 42
2.011521013575179
  0
LINE
  5
1C54
330
1F
100
AcDbEntity
  8
AM_0
 48
0.5
100
AcDbLine
 10
-150.7053654988582
 20
-5.500000000000124
 30
0.0
 11
-150.7054163614916
 21
5.499999999999874
 31
0.0
  0
LINE
  5
1C55
330
1F
100
AcDbEntity
  8
AM_0
 48
0.5
100
AcDbLine
 10
-150.9999999999998
 20
-5.217144775531812
 30
0.0
 11
-150.9999999999999
 21
5.217092895648193
 31
0.0
  0
LINE
  5
1C56
330
1F
100
AcDbEntity
  8
AM_0
 48
0.5
100
AcDbLine
 10
-150.9999999999998
 20
-5.217144775531812
 30
0.0
 11
-150.7053654988582
 21
-5.500000000000124
 31
0.0
  0
LINE
  5
1C57
330
1F
100
AcDbEntity
  8
AM_0
 48
0.5
100
AcDbLine
 10
-150.9999999999999
 20
5.217092895648193
 30
0.0
 11
-150.7054163614916
 21
5.499999999999874
 31
0.0
  0
LINE
  5
1C58
330
1F
100
AcDbEntity
  8
AM_0
100
AcDbLine
 10
-150.7053654988582
 20
-5.500000000000124
 30
0.0
 11
-89.99999999999991
 21
-5.499987793109898
 31
0.0
  0
LINE
  5
1C59
330
1F
100
AcDbEntity
  8
AM_0
100
AcDbLine
 10
-150.7054163614916
 20
5.499999999999874
 30
0.0
 11
-89.99998728434247
 21
5.499987793109296
 31
0.0
  0
LINE
  5
1C5A
330
1F
100
AcDbEntity
  8
AM_0
100
AcDbLine
 10
-89.99998728434247
 20
5.499987793109311
 30
0.0
 11
-89.30823846879883
 21
5.100606428243565
 31
0.0
  0
LINE
  5
1C5B
330
1F
100
AcDbEntity
  8
AM_0
100
AcDbLine
 10
-89.99999999999991
 20
-5.499987793109898
 30
0.0
 11
-89.99998728434247
 21
5.499987793109296
 31
0.0
  0
ELLIPSE
  5
1D45
330
1F
100
AcDbEntity
  8
AM_11
 48
0.5
100
AcDbEllipse
 10
-143.2325795489337
 20
-21.86397484041364
 30
0.0
 11
24.41816012064584
 21
0.0000000000001533
 31
0.0
210
0.0
220
0.0
230
1.0
 40
0.99
 41
1.130071552591885
 42
1.894522848304442
  0
ELLIPSE
  5
1D46
330
1F
100
AcDbEntity
  8
AM_11
 48
0.5
100
AcDbEllipse
 10
-143.2325795489336
 20
21.86398975156616
 30
0.0
 11
24.41816012064585
 21
0.0000000000003431
 31
0.0
210
0.0
220
0.0
230
1.0
 40
0.9899999999999996
 41
4.388662458875117
 42
5.153112800913374
  0
LINE
  5
22C2
330
1F
100
AcDbEntity
  8
AM_0
100
AcDbLine
 10
-89.99999999999991
 20
-5.499987787716756
 30
0.0
 11
-89.30720414213677
 21
-5.100001912686018
 31
0.0
  0
DIMENSION
  5
2387
330
1F
100
AcDbEntity
  8
AM_5
100
AcDbDimension
  2
*D7
 10
-150.9999999999998
 20
-30.87432054701594
 30
0.0
 11
-76.4999999999999
 21
-27.47432054701594
 31
0.0
 70
    32
  1
<>
 51
359.9999999999998
  3
AM_JIS$0
100
AcDbAlignedDimension
 13
-1.999999999999933
 23
-5.099999597350426
 33
0.0
 14
-150.9999999999998
 24
-5.217144775531813
 34
0.0
 50
0.0000000000002659
100
AcDbRotatedDimension
1001
ACAD
1000
DSTYLE
1002
{
1070
   271
1070
     0
1002
}
1001
GENIUS_GENDTOL_13
1000

1000
h7
1000

1040
0.0
  0
DIMENSION
  5
2606
330
1F
100
AcDbEntity
  8
AM_5
100
AcDbDimension
  2
*D8
 10
-165.0000009999999
 20
-5.50000000000012
 30
0.0
 11
-168.4000009999999
 21
-0.0000000000001471
 31
0.0
 70
    32
  1
%%c<>
 51
359.9999999999998
  3
AM_JIS$0
100
AcDbAlignedDimension
 13
-150.7054163614915
 23
5.499999999999874
 33
0.0
 14
-150.7053654988582
 24
-5.500000000000124
 34
0.0
 50
270.0000000000003
100
AcDbRotatedDimension
1001
ACAD
1000
DSTYLE
1002
{
1070
   271
1070
     0
1002
}
1001
GENIUS_GENDTOL_13
1000

1000
h7
1000

1040
0.0
  0
LINE
  5
26F2
330
1F
100
AcDbEntity
  8
AM_0
 48
0.5
100
AcDbLine
 10
0.0
 20
0.0000000000000005
 30
0.0
 11
-0.6556852918174013
 21
-1.801480533536826
 31
0.0
  0
ELLIPSE
  5
26F3
330
1F
100
AcDbEntity
  8
AM_0
 48
0.5
100
AcDbEllipse
 10
7.071694139679332
 20
-6.181507039249193
 30
0.0
 11
8.90429828083378
 21
-0.0029979848981222
 31
0.0
210
0.0
220
0.0
230
-1.0
 40
0.9899886394734918
 41
3.323558732911947
 42
3.661246186326368
  0
DIMENSION
  5
2700
330
1F
100
AcDbEntity
  8
AM_5
100
AcDbDimension
  2
*D9
 10
-0.6556852918174013
 20
-1.801480533536826
 30
0.0
 11
31.50461910617831
 21
0.0000000000000176
 31
0.0
 70
    34
  1
<>
 51
359.9999999999998
  3
AM_JIS$2
100
AcDb2LineAngularDimension
 13
0.0
 23
-0.0000000000000005
 33
0.0
 14
-0.6556852918174043
 24
1.801480533536825
 34
0.0
 15
0.0
 25
0.0000000000000005
 35
0.0
 16
31.7745186357498
 26
-13.70618943944922
 36
0.0
1001
GENIUS_GENDTOL_13
1000

1000
h7
1000

1040
0.0
1001
ACAD
1000
DSTYLE
1002
{
1070
   271
1070
     1
1070
   179
1070
     1
1002
}
  0
LINE
  5
28A9
330
1F
100
AcDbEntity
  8
AM_0
100
AcDbLine
 10
-89.30823846890179
 20
5.100607452050996
 30
0.0
 11
-89.30720414213677
 21
-5.100001912686016
 31
0.0
  0
LINE
  5
28AA
330
1F
100
AcDbEntity
  8
AM_0
 48
0.5
100
AcDbLine
 10
-80.99021635766112
 20
-5.099999887997409
 30
0.0
 11
-89.30720414213677
 21
-5.100001912686016
 31
0.0
  0
LINE
  5
28AB
330
1F
100
AcDbEntity
  8
AM_0
100
AcDbLine
 10
-79.3056429811596
 20
5.10072465955798
 30
0.0
 11
-89.30823846890179
 21
5.100606428303014
 31
0.0
  0
LINE
  5
28AC
330
1F
100
AcDbEntity
  8
AM_0
 48
0.5
100
AcDbLine
 10
-4.74426944139505
 20
5.100000112002083
 30
0.0
 11
-2.018674667155136
 21
5.10000011200206
 31
0.0
  0
LINE
  5
28AD
330
1F
100
AcDbEntity
  8
AM_0
 48
0.5
100
AcDbLine
 10
-4.74426944139513
 20
-5.09999988799792
 30
0.0
 11
-1.999999999999928
 21
-5.099999597350435
 31
0.0
  0
LINE
  5
28AE
330
1F
100
AcDbEntity
  8
AM_0
 48
0.5
100
AcDbLine
 10
-35.04687460593258
 20
-5.099999887997779
 30
0.0
 11
-20.77871361457188
 21
-5.099999887997792
 31
0.0
  0
LINE
  5
28AF
330
1F
100
AcDbEntity
  8
AM_11
 48
0.5
100
AcDbLine
 10
-20.7787136145718
 20
5.100000112002212
 30
0.0
 11
-4.74426944139505
 21
5.100000112002083
 31
0.0
  0
LINE
  5
28B0
330
1F
100
AcDbEntity
  8
AM_11
 48
0.5
100
AcDbLine
 10
-20.77871361457188
 20
-5.099999887997792
 30
0.0
 11
-4.74426944139513
 21
-5.09999988799792
 31
0.0
  0
LINE
  5
28B1
330
1F
100
AcDbEntity
  8
AM_11
 48
0.5
100
AcDbLine
 10
-49.00292093649378
 20
5.100724659557842
 30
0.0
 11
-38.77035340071115
 21
5.100000112002359
 31
0.0
  0
LINE
  5
28B2
330
1F
100
AcDbEntity
  8
AM_0
100
AcDbLine
 10
-69.07308925574942
 20
5.1000001120025
 30
0.0
 11
-49.00292093649378
 21
5.100724659557842
 31
0.0
  0
LINE
  5
28B3
330
1F
100
AcDbEntity
  8
AM_0
 48
0.5
100
AcDbLine
 10
-69.07309567782863
 20
-5.099999887997436
 30
0.0
 11
-51.08131878168784
 21
-5.099999887997535
 31
0.0
  0
LINE
  5
28B4
330
1F
100
AcDbEntity
  8
AM_11
 48
0.5
100
AcDbLine
 10
-51.0813187791073
 20
-5.099999887997651
 30
0.0
 11
-35.0468746059326
 21
-5.100724435553168
 31
0.0
  0
LINE
  5
28B5
330
1F
100
AcDbEntity
  8
AM_0
 48
0.5
100
AcDbLine
 10
-38.77036721108359
 20
5.100000112002359
 30
0.0
 11
-20.7787136145718
 21
5.100000112002212
 31
0.0
  0
LINE
  5
28B6
330
1F
100
AcDbEntity
  8
AM_0
 48
0.5
100
AcDbLine
 10
0.0
 20
-0.0000000000000004
 30
0.0
 11
-2.687738011339171
 21
1.984130822106396
 31
0.0
  0
ELLIPSE
  5
28B7
330
1F
100
AcDbEntity
  8
AM_0
 48
0.5
100
AcDbEllipse
 10
5.043293278907107
 20
-1.133659632260379
 30
0.0
 11
7.650133870271841
 21
2.626873931989873
 31
0.0
210
0.0
220
0.0
230
1.0
 40
0.9807001203046642
 41
2.935374993488351
 42
3.327207139741848
  0
ELLIPSE
  5
28B8
330
1F
100
AcDbEntity
  8
AM_0
 48
0.5
100
AcDbEllipse
 10
-8.7426792491565
 20
8.64610671997058
 30
0.0
 11
-8.366116050603814
 21
9.037439325504267
 31
0.0
210
0.0
220
0.0
230
0.9999999999999998
 40
0.6172434367952816
 41
2.990032515355889
 42
3.212977937526633
  0
SPLINE
  5
28B9
330
1F
100
AcDbEntity
  8
AM_0
100
AcDbSpline
210
0.0
220
0.0
230
1.0
 70
     8
 71
     3
 72
    11
 73
     7
 74
     0
 42
0.0000000001
 43
0.0000000001
 40
11.27226913003534
 40
11.27226913003534
 40
11.27226913003534
 40
11.2722691300354
 40
12.28301561507924
 40
13.29510212255852
 40
14.30984805882082
 40
15.18258238371378
 40
15.18258238371378
 40
15.18258238371378
 40
15.18258238371378
 10
-51.08131877910932
 20
-5.099999887997651
 30
0.0
 10
-51.36385414766346
 20
-5.075039005947329
 30
0.0
 10
-51.92839196934064
 20
-5.014609796845435
 30
0.0
 10
-52.77228353379026
 20
-4.892709134957491
 30
0.0
 10
-53.57315150857837
 20
-4.747112160218639
 30
0.0
 10
-54.09110590466431
 20
-4.635187432492942
 30
0.0
 10
-54.32979403911865
 20
-4.579899708468825
 30
0.0
  0
SPLINE
  5
28BA
330
1F
100
AcDbEntity
  8
AM_0
100
AcDbSpline
210
0.0
220
0.0
230
1.0
 70
     8
 71
     3
 72
    17
 73
    13
 74
     0
 42
0.0000000001
 43
0.0000000001
 40
1.580019955310467
 40
1.580019955310467
 40
1.580019955310467
 40
1.580019955310467
 40
2.030549285115227
 40
3.082371838836284
 40
4.126290986361125
 40
5.162752068350215
 40
6.192395305374981
 40
7.216039564037012
 40
8.234688489606833
 40
9.249433870634691
 40
10.26152376260694
 40
11.27226744710342
 40
11.27226744710342
 40
11.27226744710342
 40
11.27226744710352
 10
-43.06347119365787
 20
-3.763950065608551
 30
0.0
 10
-43.18390199656949
 20
-3.802715625581889
 30
0.0
 10
-43.58618133849128
 20
-3.92977492627518
 30
0.0
 10
-44.27297193625373
 20
-4.129071985673272
 30
0.0
 10
-45.12366369159592
 20
-4.352258253635711
 30
0.0
 10
-45.97458964158192
 20
-4.548186164098737
 30
0.0
 10
-46.8255545806979
 20
-4.7161977471036
 30
0.0
 10
-47.67661223091887
 20
-4.85507087828176
 30
0.0
 10
-48.52772867827076
 20
-4.964013069908166
 30
0.0
 10
-49.3788981229458
 20
-5.042318340128573
 30
0.0
 10
-50.23009959433309
 20
-5.089482628824836
 30
0.0
 10
-50.79770497123143
 20
-5.099999917180123
 30
0.0
 10
-51.08131877910928
 20
-5.099999887997651
 30
0.0
  0
SPLINE
  5
28BB
330
1F
100
AcDbEntity
  8
AM_0
100
AcDbSpline
210
0.0
220
0.0
230
1.0
 70
     8
 71
     3
 72
    22
 73
    18
 74
     0
 42
0.0000000001
 43
0.0000000001
 40
17.17441611292
 40
17.17441611292
 40
17.17441611292
 40
17.17441611292
 40
17.38177636558528
 40
18.41823744757437
 40
19.46215659509824
 40
20.51397914882054
 40
21.57394542641293
 40
22.64209583141747
 40
23.71826625065247
 40
24.80210429862395
 40
25.8930771157021
 40
26.99048705697709
 40
28.09349309193389
 40
29.20112995599786
 40
30.31233024745139
 40
31.42594771747373
 40
32.5407895042663
 40
32.54078950426994
 40
32.54078950426994
 40
32.54078950426994
 10
-54.33016629886884
 20
-4.579836800007823
 30
0.0
 10
-54.38716396286093
 20
-4.568030800224849
 30
0.0
 10
-54.72883383025615
 20
-4.49611916511917
 30
0.0
 10
-55.35475377430383
 20
-4.351926977224588
 30
0.0
 10
-56.20556396047732
 20
-4.129083417846224
 30
0.0
 10
-57.05628745087876
 20
-3.880792539776765
 30
0.0
 10
-57.90693025156835
 20
-3.608604236241613
 30
0.0
 10
-58.7574912389061
 20
-3.314187423976897
 30
0.0
 10
-59.60798088231146
 20
-2.999374394853761
 30
0.0
 10
-60.45840311979054
 20
-2.666099888457884
 30
0.0
 10
-61.30876581977129
 20
-2.316419190408876
 30
0.0
 10
-62.1590784377478
 20
-1.952489609122253
 30
0.0
 10
-63.00934835392056
 20
-1.576548958598847
 30
0.0
 10
-63.85958412763095
 20
-1.190910089247017
 30
0.0
 10
-64.7097932954791
 20
-0.7979442435951797
 30
0.0
 10
-65.55998845257443
 20
-0.400076233312187
 30
0.0
 10
-66.12667396855275
 20
-0.1332345984420368
 30
0.0
 10
-66.41017239913304
 20
0.0002595114171909
 30
0.0
  0
SPLINE
  5
28BC
330
1F
100
AcDbEntity
  8
AM_0
100
AcDbSpline
210
0.0
220
0.0
230
1.0
 70
     8
 71
     3
 72
    23
 73
    19
 74
     0
 42
0.0000000001
 43
0.0000000001
 40
16.03460024169435
 40
16.03460024169435
 40
16.03460024169435
 40
16.03460024169435
 40
16.35212704903564
 40
17.38177054169784
 40
18.41822485651776
 40
19.46214173629503
 40
20.51396345435107
 40
21.57393551351153
 40
22.64208202342361
 40
23.7182574881101
 40
24.80209208578934
 40
25.89306333925047
 40
26.99048218457928
 40
28.09348763352352
 40
29.20111863782268
 40
30.31232390128032
 40
31.42594612798585
 40
32.5407912310448
 40
32.5407912310486
 40
32.5407912310486
 40
32.5407912310486
 10
-49.00292093649379
 20
5.100724659557842
 30
0.0
 10
-48.91547044430849
 20
5.083507957665881
 30
0.0
 10
-48.54481683129744
 20
5.008534066673234
 30
0.0
 10
-47.89190650031261
 20
4.861634169731394
 30
0.0
 10
-47.04638591246759
 20
4.643195629460506
 30
0.0
 10
-46.20165068391512
 20
4.397925558754741
 30
0.0
 10
-45.35765089857689
 20
4.127243455682575
 30
0.0
 10
-44.51435660140488
 20
3.832658379028401
 30
0.0
 10
-43.67171905200974
 20
3.515854301320774
 30
0.0
 10
-42.82967957231524
 20
3.178674942826158
 30
0.0
 10
-41.98819031461391
 20
2.823029730592907
 30
0.0
 10
-41.1471838136606
 20
2.45098808124381
 30
0.0
 10
-40.3065919152831
 20
2.064712461584865
 30
0.0
 10
-39.46635861324072
 20
1.666423794491993
 30
0.0
 10
-38.62641360623359
 20
1.258438074020927
 30
0.0
 10
-37.78667909756517
 20
0.8431376374575997
 30
0.0
 10
-36.94708670914196
 20
0.4229290383725024
 30
0.0
 10
-36.38750879300826
 20
0.1412021494546654
 30
0.0
 10
-36.10756723459183
 20
0.0002595114152181
 30
0.0
  0
SPLINE
  5
28BD
330
1F
100
AcDbEntity
  8
AM_0
100
AcDbSpline
210
0.0
220
0.0
230
1.0
 70
     8
 71
     3
 72
    46
 73
    42
 74
     0
 42
0.0000000001
 43
0.0000000001
 40
0.0
 40
0.0
 40
0.0
 40
0.0
 40
1.685415058684573
 40
2.531036209541122
 40
3.379897699130124
 40
4.232934581347651
 40
5.090970612202446
 40
5.954688180526682
 40
6.824620803463244
 40
7.701151815239691
 40
8.584457046566678
 40
9.474582384070743
 40
10.37139106676737
 40
11.27458944007583
 40
12.18373345430765
 40
13.09824173870457
 40
14.0174134345011
 40
14.94044415455409
 40
15.86644439743313
 40
16.79446029130533
 40
17.72349377129849
 40
18.65252725129241
 40
19.5805431451646
 40
20.5065433880429
 40
21.42957410809586
 40
22.34874580389317
 40
23.26325408828901
 40
24.17239810252111
 40
25.07560240389441
 40
25.97241108659103
 40
26.8625364240951
 40
27.74584165542183
 40
28.62236045019041
 40
29.49229307312697
 40
30.35601064145121
 40
31.21404606334469
 40
32.06708345193547
 40
32.91595755657689
 40
33.76157841950692
 40
34.60498701064691
 40
35.44727335621125
 40
35.44727335621125
 40
35.44727335621125
 40
35.44727335621125
 10
-32.66408882165734
 20
-5.099999887997801
 30
0.0
 10
-33.23172192185383
 20
-5.088381693763133
 30
0.0
 10
-34.08415285447686
 20
-5.070934317731987
 30
0.0
 10
-35.21766743859579
 20
-4.963514028761743
 30
0.0
 10
-36.06878905900929
 20
-4.855205802416176
 30
0.0
 10
-36.91983792878553
 20
-4.716156437661004
 30
0.0
 10
-37.77081180597043
 20
-4.548214924264314
 30
0.0
 10
-38.62170631894428
 20
-4.352184165732971
 30
0.0
 10
-39.47252004258662
 20
-4.129341178019232
 30
0.0
 10
-40.32324919047586
 20
-3.881054250055486
 30
0.0
 10
-41.17389546301553
 20
-3.608863349444561
 30
0.0
 10
-42.02445657222585
 20
-3.314446900853808
 30
0.0
 10
-42.87494618282604
 20
-2.999633773662232
 30
0.0
 10
-43.72536842836565
 20
-2.666359292030718
 30
0.0
 10
-44.57573112927041
 20
-2.316678594046655
 30
0.0
 10
-45.42604373530709
 20
-1.952748987269416
 30
0.0
 10
-46.27631369865851
 20
-1.576808439407022
 30
0.0
 10
-47.12654929459665
 20
-1.191169182724044
 30
0.0
 10
-47.97675953804262
 20
-0.7982046008764105
 30
0.0
 10
-48.82695219572261
 20
-0.4003311498125874
 30
0.0
 10
-49.67713770653294
 20
0.0000001119213386
 30
0.0
 10
-50.52732321715652
 20
0.4003313741417482
 30
0.0
 10
-51.3775158753967
 20
0.7982048237468331
 30
0.0
 10
-52.22772611679499
 20
1.191169410925507
 30
0.0
 10
-53.0779617203262
 20
1.576808647837594
 30
0.0
 10
-53.92823165552314
 20
1.95274926900844
 30
0.0
 10
-54.77854436582546
 20
2.316678604298706
 30
0.0
 10
-55.62890852970545
 20
2.666361066706502
 30
0.0
 10
-56.47933407957567
 20
2.999632520370404
 30
0.0
 10
-57.32982520731899
 20
3.314447261815886
 30
0.0
 10
-58.18038629672579
 20
3.608863798011201
 30
0.0
 10
-59.03102907490726
 20
3.881052197420357
 30
0.0
 10
-59.88175255456309
 20
4.129342966172554
 30
0.0
 10
-60.73256280524089
 20
4.35218686422429
 30
0.0
 10
-61.58345682576169
 20
4.548204797394262
 30
0.0
 10
-62.43443132682852
 20
4.716195020447759
 30
0.0
 10
-63.28548562806437
 20
4.855045820927069
 30
0.0
 10
-64.13660286286388
 20
4.964116517009203
 30
0.0
 10
-64.98777275587258
 20
5.04193271542415
 30
0.0
 10
-65.83897354571522
 20
5.090899465773154
 30
0.0
 10
-66.40657915132519
 20
5.096967909941277
 30
0.0
 10
-66.69019301339549
 20
5.100000112002479
 30
0.0
  0
SPLINE
  5
28BE
330
1F
100
AcDbEntity
  8
AM_0
100
AcDbSpline
210
0.0
220
0.0
230
1.0
 70
     8
 71
     3
 72
    55
 73
    51
 74
     0
 42
0.0000000001
 43
0.0000000001
 40
0.0
 40
0.0
 40
0.0
 40
0.0
 40
1.010743684496582
 40
2.022833576467832
 40
3.037578957496688
 40
4.056212745003489
 40
5.079857003664532
 40
6.109500240690281
 40
7.145961322679372
 40
8.189895241603872
 40
9.241717795325891
 40
10.30168407291828
 40
11.36983447792315
 40
12.44600489715814
 40
13.52984294512926
 40
14.62081576220742
 40
15.7182257034828
 40
16.82123173843959
 40
17.92886860250316
 40
19.0400688939571
 40
20.15368796660465
 40
21.26852814259644
 40
22.38336992938901
 40
23.49698739941135
 40
24.6081876908653
 40
25.71582455492886
 40
26.81883757994213
 40
27.91624752121713
 40
29.00722033829659
 40
30.09105838626677
 40
31.16722880550176
 40
32.23537921050758
 40
33.29534548809967
 40
34.347168041821
 40
35.39108718934584
 40
36.42754827133493
 40
37.45720575381954
 40
38.48085062012849
 40
39.49948440763516
 40
40.51422944315121
 40
41.52631975251916
 40
42.53706336719636
 40
43.54780698187354
 40
44.55989729124051
 40
45.57464232675757
 40
46.59327611426424
 40
47.6169209805722
 40
48.64656348684535
 40
49.68302456883444
 40
50.58557219878025
 40
50.58557219878025
 40
50.58557219878025
 40
50.58557219878025
 10
-4.74426944139513
 20
-5.09999988799792
 30
0.0
 10
-5.027883253014699
 20
-5.096965511552972
 30
0.0
 10
-5.59548862091748
 20
-5.09089271718322
 30
0.0
 10
-6.446690110359233
 20
-5.041939176995643
 30
0.0
 10
-7.297855265218821
 20
-4.964115836188804
 30
0.0
 10
-8.148967741311812
 20
-4.855043464203507
 30
0.0
 10
-9.000019045875495
 20
-4.716200200800132
 30
0.0
 10
-9.850992389570444
 20
-4.54820345984485
 30
0.0
 10
-10.70189061886476
 20
-4.35218492726385
 30
0.0
 10
-11.55270618801079
 20
-4.129344926762987
 30
0.0
 10
-12.4034333014039
 20
-3.881051682426976
 30
0.0
 10
-13.25407619944843
 20
-3.60886370528412
 30
0.0
 10
-14.10463716033568
 20
-3.314446804414509
 30
0.0
 10
-14.95512681114359
 20
-2.999633799813049
 30
0.0
 10
-15.80554904573057
 20
-2.666359284843698
 30
0.0
 10
-16.65591174983909
 20
-2.316678596401759
 30
0.0
 10
-17.5062243541066
 20
-1.952748985085091
 30
0.0
 10
-18.35649432133054
 20
-1.576808445815542
 30
0.0
 10
-19.20672990347778
 20
-1.191169159154098
 30
0.0
 10
-20.05694019843039
 20
-0.7982046890939241
 30
0.0
 10
-20.90713266334194
 20
-0.4003308197027047
 30
0.0
 10
-21.75731930424699
 20
-0.0000009285830411
 30
0.0
 10
-22.60750212852538
 20
0.4003361687241513
 30
0.0
 10
-23.45769744309676
 20
0.7982038421668239
 30
0.0
 10
-24.30790668845336
 20
1.191169501708076
 30
0.0
 10
-25.15814378656125
 20
1.576810257483315
 30
0.0
 10
-26.00841728111286
 20
1.952747588410288
 30
0.0
 10
-26.85873122739833
 20
2.316679045356449
 30
0.0
 10
-27.70909405427094
 20
2.666359450243404
 30
0.0
 10
-28.55951625791377
 20
2.999634035299132
 30
0.0
 10
-29.41000591089944
 20
3.3144470403611
 30
0.0
 10
-30.26056689345116
 20
3.608863870831191
 30
0.0
 10
-31.11120970370005
 20
3.881052125903014
 30
0.0
 10
-31.96193316098053
 20
4.129343177812857
 30
0.0
 10
-32.81274346881497
 20
4.352186096961752
 30
0.0
 10
-33.66364138247021
 20
4.548208571228845
 30
0.0
 10
-34.51462080240005
 20
4.716186124624266
 30
0.0
 10
-35.36567491859675
 20
4.855072362952765
 30
0.0
 10
-36.21678764699756
 20
4.964015443719331
 30
0.0
 10
-37.06795339327257
 20
5.042311377325153
 30
0.0
 10
-37.91915416099689
 20
5.089490465026289
 30
0.0
 10
-38.77037363334189
 20
5.105251437115993
 30
0.0
 10
-39.62159310443441
 20
5.08949046500159
 30
0.0
 10
-40.47279387592338
 20
5.042311377424303
 30
0.0
 10
-41.32395960833803
 20
4.964015443345736
 30
0.0
 10
-42.17507238870465
 20
4.855072364356716
 30
0.0
 10
-43.0261221604911
 20
4.716186796437936
 30
0.0
 10
-43.87709822788592
 20
4.54821028870858
 30
0.0
 10
-44.6893076600023
 20
4.361084276267659
 30
0.0
 10
-45.21627838926336
 20
4.224237254341383
 30
0.0
 10
-45.46076209356497
 20
4.157545024756953
 30
0.0
  0
SPLINE
  5
28BF
330
1F
100
AcDbEntity
  8
AM_0
100
AcDbSpline
210
0.0
220
0.0
230
1.0
 70
     8
 71
     3
 72
    22
 73
    18
 74
     0
 42
0.0000000001
 43
0.0000000001
 40
17.17441611292
 40
17.17441611292
 40
17.17441611292
 40
17.17441611292
 40
17.38177636558528
 40
18.41823744757437
 40
19.46215659509824
 40
20.51397914882054
 40
21.57394542641293
 40
22.64209583141747
 40
23.71826625065247
 40
24.80210429862395
 40
25.8930771157021
 40
26.99048705697709
 40
28.09349309193389
 40
29.20112995599786
 40
30.31233024745139
 40
31.42594771747373
 40
32.5407895042663
 40
32.54078950426994
 40
32.54078950426994
 40
32.54078950426994
 10
-24.02756113433136
 20
-4.579836800007964
 30
0.0
 10
-24.08455879832344
 20
-4.568030800224989
 30
0.0
 10
-24.42622866571867
 20
-4.496119165119311
 30
0.0
 10
-25.05214860976635
 20
-4.351926977224729
 30
0.0
 10
-25.90295879593984
 20
-4.129083417846366
 30
0.0
 10
-26.7536822863413
 20
-3.880792539776905
 30
0.0
 10
-27.6043250870309
 20
-3.608604236241752
 30
0.0
 10
-28.45488607436863
 20
-3.314187423977037
 30
0.0
 10
-29.30537571777398
 20
-2.999374394853902
 30
0.0
 10
-30.15579795525306
 20
-2.666099888458024
 30
0.0
 10
-31.00616065523382
 20
-2.316419190409016
 30
0.0
 10
-31.85647327321032
 20
-1.952489609122393
 30
0.0
 10
-32.7067431893831
 20
-1.576548958598988
 30
0.0
 10
-33.55697896309347
 20
-1.190910089247158
 30
0.0
 10
-34.40718813094164
 20
-0.7979442435953201
 30
0.0
 10
-35.25738328803697
 20
-0.4000762333123273
 30
0.0
 10
-35.82406880401531
 20
-0.1332345984421772
 30
0.0
 10
-36.10756723459559
 20
0.0002595114170505
 30
0.0
  0
SPLINE
  5
28C0
330
1F
100
AcDbEntity
  8
AM_0
 48
0.5
100
AcDbSpline
210
0.0
220
0.0
230
1.0
 70
     8
 71
     3
 72
    17
 73
    13
 74
     0
 42
0.0000000001
 43
0.0000000001
 40
0.0
 40
0.0
 40
0.0
 40
0.0
 40
1.010743614677189
 40
2.022833924044153
 40
3.037578959561199
 40
4.056212747067873
 40
5.079857613375832
 40
6.109500119648989
 40
7.14596120163808
 40
8.18989512056258
 40
9.241717674284874
 40
9.693948937866434
 40
9.693948937866434
 40
9.693948937866434
 40
9.693948937866434
 10
-4.74426944139505
 20
5.100000112002084
 30
0.0
 10
-5.027883304628943
 20
5.096967922276351
 30
0.0
 10
-5.595488912567418
 20
5.090899502795653
 30
0.0
 10
-6.446689684911022
 20
5.04193256694003
 30
0.0
 10
-7.297855413812915
 20
4.964117463130494
 30
0.0
 10
-8.14896820745014
 20
4.855044877084912
 30
0.0
 10
-9.000017929315911
 20
4.716194083430842
 30
0.0
 10
-9.850994184679153
 20
4.54820884414032
 30
0.0
 10
-10.70188555200833
 20
4.352170535753339
 30
0.0
 10
-11.55272504930404
 20
4.129398938649686
 30
0.0
 10
-12.23954487824793
 20
3.928715404157771
 30
0.0
 10
-12.64288575079193
 20
3.8032593355453
 30
0.0
 10
-12.76394704122431
 20
3.764858072782809
 30
0.0
  0
SPLINE
  5
28C1
330
1F
100
AcDbEntity
  8
AM_0
 48
0.5
100
AcDbSpline
210
0.0
220
0.0
230
1.0
 70
     8
 71
     3
 72
    16
 73
    12
 74
     0
 42
0.0000000001
 43
0.0000000001
 40
0.0
 40
0.0
 40
0.0
 40
0.0
 40
1.010743614677189
 40
2.022833924044153
 40
3.037578959561199
 40
4.056212747067873
 40
5.079857613375832
 40
6.109500119648989
 40
7.14596120163808
 40
8.18989512056258
 40
8.545190612624931
 40
8.545190612624931
 40
8.545190612624931
 40
8.545190612624931
 10
-4.74426944139505
 20
5.100000112002084
 30
0.0
 10
-5.027867537544628
 20
5.099969465340834
 30
0.0
 10
-5.595496241579871
 20
5.089504711607564
 30
0.0
 10
-6.446687707567697
 20
5.042307530098364
 30
0.0
 10
-7.297855972536257
 20
4.964016544047825
 30
0.0
 10
-8.148967958537356
 20
4.855071825335114
 30
0.0
 10
-9.000018365825255
 20
4.716187852529266
 30
0.0
 10
-9.850992675869358
 20
4.548206573978027
 30
0.0
 10
-10.70189120399236
 20
4.352186064786018
 30
0.0
 10
-11.36350424750067
 20
4.178894206367736
 30
0.0
 10
-11.7416687358659
 20
4.07231542275146
 30
0.0
 10
-11.83756913810695
 20
4.044811994090196
 30
0.0
  0
SPLINE
  5
28C2
330
1F
100
AcDbEntity
  8
AM_0
 48
0.5
100
AcDbSpline
210
0.0
220
0.0
230
1.0
 70
     8
 71
     3
 72
    25
 73
    21
 74
     0
 42
0.0000000001
 43
0.0000000001
 40
6.846175049578289
 40
6.846175049578289
 40
6.846175049578289
 40
6.846175049578289
 40
7.604337694224321
 40
8.711974558287883
 40
9.814980593243754
 40
10.91239053451967
 40
12.0033633515982
 40
13.08720139956839
 40
14.16337181880432
 40
15.23152222380919
 40
16.29148850140128
 40
17.34331105512262
 40
18.38723020264746
 40
19.42369128463655
 40
20.45333379090873
 40
21.47697865721768
 40
22.49561244472435
 40
23.5103574802404
 40
24.52244778960836
 40
25.53320666051913
 40
25.53320666051913
 40
25.53320666051913
 40
25.53320666051913
 10
-5.736984620649612
 20
0.9231335009413658
 30
0.0
 10
-5.930348461477636
 20
1.012680430624759
 30
0.0
 10
-6.406613931430086
 20
1.232154773236969
 30
0.0
 10
-7.166488811642901
 20
1.576808498114572
 30
0.0
 10
-8.016758681347644
 20
1.9527492548683
 30
0.0
 10
-8.86707131167636
 20
2.316678807867526
 30
0.0
 10
-9.717434008399237
 20
2.66635951355935
 30
0.0
 10
-10.56785624665526
 20
2.999634017455529
 30
0.0
 10
-11.41834589017891
 20
3.314447048980232
 30
0.0
 10
-12.26890687628931
 20
3.608863854189907
 30
0.0
 10
-13.11954968171579
 20
3.881052183279774
 30
0.0
 10
-13.97027315458646
 20
4.129342967189342
 30
0.0
 10
-14.82108340546952
 20
4.35218687402668
 30
0.0
 10
-15.67197743181645
 20
4.548204757596372
 30
0.0
 10
-16.52295190960517
 20
4.716195168516374
 30
0.0
 10
-17.37400210356265
 20
4.85504458842288
 30
0.0
 10
-18.22511477168964
 20
4.964117540641651
 30
0.0
 10
-19.07628053386069
 20
5.041932543866176
 30
0.0
 10
-19.92748557309068
 20
5.090899763818626
 30
0.0
 10
-20.49509546760728
 20
5.096967993976517
 30
0.0
 10
-20.7787136145718
 20
5.100000112002212
 30
0.0
  0
SPLINE
  5
28C3
330
1F
100
AcDbEntity
  8
AM_0
100
AcDbSpline
210
0.0
220
0.0
230
1.0
 70
     8
 71
     3
 72
    11
 73
     7
 74
     0
 42
0.0000000001
 43
0.0000000001
 40
11.27226913003534
 40
11.27226913003534
 40
11.27226913003534
 40
11.2722691300354
 40
12.28301561507924
 40
13.29510212255852
 40
14.30984805882082
 40
15.18258238371378
 40
15.18258238371378
 40
15.18258238371378
 40
15.18258238371378
 10
-20.77871361457185
 20
-5.099999887997793
 30
0.0
 10
-21.06124898312599
 20
-5.075039005947467
 30
0.0
 10
-21.62578680480316
 20
-5.014609796845578
 30
0.0
 10
-22.46967836925279
 20
-4.892709134957633
 30
0.0
 10
-23.27054634404088
 20
-4.747112160218779
 30
0.0
 10
-23.78850074012683
 20
-4.635187432493083
 30
0.0
 10
-24.02718887458118
 20
-4.579899708468965
 30
0.0
  0
SPLINE
  5
28C4
330
1F
100
AcDbEntity
  8
AM_0
100
AcDbSpline
210
0.0
220
0.0
230
1.0
 70
     8
 71
     3
 72
    17
 73
    13
 74
     0
 42
0.0000000001
 43
0.0000000001
 40
1.580019955310467
 40
1.580019955310467
 40
1.580019955310467
 40
1.580019955310467
 40
2.030549285115227
 40
3.082371838836284
 40
4.126290986361125
 40
5.162752068350215
 40
6.192395305374981
 40
7.216039564037012
 40
8.234688489606833
 40
9.249433870634691
 40
10.26152376260694
 40
11.27226744710342
 40
11.27226744710342
 40
11.27226744710342
 40
11.27226744710352
 10
-12.76086602912041
 20
-3.763950065608692
 30
0.0
 10
-12.88129683203203
 20
-3.80271562558203
 30
0.0
 10
-13.28357617395382
 20
-3.92977492627532
 30
0.0
 10
-13.97036677171624
 20
-4.129071985673413
 30
0.0
 10
-14.82105852705845
 20
-4.35225825363585
 30
0.0
 10
-15.67198447704446
 20
-4.548186164098878
 30
0.0
 10
-16.52294941616042
 20
-4.716197747103739
 30
0.0
 10
-17.3740070663814
 20
-4.855070878281901
 30
0.0
 10
-18.2251235137333
 20
-4.964013069908306
 30
0.0
 10
-19.07629295840833
 20
-5.042318340128715
 30
0.0
 10
-19.92749442979563
 20
-5.089482628824975
 30
0.0
 10
-20.49509980669395
 20
-5.099999917180265
 30
0.0
 10
-20.7787136145718
 20
-5.099999887997793
 30
0.0
  0
SPLINE
  5
28C5
330
1F
100
AcDbEntity
  8
AM_0
100
AcDbSpline
210
0.0
220
0.0
230
1.0
 70
     8
 71
     3
 72
    46
 73
    42
 74
     0
 42
0.0000000001
 43
0.0000000001
 40
0.0
 40
0.0
 40
0.0
 40
0.0
 40
1.685415058684571
 40
2.531036209541119
 40
3.379897699130121
 40
4.232934581347655
 40
5.090970612202441
 40
5.954688180526682
 40
6.824620803463246
 40
7.701151815239689
 40
8.584457046566678
 40
9.474582384070741
 40
10.37139106676737
 40
11.27458944007583
 40
12.18373345430765
 40
13.09824173870457
 40
14.01741343450111
 40
14.9404441545541
 40
15.86644439743314
 40
16.79446029130534
 40
17.7234937712985
 40
18.65252725129241
 40
19.58054314516461
 40
20.50654338804289
 40
21.42957410809586
 40
22.34874580389317
 40
23.26325408828901
 40
24.17239810252111
 40
25.07560240389441
 40
25.97241108659103
 40
26.8625364240951
 40
27.74584165542183
 40
28.62236045019041
 40
29.49229307312697
 40
30.35601064145121
 40
31.21404606334468
 40
32.06708345193547
 40
32.91595755657689
 40
33.76157841950693
 40
34.60498701064689
 40
35.44727335621125
 40
35.44727335621125
 40
35.44727335621125
 40
35.44727335621125
 10
-2.361483657119872
 20
-5.099999887997941
 30
0.0
 10
-2.929116757316359
 20
-5.088381693763272
 30
0.0
 10
-3.781547689939388
 20
-5.070934317732125
 30
0.0
 10
-4.915062274058329
 20
-4.963514028761884
 30
0.0
 10
-5.766183894471806
 20
-4.855205802416318
 30
0.0
 10
-6.617232764248062
 20
-4.716156437661145
 30
0.0
 10
-7.46820664143296
 20
-4.548214924264455
 30
0.0
 10
-8.319101154406808
 20
-4.352184165733113
 30
0.0
 10
-9.169914878049146
 20
-4.129341178019371
 30
0.0
 10
-10.02064402593839
 20
-3.881054250055626
 30
0.0
 10
-10.87129029847807
 20
-3.608863349444702
 30
0.0
 10
-11.72185140768837
 20
-3.314446900853948
 30
0.0
 10
-12.57234101828856
 20
-2.999633773662372
 30
0.0
 10
-13.42276326382819
 20
-2.666359292030862
 30
0.0
 10
-14.27312596473292
 20
-2.31667859404679
 30
0.0
 10
-15.12343857076962
 20
-1.952748987269559
 30
0.0
 10
-15.97370853412103
 20
-1.576808439407161
 30
0.0
 10
-16.82394413005918
 20
-1.191169182724186
 30
0.0
 10
-17.67415437350518
 20
-0.7982046008765495
 30
0.0
 10
-18.52434703118513
 20
-0.4003311498127282
 30
0.0
 10
-19.37453254199548
 20
0.0000001119211983
 30
0.0
 10
-20.22471805261905
 20
0.4003313741416081
 30
0.0
 10
-21.07491071085923
 20
0.7982048237466905
 30
0.0
 10
-21.92512095225749
 20
1.191169410925368
 30
0.0
 10
-22.77535655578874
 20
1.576808647837455
 30
0.0
 10
-23.62562649098566
 20
1.952749269008298
 30
0.0
 10
-24.47593920128798
 20
2.316678604298565
 30
0.0
 10
-25.32630336516799
 20
2.666361066706363
 30
0.0
 10
-26.17672891503819
 20
2.999632520370261
 30
0.0
 10
-27.02722004278151
 20
3.314447261815746
 30
0.0
 10
-27.87778113218832
 20
3.60886379801106
 30
0.0
 10
-28.72842391036977
 20
3.881052197420217
 30
0.0
 10
-29.57914739002563
 20
4.129342966172415
 30
0.0
 10
-30.42995764070342
 20
4.35218686422415
 30
0.0
 10
-31.28085166122422
 20
4.548204797394121
 30
0.0
 10
-32.13182616229108
 20
4.71619502044762
 30
0.0
 10
-32.9828804635269
 20
4.855045820926928
 30
0.0
 10
-33.83399769832644
 20
4.964116517009064
 30
0.0
 10
-34.6851675913351
 20
5.041932715424008
 30
0.0
 10
-35.53636838117775
 20
5.090899465773016
 30
0.0
 10
-36.10397398678772
 20
5.096967909941139
 30
0.0
 10
-36.38758784885802
 20
5.10000011200234
 30
0.0
  0
SPLINE
  5
28C6
330
1F
100
AcDbEntity
  8
AM_0
 48
0.5
100
AcDbSpline
210
0.0
220
0.0
230
1.0
 70
     8
 71
     3
 72
    10
 73
     6
 74
     0
 42
0.0000000001
 43
0.0000000001
 40
0.0
 40
0.0
 40
0.0
 40
0.0
 40
2.69986029516136
 40
4.147722969032201
 40
6.285750005020438
 40
6.285750005020438
 40
6.285750005020438
 40
6.285750005020438
 10
-5.73684853227134
 20
0.9230729269433997
 30
0.0
 10
-5.131031246913364
 20
0.4492476843550189
 30
0.0
 10
-4.200330397680808
 20
-0.2786773292144826
 30
0.0
 10
-1.999347912541102
 20
0.0737239220249219
 30
0.0
 10
-2.413856934015548
 20
1.260657965825398
 30
0.0
 10
-2.687738011339171
 20
1.984130822106396
 30
0.0
  0
ELLIPSE
  5
28C7
330
1F
100
AcDbEntity
  8
AM_0
 48
0.5
100
AcDbEllipse
 10
-8.923122588753585
 20
8.559649007265402
 30
0.0
 11
-0.0000000000605923
 21
12.29664034843364
 31
0.0
210
0.0
220
0.0
230
1.0
 40
0.9902951079421169
 41
3.652175978813257
 42
3.740670756492764
  0
ELLIPSE
  5
28C8
330
1F
100
AcDbEntity
  8
AM_0
 48
0.5
100
AcDbEllipse
 10
3.043634109906336
 20
6.122863881533245
 30
0.0
 11
0.0000000000016171
 21
10.27876825332623
 31
0.0
210
0.0
220
0.0
230
1.0
 40
0.9902951079421672
 41
2.101163880029142
 42
2.509284810224036
  0
ELLIPSE
  5
28C9
330
1F
100
AcDbEntity
  8
AM_0
 48
0.5
100
AcDbEllipse
 10
-1.685203336826904
 20
-1.32913330322045
 30
0.0
 11
-0.1452577245880287
 21
0.837244782013246
 31
0.0
210
0.0
220
0.0
230
1.0
 40
0.4954324513041483
 41
1.808052399530954
 42
4.943394289242929
  0
ELLIPSE
  5
28CA
330
1F
100
AcDbEntity
  8
AM_0
 48
0.5
100
AcDbEllipse
 10
-1.685203336826904
 20
-1.32913330322045
 30
0.0
 11
-0.7277734763425825
 21
0.4270823318681406
 31
0.0
210
0.0
220
0.0
230
0.9999999999999998
 40
0.5024139581692562
 41
4.489512720076747
 42
7.632953061406256
  0
LINE
  5
28CB
330
1F
100
AcDbEntity
  8
AM_0
100
AcDbLine
 10
-86.01867466715512
 20
2.740513279087239
 30
0.0
 11
-79.30563971055265
 21
5.100725043444831
 31
0.0
  0
POLYLINE
  5
28CC
330
1F
100
AcDbEntity
  8
AM_0
100
AcDb2dPolyline
 66
     1
 10
0.0
 20
0.0
 30
0.0
 70
     2
  0
VERTEX
  5
28CD
330
28CC
100
AcDbEntity
  8
AM_0
100
AcDbVertex
100
AcDb2dVertex
 10
-81.20331842873586
 20
-2.222111725875326
 30
0.0
 42
0.0577636304330164
  0
VERTEX
  5
28CE
330
28CC
100
AcDbEntity
  8
AM_0
100
AcDbVertex
100
AcDb2dVertex
 10
-82.19768254534486
 20
-1.930390497740658
 30
0.0
 42
0.023594216953381
 70
     1
  0
VERTEX
  5
28CF
330
28CC
100
AcDbEntity
  8
AM_0
100
AcDbVertex
100
AcDb2dVertex
 10
-83.45735104805276
 20
-1.721458783838856
 30
0.0
 42
0.0348311362729188
  0
VERTEX
  5
28D0
330
28CC
100
AcDbEntity
  8
AM_0
100
AcDbVertex
100
AcDb2dVertex
 10
-84.97904995924983
 20
-1.593207596142192
 30
0.0
 42
0.1057889510459468
 70
     1
  0
VERTEX
  5
28D1
330
28CC
100
AcDbEntity
  8
AM_0
100
AcDbVertex
100
AcDb2dVertex
 10
-85.46637645844203
 20
-1.724429454120253
 30
0.0
 42
0.1036159811664945
  0
VERTEX
  5
28D2
330
28CC
100
AcDbEntity
  8
AM_0
100
AcDbVertex
100
AcDb2dVertex
 10
-85.9231710204893
 20
-2.018003694855251
 30
0.0
 42
0.2279815956434505
 70
     1
  0
VERTEX
  5
28D3
330
28CC
100
AcDbEntity
  8
AM_0
100
AcDbVertex
100
AcDb2dVertex
 10
-86.01867466715514
 20
-2.225074319866908
 30
0.0
 42
0.0884240313319158
  0
VERTEX
  5
28D4
330
28CC
100
AcDbEntity
  8
AM_0
100
AcDbVertex
100
AcDb2dVertex
 10
-85.96329090918956
 20
-2.539828018297289
 30
0.0
 42
0.0876927421742289
 70
     1
  0
VERTEX
  5
28D5
330
28CC
100
AcDbEntity
  8
AM_0
100
AcDbVertex
100
AcDb2dVertex
 10
-85.72879794529216
 20
-2.977543989700042
 30
0.0
 42
0.038537546653951
  0
VERTEX
  5
28D6
330
28CC
100
AcDbEntity
  8
AM_0
100
AcDbVertex
100
AcDb2dVertex
 10
-84.99209477038686
 20
-3.551786207257544
 30
0.0
 42
0.0220442519779929
 70
     1
  0
VERTEX
  5
28D7
330
28CC
100
AcDbEntity
  8
AM_0
100
AcDbVertex
100
AcDb2dVertex
 10
-83.5876277352767
 20
-4.39933233952679
 30
0.0
 42
0.0372086905244029
  0
VERTEX
  5
28D8
330
28CC
100
AcDbEntity
  8
AM_0
100
AcDbVertex
100
AcDb2dVertex
 10
-82.98384687160643
 20
-4.674517263220803
 30
0.0
 42
0.0235344846445626
 70
     1
  0
VERTEX
  5
28D9
330
28CC
100
AcDbEntity
  8
AM_0
100
AcDbVertex
100
AcDb2dVertex
 10
-81.98175007781111
 20
-4.996027656701123
 30
0.0
  0
SEQEND
  5
28DA
330
28CC
100
AcDbEntity
  8
AM_0
  0
SPLINE
  5
28DB
330
1F
100
AcDbEntity
  8
AM_0
100
AcDbSpline
210
0.0
220
0.0
230
1.0
 70
     8
 71
     3
 72
     9
 73
     5
 74
     0
 42
0.0000000001
 43
0.0000000001
 40
11.27226913003534
 40
11.27226913003534
 40
11.27226913003534
 40
11.2722691300354
 40
12.28301561507924
 40
12.99863635197729
 40
12.99863635197729
 40
12.99863635197729
 40
12.99863635197729
 10
-80.98775239431107
 20
-5.099999887997412
 30
0.0
 10
-81.18239708849364
 20
-5.085035148818803
 30
0.0
 10
-81.5143190164454
 20
-5.054115874865845
 30
0.0
 10
-81.84495633153678
 20
-5.014136166890069
 30
0.0
 10
-81.98175007781109
 20
-4.996027656701125
 30
0.0
  0
SPLINE
  5
28DC
330
1F
100
AcDbEntity
  8
AM_0
100
AcDbSpline
210
0.0
220
0.0
230
1.0
 70
     8
 71
     3
 72
    13
 73
     9
 74
     0
 42
0.0000000001
 43
0.0000000001
 40
16.03460056234195
 40
16.03460056234195
 40
16.03460056234195
 40
16.03460056234195
 40
16.35212717791071
 40
17.38177067057215
 40
18.41822498539278
 40
19.46214186516937
 40
20.5139635832251
 40
21.34083983469381
 40
21.34083983469381
 40
21.34083983469381
 40
21.34083983469381
 10
-80.98983189390033
 20
-5.100463710520506
 30
0.0
 10
-80.90238136627638
 20
-5.083247515676111
 30
0.0
 10
-80.53172744655709
 20
-5.0082756817253
 30
0.0
 10
-79.87881747148374
 20
-4.86137406969268
 30
0.0
 10
-79.03329677723377
 20
-4.642936135099541
 30
0.0
 10
-78.18856157749791
 20
-4.397665900365988
 30
0.0
 10
-77.40690362581222
 20
-4.146977706814144
 30
0.0
 10
-76.90821961755867
 20
-3.974361045000915
 30
0.0
 10
-76.68944993196078
 20
-3.896336740978025
 30
0.0
  0
SPLINE
  5
28DD
330
1F
100
AcDbEntity
  8
AM_0
 48
0.5
100
AcDbSpline
210
0.0
220
0.0
230
1.0
 70
     8
 71
     3
 72
    22
 73
    18
 74
     0
 42
0.0000000001
 43
0.0000000001
 40
0.0
 40
0.0
 40
0.0
 40
0.0
 40
1.010743684496582
 40
2.022833993863546
 40
3.037578683882831
 40
4.056212471389632
 40
5.079857945358201
 40
6.109499720892564
 40
7.145961650132166
 40
8.189873411961459
 40
9.241710626092514
 40
10.30166235592959
 40
11.36982472628033
 40
12.44598212828784
 40
13.52983440361964
 40
14.62080578343036
 40
14.90544694398022
 40
14.90544694398022
 40
14.90544694398022
 40
14.90544694398022
 10
-69.07309567779916
 20
-5.099999887997505
 30
0.0
 10
-69.35670954361249
 20
-5.096966418078673
 30
0.0
 10
-69.92431513709586
 20
-5.090895436715879
 30
0.0
 10
-70.77551573463832
 20
-5.041928259956205
 30
0.0
 10
-71.62668181054861
 20
-4.964118020985868
 30
0.0
 10
-72.4777947392079
 20
-4.855045548451617
 30
0.0
 10
-73.32884372579098
 20
-4.716189331575829
 30
0.0
 10
-74.1798198919001
 20
-4.548206712181412
 30
0.0
 10
-75.03071076771414
 20
-4.352183509688266
 30
0.0
 10
-75.88152220425567
 20
-4.129335772121808
 30
0.0
 10
-76.73224653871549
 20
-3.881054923500313
 30
0.0
 10
-77.58288821689543
 20
-3.608852029035702
 30
0.0
 10
-78.4334527223088
 20
-3.314459240198132
 30
0.0
 10
-79.28393941608185
 20
-2.999626709654652
 30
0.0
 10
-80.13436423108087
 20
-2.66636006316631
 30
0.0
 10
-80.7735179110038
 20
-2.403543254292742
 30
0.0
 10
-81.12967664560072
 20
-2.253325614359672
 30
0.0
 10
-81.20331842873584
 20
-2.222111725875326
 30
0.0
  0
SPLINE
  5
28DE
330
1F
100
AcDbEntity
  8
AM_0
100
AcDbSpline
210
0.0
220
0.0
230
1.0
 70
     8
 71
     3
 72
    23
 73
    19
 74
     0
 42
0.0000000001
 43
0.0000000001
 40
16.03460024169435
 40
16.03460024169435
 40
16.03460024169435
 40
16.03460024169435
 40
16.35212704903564
 40
17.38177054169784
 40
18.41822485651776
 40
19.46214173629503
 40
20.51396345435107
 40
21.57393551351153
 40
22.64208202342361
 40
23.7182574881101
 40
24.80209208578934
 40
25.89306333925047
 40
26.99048218457928
 40
28.09348763352352
 40
29.20111863782268
 40
30.31232390128032
 40
31.42594612798585
 40
32.5407912310448
 40
32.5407912310486
 40
32.5407912310486
 40
32.5407912310486
 10
-79.30564298115959
 20
5.10072465955798
 30
0.0
 10
-79.21819248897429
 20
5.083507957666019
 30
0.0
 10
-78.84753887596327
 20
5.00853406667337
 30
0.0
 10
-78.19462854497844
 20
4.861634169731532
 30
0.0
 10
-77.34910795713341
 20
4.643195629460644
 30
0.0
 10
-76.50437272858095
 20
4.397925558754879
 30
0.0
 10
-75.66037294324272
 20
4.127243455682712
 30
0.0
 10
-74.8170786460707
 20
3.832658379028538
 30
0.0
 10
-73.97444109667553
 20
3.515854301320912
 30
0.0
 10
-73.13240161698105
 20
3.178674942826295
 30
0.0
 10
-72.2909123592797
 20
2.823029730593045
 30
0.0
 10
-71.44990585832643
 20
2.450988081243948
 30
0.0
 10
-70.60931395994893
 20
2.064712461585002
 30
0.0
 10
-69.76908065790656
 20
1.66642379449213
 30
0.0
 10
-68.92913565089941
 20
1.258438074021064
 30
0.0
 10
-68.089401142231
 20
0.843137637457737
 30
0.0
 10
-67.24980875380778
 20
0.4229290383726395
 30
0.0
 10
-66.6902308376741
 20
0.1412021494548026
 30
0.0
 10
-66.41028927925765
 20
0.0002595114153553
 30
0.0
  0
LINE
  5
28DF
330
1F
100
AcDbEntity
  8
AM_11
 48
0.5
100
AcDbLine
 10
-80.99021635766112
 20
-5.099999887997409
 30
0.0
 11
-69.07308925574951
 21
-5.099999887997504
 31
0.0
  0
LINE
  5
28E0
330
1F
100
AcDbEntity
  8
AM_11
 48
0.5
100
AcDbLine
 10
-79.3056429811596
 20
5.10072465955798
 30
0.0
 11
-69.07308925574942
 21
5.1000001120025
 31
0.0
  0
SPLINE
  5
28E1
330
1F
100
AcDbEntity
  8
AM_0
100
AcDbSpline
210
0.0
220
0.0
230
1.0
 70
     8
 71
     3
 72
    55
 73
    51
 74
     0
 42
0.0000000001
 43
0.0000000001
 40
0.0
 40
0.0
 40
0.0
 40
0.0
 40
1.010743684496582
 40
2.022833576467832
 40
3.037578957496688
 40
4.056212745003489
 40
5.079857003664532
 40
6.109500240690281
 40
7.145961322679372
 40
8.189895241603872
 40
9.241717795325891
 40
10.30168407291828
 40
11.36983447792315
 40
12.44600489715814
 40
13.52984294512926
 40
14.62081576220742
 40
15.7182257034828
 40
16.82123173843959
 40
17.92886860250316
 40
19.0400688939571
 40
20.15368796660465
 40
21.26852814259644
 40
22.38336992938901
 40
23.49698739941135
 40
24.6081876908653
 40
25.71582455492886
 40
26.81883757994213
 40
27.91624752121713
 40
29.00722033829659
 40
30.09105838626677
 40
31.16722880550176
 40
32.23537921050758
 40
33.29534548809967
 40
34.347168041821
 40
35.39108718934584
 40
36.42754827133493
 40
37.45720575381954
 40
38.48085062012849
 40
39.49948440763516
 40
40.51422944315121
 40
41.52631975251916
 40
42.53706336719636
 40
43.54780698187354
 40
44.55989729124051
 40
45.57464232675757
 40
46.59327611426424
 40
47.6169209805722
 40
48.64656348684535
 40
49.68302456883444
 40
50.58557219878025
 40
50.58557219878025
 40
50.58557219878025
 40
50.58557219878025
 10
-35.0468746059326
 20
-5.09999988799778
 30
0.0
 10
-35.33048841755217
 20
-5.096965511552832
 30
0.0
 10
-35.89809378545494
 20
-5.09089271718308
 30
0.0
 10
-36.7492952748967
 20
-5.041939176995502
 30
0.0
 10
-37.60046042975629
 20
-4.964115836188664
 30
0.0
 10
-38.45157290584928
 20
-4.855043464203367
 30
0.0
 10
-39.30262421041296
 20
-4.716200200799992
 30
0.0
 10
-40.15359755410792
 20
-4.548203459844711
 30
0.0
 10
-41.00449578340224
 20
-4.35218492726371
 30
0.0
 10
-41.85531135254828
 20
-4.129344926762847
 30
0.0
 10
-42.70603846594136
 20
-3.881051682426836
 30
0.0
 10
-43.55668136398588
 20
-3.60886370528398
 30
0.0
 10
-44.40724232487315
 20
-3.31444680441437
 30
0.0
 10
-45.25773197568106
 20
-2.999633799812909
 30
0.0
 10
-46.10815421026805
 20
-2.666359284843558
 30
0.0
 10
-46.95851691437656
 20
-2.316678596401619
 30
0.0
 10
-47.80882951864408
 20
-1.952748985084951
 30
0.0
 10
-48.65909948586802
 20
-1.576808445815401
 30
0.0
 10
-49.50933506801525
 20
-1.191169159153957
 30
0.0
 10
-50.35954536296785
 20
-0.7982046890937839
 30
0.0
 10
-51.20973782787942
 20
-0.4003308197025645
 30
0.0
 10
-52.05992446878446
 20
-0.0000009285829008
 30
0.0
 10
-52.91010729306286
 20
0.4003361687242918
 30
0.0
 10
-53.76030260763425
 20
0.7982038421669641
 30
0.0
 10
-54.61051185299085
 20
1.191169501708216
 30
0.0
 10
-55.46074895109871
 20
1.576810257483455
 30
0.0
 10
-56.31102244565033
 20
1.952747588410429
 30
0.0
 10
-57.1613363919358
 20
2.31667904535659
 30
0.0
 10
-58.0116992188084
 20
2.666359450243544
 30
0.0
 10
-58.86212142245124
 20
2.999634035299273
 30
0.0
 10
-59.71261107543691
 20
3.314447040361241
 30
0.0
 10
-60.56317205798864
 20
3.608863870831331
 30
0.0
 10
-61.41381486823753
 20
3.881052125903153
 30
0.0
 10
-62.264538325518
 20
4.129343177812998
 30
0.0
 10
-63.11534863335245
 20
4.352186096961892
 30
0.0
 10
-63.96624654700768
 20
4.548208571228985
 30
0.0
 10
-64.81722596693751
 20
4.716186124624405
 30
0.0
 10
-65.66828008313422
 20
4.855072362952904
 30
0.0
 10
-66.51939281153502
 20
4.964015443719471
 30
0.0
 10
-67.37055855781001
 20
5.042311377325293
 30
0.0
 10
-68.22175932553435
 20
5.08949046502643
 30
0.0
 10
-69.07297879787932
 20
5.105251437116133
 30
0.0
 10
-69.92419826897187
 20
5.08949046500173
 30
0.0
 10
-70.77539904046084
 20
5.042311377424442
 30
0.0
 10
-71.6265647728755
 20
4.964015443345878
 30
0.0
 10
-72.47767755324213
 20
4.855072364356856
 30
0.0
 10
-73.32872732502856
 20
4.716186796438075
 30
0.0
 10
-74.17970339242339
 20
4.548210288708721
 30
0.0
 10
-74.99191282453978
 20
4.361084276267797
 30
0.0
 10
-75.51888355380082
 20
4.224237254341524
 30
0.0
 10
-75.76336725810245
 20
4.157545024757094
 30
0.0
  0
SPLINE
  5
28E2
330
1F
100
AcDbEntity
  8
AM_0
 48
0.5
100
AcDbSpline
210
0.0
220
0.0
230
1.0
 70
     8
 71
     3
 72
    26
 73
    22
 74
     0
 42
0.0000000001
 43
0.0000000001
 40
0.0
 40
0.0
 40
0.0
 40
0.0
 40
0.8422864037471089
 40
1.685694647057321
 40
2.531315797913884
 40
3.380177287502886
 40
4.233214169721234
 40
5.09125020057522
 40
5.954967768899448
 40
6.824900391836836
 40
7.701419186604396
 40
8.584724417931369
 40
9.47485577056355
 40
10.37165251267315
 40
11.27486274211709
 40
12.18400675634887
 40
13.09851504074504
 40
14.01768673654235
 40
14.94071745659532
 40
15.8667176994736
 40
16.76607142455336
 40
16.76607142455336
 40
16.76607142455336
 40
16.76607142455336
 10
-66.69030989352393
 20
-5.099999887997524
 30
0.0
 10
-66.97392370517761
 20
-5.096965511684803
 30
0.0
 10
-67.54152907314893
 20
-5.090892717579666
 30
0.0
 10
-68.3927305620776
 20
-5.041939175403693
 30
0.0
 10
-69.24389571889498
 20
-4.964115842184018
 30
0.0
 10
-70.09500818762879
 20
-4.855043441679041
 30
0.0
 10
-70.9460595198661
 20
-4.716200285521208
 30
0.0
 10
-71.79703275936303
 20
-4.548203140760475
 30
0.0
 10
-72.64792734000497
 20
-4.352187061290155
 30
0.0
 10
-73.49873745870958
 20
-4.129342550055371
 30
0.0
 10
-74.34946110407941
 20
-3.881052320015142
 30
0.0
 10
-75.20010527760179
 20
-3.60886175021326
 30
0.0
 10
-76.05066645448511
 20
-3.314451529681937
 30
0.0
 10
-76.90115427182701
 20
-2.999627643719922
 30
0.0
 10
-77.7515801012358
 20
-2.66636274252217
 30
0.0
 10
-78.60194578016209
 20
-2.316678496862845
 30
0.0
 10
-79.45225764763532
 20
-1.952747414916135
 30
0.0
 10
-80.30253131863235
 20
-1.483896215026632
 30
0.0
 10
-81.15275274143693
 20
-1.098226233374377
 30
0.0
 10
-81.89591820818893
 20
-0.6289337937875905
 30
0.0
 10
-83.12368387906788
 20
0.2066034626659652
 30
0.0
 10
-86.01867466715512
 20
2.740513279087239
 30
0.0
  0
VIEWPORT
  5
110
330
101
100
AcDbEntity
 67
     1
  8
0
100
AcDbViewport
 10
420.5
 20
297.0
 30
0.0
 40
948.9782706766916
 41
628.452
 68
     1
 69
     1
1001
ACAD
1000
MVIEW
1002
{
1070
    16
1010
0.0
1020
0.0
1030
0.0
1010
0.0
1020
0.0
1030
1.0
1040
0.0
1040
628.452
1040
420.5
1040
297.0
1040
50.0
1040
0.0
1040
0.0
1070
     0
1070
   100
1070
     1
1070
     1
1070
     0
1070
     0
1070
     0
1070
     0
1040
0.0
1040
0.0
1040
0.0
1040
10.0
1040
10.0
1040
10.0
1040
10.0
1070
     0
1002
{
1002
}
1002
}
  0
ENDSEC
  0
SECTION
  2
OBJECTS
  0
DICTIONARY
  5
C
330
0
100
AcDbDictionary
  3
ACAD_GROUP
350
D
  3
ACAD_LAYOUT
350
1A
  3
ACAD_MLINESTYLE
350
17
  3
ACAD_PLOTSETTINGS
350
19
  3
ACAD_PLOTSTYLENAME
350
E
  3
ACDBVARIABLEDICTIONARY
350
34
  3
ACMDICTIONARY
350
43
  3
AMG
350
2B
  3
AMGSNAPSETTINGS
350
6E
  3
DWGPROPS
350
2935
  3
ACDBHEADERROUNDTRIPXREC
350
2942
  0
DICTIONARY
  5
74
330
1F
100
AcDbDictionary
280
     1
  3
ACAD_INDEX
360
2937
  3
ACAD_LAYOUTSELFREF
360
2965
  0
DICTIONARY
  5
296A
330
101
100
AcDbDictionary
280
     1
  3
ACAD_LAYOUTSELFREF
360
296B
  0
DICTIONARY
  5
D
102
{ACAD_REACTORS
330
C
102
}
330
C
100
AcDbDictionary
  0
DICTIONARY
  5
1A
102
{ACAD_REACTORS
330
C
102
}
330
C
100
AcDbDictionary
  0
DICTIONARY
  5
17
102
{ACAD_REACTORS
330
C
102
}
330
C
100
AcDbDictionary
  3
STANDARD
350
18
  0
DICTIONARY
  5
19
102
{ACAD_REACTORS
330
C
102
}
330
C
100
AcDbDictionary
  0
ACDBDICTIONARYWDFLT
  5
E
102
{ACAD_REACTORS
330
C
102
}
330
C
100
AcDbDictionary
281
     1
  3
Normal
350
F
100
AcDbDictionaryWithDefault
340
F
  0
DICTIONARY
  5
34
102
{ACAD_REACTORS
330
C
102
}
330
C
100
AcDbDictionary
  3
INDEXCTL
350
35
  3
SORTENTS
350
B5E
  0
DICTIONARY
  5
43
102
{ACAD_REACTORS
330
C
102
}
330
C
100
AcDbDictionary
  3
ACMSTDDICTIONARY
350
260
  0
DICTIONARY
  5
2B
102
{ACAD_REACTORS
330
C
102
}
330
C
100
AcDbDictionary
  3
ACMGSETTINGS
350
2C
  0
DICTIONARY
  5
6E
102
{ACAD_REACTORS
330
C
102
}
330
C
100
AcDbDictionary
  0
XRECORD
  5
2935
102
{ACAD_REACTORS
330
C
102
}
330
C
100
AcDbXrecord
  1
DWGPROPS COOKIE
  2

  3

  4

  6

  7

  8

  9

300
AmdtFileType=82
301
=
302
=
303
=
304
=
305
=
306
=
307
=
308
=
309
=
 40
0.0555915509259259
 41
2452800.443498622
 42
2452948.692988634
  1

 90
        1
  0
DICTIONARY
  5
2942
102
{ACAD_REACTORS
330
C
102
}
330
C
100
AcDbDictionary
  3
TSTACKALIGN
350
2943
  3
TSTACKSIZE
350
2944
  3
HYPERLINKBASE
350
2945
  3
STYLESHEET
350
2946
  3
LAYOUTDICT
350
2947
  3
PLOTSETDICT
350
2948
  3
PLOTSTYLNAMDICT
350
2949
  3
LWETCUNION
350
294A
  3
INSUNITS
350
294B
  3
CEPSNTYPE
350
294C
  3
FINGERPRINTGUID
350
294D
  3
VERSIONGUID
350
294E
  3
PSVPSCALE
350
294F
  3
DIMSTYLEDATA
350
2950
  3
PUCSORTHOREF
350
2951
  3
PUCSORTHOVIEW
350
2952
  3
PUCSBASE
350
2953
  3
PUCSORGTOP
350
2954
  3
PUCSORGBOTTOM
350
2955
  3
PUCSORGLEFT
350
2956
  3
PUCSORGRIGHT
350
2957
  3
PUCSORGFRONT
350
2958
  3
PUCSORGBACK
350
2959
  3
UCSORTHOREF
350
295A
  3
UCSORTHOVIEW
350
295B
  3
UCSBASE
350
295C
  3
UCSORGTOP
350
295D
  3
UCSORGBOTTOM
350
295E
  3
UCSORGLEFT
350
295F
  3
UCSORGRIGHT
350
2960
  3
UCSORGFRONT
350
2961
  3
UCSORGBACK
350
2962
  0
DICTIONARY
  5
2937
102
{ACAD_REACTORS
330
74
102
}
330
74
100
AcDbDictionary
  3
*A1
350
2938
  0
XRECORD
  5
2965
102
{ACAD_REACTORS
330
74
102
}
330
74
100
AcDbXrecord
340
1F
  0
XRECORD
  5
296B
102
{ACAD_REACTORS
330
296A
102
}
330
296A
100
AcDbXrecord
340
101
  0
MLINESTYLE
  5
18
102
{ACAD_REACTORS
330
17
102
}
330
17
100
AcDbMlineStyle
  2
STANDARD
 70
     0
  3

 62
   256
 51
90.0
 52
90.0
 71
     2
 49
0.5
 62
   256
  6
BYLAYER
 49
-0.5
 62
   256
  6
BYLAYER
  0
ACDBPLACEHOLDER
  5
F
102
{ACAD_REACTORS
330
E
102
}
330
E
100
AcDbPlaceHolder
280
     0
  0
DICTIONARYVAR
  5
35
102
{ACAD_REACTORS
330
34
102
}
330
34
100
DictionaryVariables
280
     0
  1
1
  0
DICTIONARYVAR
  5
B5E
102
{ACAD_REACTORS
330
34
102
}
330
34
100
DictionaryVariables
280
     0
  1
96
  0
DICTIONARY
  5
260
102
{ACAD_REACTORS
330
43
102
}
330
43
100
AcDbDictionary
  0
DICTIONARY
  5
2C
102
{ACAD_REACTORS
330
2B
102
}
330
2B
100
AcDbDictionary
  3
DWGSETTINGS
350
2D
  0
XRECORD
  5
2943
102
{ACAD_REACTORS
330
2942
102
}
330
2942
100
AcDbXrecord
 90
        1
  0
XRECORD
  5
2944
102
{ACAD_REACTORS
330
2942
102
}
330
2942
100
AcDbXrecord
 90
       70
  0
XRECORD
  5
2945
102
{ACAD_REACTORS
330
2942
102
}
330
2942
100
AcDbXrecord
  1

  0
XRECORD
  5
2946
102
{ACAD_REACTORS
330
2942
102
}
330
2942
100
AcDbXrecord
  1
ASAMI.ctb
  0
XRECORD
  5
2947
102
{ACAD_REACTORS
330
2942
102
}
330
2942
100
AcDbXrecord
340
1A
  0
XRECORD
  5
2948
102
{ACAD_REACTORS
330
2942
102
}
330
2942
100
AcDbXrecord
340
19
  0
XRECORD
  5
2949
102
{ACAD_REACTORS
330
2942
102
}
330
2942
100
AcDbXrecord
340
E
  0
XRECORD
  5
294A
102
{ACAD_REACTORS
330
2942
102
}
330
2942
100
AcDbXrecord
 90
    10781
  0
XRECORD
  5
294B
102
{ACAD_REACTORS
330
2942
102
}
330
2942
100
AcDbXrecord
 90
        4
  0
XRECORD
  5
294C
102
{ACAD_REACTORS
330
2942
102
}
330
2942
100
AcDbXrecord
 90
        0
  0
XRECORD
  5
294D
102
{ACAD_REACTORS
330
2942
102
}
330
2942
100
AcDbXrecord
  1
{AFB28963-8C59-40AE-9337-C84526B81ACE}
  0
XRECORD
  5
294E
102
{ACAD_REACTORS
330
2942
102
}
330
2942
100
AcDbXrecord
  1
{A939469A-4DB0-4728-8826-175E1E61E7FC}
  0
XRECORD
  5
294F
102
{ACAD_REACTORS
330
2942
102
}
330
2942
100
AcDbXrecord
 40
0.0
  0
XRECORD
  5
2950
102
{ACAD_REACTORS
330
2942
102
}
330
2942
100
AcDbXrecord
1000
DSTYLE
1002
{
1070
    79
 70
     2
1070
   341
340
59
1070
   342
340
59
1070
   371
 70
    -1
1070
   372
 70
    -1
1002
}
  0
XRECORD
  5
2951
102
{ACAD_REACTORS
330
2942
102
}
330
2942
100
AcDbXrecord
340
0
  0
XRECORD
  5
2952
102
{ACAD_REACTORS
330
2942
102
}
330
2942
100
AcDbXrecord
 70
     0
  0
XRECORD
  5
2953
102
{ACAD_REACTORS
330
2942
102
}
330
2942
100
AcDbXrecord
340
0
  0
XRECORD
  5
2954
102
{ACAD_REACTORS
330
2942
102
}
330
2942
100
AcDbXrecord
 10
0.0
 20
0.0
 30
0.0
  0
XRECORD
  5
2955
102
{ACAD_REACTORS
330
2942
102
}
330
2942
100
AcDbXrecord
 10
0.0
 20
0.0
 30
0.0
  0
XRECORD
  5
2956
102
{ACAD_REACTORS
330
2942
102
}
330
2942
100
AcDbXrecord
 10
0.0
 20
0.0
 30
0.0
  0
XRECORD
  5
2957
102
{ACAD_REACTORS
330
2942
102
}
330
2942
100
AcDbXrecord
 10
0.0
 20
0.0
 30
0.0
  0
XRECORD
  5
2958
102
{ACAD_REACTORS
330
2942
102
}
330
2942
100
AcDbXrecord
 10
0.0
 20
0.0
 30
0.0
  0
XRECORD
  5
2959
102
{ACAD_REACTORS
330
2942
102
}
330
2942
100
AcDbXrecord
 10
0.0
 20
0.0
 30
0.0
  0
XRECORD
  5
295A
102
{ACAD_REACTORS
330
2942
102
}
330
2942
100
AcDbXrecord
340
0
  0
XRECORD
  5
295B
102
{ACAD_REACTORS
330
2942
102
}
330
2942
100
AcDbXrecord
 70
     0
  0
XRECORD
  5
295C
102
{ACAD_REACTORS
330
2942
102
}
330
2942
100
AcDbXrecord
340
0
  0
XRECORD
  5
295D
102
{ACAD_REACTORS
330
2942
102
}
330
2942
100
AcDbXrecord
 10
0.0
 20
0.0
 30
0.0
  0
XRECORD
  5
295E
102
{ACAD_REACTORS
330
2942
102
}
330
2942
100
AcDbXrecord
 10
0.0
 20
0.0
 30
0.0
  0
XRECORD
  5
295F
102
{ACAD_REACTORS
330
2942
102
}
330
2942
100
AcDbXrecord
 10
0.0
 20
0.0
 30
0.0
  0
XRECORD
  5
2960
102
{ACAD_REACTORS
330
2942
102
}
330
2942
100
AcDbXrecord
 10
0.0
 20
0.0
 30
0.0
  0
XRECORD
  5
2961
102
{ACAD_REACTORS
330
2942
102
}
330
2942
100
AcDbXrecord
 10
0.0
 20
0.0
 30
0.0
  0
XRECORD
  5
2962
102
{ACAD_REACTORS
330
2942
102
}
330
2942
100
AcDbXrecord
 10
0.0
 20
0.0
 30
0.0
  0
LAYER_INDEX
  5
2938
102
{ACAD_REACTORS
330
2937
102
}
330
2937
100
AcDbIndex
 40
2453151.683086828
100
AcDbLayerIndex
  8
0
360
2939
 90
        0
  8
AM_0
360
293A
 90
       53
  8
AM_7
360
293B
 90
        1
  8
AM_11
360
293C
 90
       21
  8
AM_5
360
293D
 90
        5
  8
Defpoints
360
293E
 90
        0
  8
AM_6
360
293F
 90
        1
  8
AM_CL
360
2940
 90
        0
  0
XRECORD
  5
2D
102
{ACAD_REACTORS
330
2C
102
}
330
2C
100
AcDbXrecord
  1
VERSION
140
15.0
  1
PRODUCT
  2
AutoCAD Mechanical 2000
  0
IDBUFFER
  5
2939
330
0
100
AcDbIdBuffer
  0
IDBUFFER
  5
293A
330
0
100
AcDbIdBuffer
330
28DC
330
28DD
330
28DE
330
28E1
330
28E2
330
C1D
330
1AED
330
1AEE
330
1AEF
330
1C54
330
1C55
330
1C56
330
1C57
330
1C58
330
1C59
330
1C5A
330
1C5B
330
22C2
330
26F2
330
26F3
330
28A9
330
28AA
330
28AB
330
28AC
330
28AD
330
28AE
330
28B2
330
28B3
330
28B5
330
28B6
330
28B7
330
28B8
330
28B9
330
28BA
330
28BB
330
28BC
330
28BD
330
28BE
330
28BF
330
28C0
330
28C1
330
28C2
330
28C3
330
28C4
330
28C5
330
28C6
330
28C7
330
28C8
330
28C9
330
28CA
330
28CB
330
28CC
330
28DB
  0
IDBUFFER
  5
293B
330
0
100
AcDbIdBuffer
330
C9F
  0
IDBUFFER
  5
293C
330
0
100
AcDbIdBuffer
330
28B0
330
28B1
330
28B4
330
28DF
330
28E0
330
1AFA
330
1AFE
330
1AFF
330
1B09
330
1B0A
330
1B10
330
1B11
330
1B15
330
1B16
330
1B1A
330
1B1B
330
1B2D
330
1B2E
330
1D45
330
1D46
330
28AF
  0
IDBUFFER
  5
293D
330
0
100
AcDbIdBuffer
330
DF5
330
10FC
330
2387
330
2606
330
2700
  0
IDBUFFER
  5
293E
330
0
100
AcDbIdBuffer
  0
IDBUFFER
  5
293F
330
0
100
AcDbIdBuffer
330
19BD
  0
IDBUFFER
  5
2940
330
0
100
AcDbIdBuffer
  0
ENDSEC
  0
EOF
