  0
SECTION
  2
HEADER
  9
$ACADVER
  1
AC1014
  9
$ACADMAINTVER
 70
     9
  9
$DWGCODEPAGE
  3
ANSI_932
  9
$INSBASE
 10
0.0
 20
0.0
 30
0.0
  9
$EXTMIN
 10
-130.1500009999999
 20
-28.75056497351438
 30
-0.00000001
  9
$EXTMAX
 10
14.19739567786183
 20
13.81102314157919
 30
0.00000001
  9
$LIMMIN
 10
-156.1444050923396
 20
-44.51020785580943
  9
$LIMMAX
 10
20.31336096277607
 20
28.16015358894219
  9
$ORTHOMODE
 70
     0
  9
$REGENMODE
 70
     1
  9
$FILLMODE
 70
     1
  9
$QTEXTMODE
 70
     0
  9
$MIRRTEXT
 70
     0
  9
$DRAGMODE
 70
     2
  9
$LTSCALE
 40
1.0
  9
$OSMODE
 70
    55
  9
$ATTMODE
 70
     1
  9
$TEXTSIZE
 40
2.5
  9
$TRACEWID
 40
1.0
  9
$TEXTSTYLE
  7
STANDARD
  9
$CLAYER
  8
AM_0
  9
$CELTYPE
  6
BYLAYER
  9
$CECOLOR
 62
   256
  9
$CELTSCALE
 40
1.0
  9
$DELOBJ
 70
     1
  9
$DISPSILH
 70
     0
  9
$DIMSCALE
 40
0.5
  9
$DIMASZ
 40
2.5
  9
$DIMEXO
 40
1.0
  9
$DIMDLI
 40
12.0
  9
$DIMRND
 40
0.0
  9
$DIMDLE
 40
0.0
  9
$DIMEXE
 40
1.0
  9
$DIMTP
 40
0.1
  9
$DIMTM
 40
0.1
  9
$DIMTXT
 40
3.2
  9
$DIMCEN
 40
0.0
  9
$DIMTSZ
 40
0.0
  9
$DIMTOL
 70
     0
  9
$DIMLIM
 70
     0
  9
$DIMTIH
 70
     0
  9
$DIMTOH
 70
     0
  9
$DIMSE1
 70
     0
  9
$DIMSE2
 70
     0
  9
$DIMTAD
 70
     3
  9
$DIMZIN
 70
     8
  9
$DIMBLK
  1
OPEN30
  9
$DIMASO
 70
     1
  9
$DIMSHO
 70
     1
  9
$DIMPOST
  1

  9
$DIMAPOST
  1
"
  9
$DIMALT
 70
     0
  9
$DIMALTD
 70
     2
  9
$DIMALTF
 40
0.0393701
  9
$DIMLFAC
 40
1.0
  9
$DIMTOFL
 70
     1
  9
$DIMTVP
 40
0.0
  9
$DIMTIX
 70
     0
  9
$DIMSOXD
 70
     0
  9
$DIMSAH
 70
     0
  9
$DIMBLK1
  1

  9
$DIMBLK2
  1

  9
$DIMSTYLE
  2
AM_JIS
  9
$DIMCLRD
 70
   256
  9
$DIMCLRE
 70
   256
  9
$DIMCLRT
 70
     2
  9
$DIMTFAC
 40
0.71
  9
$DIMGAP
 40
1.5
  9
$DIMJUST
 70
     0
  9
$DIMSD1
 70
     0
  9
$DIMSD2
 70
     0
  9
$DIMTOLJ
 70
     0
  9
$DIMTZIN
 70
     0
  9
$DIMALTZ
 70
     0
  9
$DIMALTTZ
 70
     0
  9
$DIMFIT
 70
     3
  9
$DIMUPT
 70
     0
  9
$DIMUNIT
 70
     2
  9
$DIMDEC
 70
     3
  9
$DIMTDEC
 70
     3
  9
$DIMALTU
 70
     2
  9
$DIMALTTD
 70
     2
  9
$DIMTXSTY
  7
ASAMI
  9
$DIMAUNIT
 70
     0
  9
$LUNITS
 70
     2
  9
$LUPREC
 70
     2
  9
$SKETCHINC
 40
1.0
  9
$FILLETRAD
 40
2.5
  9
$AUNITS
 70
     0
  9
$AUPREC
 70
     0
  9
$MENU
  1
.
  9
$ELEVATION
 40
0.0
  9
$PELEVATION
 40
0.0
  9
$THICKNESS
 40
0.0
  9
$LIMCHECK
 70
     0
  9
$BLIPMODE
 70
     0
  9
$CHAMFERA
 40
0.5
  9
$CHAMFERB
 40
0.5
  9
$CHAMFERC
 40
20.0
  9
$CHAMFERD
 40
0.0
  9
$SKPOLY
 70
     0
  9
$TDCREATE
 40
2452800.443498622
  9
$TDUPDATE
 40
2453151.573060602
  9
$TDINDWG
 40
0.0606184606
  9
$TDUSRTIMER
 40
0.0606184606
  9
$USRTIMER
 70
     1
  9
$ANGBASE
 50
0.0
  9
$ANGDIR
 70
     0
  9
$PDMODE
 70
     0
  9
$PDSIZE
 40
0.0
  9
$PLINEWID
 40
0.0
  9
$COORDS
 70
     1
  9
$SPLFRAME
 70
     0
  9
$SPLINETYPE
 70
     6
  9
$SPLINESEGS
 70
     8
  9
$ATTDIA
 70
     1
  9
$ATTREQ
 70
     1
  9
$HANDLING
 70
 12289
  9
$HANDSEED
  5
330D
  9
$SURFTAB1
 70
     6
  9
$SURFTAB2
 70
     6
  9
$SURFTYPE
 70
     6
  9
$SURFU
 70
     6
  9
$SURFV
 70
     6
  9
$UCSNAME
  2

  9
$UCSORG
 10
0.0
 20
0.0
 30
0.0
  9
$UCSXDIR
 10
1.0
 20
0.0000000000000027
 30
0.0
  9
$UCSYDIR
 10
-0.0000000000000027
 20
1.0
 30
0.0
  9
$PUCSNAME
  2

  9
$PUCSORG
 10
0.0
 20
0.0
 30
0.0
  9
$PUCSXDIR
 10
1.0
 20
0.0
 30
0.0
  9
$PUCSYDIR
 10
0.0
 20
1.0
 30
0.0
  9
$USERI1
 70
     0
  9
$USERI2
 70
     0
  9
$USERI3
 70
     0
  9
$USERI4
 70
     0
  9
$USERI5
 70
     0
  9
$USERR1
 40
0.0
  9
$USERR2
 40
0.0
  9
$USERR3
 40
0.0
  9
$USERR4
 40
0.0
  9
$USERR5
 40
0.0
  9
$WORLDVIEW
 70
     1
  9
$SHADEDGE
 70
     3
  9
$SHADEDIF
 70
    70
  9
$TILEMODE
 70
     1
  9
$MAXACTVP
 70
    64
  9
$PINSBASE
 10
0.0
 20
0.0
 30
0.0
  9
$PLIMCHECK
 70
     0
  9
$PEXTMIN
 10
1.000000000000000E+20
 20
1.000000000000000E+20
 30
1.000000000000000E+20
  9
$PEXTMAX
 10
-1.000000000000000E+20
 20
-1.000000000000000E+20
 30
-1.000000000000000E+20
  9
$PLIMMIN
 10
0.0
 20
0.0
  9
$PLIMMAX
 10
841.0
 20
594.0
  9
$UNITMODE
 70
     0
  9
$VISRETAIN
 70
     1
  9
$PLINEGEN
 70
     0
  9
$PSLTSCALE
 70
     0
  9
$TREEDEPTH
 70
  3020
  9
$PICKSTYLE
 70
     0
  9
$CMLSTYLE
  2
STANDARD
  9
$CMLJUST
 70
     0
  9
$CMLSCALE
 40
20.0
  9
$PROXYGRAPHICS
 70
     1
  9
$MEASUREMENT
 70
     1
  0
ENDSEC
  0
SECTION
  2
CLASSES
  0
CLASS
  1
ACDBDICTIONARYWDFLT
  2
AcDbDictionaryWithDefault
  3
AutoCAD 2000
 90
        0
280
     0
281
     0
  0
CLASS
  1
ACDBPLACEHOLDER
  2
AcDbPlaceHolder
  3
AutoCAD 2000
 90
        0
280
     0
281
     0
  0
CLASS
  1
LAYOUT
  2
AcDbLayout
  3
AutoCAD 2000
 90
        0
280
     0
281
     0
  0
CLASS
  1
AMGSETTINGSOBJ
  2
AmgSettingsObj
  3
"AcadM|Product Description: AutoCAD Mechanical 2000|Company: Autodesk"
 90
        0
280
     0
281
     0
  0
CLASS
  1
ACME_DOCUMENT
  2
AcMeDbDoc
  3
AcMeServices
 90
        0
280
     0
281
     0
  0
CLASS
  1
ACMESCOPE
  2
AcMeScope
  3
AcMeServices
 90
        0
280
     0
281
     0
  0
CLASS
  1
ACMECOMMANDHISTORY
  2
AcMeCommandHistory
  3
AcMeServices
 90
        0
280
     0
281
     0
  0
CLASS
  1
DICTIONARYVAR
  2
AcDbDictionaryVar
  3
AutoCAD 2000
 90
        0
280
     0
281
     0
  0
CLASS
  1
ACIMSYSVARMAN
  2
AcImSysVarManager
  3
AcMeServices
 90
        0
280
     0
281
     0
  0
CLASS
  1
ACIMREALSYSVAR
  2
AcImRealSysVar
  3
AcMeServices
 90
        0
280
     0
281
     0
  0
CLASS
  1
ACIMINTSYSVAR
  2
AcImIntSysVar
  3
AcMeServices
 90
        0
280
     0
281
     0
  0
CLASS
  1
ACMEDRAWINGMAN
  2
AcMeDrawingMan
  3
AcMeServices
 90
        0
280
     0
281
     0
  0
CLASS
  1
ACMEVIEW
  2
AcMeView
  3
AcMeServices
 90
        0
280
     0
281
     0
  0
CLASS
  1
ACDBENTITYCACHE
  2
AcMeEntityCache
  3
AcMeServices
 90
        0
280
     0
281
     0
  0
CLASS
  1
GSMANAGER
  2
AcMeGSManager
  3
AcMeServices
 90
        0
280
     0
281
     0
  0
CLASS
  1
AmdtInternalReactor
  2
AmdtInternalReactor
  3
AcMeServices
 90
        0
280
     0
281
     0
  0
CLASS
  1
ACMESTATEMGR
  2
AcMeStateMgr
  3
AcMeServices
 90
        0
280
     0
281
     0
  0
CLASS
  1
ACME_DATABASE
  2
AcMeDbDatabase
  3
AcMeServices
 90
        0
280
     0
281
     0
  0
CLASS
  1
ACRFINSADJUSTERMGR
  2
AcRfInsAdjusterMgr
  3
AcMeServices
 90
        0
280
     0
281
     0
  0
CLASS
  1
ACMDATADICTIONARY
  2
AcmDataDictionary
  3
"AcmSymBB|Product Description: AutoCAD Mechanical 2000|Company: Autodesk"
 90
        0
280
     0
281
     0
  0
CLASS
  1
ACMDATAENTRYBLOCK
  2
AcmDataEntryBlock
  3
"AcmSymBB|Product Description: AutoCAD Mechanical 2000|Company: Autodesk"
 90
        0
280
     0
281
     0
  0
CLASS
  1
AMGOBJPROPCFG
  2
AmgObjPropCfg
  3
"AmgLay|Product Description: AutoCAD Mechanical 2000|Company: Autodesk"
 90
        1
280
     0
281
     0
  0
CLASS
  1
ACAMGFILTERDAT
  2
AcAmgFilterDat
  3
"AcadM|Product Description: AutoCAD Mechanical 2000|Company: Autodesk"
 90
        0
280
     0
281
     0
  0
CLASS
  1
LAYER_INDEX
  2
AcDbLayerIndex
  3
AutoCAD 2000
 90
        0
280
     0
281
     0
  0
CLASS
  1
IDBUFFER
  2
AcDbIdBuffer
  3
AutoCAD 2000
 90
        0
280
     0
281
     0
  0
CLASS
  1
ACIMSTRSYSVAR
  2
AcImStrSysVar
  3
AcMeServices
 90
        0
280
     0
281
     0
  0
CLASS
  1
ACMSTANDARDJIS
  2
AcmStandardJIS
  3
"AcmSymBB|Product Description: AutoCAD Mechanical 2000|Company: Autodesk"
 90
        0
280
     0
281
     0
  0
CLASS
  1
ACMSURFSTANDARDJIS
  2
AcmSurfTextStdJIS
  3
"AcmSymBB|Product Description: AutoCAD Mechanical 2000|Company: Autodesk"
 90
        0
280
     0
281
     0
  0
CLASS
  1
ACMFCFSTANDARDJIS
  2
AcmFCFStdJIS
  3
"AcmSymBB|Product Description: AutoCAD Mechanical 2000|Company: Autodesk"
 90
        0
280
     0
281
     0
  0
CLASS
  1
ACMWELDSTANDARDJIS
  2
AcmWeldingStdJIS
  3
"AcmSymBB|Product Description: AutoCAD Mechanical 2000|Company: Autodesk"
 90
        0
280
     0
281
     0
  0
CLASS
  1
ACMIDSTANDARDJIS
  2
AcmIdStdJIS
  3
"AcmSymBB|Product Description: AutoCAD Mechanical 2000|Company: Autodesk"
 90
        0
280
     0
281
     0
  0
CLASS
  1
ACMDATUMSTANDARDJIS
  2
AcmDatumStdJIS
  3
"AcmSymBB|Product Description: AutoCAD Mechanical 2000|Company: Autodesk"
 90
        0
280
     0
281
     0
  0
CLASS
  1
ACMBOMSTANDARDJIS
  2
AcmBOMStdJIS
  3
"AcmSymBB|Product Description: AutoCAD Mechanical 2000|Company: Autodesk"
 90
        0
280
     0
281
     0
  0
CLASS
  1
ACMSTANDARDANSI
  2
AcmStandardANSI
  3
"AcmSymBB|Product Description: AutoCAD Mechanical 2000|Company: Autodesk"
 90
        0
280
     0
281
     0
  0
CLASS
  1
ACMSURFSTANDARDANSI
  2
AcmSurfTextStdANSI
  3
"AcmSymBB|Product Description: AutoCAD Mechanical 2000|Company: Autodesk"
 90
        0
280
     0
281
     0
  0
CLASS
  1
ACMFCFSTANDARDANSI
  2
AcmFCFStdANSI
  3
"AcmSymBB|Product Description: AutoCAD Mechanical 2000|Company: Autodesk"
 90
        0
280
     0
281
     0
  0
CLASS
  1
ACMWELDSTANDARDANSI
  2
AcmWeldingStdANSI
  3
"AcmSymBB|Product Description: AutoCAD Mechanical 2000|Company: Autodesk"
 90
        0
280
     0
281
     0
  0
CLASS
  1
ACMIDSTANDARDANSI
  2
AcmIdStdANSI
  3
"AcmSymBB|Product Description: AutoCAD Mechanical 2000|Company: Autodesk"
 90
        0
280
     0
281
     0
  0
CLASS
  1
ACMDATUMSTANDARDANSI
  2
AcmDatumStdANSI
  3
"AcmSymBB|Product Description: AutoCAD Mechanical 2000|Company: Autodesk"
 90
        0
280
     0
281
     0
  0
CLASS
  1
ACMBOMSTANDARDANSI
  2
AcmBOMStdANSI
  3
"AcmSymBB|Product Description: AutoCAD Mechanical 2000|Company: Autodesk"
 90
        0
280
     0
281
     0
  0
CLASS
  1
ACMSTANDARDBSI
  2
AcmStandardBSI
  3
"AcmSymBB|Product Description: AutoCAD Mechanical 2000|Company: Autodesk"
 90
        0
280
     0
281
     0
  0
CLASS
  1
ACMSURFSTANDARDBSI
  2
AcmSurfTextStdBSI
  3
"AcmSymBB|Product Description: AutoCAD Mechanical 2000|Company: Autodesk"
 90
        0
280
     0
281
     0
  0
CLASS
  1
ACMFCFSTANDARDBSI
  2
AcmFCFStdBSI
  3
"AcmSymBB|Product Description: AutoCAD Mechanical 2000|Company: Autodesk"
 90
        0
280
     0
281
     0
  0
CLASS
  1
ACMWELDSTANDARDBSI
  2
AcmWeldingStdBSI
  3
"AcmSymBB|Product Description: AutoCAD Mechanical 2000|Company: Autodesk"
 90
        0
280
     0
281
     0
  0
CLASS
  1
ACMIDSTANDARDBSI
  2
AcmIdStdBSI
  3
"AcmSymBB|Product Description: AutoCAD Mechanical 2000|Company: Autodesk"
 90
        0
280
     0
281
     0
  0
CLASS
  1
ACMDATUMSTANDARDBSI
  2
AcmDatumStdBSI
  3
"AcmSymBB|Product Description: AutoCAD Mechanical 2000|Company: Autodesk"
 90
        0
280
     0
281
     0
  0
CLASS
  1
ACMBOMSTANDARDBSI
  2
AcmBOMStdBSI
  3
"AcmSymBB|Product Description: AutoCAD Mechanical 2000|Company: Autodesk"
 90
        0
280
     0
281
     0
  0
CLASS
  1
LONG_TRANSACTION
  2
AcDbLongTransaction
  3
AutoCAD 2000
 90
        0
280
     0
281
     0
  0
CLASS
  1
LWPOLYLINE
  2
AcDbPolyline
  3
AutoCAD 2000
 90
        0
280
     0
281
     1
  0
CLASS
  1
HATCH
  2
AcDbHatch
  3
AutoCAD 2000
 90
        0
280
     0
281
     1
  0
CLASS
  1
XRECORD
  2
AcDbXrecord
  3
AutoCAD 2000
 90
        0
280
     0
281
     0
  0
ENDSEC
  0
SECTION
  2
TABLES
  0
TABLE
  2
VPORT
  5
8
330
0
100
AcDbSymbolTable
 70
     3
  0
VPORT
  5
32E2
330
8
100
AcDbSymbolTableRecord
100
AcDbViewportTableRecord
  2
*ACTIVE
 70
     0
 10
0.0
 20
0.0
 11
1.0
 21
1.0
 12
-55.29841545119626
 22
-7.470899773513039
 13
0.0
 23
0.0
 14
2.5
 24
2.5
 15
10.0
 25
10.0
 16
0.0
 26
0.0
 36
1.0
 17
0.0
 27
0.0
 37
0.0
 40
96.07655095823762
 41
1.56570841889117
 42
50.0
 43
0.0
 44
0.0
 50
0.0
 51
0.0
 71
     0
 72
   100
 73
     1
 74
     1
 75
     0
 76
     0
 77
     0
 78
     0
  0
ENDTAB
  0
TABLE
  2
LTYPE
  5
5
330
0
100
AcDbSymbolTable
 70
    10
  0
LTYPE
  5
14
330
5
100
AcDbSymbolTableRecord
100
AcDbLinetypeTableRecord
  2
BYBLOCK
 70
     0
  3

 72
    65
 73
     0
 40
0.0
  0
LTYPE
  5
15
330
5
100
AcDbSymbolTableRecord
100
AcDbLinetypeTableRecord
  2
BYLAYER
 70
     0
  3

 72
    65
 73
     0
 40
0.0
  0
LTYPE
  5
16
330
5
100
AcDbSymbolTableRecord
100
AcDbLinetypeTableRecord
  2
CONTINUOUS
 70
     0
  3
Solid line
 72
    65
 73
     0
 40
0.0
  0
LTYPE
  5
4B
330
5
100
AcDbSymbolTableRecord
100
AcDbLinetypeTableRecord
  2
AM_ISO02W050
 70
     0
  3
__ __ __ __ __ __ __ __ __ __ __ __ __ __ __
 72
    65
 73
     2
 40
7.5
 49
6.0
 74
     0
 49
-1.5
 74
     0
  0
LTYPE
  5
4C
330
5
100
AcDbSymbolTableRecord
100
AcDbLinetypeTableRecord
  2
AM_ISO08W050
 70
     0
  3
____ . ____ . ____ . ____ . ____ . ____ . ____
 72
    65
 73
     4
 40
18.0
 49
12.0
 74
     0
 49
-1.5
 74
     0
 49
3.0
 74
     0
 49
-1.5
 74
     0
  0
LTYPE
  5
4D
330
5
100
AcDbSymbolTableRecord
100
AcDbLinetypeTableRecord
  2
AM_ISO09W050
 70
     0
  3
_____ . . _____ . . _____ . . ____ .. ____
 72
    65
 73
     6
 40
22.5
 49
12.0
 74
     0
 49
-1.5
 74
     0
 49
3.0
 74
     0
 49
-1.5
 74
     0
 49
3.0
 74
     0
 49
-1.5
 74
     0
  0
LTYPE
  5
4E
330
5
100
AcDbSymbolTableRecord
100
AcDbLinetypeTableRecord
  2
AMCONSTR
 70
     0
  3
_______________________
 72
    65
 73
     2
 40
9999.0
 49
9999.0
 74
     0
 49
0.0
 74
     0
  0
LTYPE
  5
4F
330
5
100
AcDbSymbolTableRecord
100
AcDbLinetypeTableRecord
  2
AM_ISO02W050X2
 70
     0
  3
 _ _ _ _ _ _ _ _ _ _ _ _
 72
    65
 73
     2
 40
3.75
 49
3.0
 74
     0
 49
-0.75
 74
     0
  0
LTYPE
  5
50
330
5
100
AcDbSymbolTableRecord
100
AcDbLinetypeTableRecord
  2
AM_ISO08W050X2
 70
     0
  3
__ . __ . __ . __ . __ . __
 72
    65
 73
     4
 40
9.0
 49
6.0
 74
     0
 49
-0.75
 74
     0
 49
1.5
 74
     0
 49
-0.75
 74
     0
  0
LTYPE
  5
53
330
5
100
AcDbSymbolTableRecord
100
AcDbLinetypeTableRecord
  2
AMZIGZAG
 70
     0
  3
/\/-/\/-/\/-/\/-/\/-/\/
 72
    65
 73
     2
 40
11.00009999999999
 49
0.0001
 74
     4
 75
   135
340
52
 46
0.04
 50
0.0
 44
0.0
 45
0.0
 49
-11.0
 74
     0
  0
LTYPE
  5
166
330
5
100
AcDbSymbolTableRecord
100
AcDbLinetypeTableRecord
  2
ACJISTGL
 70
     0
  3
_ _ _ _ _
 72
    65
 73
     2
 40
3.0
 49
2.0
 74
     0
 49
-1.0
 74
     0
  0
LTYPE
  5
26A
330
5
100
AcDbSymbolTableRecord
100
AcDbLinetypeTableRecord
  2
ACJISTGB
 70
     0
  3
__ . . __ . .
 72
    65
 73
     6
 40
9.0
 49
4.0
 74
     0
 49
-1.0
 74
     0
 49
1.0
 74
     0
 49
-1.0
 74
     0
 49
1.0
 74
     0
 49
-1.0
 74
     0
  0
ENDTAB
  0
TABLE
  2
LAYER
  5
2
330
0
100
AcDbSymbolTable
 70
     8
  0
LAYER
  5
10
330
2
100
AcDbSymbolTableRecord
100
AcDbLayerTableRecord
  2
0
 70
     0
 62
     7
  6
CONTINUOUS
  0
LAYER
  5
3F9
330
2
100
AcDbSymbolTableRecord
100
AcDbLayerTableRecord
  2
AM_0
 70
     0
 62
     7
  6
CONTINUOUS
  0
LAYER
  5
C7C
330
2
100
AcDbSymbolTableRecord
100
AcDbLayerTableRecord
  2
AM_7
 70
     0
 62
     4
  6
AM_ISO08W050
  0
LAYER
  5
C97
330
2
100
AcDbSymbolTableRecord
100
AcDbLayerTableRecord
  2
AM_11
 70
     0
 62
     3
  6
AM_ISO09W050
  0
LAYER
  5
CC5
330
2
100
AcDbSymbolTableRecord
100
AcDbLayerTableRecord
  2
AM_5
 70
     0
 62
     3
  6
CONTINUOUS
  0
LAYER
  5
CC7
330
2
100
AcDbSymbolTableRecord
100
AcDbLayerTableRecord
  2
DEFPOINTS
 70
     0
 62
     7
  6
CONTINUOUS
  0
LAYER
  5
19BC
330
2
100
AcDbSymbolTableRecord
100
AcDbLayerTableRecord
  2
AM_6
 70
     0
 62
     2
  6
CONTINUOUS
  0
LAYER
  5
3271
330
2
100
AcDbSymbolTableRecord
100
AcDbLayerTableRecord
  2
AM_CL
 70
     0
 62
     1
  6
AMCONSTR
  0
ENDTAB
  0
TABLE
  2
STYLE
  5
3
330
0
100
AcDbSymbolTable
 70
     5
  0
STYLE
  5
11
330
3
100
AcDbSymbolTableRecord
100
AcDbTextStyleTableRecord
  2
STANDARD
 70
     0
 40
0.0
 41
1.0
 50
0.0
 71
     0
 42
2.5
  3
simplex.shx
  4
EXTFONT.SHX
  0
STYLE
  5
52
330
3
100
AcDbSymbolTableRecord
100
AcDbTextStyleTableRecord
  2

 70
     1
 40
0.0
 41
1.0
 50
0.0
 71
     0
 42
2.5
  3
ltypeshp.shx
  4

  0
STYLE
  5
6B
330
3
100
AcDbSymbolTableRecord
100
AcDbTextStyleTableRecord
  2
ASAMI
 70
     0
 40
0.0
 41
1.0
 50
0.0
 71
     0
 42
2.5
  3
simplex.shx
  4
EXTFONT.SHX
  0
STYLE
  5
262
330
3
100
AcDbSymbolTableRecord
100
AcDbTextStyleTableRecord
  2
ACJISTS
 70
     0
 40
1.0
 41
1.0
 50
0.0
 71
     0
 42
2.5
  3
simplex.shx
  4
bigfont.shx
  0
STYLE
  5
269
330
3
100
AcDbSymbolTableRecord
100
AcDbTextStyleTableRecord
  2
ACJISGDT
 70
     0
 40
0.0
 41
1.0
 50
0.0
 71
     0
 42
2.5
  3
amgdtans.shx
  4

  0
ENDTAB
  0
TABLE
  2
VIEW
  5
6
330
0
100
AcDbSymbolTable
 70
     0
  0
ENDTAB
  0
TABLE
  2
UCS
  5
7
330
0
100
AcDbSymbolTable
 70
     0
  0
ENDTAB
  0
TABLE
  2
APPID
  5
9
330
0
100
AcDbSymbolTable
 70
    16
  0
APPID
  5
12
330
9
100
AcDbSymbolTableRecord
100
AcDbRegAppTableRecord
  2
ACAD
 70
     0
  0
APPID
  5
30
330
9
100
AcDbSymbolTableRecord
100
AcDbRegAppTableRecord
  2
MCAD_NO_VIS
 70
     0
  0
APPID
  5
31
330
9
100
AcDbSymbolTableRecord
100
AcDbRegAppTableRecord
  2
ACAD_TEMP_GRAPHIC
 70
     0
  0
APPID
  5
2C2
330
9
100
AcDbSymbolTableRecord
100
AcDbRegAppTableRecord
  2
GENIUS_GENDTOL_13
 70
     0
  0
APPID
  5
339
330
9
100
AcDbSymbolTableRecord
100
AcDbRegAppTableRecord
  2
GENIUS_GENODEF_13
 70
     0
  0
APPID
  5
33A
330
9
100
AcDbSymbolTableRecord
100
AcDbRegAppTableRecord
  2
GENIUS_GENOBJ-N-RSBK_13
 70
     0
  0
APPID
  5
33B
330
9
100
AcDbSymbolTableRecord
100
AcDbRegAppTableRecord
  2
GENIUS_GENOBJ-N-LIB_13
 70
     0
  0
APPID
  5
33C
330
9
100
AcDbSymbolTableRecord
100
AcDbRegAppTableRecord
  2
GENIUS_GENSCALE_13
 70
     0
  0
APPID
  5
378
330
9
100
AcDbSymbolTableRecord
100
AcDbRegAppTableRecord
  2
GENIUS_GENDIMSH_14
 70
     0
  0
APPID
  5
C82
330
9
100
AcDbSymbolTableRecord
100
AcDbRegAppTableRecord
  2
GENIUS_GENOBJ-N-CRS_13
 70
     0
  0
APPID
  5
C83
330
9
100
AcDbSymbolTableRecord
100
AcDbRegAppTableRecord
  2
GENIUS_GENOENT_13
 70
     0
  0
APPID
  5
C84
330
9
100
AcDbSymbolTableRecord
100
AcDbRegAppTableRecord
  2
GENIUS_GENOREF_13
 70
     0
  0
APPID
  5
C85
330
9
100
AcDbSymbolTableRecord
100
AcDbRegAppTableRecord
  2
GENIUS_GENOLIS_13
 70
     0
  0
APPID
  5
CA0
330
9
100
AcDbSymbolTableRecord
100
AcDbRegAppTableRecord
  2
GENIUS_GENOBJ-N-CEN_13
 70
     0
  0
APPID
  5
2796
330
9
100
AcDbSymbolTableRecord
100
AcDbRegAppTableRecord
  2
GENIUS_GENFIL_13
 70
     0
  0
APPID
  5
2797
330
9
100
AcDbSymbolTableRecord
100
AcDbRegAppTableRecord
  2
GENIUS_GENOBJ-N-CHA_13
 70
     0
  0
ENDTAB
  0
TABLE
  2
DIMSTYLE
  5
A
330
0
100
AcDbSymbolTable
 70
     9
  0
DIMSTYLE
105
58
330
A
100
AcDbSymbolTableRecord
100
AcDbDimStyleTableRecord
  2
AM_JIS
 70
     0
  3

  4
"
  5
OPEN30
  6

  7

 40
0.5
 41
2.5
 42
1.0
 43
12.0
 44
1.0
 45
0.0
 46
0.0
 47
0.1
 48
0.1
140
3.2
141
0.0
142
0.0
143
0.0393701
144
1.0
145
0.0
146
0.71
147
1.5
 71
     0
 72
     0
 73
     0
 74
     0
 75
     0
 76
     0
 77
     3
 78
     8
170
     0
171
     2
172
     1
173
     0
174
     0
175
     0
176
   256
177
   256
178
     2
270
     2
271
     3
272
     3
273
     2
274
     2
340
6B
275
     0
280
     0
281
     0
282
     0
283
     0
284
     0
285
     0
286
     0
287
     3
288
     0
  0
DIMSTYLE
105
5F
330
A
100
AcDbSymbolTableRecord
100
AcDbDimStyleTableRecord
  2
AM_JIS$3
 70
     0
  3

  4
"
  5
OPEN30
  6

  7

 40
0.5
 41
2.5
 42
1.0
 43
10.0
 44
1.0
 45
0.0
 46
0.0
 47
0.1
 48
0.1
140
3.2
141
0.0
142
0.0
143
0.0393701
144
1.0
145
0.0
146
0.71
147
1.5
 71
     0
 72
     0
 73
     0
 74
     1
 75
     0
 76
     0
 77
     3
 78
     8
170
     0
171
     2
172
     0
173
     0
174
     0
175
     0
176
   256
177
   256
178
     2
270
     2
271
     2
272
     3
273
     2
274
     2
340
6B
275
     0
280
     0
281
     0
282
     0
283
     0
284
     0
285
     0
286
     0
287
     0
288
     1
  0
DIMSTYLE
105
60
330
A
100
AcDbSymbolTableRecord
100
AcDbDimStyleTableRecord
  2
AM_JIS$4
 70
     0
  3

  4
"
  5
OPEN30
  6

  7

 40
0.5
 41
2.5
 42
1.0
 43
10.0
 44
1.0
 45
0.0
 46
0.0
 47
0.1
 48
0.1
140
3.2
141
0.0
142
0.0
143
0.0393701
144
1.0
145
0.0
146
0.71
147
1.5
 71
     0
 72
     0
 73
     0
 74
     1
 75
     0
 76
     0
 77
     3
 78
     8
170
     0
171
     2
172
     0
173
     0
174
     0
175
     0
176
   256
177
   256
178
     2
270
     2
271
     2
272
     3
273
     2
274
     2
340
6B
275
     0
280
     0
281
     0
282
     0
283
     0
284
     0
285
     0
286
     0
287
     0
288
     1
  0
DIMSTYLE
105
61
330
A
100
AcDbSymbolTableRecord
100
AcDbDimStyleTableRecord
  2
AM_JIS$6
 70
     0
  3

  4
"
  5
OPEN30
  6

  7

 40
0.5
 41
2.5
 42
1.0
 43
10.0
 44
1.0
 45
0.0
 46
0.0
 47
0.1
 48
0.1
140
3.2
141
0.0
142
0.0
143
0.0393701
144
1.0
145
0.0
146
0.71
147
1.5
 71
     0
 72
     0
 73
     0
 74
     0
 75
     0
 76
     0
 77
     0
 78
     8
170
     0
171
     2
172
     1
173
     0
174
     0
175
     0
176
   256
177
   256
178
     2
270
     2
271
     2
272
     2
273
     2
274
     2
340
6B
275
     0
280
     0
281
     0
282
     0
283
     0
284
     0
285
     0
286
     0
287
     3
288
     0
  0
DIMSTYLE
105
62
330
A
100
AcDbSymbolTableRecord
100
AcDbDimStyleTableRecord
  2
AM_JIS$7
 70
     0
  3

  4
"
  5
OPEN30
  6

  7

 40
0.5
 41
2.5
 42
1.0
 43
10.0
 44
1.0
 45
0.0
 46
0.0
 47
0.1
 48
0.1
140
3.2
141
0.0
142
0.0
143
0.0393701
144
1.0
145
0.0
146
0.71
147
1.5
 71
     0
 72
     0
 73
     0
 74
     0
 75
     0
 76
     0
 77
     3
 78
     8
170
     0
171
     2
172
     1
173
     0
174
     0
175
     0
176
   256
177
   256
178
     2
270
     2
271
     2
272
     3
273
     2
274
     2
340
6B
275
     0
280
     0
281
     0
282
     0
283
     0
284
     0
285
     0
286
     0
287
     3
288
     0
  0
DIMSTYLE
105
63
330
A
100
AcDbSymbolTableRecord
100
AcDbDimStyleTableRecord
  2
AM_JIS$SF
 70
     0
  3

  4
"
  5
OPEN30
  6

  7

 40
0.5
 41
2.5
 42
1.0
 43
10.0
 44
1.0
 45
0.0
 46
0.0
 47
0.1
 48
0.1
140
3.2
141
0.0
142
0.0
143
0.0393701
144
1.0
145
0.0
146
0.71
147
1.5
 71
     0
 72
     0
 73
     0
 74
     0
 75
     1
 76
     1
 77
     3
 78
     8
170
     0
171
     2
172
     1
173
     0
174
     0
175
     0
176
   256
177
   256
178
     2
270
     2
271
     2
272
     2
273
     2
274
     2
340
6B
275
     0
280
     0
281
     0
282
     0
283
     0
284
     0
285
     0
286
     0
287
     3
288
     0
  0
DIMSTYLE
105
68
330
A
100
AcDbSymbolTableRecord
100
AcDbDimStyleTableRecord
  2
AM_JIS$SH
 70
     0
  3

  4
"
  5

  6
GENAXEH
  7
OPEN30
 40
0.5
 41
2.5
 42
1.0
 43
10.0
 44
1.0
 45
0.0
 46
0.0
 47
0.1
 48
0.1
140
3.2
141
0.0
142
0.0
143
0.0393701
144
2.0
145
0.0
146
0.71
147
1.5
 71
     0
 72
     0
 73
     0
 74
     0
 75
     1
 76
     1
 77
     3
 78
     8
170
     0
171
     2
172
     1
173
     1
174
     0
175
     0
176
   256
177
   256
178
     2
270
     2
271
     2
272
     2
273
     2
274
     2
340
6B
275
     0
280
     0
281
     0
282
     0
283
     0
284
     0
285
     0
286
     0
287
     3
288
     0
  0
DIMSTYLE
105
B34
102
{ACAD_REACTORS
330
2C81
102
}
330
A
100
AcDbSymbolTableRecord
100
AcDbDimStyleTableRecord
  2
AM_JIS$2
 70
     0
  3

  4
"
  5
OPEN30
  6

  7

 40
0.5
 41
2.5
 42
1.0
 43
12.0
 44
1.0
 45
0.0
 46
0.0
 47
0.1
 48
0.1
140
3.2
141
0.0
142
0.0
143
0.0393701
144
1.0
145
0.0
146
0.71
147
1.5
 71
     0
 72
     0
 73
     0
 74
     0
 75
     0
 76
     0
 77
     3
 78
     8
170
     0
171
     2
172
     1
173
     0
174
     0
175
     0
176
   256
177
   256
178
     2
270
     2
271
     3
272
     3
273
     2
274
     2
340
6B
275
     0
280
     0
281
     0
282
     0
283
     0
284
     0
285
     0
286
     0
287
     3
288
     0
  0
DIMSTYLE
105
BA5
102
{ACAD_REACTORS
330
CC6
330
2069
330
2C16
330
2D60
102
}
330
A
100
AcDbSymbolTableRecord
100
AcDbDimStyleTableRecord
  2
AM_JIS$0
 70
     0
  3

  4
"
  5
OPEN30
  6

  7

 40
0.5
 41
2.5
 42
0.0
 43
10.0
 44
1.0
 45
0.0
 46
0.0
 47
0.1
 48
0.1000000001
140
3.799999999999999
141
0.0
142
0.0
143
0.0393701
144
1.0
145
0.0
146
0.71
147
1.5
 71
     0
 72
     0
 73
     0
 74
     0
 75
     0
 76
     0
 77
     3
 78
     1
170
     0
171
     2
172
     1
173
     0
174
     0
175
     0
176
     3
177
     3
178
     2
270
     2
271
     2
272
     2
273
     2
274
     2
340
11
275
     1
280
     0
281
     0
282
     0
283
     0
284
     8
285
     0
286
     0
287
     0
288
     0
  0
ENDTAB
  0
TABLE
  2
BLOCK_RECORD
  5
1
330
0
100
AcDbSymbolTable
 70
    10
  0
BLOCK_RECORD
  5
1F
102
{ACAD_XDICTIONARY
360
74
102
}
330
1
100
AcDbSymbolTableRecord
100
AcDbBlockTableRecord
  2
*MODEL_SPACE
  0
BLOCK_RECORD
  5
101
102
{ACAD_XDICTIONARY
360
330B
102
}
330
1
100
AcDbSymbolTableRecord
100
AcDbBlockTableRecord
  2
*PAPER_SPACE
  0
BLOCK_RECORD
  5
59
330
1
100
AcDbSymbolTableRecord
100
AcDbBlockTableRecord
  2
_OPEN30
  0
BLOCK_RECORD
  5
64
330
1
100
AcDbSymbolTableRecord
100
AcDbBlockTableRecord
  2
GENAXEH
  0
BLOCK_RECORD
  5
CC8
330
1
100
AcDbSymbolTableRecord
100
AcDbBlockTableRecord
  2
*D5
  0
BLOCK_RECORD
  5
206A
330
1
100
AcDbSymbolTableRecord
100
AcDbBlockTableRecord
  2
*D6
  0
BLOCK_RECORD
  5
2C17
330
1
100
AcDbSymbolTableRecord
100
AcDbBlockTableRecord
  2
*D7
  0
BLOCK_RECORD
  5
2C82
330
1
100
AcDbSymbolTableRecord
100
AcDbBlockTableRecord
  2
*D8
  0
BLOCK_RECORD
  5
2D61
330
1
100
AcDbSymbolTableRecord
100
AcDbBlockTableRecord
  2
*D9
  0
ENDTAB
  0
ENDSEC
  0
SECTION
  2
BLOCKS
  0
BLOCK
  5
20
330
1F
100
AcDbEntity
  8
0
100
AcDbBlockBegin
  2
*MODEL_SPACE
 70
     0
 10
0.0
 20
0.0
 30
0.0
  3
*MODEL_SPACE
  1

  0
ENDBLK
  5
21
330
1F
100
AcDbEntity
  8
0
100
AcDbBlockEnd
  0
BLOCK
  5
103
330
101
100
AcDbEntity
 67
     1
  8
0
100
AcDbBlockBegin
  2
*PAPER_SPACE
 70
     0
 10
0.0
 20
0.0
 30
0.0
  3
*PAPER_SPACE
  1

  0
ENDBLK
  5
104
330
101
100
AcDbEntity
 67
     1
  8
0
100
AcDbBlockEnd
  0
BLOCK
  5
5D
330
59
100
AcDbEntity
  8
0
100
AcDbBlockBegin
  2
_OPEN30
 70
     0
 10
0.0
 20
0.0
 30
0.0
  3
_OPEN30
  1

  0
LINE
  5
5A
330
59
100
AcDbEntity
  8
0
 62
     0
100
AcDbLine
 10
-1.0
 20
0.26794919
 30
0.0
 11
0.0
 21
0.0
 31
0.0
  0
LINE
  5
5B
330
59
100
AcDbEntity
  8
0
 62
     0
100
AcDbLine
 10
0.0
 20
0.0
 30
0.0
 11
-1.0
 21
-0.26794919
 31
0.0
  0
LINE
  5
5C
330
59
100
AcDbEntity
  8
0
 62
     0
100
AcDbLine
 10
0.0
 20
0.0
 30
0.0
 11
-1.0
 21
0.0
 31
0.0
  0
ENDBLK
  5
5E
330
59
100
AcDbEntity
  8
0
100
AcDbBlockEnd
  0
BLOCK
  5
66
330
64
100
AcDbEntity
  8
0
100
AcDbBlockBegin
  2
GENAXEH
 70
     0
 10
0.0
 20
0.0
 30
0.0
  3
GENAXEH
  1

  0
LINE
  5
65
330
64
100
AcDbEntity
  8
0
100
AcDbLine
 10
-1.0
 20
0.0
 30
0.0
 11
1.0
 21
0.0
 31
0.0
  0
ENDBLK
  5
67
330
64
100
AcDbEntity
  8
0
100
AcDbBlockEnd
  0
BLOCK
  5
CD2
330
CC8
100
AcDbEntity
  8
0
100
AcDbBlockBegin
  2
*D5
 70
     1
 10
0.0
 20
0.0
 30
0.0
  3
*D5
  1

  0
LINE
  5
328A
330
CC8
100
AcDbEntity
  8
AM_5
 62
     3
100
AcDbLine
 10
-117.9999999999999
 20
-4.94999167174498
 30
0.0
 11
-117.9999999999999
 21
-18.0005650585644
 31
0.0
  0
LINE
  5
328B
330
CC8
100
AcDbEntity
  8
AM_5
 62
     3
100
AcDbLine
 10
-1.999999999999894
 20
-5.100009979240133
 30
0.0
 11
-1.999999999999895
 21
-18.0005650585644
 31
0.0
  0
LINE
  5
328C
330
CC8
100
AcDbEntity
  8
AM_5
 62
     3
100
AcDbLine
 10
-116.7499999999999
 20
-17.50056505856441
 30
0.0
 11
-3.249999999999895
 21
-17.50056505856441
 31
0.0
  0
INSERT
  5
328D
330
CC8
100
AcDbEntity
  8
AM_5
 62
     3
100
AcDbBlockReference
  2
_OPEN30
 10
-117.9999999999999
 20
-17.50056505856441
 30
0.0
 41
1.25
 42
1.25
 43
1.25
 50
180.0
  0
INSERT
  5
328E
330
CC8
100
AcDbEntity
  8
AM_5
 62
     3
100
AcDbBlockReference
  2
_OPEN30
 10
-1.999999999999895
 20
-17.50056505856441
 30
0.0
 41
1.25
 42
1.25
 43
1.25
  0
MTEXT
  5
328F
330
CC8
100
AcDbEntity
  8
AM_5
 62
     2
100
AcDbMText
 10
-59.9999999999999
 20
-15.80056505856441
 30
0.0
 40
1.9
 41
0.0
 71
     5
 72
     1
  1
116
1001
ACAD
1000
MTEXTBEGIN
1070
    73
1070
     1
1070
    44
1040
1.0
1070
    74
1070
     0
1000
MTEXTEND
  0
POINT
  5
3290
330
CC8
100
AcDbEntity
  8
DEFPOINTS
 62
     0
100
AcDbPoint
 10
-117.9999999999999
 20
-4.94999167174498
 30
0.0
  0
POINT
  5
3291
330
CC8
100
AcDbEntity
  8
DEFPOINTS
 62
     0
100
AcDbPoint
 10
-1.999999999999894
 20
-5.100009979240133
 30
0.0
  0
POINT
  5
3292
330
CC8
100
AcDbEntity
  8
DEFPOINTS
 62
     0
100
AcDbPoint
 10
-1.999999999999895
 20
-17.50056505856441
 30
0.0
  0
ENDBLK
  5
CD3
330
CC8
100
AcDbEntity
  8
0
100
AcDbBlockEnd
  0
BLOCK
  5
2074
330
206A
100
AcDbEntity
  8
0
100
AcDbBlockBegin
  2
*D6
 70
     1
 10
0.0
 20
0.0
 30
0.0
  3
*D6
  1

  0
LINE
  5
32A7
330
206A
100
AcDbEntity
  8
AM_5
 62
     3
100
AcDbLine
 10
-56.99999999999996
 20
-5.499999999999827
 30
0.0
 11
-56.99999999999994
 21
-13.00056505856453
 31
0.0
  0
LINE
  5
32A8
330
206A
100
AcDbEntity
  8
AM_5
 62
     3
100
AcDbLine
 10
-1.999999999999879
 20
-5.100009979240139
 30
0.0
 11
-1.999999999999857
 21
-13.00056505856437
 31
0.0
  0
LINE
  5
32A9
330
206A
100
AcDbEntity
  8
AM_5
 62
     3
100
AcDbLine
 10
-55.74999999999994
 20
-12.50056505856453
 30
0.0
 11
-3.249999999999858
 21
-12.50056505856437
 31
0.0
  0
INSERT
  5
32AA
330
206A
100
AcDbEntity
  8
AM_5
 62
     3
100
AcDbBlockReference
  2
_OPEN30
 10
-56.99999999999994
 20
-12.50056505856453
 30
0.0
 41
1.25
 42
1.25
 43
1.25
 50
180.0000000000001
  0
INSERT
  5
32AB
330
206A
100
AcDbEntity
  8
AM_5
 62
     3
100
AcDbBlockReference
  2
_OPEN30
 10
-1.999999999999858
 20
-12.50056505856437
 30
0.0
 41
1.25
 42
1.25
 43
1.25
 50
0.0000000000001527
  0
MTEXT
  5
32AC
330
206A
100
AcDbEntity
  8
AM_5
 62
     2
100
AcDbMText
 10
-29.4999999999999
 20
-10.80056505856445
 30
0.0
 40
1.9
 41
0.0
 71
     5
 72
     1
  1
55
1001
ACAD
1000
MTEXTBEGIN
1070
    73
1070
     1
1070
    44
1040
1.0
1070
    74
1070
     0
1000
MTEXTEND
  0
POINT
  5
32AD
330
206A
100
AcDbEntity
  8
DEFPOINTS
 62
     0
100
AcDbPoint
 10
-56.99999999999998
 20
-5.499999999999661
 30
0.0
  0
POINT
  5
32AE
330
206A
100
AcDbEntity
  8
DEFPOINTS
 62
     0
100
AcDbPoint
 10
-1.999999999999894
 20
-5.100009979240133
 30
0.0
  0
POINT
  5
32AF
330
206A
100
AcDbEntity
  8
DEFPOINTS
 62
     0
100
AcDbPoint
 10
-1.999999999999894
 20
-12.50056505856436
 30
0.0
  0
ENDBLK
  5
2075
330
206A
100
AcDbEntity
  8
0
100
AcDbBlockEnd
  0
BLOCK
  5
2C21
330
2C17
100
AcDbEntity
  8
0
100
AcDbBlockBegin
  2
*D7
 70
     1
 10
0.0
 20
0.0
 30
0.0
  3
*D7
  1

  0
LINE
  5
3293
330
2C17
100
AcDbEntity
  8
AM_5
 62
     3
100
AcDbLine
 10
-117.4999999999998
 20
-5.499999999999765
 30
0.0
 11
-128.0000009999999
 21
-5.499999999999801
 31
0.0
  0
LINE
  5
3294
330
2C17
100
AcDbEntity
  8
AM_5
 62
     3
100
AcDbLine
 10
-117.4999999999999
 20
5.500000000000266
 30
0.0
 11
-128.0000009999999
 21
5.50000000000023
 31
0.0
  0
LINE
  5
3295
330
2C17
100
AcDbEntity
  8
AM_5
 62
     3
100
AcDbLine
 10
-127.5000009999999
 20
-4.2499999999998
 30
0.0
 11
-127.5000009999999
 21
4.250000000000231
 31
0.0
  0
INSERT
  5
3296
330
2C17
100
AcDbEntity
  8
AM_5
 62
     3
100
AcDbBlockReference
  2
_OPEN30
 10
-127.5000009999999
 20
-5.4999999999998
 30
0.0
 41
1.25
 42
1.25
 43
1.25
 50
270.0000000000002
  0
INSERT
  5
3297
330
2C17
100
AcDbEntity
  8
AM_5
 62
     3
100
AcDbBlockReference
  2
_OPEN30
 10
-127.5000009999999
 20
5.500000000000231
 30
0.0
 41
1.25
 42
1.25
 43
1.25
 50
90.00000000000019
  0
MTEXT
  5
3298
330
2C17
100
AcDbEntity
  8
AM_5
 62
     2
100
AcDbMText
 10
-129.2000009999999
 20
0.0000118250606156
 30
0.0
 40
1.9
 41
0.0
 71
     5
 72
     1
  1
%%c11
 11
-0.0000000000000037
 21
1.0
 31
0.0
1001
ACAD
1000
MTEXTBEGIN
1070
    73
1070
     1
1070
    44
1040
1.0
1070
    74
1070
     0
1000
MTEXTEND
  0
POINT
  5
3299
330
2C17
100
AcDbEntity
  8
DEFPOINTS
 62
     0
100
AcDbPoint
 10
-117.4999999999999
 20
-5.499999999999322
 30
0.0
  0
POINT
  5
329A
330
2C17
100
AcDbEntity
  8
DEFPOINTS
 62
     0
100
AcDbPoint
 10
-117.4999999999998
 20
5.500000000000709
 30
0.0
  0
POINT
  5
329B
330
2C17
100
AcDbEntity
  8
DEFPOINTS
 62
     0
100
AcDbPoint
 10
-127.5000009999999
 20
5.500000000000713
 30
0.0
  0
ENDBLK
  5
2C22
330
2C17
100
AcDbEntity
  8
0
100
AcDbBlockEnd
  0
BLOCK
  5
2C90
330
2C82
100
AcDbEntity
  8
0
100
AcDbBlockBegin
  2
*D8
 70
     1
 10
0.0
 20
0.0
 30
0.0
  3
*D8
  1

  0
LINE
  5
329C
330
2C82
100
AcDbEntity
  8
AM_5
100
AcDbLine
 10
0.171010070408054
 20
-0.4698463108496437
 30
0.0
 11
5.026805339375175
 21
-13.81103427669034
 31
0.0
  0
LINE
  5
329D
330
2C82
100
AcDbEntity
  8
AM_5
100
AcDbLine
 10
0.1710111111829665
 20
0.4698459320372948
 30
0.0
 11
5.026835932736579
 21
13.81102314157919
 31
0.0
  0
ARC
  5
329E
330
2C82
100
AcDbEntity
  8
AM_5
100
AcDbCircle
 10
0.0000000000000032
 20
0.0000000000000213
 30
0.0
 40
14.19739567787052
100
AcDbArc
 50
295.0461983747119
 51
64.95367470711797
  0
INSERT
  5
329F
330
2C82
100
AcDbEntity
  8
AM_5
100
AcDbBlockReference
  2
_OPEN30
 10
4.855795268967126
 20
-13.34118796584069
 30
0.0
 41
1.25
 42
1.25
 43
1.25
 50
202.523099110848
  0
INSERT
  5
32A0
330
2C82
100
AcDbEntity
  8
AM_5
100
AcDbBlockReference
  2
_OPEN30
 10
4.855824821553619
 20
13.34117720954192
 30
0.0
 41
1.25
 42
1.25
 43
1.25
 50
157.4767739709819
  0
MTEXT
  5
32A1
330
2C82
100
AcDbEntity
  8
AM_5
 62
     2
100
AcDbMText
 10
12.64739567786276
 20
-0.0000140078756805
 30
0.0
 40
1.6
 41
0.0
 71
     5
 72
     1
  1
140°
  7
ASAMI
 11
0.0000011075699733
 21
0.9999999999993868
 31
0.0
1001
ACAD
1000
MTEXTBEGIN
1070
    73
1070
     1
1070
    44
1040
1.0
1070
    74
1070
     0
1000
MTEXTEND
  0
POINT
  5
32A2
330
2C82
100
AcDbEntity
  8
DEFPOINTS
 62
     0
100
AcDbPoint
 10
13.03627323003059
 20
-5.623310795786069
 30
0.0
  0
POINT
  5
32A3
330
2C82
100
AcDbEntity
  8
DEFPOINTS
 62
     0
100
AcDbPoint
 10
0.0000000000000053
 20
0.000000000000027
 30
0.0
  0
POINT
  5
32A4
330
2C82
100
AcDbEntity
  8
DEFPOINTS
 62
     0
100
AcDbPoint
 10
0.0000000000000055
 20
0.0000000000000151
 30
0.0
  0
POINT
  5
32A5
330
2C82
100
AcDbEntity
  8
DEFPOINTS
 62
     0
100
AcDbPoint
 10
-0.6288636867982432
 20
1.72778879375031
 30
0.0
  0
POINT
  5
32A6
330
2C82
100
AcDbEntity
  8
DEFPOINTS
 62
     0
100
AcDbPoint
 10
-0.6288762571456413
 20
-1.727811421905649
 30
0.0
  0
ENDBLK
  5
2C91
330
2C82
100
AcDbEntity
  8
0
100
AcDbBlockEnd
  0
BLOCK
  5
2D6B
330
2D61
100
AcDbEntity
  8
0
100
AcDbBlockBegin
  2
*D9
 70
     1
 10
0.0
 20
0.0
 30
0.0
  3
*D9
  1

  0
LINE
  5
32B0
330
2D61
100
AcDbEntity
  8
AM_5
 62
     3
100
AcDbLine
 10
-1.999999999999923
 20
5.100000527338244
 30
0.0
 11
9.819918932769464
 21
5.099959037581681
 31
0.0
  0
LINE
  5
32B1
330
2D61
100
AcDbEntity
  8
AM_5
 62
     3
100
AcDbLine
 10
-1.999999999999879
 20
-5.100009979240139
 30
0.0
 11
9.8198831291438
 21
-5.100051468871027
 31
0.0
  0
LINE
  5
32B2
330
2D61
100
AcDbEntity
  8
AM_5
 62
     3
100
AcDbLine
 10
9.319914545077841
 20
3.849960792667264
 30
0.0
 11
9.319887516841584
 21
-3.850049713800845
 31
0.0
  0
INSERT
  5
32B3
330
2D61
100
AcDbEntity
  8
AM_5
 62
     3
100
AcDbBlockReference
  2
_OPEN30
 10
9.319918932772544
 20
5.099960792659563
 30
0.0
 41
1.25
 42
1.25
 43
1.25
 50
89.99979888288931
  0
INSERT
  5
32B4
330
2D61
100
AcDbEntity
  8
AM_5
 62
     3
100
AcDbBlockReference
  2
_OPEN30
 10
9.31988312914688
 20
-5.100049713793144
 30
0.0
 41
1.25
 42
1.25
 43
1.25
 50
269.9997988828893
  0
MTEXT
  5
32B5
330
2D61
100
AcDbEntity
  8
AM_5
 62
     2
100
AcDbMText
 10
7.619901030970186
 20
-0.0000384933019937
 30
0.0
 40
1.9
 41
0.0
 71
     5
 72
     1
  1
%%c10.2
 11
0.0000035101557632
 21
0.9999999999938395
 31
0.0
1001
ACAD
1000
MTEXTBEGIN
1070
    73
1070
     1
1070
    44
1040
1.0
1070
    74
1070
     0
1000
MTEXTEND
  0
POINT
  5
32B6
330
2D61
100
AcDbEntity
  8
DEFPOINTS
 62
     0
100
AcDbPoint
 10
-1.999999999999908
 20
5.10000052733825
 30
0.0
  0
POINT
  5
32B7
330
2D61
100
AcDbEntity
  8
DEFPOINTS
 62
     0
100
AcDbPoint
 10
-1.999999999999894
 20
-5.100009979240135
 30
0.0
  0
POINT
  5
32B8
330
2D61
100
AcDbEntity
  8
DEFPOINTS
 62
     0
100
AcDbPoint
 10
9.319883129146868
 20
-5.100049713793172
 30
0.0
  0
ENDBLK
  5
2D6C
330
2D61
100
AcDbEntity
  8
0
100
AcDbBlockEnd
  0
ENDSEC
  0
SECTION
  2
ENTITIES
  0
LINE
  5
C1D
330
1F
100
AcDbEntity
  8
AM_0
 48
0.5
100
AcDbLine
 10
0.0000000000000055
 20
0.0000000000000151
 30
0.0
 11
-0.6288636867982432
 21
1.72778879375031
 31
0.0
  0
LINE
  5
C20
330
1F
100
AcDbEntity
  8
AM_0
 48
0.5
100
AcDbLine
 10
0.0000000000000055
 20
0.0000000000000151
 30
0.0
 11
-0.6288762571456413
 21
-1.727811421905648
 31
0.0
  0
DIMENSION
  5
CC6
330
1F
100
AcDbEntity
  8
AM_5
100
AcDbDimension
  2
*D5
 10
-1.999999999999895
 20
-17.50056505856441
 30
0.0
 11
-59.9999999999999
 21
-15.80056505856441
 31
0.0
 70
    32
  1
<>
  3
AM_JIS$0
100
AcDbAlignedDimension
 13
-117.9999999999999
 23
-4.94999167174498
 33
0.0
 14
-1.999999999999894
 24
-5.100009979240133
 34
0.0
 50
0.0000000000001132
100
AcDbRotatedDimension
1001
GENIUS_GENDTOL_13
1000

1000
h7
1000

1040
0.0
1001
ACAD
1000
DSTYLE
1002
{
1070
   271
1070
     0
1002
}
  0
TEXT
  5
19BD
330
1F
100
AcDbEntity
  8
AM_6
100
AcDbText
 10
-70.83180463881134
 20
-28.75056497351438
 30
0.0
 40
2.5
  1
MDW102MHK
 50
0.0000000000001527
 72
     4
 11
-59.81989987690659
 21
-27.50056497351435
 31
0.0
100
AcDbText
  0
DIMENSION
  5
2069
330
1F
100
AcDbEntity
  8
AM_5
100
AcDbDimension
  2
*D6
 10
-1.999999999999894
 20
-12.50056505856436
 30
0.0
 11
-29.49999999999993
 21
-10.80056505856436
 31
0.0
 70
    32
  1
<>
 51
359.9999999999998
  3
AM_JIS$0
100
AcDbAlignedDimension
 13
-56.99999999999998
 23
-5.499999999999661
 33
0.0
 14
-1.999999999999894
 24
-5.100009979240133
 34
0.0
 50
0.0000000000001527
100
AcDbRotatedDimension
1001
ACAD
1000
DSTYLE
1002
{
1070
   271
1070
     0
1070
   174
1070
     1
1002
}
1001
GENIUS_GENDTOL_13
1000

1000
h7
1000

1040
0.0
  0
LINE
  5
23EF
330
1F
100
AcDbEntity
  8
AM_7
100
AcDbLine
 10
-120.4999999999998
 20
0.0000000000006946
 30
0.0
 11
2.319900031072635
 21
0.0000000000000038
 31
0.0
1001
GENIUS_GENODEF_13
1002
{
1000
HIER
1070
     0
1002
}
1002
{
1000
MANEDIT
1070
     0
1002
}
1002
{
1000
NOSEL
1070
     0
1002
}
1002
{
1000
BEHIND
1070
     0
1002
}
1002
{
1000
REACTOR
1002
}
1001
GENIUS_GENOBJ-N-CEN_13
1002
{
1000
OWNER
1000
GEN
1002
}
  0
LINE
  5
24A7
330
1F
100
AcDbEntity
  8
AM_0
 48
0.5
100
AcDbLine
 10
-1.552914286975302
 20
4.629174220165616
 30
0.0
 11
-1.999999999999907
 21
5.10000052733825
 31
0.0
  0
ELLIPSE
  5
24B7
330
1F
100
AcDbEntity
  8
AM_11
 48
0.5
100
AcDbEllipse
 10
-17.32962994420964
 20
20.09720314218305
 30
0.0
 11
-23.19725211461353
 21
0.0000000000001765
 31
0.0
210
0.0
220
0.0
230
1.0
 40
0.9578947368421058
 41
1.130070686340284
 42
2.011520147323574
  0
ELLIPSE
  5
24B8
330
1F
100
AcDbEntity
  8
AM_11
 48
0.5
100
AcDbEllipse
 10
-17.32962994421075
 20
-20.09718855347515
 30
0.0
 11
-23.1972521146135
 21
0.0000000000001044
 31
0.0
210
0.0
220
0.0
230
1.0
 40
0.9578947368421054
 41
4.271664206181664
 42
5.153113667164971
  0
ELLIPSE
  5
24B9
330
1F
100
AcDbEntity
  8
AM_11
 48
0.5
100
AcDbEllipse
 10
2.462036722457038
 20
20.09720314218252
 30
0.0
 11
-23.19725211461348
 21
0.0000000000018145
 31
0.0
210
0.0
220
0.0
230
1.0
 40
0.9578947368421141
 41
1.130070686340349
 42
1.291800737381041
  0
ELLIPSE
  5
24BE
330
1F
100
AcDbEntity
  8
AM_0
 48
0.5
100
AcDbEllipse
 10
7.381806094752908
 20
6.2433259145731
 30
0.0
 11
8.104082925716948
 21
4.346823266509869
 31
0.0
210
0.0
220
0.0
230
0.9999999999999998
 40
0.8865390934601007
 41
2.790918318021922
 42
3.165246863909731
  0
ELLIPSE
  5
24C7
330
1F
100
AcDbEntity
  8
AM_11
 48
0.5
100
AcDbEllipse
 10
-76.70462994420408
 20
20.09720314218456
 30
0.0
 11
-23.19725211461353
 21
0.0000000000005165
 31
0.0
210
0.0
220
0.0
230
1.0
 40
0.9578947368421058
 41
1.130070686340301
 42
2.011520147323591
  0
ELLIPSE
  5
24C8
330
1F
100
AcDbEntity
  8
AM_11
 48
0.5
100
AcDbEllipse
 10
-76.70462994420522
 20
-20.09718855347363
 30
0.0
 11
23.1972521146135
 21
0.0000000000003877
 31
0.0
210
0.0
220
0.0
230
1.0
 40
0.957894736842107
 41
1.13007155259185
 42
2.011521013575156
  0
ELLIPSE
  5
24D4
330
1F
100
AcDbEntity
  8
AM_11
 48
0.5
100
AcDbEllipse
 10
-56.91296327753742
 20
20.09720314218408
 30
0.0
 11
-23.19725211461356
 21
0.0000000000001353
 31
0.0
210
0.0
220
0.0
230
1.0
 40
0.9578947368421049
 41
1.130070686340283
 42
2.011520147323574
  0
ELLIPSE
  5
24D5
330
1F
100
AcDbEntity
  8
AM_11
 48
0.5
100
AcDbEllipse
 10
-56.91296327753853
 20
-20.09718855347412
 30
0.0
 11
-23.19725211461346
 21
0.0000000000004186
 31
0.0
210
0.0
220
0.0
230
1.0
 40
0.9578947368421083
 41
4.271664206181676
 42
5.153113667164986
  0
ELLIPSE
  5
24E6
330
1F
100
AcDbEntity
  8
AM_11
 48
0.5
100
AcDbEllipse
 10
-37.12129661087741
 20
-20.09718855347465
 30
0.0
 11
-23.19725211461349
 21
0.0000000000006298
 31
0.0
210
0.0
220
0.0
230
1.0
 40
0.957894736842106
 41
4.271664206181685
 42
5.153113667164993
  0
ELLIPSE
  5
24E7
330
1F
100
AcDbEntity
  8
AM_11
 48
0.5
100
AcDbEllipse
 10
-37.1212966108763
 20
20.09720314218355
 30
0.0
 11
23.19725211461354
 21
0.0000000000000375
 31
0.0
210
0.0
220
0.0
230
1.0
 40
0.9578947368421051
 41
4.271663339930067
 42
5.153112800913361
  0
LINE
  5
2572
330
1F
100
AcDbEntity
  8
AM_0
100
AcDbLine
 10
-56.30589457174358
 20
5.100010122236856
 30
0.0
 11
-56.30588750934082
 21
-5.10000604475602
 31
0.0
  0
ELLIPSE
  5
2BF2
330
1F
100
AcDbEntity
  8
AM_11
 48
0.5
100
AcDbEllipse
 10
-116.2879632775292
 20
20.09720314218442
 30
0.0
 11
-23.19725211461353
 21
0.0000000000005165
 31
0.0
210
0.0
220
0.0
230
1.0
 40
0.9578947368421058
 41
1.49692573364896
 42
2.011520147323591
  0
ELLIPSE
  5
2BF3
330
1F
100
AcDbEntity
  8
AM_11
 48
0.5
100
AcDbEllipse
 10
-96.49629661086262
 20
20.09720314218394
 30
0.0
 11
-23.19725211461356
 21
0.0000000000001353
 31
0.0
210
0.0
220
0.0
230
1.0
 40
0.9578947368421049
 41
1.130070686340283
 42
2.011520147323574
  0
ELLIPSE
  5
2BF4
330
1F
100
AcDbEntity
  8
AM_11
 48
0.5
100
AcDbEllipse
 10
-116.2879632775304
 20
-20.09718855347377
 30
0.0
 11
23.1972521146135
 21
0.0000000000003877
 31
0.0
210
0.0
220
0.0
230
1.0
 40
0.957894736842107
 41
1.13007155259185
 42
1.644666919940789
  0
ELLIPSE
  5
2BF5
330
1F
100
AcDbEntity
  8
AM_11
 48
0.5
100
AcDbEllipse
 10
-96.49629661086372
 20
-20.09718855347425
 30
0.0
 11
-23.19725211461346
 21
0.0000000000004186
 31
0.0
210
0.0
220
0.0
230
1.0
 40
0.9578947368421083
 41
4.271664206181676
 42
5.153113667164986
  0
LINE
  5
2C0E
330
1F
100
AcDbEntity
  8
AM_0
 48
0.5
100
AcDbLine
 10
-56.99999999999998
 20
-5.499999999999661
 30
0.0
 11
-56.99999999999998
 21
5.500651318728774
 31
0.0
  0
LINE
  5
2C11
330
1F
100
AcDbEntity
  8
AM_0
 48
0.5
100
AcDbLine
 10
-117.4999999999999
 20
-5.499999999999322
 30
0.0
 11
-117.9999999999999
 21
-4.949999999999323
 31
0.0
1001
GENIUS_GENFIL_13
1070
     0
1040
0.5
1040
0.5
1040
20.0
1040
0.0
1002
{
1002
}
1001
GENIUS_GENODEF_13
1002
{
1000
HIER
1070
     0
1002
}
1002
{
1000
MANEDIT
1070
     0
1002
}
1002
{
1000
NOSEL
1070
     0
1002
}
1002
{
1000
BEHIND
1070
     0
1002
}
1002
{
1000
REACTOR
1002
}
1001
GENIUS_GENOBJ-N-CHA_13
1002
{
1000
OWNER
1000
GEN
1002
}
  0
LINE
  5
2C12
330
1F
100
AcDbEntity
  8
AM_0
100
AcDbLine
 10
-117.4999999999999
 20
-5.499999999999322
 30
0.0
 11
-56.99999999999934
 21
-5.499999999999256
 31
0.0
  0
LINE
  5
2C13
330
1F
100
AcDbEntity
  8
AM_0
 48
0.5
100
AcDbLine
 10
-117.4999999999999
 20
5.500000000000677
 30
0.0
 11
-117.9999999999999
 21
4.950000000000676
 31
0.0
1001
GENIUS_GENFIL_13
1070
     0
1040
0.5
1040
0.5
1040
20.0
1040
0.0
1002
{
1002
}
1001
GENIUS_GENODEF_13
1002
{
1000
HIER
1070
     0
1002
}
1002
{
1000
MANEDIT
1070
     0
1002
}
1002
{
1000
NOSEL
1070
     0
1002
}
1002
{
1000
BEHIND
1070
     0
1002
}
1002
{
1000
REACTOR
1002
}
1001
GENIUS_GENOBJ-N-CHA_13
1002
{
1000
OWNER
1000
GEN
1002
}
  0
LINE
  5
2C14
330
1F
100
AcDbEntity
  8
AM_0
 48
0.5
100
AcDbLine
 10
-117.4999999999999
 20
-5.499999999999351
 30
0.0
 11
-117.4999999999998
 21
5.499991671746344
 31
0.0
  0
LINE
  5
2C15
330
1F
100
AcDbEntity
  8
AM_0
 48
0.5
100
AcDbLine
 10
-117.9999999999999
 20
-4.949991671744964
 30
0.0
 11
-117.9999999999999
 21
4.950000000000676
 31
0.0
  0
DIMENSION
  5
2C16
330
1F
100
AcDbEntity
  8
AM_5
100
AcDbDimension
  2
*D7
 10
-127.5000009999999
 20
5.500000000000713
 30
0.0
 11
-127.5000009999999
 21
0.000011825061106
 31
0.0
 70
   160
  1
%%c<>
 51
359.9999999999997
  3
AM_JIS$0
100
AcDbAlignedDimension
 13
-117.4999999999999
 23
-5.499999999999322
 33
0.0
 14
-117.4999999999998
 24
5.500000000000709
 34
0.0
 50
270.0
100
AcDbRotatedDimension
1001
ACAD
1000
DSTYLE
1002
{
1070
   271
1070
     0
1002
}
1001
GENIUS_GENDTOL_13
1000

1000
h7
1000

1040
0.0
  0
LINE
  5
2C23
330
1F
100
AcDbEntity
  8
AM_0
100
AcDbLine
 10
-56.99999999999996
 20
5.50000000000074
 30
0.0
 11
-117.4999999999999
 21
5.500000000000677
 31
0.0
  0
ELLIPSE
  5
2C72
330
1F
100
AcDbEntity
  8
AM_0
 48
0.5
100
AcDbEllipse
 10
7.381806094752837
 20
-6.24332591457315
 30
0.0
 11
8.104082925716896
 21
-4.346823266509962
 31
0.0
210
0.0
220
0.0
230
-0.9999999999999998
 40
0.8865390934601007
 41
2.790918318021922
 42
3.165246863909731
  0
LINE
  5
2C73
330
1F
100
AcDbEntity
  8
AM_0
 48
0.5
100
AcDbLine
 10
-1.552914286975355
 20
-4.629174220165563
 30
0.0
 11
-1.999999999999879
 21
-5.100009979240133
 31
0.0
  0
DIMENSION
  5
2C81
330
1F
100
AcDbEntity
  8
AM_5
100
AcDbDimension
  2
*D8
 10
-0.6288762571456413
 20
-1.727811421905648
 30
0.0
 11
12.64739567786276
 21
-0.0000140078757165
 31
0.0
 70
    34
  1
<>
 51
359.9999999999998
  3
AM_JIS$2
100
AcDb2LineAngularDimension
 13
0.0000000000000055
 23
0.0000000000000151
 33
0.0
 14
-0.6288636867982432
 24
1.72778879375031
 34
0.0
 15
0.0000000000000053
 25
0.000000000000027
 35
0.0
 16
13.03627323003059
 26
-5.623310795786069
 36
0.0
1001
ACAD
1000
DSTYLE
1002
{
1070
   179
1070
     3
1002
}
1001
GENIUS_GENDTOL_13
1000

1000
h7
1000

1040
0.0
  0
DIMENSION
  5
2D60
330
1F
100
AcDbEntity
  8
AM_5
100
AcDbDimension
  2
*D9
 10
9.319883129146868
 20
-5.100049713793172
 30
0.0
 11
7.619901030970186
 21
-0.0000384933020158
 31
0.0
 70
    32
  1
%%c<>
 51
359.9999999999998
  3
AM_JIS$0
100
AcDbAlignedDimension
 13
-1.999999999999907
 23
5.10000052733825
 33
0.0
 14
-1.999999999999894
 24
-5.100009979240133
 34
0.0
 50
89.99979888288933
100
AcDbRotatedDimension
1001
ACAD
1000
DSTYLE
1002
{
1070
   271
1070
     1
1002
}
1001
GENIUS_GENDTOL_13
1000

1000
h7
1000

1040
0.0
  0
LINE
  5
2FB7
330
1F
100
AcDbEntity
  8
AM_0
100
AcDbLine
 10
-56.99967434063595
 20
5.500564058565189
 30
0.0
 11
-56.30589457174359
 21
5.100010122236856
 31
0.0
  0
LINE
  5
2FB9
330
1F
100
AcDbEntity
  8
AM_0
100
AcDbLine
 10
-56.99967434063601
 20
-5.500564058564514
 30
0.0
 11
-56.30589054054638
 21
-5.100007794823371
 31
0.0
  0
LINE
  5
31DC
330
1F
100
AcDbEntity
  8
AM_0
 48
0.5
100
AcDbLine
 10
-56.30589054054638
 20
-5.100007794823372
 30
0.0
 11
-52.1804723090926
 21
-5.099999555170149
 31
0.0
  0
LINE
  5
31DD
330
1F
100
AcDbEntity
  8
AM_0
 48
0.5
100
AcDbLine
 10
-51.16331564198253
 20
5.10010076069
 30
0.0
 11
-56.30589457174359
 21
5.100010122236856
 31
0.0
  0
LINE
  5
31DE
330
1F
100
AcDbEntity
  8
AM_0
 48
0.5
100
AcDbLine
 10
-4.963849325002589
 20
5.100000527338342
 30
0.0
 11
-1.999999999999907
 21
5.10000052733825
 31
0.0
  0
LINE
  5
31DF
330
1F
100
AcDbEntity
  8
AM_0
 48
0.5
100
AcDbLine
 10
0.0000000000000055
 20
0.0000000000000151
 30
0.0
 11
-2.590947267588009
 21
1.958245614007835
 31
0.0
  0
LINE
  5
31E0
330
1F
100
AcDbEntity
  8
AM_0
 48
0.5
100
AcDbLine
 10
-4.963849325002892
 20
-5.09999947266166
 30
0.0
 11
-1.999999999999907
 21
-5.100009979240133
 31
0.0
  0
LINE
  5
31E1
330
1F
100
AcDbEntity
  8
AM_0
 48
0.5
100
AcDbLine
 10
-40.48204756886631
 20
5.100000527339369
 30
0.0
 11
-21.70143030557561
 21
5.100000527338823
 31
0.0
  0
LINE
  5
31E2
330
1F
100
AcDbEntity
  8
AM_0
 48
0.5
100
AcDbLine
 10
-36.5952736753545
 20
-5.099999472660854
 30
0.0
 11
-21.70142474447426
 21
-5.10000920013912
 31
0.0
  0
LINE
  5
31E3
330
1F
100
AcDbEntity
  8
AM_0
 48
0.5
100
AcDbLine
 10
-42.96244615758757
 20
2.448305623508917
 30
0.0
 11
-53.99999999999993
 21
-0.4127206802358768
 31
0.0
  0
LINE
  5
31E4
330
1F
100
AcDbEntity
  8
AM_11
 48
0.5
100
AcDbLine
 10
-52.17917663186831
 20
-5.10000994891393
 30
0.0
 11
-40.48147136214814
 21
-5.100259399413395
 31
0.0
  0
LINE
  5
31E5
330
1F
100
AcDbEntity
  8
AM_11
 48
0.5
100
AcDbLine
 10
-51.16331564198252
 20
5.100725074895077
 30
0.0
 11
-40.48203315288627
 21
5.100000527339369
 31
0.0
  0
LINE
  5
31E6
330
1F
100
AcDbEntity
  8
AM_11
 48
0.5
100
AcDbLine
 10
-52.17915351842973
 20
-5.100007915706859
 30
0.0
 11
-36.59527367535452
 21
-5.10072402021624
 31
0.0
  0
LINE
  5
31E7
330
1F
100
AcDbEntity
  8
AM_11
 48
0.5
100
AcDbLine
 10
-21.70142474447426
 20
-5.10000920013912
 30
0.0
 11
-4.963849325002892
 21
-5.09999947266166
 31
0.0
  0
LINE
  5
31E8
330
1F
100
AcDbEntity
  8
AM_11
 48
0.5
100
AcDbLine
 10
-21.70143030557561
 20
5.100000527338823
 30
0.0
 11
-4.963849325002589
 21
5.100000527338342
 31
0.0
  0
SPLINE
  5
31E9
330
1F
100
AcDbEntity
  8
AM_0
100
AcDbSpline
210
0.0
220
0.0
230
1.0
 70
     8
 71
     3
 72
    55
 73
    51
 74
     0
 42
0.0000000001
 43
0.0000000001
 40
0.0
 40
0.0
 40
0.0
 40
0.0
 40
1.010743684496582
 40
2.022833576467832
 40
3.037578957496688
 40
4.056212745003489
 40
5.079857003664532
 40
6.109500240690281
 40
7.145961322679372
 40
8.189895241603872
 40
9.241717795325891
 40
10.30168407291828
 40
11.36983447792315
 40
12.44600489715814
 40
13.52984294512926
 40
14.62081576220742
 40
15.7182257034828
 40
16.82123173843959
 40
17.92886860250316
 40
19.0400688939571
 40
20.15368796660465
 40
21.26852814259644
 40
22.38336992938901
 40
23.49698739941135
 40
24.6081876908653
 40
25.71582455492886
 40
26.81883757994213
 40
27.91624752121713
 40
29.00722033829659
 40
30.09105838626677
 40
31.16722880550176
 40
32.23537921050758
 40
33.29534548809967
 40
34.347168041821
 40
35.39108718934584
 40
36.42754827133493
 40
37.45720575381954
 40
38.48085062012849
 40
39.49948440763516
 40
40.51422944315121
 40
41.52631975251916
 40
42.53706336719636
 40
43.54780698187354
 40
44.55989729124051
 40
45.57464232675757
 40
46.59327611426424
 40
47.6169209805722
 40
48.64656348684535
 40
49.68302456883444
 40
50.58557219878025
 40
50.58557219878025
 40
50.58557219878025
 40
50.58557219878025
 10
-4.963849325002891
 20
-5.099999472661661
 30
0.0
 10
-5.259900069757273
 20
-5.096965096216709
 30
0.0
 10
-5.852395868655834
 20
-5.090892301846946
 30
0.0
 10
-6.740923946488984
 20
-5.041938761659346
 30
0.0
 10
-7.629414096408649
 20
-4.96411542085249
 30
0.0
 10
-8.517849257510968
 20
-4.855043048867177
 30
0.0
 10
-9.40622056461159
 20
-4.71619978546378
 30
0.0
 10
-10.29451049213086
 20
-4.54820304450848
 30
0.0
 10
-11.18272201135923
 20
-4.352184511927462
 30
0.0
 10
-12.07084724565557
 20
-4.129344511426578
 30
0.0
 10
-12.95888014526839
 20
-3.881051267090549
 30
0.0
 10
-13.84682513655079
 20
-3.608863289947674
 30
0.0
 10
-14.73468459759651
 20
-3.314446389078044
 30
0.0
 10
-15.62246962149835
 20
-2.999633384476568
 30
0.0
 10
-16.51018427286686
 20
-2.666358869507198
 30
0.0
 10
-17.39783678324729
 20
-2.31667818106524
 30
0.0
 10
-18.2854369968261
 20
-1.952748569748552
 30
0.0
 10
-19.17299270365671
 20
-1.576808030478984
 30
0.0
 10
-20.06051251756834
 20
-1.191168743817521
 30
0.0
 10
-20.94800593540015
 20
-0.7982042737573293
 30
0.0
 10
-21.8354807413142
 20
-0.4003304043660913
 30
0.0
 10
-22.72294946782948
 20
-0.000000513246409
 30
0.0
 10
-23.61041421035274
 20
0.4003365840608021
 30
0.0
 10
-24.4978919908889
 20
0.798204257503493
 30
0.0
 10
-25.38538431309819
 20
1.191169917044764
 30
0.0
 10
-26.27290570944783
 20
1.576810672820022
 30
0.0
 10
-27.16046509828525
 20
1.952748003747013
 30
0.0
 10
-28.04806671273169
 20
2.316679460693194
 30
0.0
 10
-28.93571935125963
 20
2.666359865580167
 30
0.0
 10
-29.82343397032705
 20
2.999634450635915
 30
0.0
 10
-30.71121899650217
 20
3.314447455697902
 30
0.0
 10
-31.59907848016235
 20
3.608864286168012
 30
0.0
 10
-32.48702337979913
 20
3.881052541239853
 30
0.0
 10
-33.37505246297276
 20
4.129343593149714
 30
0.0
 10
-34.26317220524031
 20
4.352186512298626
 30
0.0
 10
-35.15138339498832
 20
4.548208986565736
 30
0.0
 10
-36.03967966519538
 20
4.716186539961179
 30
0.0
 10
-36.92805390722376
 20
4.855072778289697
 30
0.0
 10
-37.81648933169801
 20
4.964015859056283
 30
0.0
 10
-38.70498009896763
 20
5.042311792662124
 30
0.0
 10
-39.59350742343487
 20
5.089490880363275
 30
0.0
 10
-40.4820542727512
 20
5.105251852453001
 30
0.0
 10
-41.37060112076015
 20
5.089490880338614
 30
0.0
 10
-42.2591284491571
 20
5.042311792761348
 30
0.0
 10
-43.14761920195858
 20
4.964015858682799
 30
0.0
 10
-44.03605468067744
 20
4.855072779693797
 30
0.0
 10
-44.92442438778602
 20
4.716187211775036
 30
0.0
 10
-45.8127171584439
 20
4.5482107040457
 30
0.0
 10
-46.66054331296536
 20
4.361084691604795
 30
0.0
 10
-47.21062257733762
 20
4.224237669678532
 30
0.0
 10
-47.46582729506799
 20
4.157545440094109
 30
0.0
  0
SPLINE
  5
31EA
330
1F
100
AcDbEntity
  8
AM_0
100
AcDbSpline
210
0.0
220
0.0
230
1.0
 70
     8
 71
     3
 72
    23
 73
    19
 74
     0
 42
0.0000000001
 43
0.0000000001
 40
16.03460024169435
 40
16.03460024169435
 40
16.03460024169435
 40
16.03460024169435
 40
16.35212704903564
 40
17.38177054169784
 40
18.41822485651776
 40
19.46214173629503
 40
20.51396345435107
 40
21.57393551351153
 40
22.64208202342361
 40
23.7182574881101
 40
24.80209208578934
 40
25.89306333925047
 40
26.99048218457928
 40
28.09348763352352
 40
29.20111863782268
 40
30.31232390128032
 40
31.42594612798585
 40
32.5407912310448
 40
32.5407912310486
 40
32.5407912310486
 40
32.5407912310486
 10
-51.16331564198253
 20
5.100725074895075
 30
0.0
 10
-51.07203030156574
 20
5.083508373003114
 30
0.0
 10
-50.68512291665667
 20
5.008534482010457
 30
0.0
 10
-50.00358139143234
 20
4.861634585068604
 30
0.0
 10
-49.12098333209506
 20
4.643196044797694
 30
0.0
 10
-48.23920507134986
 20
4.397925974091915
 30
0.0
 10
-47.35819450421617
 20
4.127243871019726
 30
0.0
 10
-46.47792036206762
 20
3.832658794365533
 30
0.0
 10
-45.5983317671685
 20
3.515854716657886
 30
0.0
 10
-44.71936746831224
 20
3.178675358163255
 30
0.0
 10
-43.84097751959049
 20
2.823030145929985
 30
0.0
 10
-42.96309149729593
 20
2.450988496580869
 30
0.0
 10
-42.08563825858354
 20
2.064712876921906
 30
0.0
 10
-41.20855934124665
 20
1.666424209829015
 30
0.0
 10
-40.33178136115759
 20
1.258438489357932
 30
0.0
 10
-39.4552231101063
 20
0.8431380527945854
 30
0.0
 10
-38.57881321150724
 20
0.4229294537094694
 30
0.0
 10
-37.99469688136989
 20
0.14120256479162
 30
0.0
 10
-37.70247942417477
 20
0.0002599267521665
 30
0.0
  0
SPLINE
  5
31EB
330
1F
100
AcDbEntity
  8
AM_0
100
AcDbSpline
210
0.0
220
0.0
230
1.0
 70
     8
 71
     3
 72
    22
 73
    18
 74
     0
 42
0.0000000001
 43
0.0000000001
 40
17.17441611292
 40
17.17441611292
 40
17.17441611292
 40
17.17441611292
 40
17.38177636558528
 40
18.41823744757437
 40
19.46215659509824
 40
20.51397914882054
 40
21.57394542641293
 40
22.64209583141747
 40
23.71826625065247
 40
24.80210429862395
 40
25.8930771157021
 40
26.99048705697709
 40
28.09349309193389
 40
29.20112995599786
 40
30.31233024745139
 40
31.42594771747373
 40
32.5407895042663
 40
32.54078950426994
 40
32.54078950426994
 40
32.54078950426994
 10
-25.09274514432
 20
-4.579836384671281
 30
0.0
 10
-25.15224224983033
 20
-4.568030384888308
 30
0.0
 10
-25.50889490410293
 20
-4.49611874978262
 30
0.0
 10
-26.16226246943327
 20
-4.351926561888025
 30
0.0
 10
-27.05038208470484
 20
-4.129083002509641
 30
0.0
 10
-27.93841120245187
 20
-3.880792124440162
 30
0.0
 10
-28.82635609211016
 20
-3.60860382090499
 30
0.0
 10
-29.71421558076624
 20
-3.314187008640256
 30
0.0
 10
-30.60200059694093
 20
-2.999373979517104
 30
0.0
 10
-31.48971525132836
 20
-2.666099473121207
 30
0.0
 10
-32.37736775740003
 20
-2.316418775072179
 30
0.0
 10
-33.26496798528898
 20
-1.952489193785539
 30
0.0
 10
-34.15252363882975
 20
-1.576548543262114
 30
0.0
 10
-35.04004365270485
 20
-1.190909673910264
 30
0.0
 10
-35.92753589400681
 20
-0.797943828258409
 30
0.0
 10
-36.81501351016137
 20
-0.4000758179753976
 30
0.0
 10
-37.40654912011236
 20
-0.133234183105235
 30
0.0
 10
-37.70247942417869
 20
0.0002599267539989
 30
0.0
  0
SPLINE
  5
31EC
330
1F
100
AcDbEntity
  8
AM_0
100
AcDbSpline
210
0.0
220
0.0
230
1.0
 70
     8
 71
     3
 72
    17
 73
    13
 74
     0
 42
0.0000000001
 43
0.0000000001
 40
1.580019955310467
 40
1.580019955310467
 40
1.580019955310467
 40
1.580019955310467
 40
2.030549285115227
 40
3.082371838836284
 40
4.126290986361125
 40
5.162752068350215
 40
6.192395305374981
 40
7.216039564037012
 40
8.234688489606833
 40
9.249433870634691
 40
10.26152376260694
 40
11.27226744710342
 40
11.27226744710342
 40
11.27226744710342
 40
11.27226744710352
 10
-13.33198688727009
 20
-3.763949650272256
 30
0.0
 10
-13.4576987794017
 20
-3.802715210245593
 30
0.0
 10
-13.87761873356458
 20
-3.929774510938875
 30
0.0
 10
-14.59452623111131
 20
-4.129071570336952
 30
0.0
 10
-15.48252222216444
 20
-4.352257838299373
 30
0.0
 10
-16.37076267768251
 20
-4.548185748762377
 30
0.0
 10
-17.25904383206818
 20
-4.716197331767221
 30
0.0
 10
-18.14742176309362
 20
-4.855070462945363
 30
0.0
 10
-19.03586106960112
 20
-4.964012654571748
 30
0.0
 10
-19.92435569745171
 20
-5.042317924792143
 30
0.0
 10
-20.8128837564387
 20
-5.08948221348838
 30
0.0
 10
-21.40537956472727
 20
-5.099999501843663
 30
0.0
 10
-21.70142474447426
 20
-5.100009200139121
 30
0.0
  0
SPLINE
  5
31ED
330
1F
100
AcDbEntity
  8
AM_0
100
AcDbSpline
210
0.0
220
0.0
230
1.0
 70
     8
 71
     3
 72
    11
 73
     7
 74
     0
 42
0.0000000001
 43
0.0000000001
 40
11.27226913003534
 40
11.27226913003534
 40
11.27226913003534
 40
11.2722691300354
 40
12.28301561507924
 40
13.29510212255852
 40
14.30984805882082
 40
15.18258238371378
 40
15.18258238371378
 40
15.18258238371378
 40
15.18258238371378
 10
-21.7014247444743
 20
-5.100009200139121
 30
0.0
 10
-21.99635531575877
 20
-5.075038590610849
 30
0.0
 10
-22.58564905147334
 20
-5.014609381508946
 30
0.0
 10
-23.46654665205412
 20
-4.892708719620985
 30
0.0
 10
-24.30253400764872
 20
-4.747111744882112
 30
0.0
 10
-24.84320155777401
 20
-4.635187017156404
 30
0.0
 10
-25.09235656036616
 20
-4.579899293132283
 30
0.0
  0
SPLINE
  5
31EE
330
1F
100
AcDbEntity
  8
AM_0
 48
0.5
100
AcDbSpline
210
0.0
220
0.0
230
1.0
 70
     8
 71
     3
 72
    25
 73
    21
 74
     0
 42
0.0000000001
 43
0.0000000001
 40
6.846175049578289
 40
6.846175049578289
 40
6.846175049578289
 40
6.846175049578289
 40
7.604337694224321
 40
8.711974558287883
 40
9.814980593243754
 40
10.91239053451967
 40
12.0033633515982
 40
13.08720139956839
 40
14.16337181880432
 40
15.23152222380919
 40
16.29148850140128
 40
17.34331105512262
 40
18.38723020264746
 40
19.42369128463655
 40
20.45333379090873
 40
21.47697865721768
 40
22.49561244472435
 40
23.5103574802404
 40
24.52244778960836
 40
25.53320666051913
 40
25.53320666051913
 40
25.53320666051913
 40
25.53320666051913
 10
-6.000096701211251
 20
0.9231339162776446
 30
0.0
 10
-6.20193986519119
 20
1.012680845961043
 30
0.0
 10
-6.699090361054024
 20
1.232155188573263
 30
0.0
 10
-7.492287007305177
 20
1.576808913450883
 30
0.0
 10
-8.379842612340205
 20
1.952749670204629
 30
0.0
 10
-9.267442853123055
 20
2.316679223203875
 30
0.0
 10
-10.15509535579397
 20
2.666359928895718
 30
0.0
 10
-11.04281001099242
 20
2.999634432791916
 30
0.0
 10
-11.93059502729058
 20
3.314447464316636
 30
0.0
 10
-12.81845451466551
 20
3.608864269526329
 30
0.0
 10
-13.70639940926841
 20
3.881052598616215
 30
0.0
 10
-14.59442850871589
 20
4.129343382525802
 30
0.0
 10
-15.48254819153465
 20
4.352187289363155
 30
0.0
 10
-16.37075532350946
 20
4.548205172932871
 30
0.0
 10
-17.2590464348544
 20
4.716195583852891
 30
0.0
 10
-18.14741658264692
 20
4.855045003759417
 30
0.0
 10
-19.03585194420421
 20
4.964117955978206
 30
0.0
 10
-19.92434272806696
 20
5.041932959202744
 30
0.0
 10
-20.8128745113524
 20
5.090900179155218
 30
0.0
 10
-21.40537503536426
 20
5.09696840931312
 30
0.0
 10
-21.70143030557561
 20
5.100000527338822
 30
0.0
  0
SPLINE
  5
31EF
330
1F
100
AcDbEntity
  8
AM_0
 48
0.5
100
AcDbSpline
210
0.0
220
0.0
230
1.0
 70
     8
 71
     3
 72
    16
 73
    12
 74
     0
 42
0.0000000001
 43
0.0000000001
 40
0.0
 40
0.0
 40
0.0
 40
0.0
 40
1.010743614677189
 40
2.022833924044153
 40
3.037578959561199
 40
4.056212747067873
 40
5.079857613375832
 40
6.109500119648989
 40
7.14596120163808
 40
8.18989512056258
 40
8.545190612624931
 40
8.545190612624931
 40
8.545190612624931
 40
8.545190612624931
 10
-4.963849325002588
 20
5.100000527338341
 30
0.0
 10
-5.259883665137714
 20
5.099969880677098
 30
0.0
 10
-5.852403823496613
 20
5.089505126943838
 30
0.0
 10
-6.740921438330862
 20
5.042307945434662
 30
0.0
 10
-7.62941483474291
 20
4.964016959384136
 30
0.0
 10
-8.517849484262001
 20
4.855072240671446
 30
0.0
 10
-9.40621985473982
 20
4.716188267865617
 30
0.0
 10
-10.29451079098427
 20
4.548206989314394
 30
0.0
 10
-11.18272262214546
 20
4.352186480122404
 30
0.0
 10
-11.87334848818256
 20
4.178894621704137
 30
0.0
 10
-12.26809611271067
 20
4.072315838087871
 30
0.0
 10
-12.36820190566757
 20
4.04481240942661
 30
0.0
  0
SPLINE
  5
31F0
330
1F
100
AcDbEntity
  8
AM_0
 48
0.5
100
AcDbSpline
210
0.0
220
0.0
230
1.0
 70
     8
 71
     3
 72
    17
 73
    13
 74
     0
 42
0.0000000001
 43
0.0000000001
 40
0.0
 40
0.0
 40
0.0
 40
0.0
 40
1.010743614677189
 40
2.022833924044153
 40
3.037578959561199
 40
4.056212747067873
 40
5.079857613375832
 40
6.109500119648989
 40
7.14596120163808
 40
8.18989512056258
 40
9.241717674284874
 40
9.693948937866434
 40
9.693948937866434
 40
9.693948937866434
 40
9.693948937866434
 10
-4.963849325002588
 20
5.100000527338341
 30
0.0
 10
-5.259900123634666
 20
5.096968337612615
 30
0.0
 10
-5.852396173094883
 20
5.090899918131928
 30
0.0
 10
-6.740923502383951
 20
5.041932982276328
 30
0.0
 10
-7.629414251518627
 20
4.964117878466805
 30
0.0
 10
-8.517849744090023
 20
4.855045292421244
 30
0.0
 10
-9.40621939908882
 20
4.716194498767193
 30
0.0
 10
-10.29451236595786
 20
4.548209259476688
 30
0.0
 10
-11.18271672231261
 20
4.352170951089726
 30
0.0
 10
-12.07086693404743
 20
4.129399353986094
 30
0.0
 10
-12.78780494461111
 20
3.928715819494194
 30
0.0
 10
-13.20883297926376
 20
3.803259750881731
 30
0.0
 10
-13.33520300683319
 20
3.764858488119243
 30
0.0
  0
SPLINE
  5
31F1
330
1F
100
AcDbEntity
  8
AM_0
 48
0.5
100
AcDbSpline
210
0.0
220
0.0
230
1.0
 70
     8
 71
     3
 72
    10
 73
     6
 74
     0
 42
0.0000000001
 43
0.0000000001
 40
0.0
 40
0.0
 40
0.0
 40
0.0
 40
2.69986029516136
 40
4.147722969032201
 40
6.285750005020438
 40
6.285750005020438
 40
6.285750005020438
 40
6.285750005020438
 10
-5.999954645133271
 20
0.9230733422796783
 30
0.0
 10
-5.367571273212443
 20
0.4492480996912844
 30
0.0
 10
-4.396057657618775
 20
-0.2786769138782377
 30
0.0
 10
-2.098558462512577
 20
0.0737243373611185
 30
0.0
 10
-2.531244387835281
 20
1.260658381161604
 30
0.0
 10
-2.590947267588009
 20
1.958245614007835
 30
0.0
  0
SPLINE
  5
31F2
330
1F
100
AcDbEntity
  8
AM_0
100
AcDbSpline
210
0.0
220
0.0
230
1.0
 70
     8
 71
     3
 72
    46
 73
    42
 74
     0
 42
0.0000000001
 43
0.0000000001
 40
0.0
 40
0.0
 40
0.0
 40
0.0
 40
1.685415058684571
 40
2.531036209541119
 40
3.379897699130121
 40
4.232934581347655
 40
5.090970612202441
 40
5.954688180526682
 40
6.824620803463246
 40
7.701151815239689
 40
8.584457046566678
 40
9.474582384070741
 40
10.37139106676737
 40
11.27458944007583
 40
12.18373345430765
 40
13.09824173870457
 40
14.01741343450111
 40
14.9404441545541
 40
15.86644439743314
 40
16.79446029130534
 40
17.7234937712985
 40
18.65252725129241
 40
19.58054314516461
 40
20.50654338804289
 40
21.42957410809586
 40
22.34874580389317
 40
23.26325408828901
 40
24.17239810252111
 40
25.07560240389441
 40
25.97241108659103
 40
26.8625364240951
 40
27.74584165542183
 40
28.62236045019041
 40
29.49229307312697
 40
30.35601064145121
 40
31.21404606334468
 40
32.06708345193547
 40
32.91595755657689
 40
33.76157841950693
 40
34.60498701064689
 40
35.44727335621125
 40
35.44727335621125
 40
35.44727335621125
 40
35.44727335621125
 10
-2.476574456418289
 20
-5.099999472661738
 30
0.0
 10
-3.069099203717348
 20
-5.088381278427053
 30
0.0
 10
-3.95891063784183
 20
-5.070933902395887
 30
0.0
 10
-5.142131704905016
 20
-4.963513613425623
 30
0.0
 10
-6.030576411321348
 20
-4.855205387080034
 30
0.0
 10
-6.918945176865096
 20
-4.716156022324847
 30
0.0
 10
-7.807235661268742
 20
-4.548214508928134
 30
0.0
 10
-8.695443301209863
 20
-4.352183750396777
 30
0.0
 10
-9.58356660907412
 20
-4.129340762683017
 30
0.0
 10
-10.47160163239909
 20
-3.881053834719253
 30
0.0
 10
-11.35955014615382
 20
-3.60886293410831
 30
0.0
 10
-12.2474097620268
 20
-3.314446485517536
 30
0.0
 10
-13.13519474395774
 20
-2.999633358325941
 30
0.0
 10
-14.0229094067592
 20
-2.666358876694412
 30
0.0
 10
-14.91056191379534
 20
-2.316678178710321
 30
0.0
 10
-15.79816212922094
 20
-1.952748571933072
 30
0.0
 10
-16.68571783200918
 20
-1.576808024070656
 30
0.0
 10
-17.57323766031647
 20
-1.191168767387662
 30
0.0
 10
-18.46073102438303
 20
-0.798204185540007
 30
0.0
 10
-19.34820603151868
 20
-0.4003307344761674
 30
0.0
 10
-20.23567357838275
 20
0.0000005272577779
 30
0.0
 10
-21.12314112505186
 20
0.4003317894782066
 30
0.0
 10
-22.0106161327723
 20
0.7982052390833076
 30
0.0
 10
-22.89810949470134
 20
1.191169826262004
 30
0.0
 10
-23.78562933093469
 20
1.576809063174109
 30
0.0
 10
-24.67318500433385
 20
1.952749684344972
 30
0.0
 10
-25.56078532859725
 20
2.316679019635256
 30
0.0
 10
-26.44843936276256
 20
2.666361482043074
 30
0.0
 10
-27.33615747479493
 20
2.99963293570699
 30
0.0
 10
-28.22394404039825
 20
3.314447677152492
 30
0.0
 10
-29.1118036355993
 20
3.608864213347827
 30
0.0
 10
-29.99974850176242
 20
3.881052612757003
 30
0.0
 10
-30.88777760829264
 20
4.129343381509219
 30
0.0
 10
-31.77589729089713
 20
4.352187279560972
 30
0.0
 10
-32.66410441679033
 20
4.54820521273096
 30
0.0
 10
-33.5523955524342
 20
4.716195435784479
 30
0.0
 10
-34.44076998761595
 20
4.85504623626381
 30
0.0
 10
-35.32921011610195
 20
4.964116932345961
 30
0.0
 10
-36.21770521194632
 20
5.041933130760919
 30
0.0
 10
-37.10623255950179
 20
5.090899881109953
 30
0.0
 10
-37.69872860653139
 20
5.096968325278088
 30
0.0
 10
-37.99477940394886
 20
5.100000527339295
 30
0.0
  0
SPLINE
  5
31F3
330
1F
100
AcDbEntity
  8
AM_0
 48
0.5
100
AcDbSpline
210
0.0
220
0.0
230
1.0
 70
     8
 71
     3
 72
    26
 73
    22
 74
     0
 42
0.0000000001
 43
0.0000000001
 40
0.0
 40
0.0
 40
0.0
 40
0.0
 40
0.8422864037471089
 40
1.685694647057321
 40
2.531315797913884
 40
3.380177287502886
 40
4.233214169721234
 40
5.09125020057522
 40
5.954967768899448
 40
6.824900391836836
 40
7.701419186604396
 40
8.584724417931369
 40
9.47485577056355
 40
10.37165251267315
 40
11.27486274211709
 40
12.18400675634887
 40
13.09851504074504
 40
14.01768673654235
 40
14.94071745659532
 40
15.8667176994736
 40
16.76607142455336
 40
16.76607142455336
 40
16.76607142455336
 40
16.76607142455336
 10
-37.15627316066226
 20
-5.100259399413462
 30
0.0
 10
-37.45232390545225
 20
-5.097225023100743
 30
0.0
 10
-38.04481970442236
 20
-5.09115222899559
 30
0.0
 10
-38.93334778171994
 20
-5.042198686819599
 30
0.0
 10
-39.82183793368326
 20
-4.964375353599905
 30
0.0
 10
-40.71027308710367
 20
-4.855302953094907
 30
0.0
 10
-41.59864442309146
 20
-4.716459796937055
 30
0.0
 10
-42.48693424184348
 20
-4.548462652176304
 30
0.0
 10
-43.37514195242004
 20
-4.352446572705969
 30
0.0
 10
-44.26326149726412
 20
-4.12960206147116
 30
0.0
 10
-45.15129077677512
 20
-3.881311831430914
 30
0.0
 10
-46.03923709946719
 20
-3.609121261629015
 30
0.0
 10
-46.92709678598076
 20
-3.314711041097674
 30
0.0
 10
-47.8148798960161
 20
-2.999887155135639
 30
0.0
 10
-48.70259829984516
 20
-2.666622253937867
 30
0.0
 10
-49.59025391549406
 20
-2.316938008278525
 30
0.0
 10
-50.47785335996895
 20
-1.953006926331795
 30
0.0
 10
-51.36541293298919
 20
-1.577074384300041
 30
0.0
 10
-52.25291796664762
 20
-1.191404402647767
 30
0.0
 10
-53.13130639539878
 20
-0.8026098363238157
 30
0.0
 10
-53.71327177785637
 20
-0.5414149194338501
 30
0.0
 10
-54.00000670366706
 20
-0.4127239227283352
 30
0.0
  0
SPLINE
  5
31F4
330
1F
100
AcDbEntity
  8
AM_0
 48
0.5
100
AcDbSpline
210
0.0
220
0.0
230
1.0
 70
     8
 71
     3
 72
    22
 73
    18
 74
     0
 42
0.0000000001
 43
0.0000000001
 40
0.0
 40
0.0
 40
0.0
 40
0.0
 40
1.010743684496582
 40
2.022833993863546
 40
3.037578683882831
 40
4.056212471389632
 40
5.079857945358201
 40
6.109499720892564
 40
7.145961650132166
 40
8.189873411961459
 40
9.241710626092514
 40
10.30166235592959
 40
11.36982472628033
 40
12.44598212828784
 40
13.52983440361964
 40
14.62080578343036
 40
14.90544694398022
 40
14.90544694398022
 40
14.90544694398022
 40
14.90544694398022
 10
-39.64354802924685
 20
-5.100259399413396
 30
0.0
 10
-39.93959883057147
 20
-5.097225929494557
 30
0.0
 10
-40.5320948649427
 20
-5.091154948131747
 30
0.0
 10
-41.4206220117653
 20
-5.042187771372056
 30
0.0
 10
-42.30911312312527
 20
-4.9643775324017
 30
0.0
 10
-43.19754875663967
 20
-4.855305059867431
 30
0.0
 10
-44.08591764411242
 20
-4.716448842991627
 30
0.0
 10
-44.97421051781339
 20
-4.548466223597189
 30
0.0
 10
-45.86241436109925
 20
-4.352443021104028
 30
0.0
 10
-46.75053528156956
 20
-4.129595283537548
 30
0.0
 10
-47.63856528038829
 20
-3.881314434916033
 30
0.0
 10
-48.52650899831303
 20
-3.609111540451404
 30
0.0
 10
-49.41437215931819
 20
-3.314718751613815
 30
0.0
 10
-50.30215409651434
 20
-2.999886221070318
 30
0.0
 10
-51.1898714414501
 20
-2.666619574581957
 30
0.0
 10
-51.85705306378765
 20
-2.403802765708373
 30
0.0
 10
-52.22882994597151
 20
-2.253585125775296
 30
0.0
 10
-52.30570104268465
 20
-2.22237123729095
 30
0.0
  0
SPLINE
  5
31F5
330
1F
100
AcDbEntity
  8
AM_0
100
AcDbSpline
210
0.0
220
0.0
230
1.0
 70
     8
 71
     3
 72
    13
 73
     9
 74
     0
 42
0.0000000001
 43
0.0000000001
 40
16.03460056234195
 40
16.03460056234195
 40
16.03460056234195
 40
16.03460056234195
 40
16.35212717791071
 40
17.38177067057215
 40
18.41822498539278
 40
19.46214186516937
 40
20.5139635832251
 40
21.34083983469381
 40
21.34083983469381
 40
21.34083983469381
 40
21.34083983469381
 10
-52.17917663186831
 20
-5.10000994891393
 30
0.0
 10
-51.99156739398635
 20
-5.08350702709174
 30
0.0
 10
-51.60465968891937
 20
-5.008535193140935
 30
0.0
 10
-50.92311853521383
 20
-4.861633581108331
 30
0.0
 10
-50.04052036480557
 20
-4.643195646515213
 30
0.0
 10
-49.15874213414063
 20
-4.397925411781677
 30
0.0
 10
-48.34280719282635
 20
-4.147237218229851
 30
0.0
 10
-47.82225506880427
 20
-3.974620556416633
 30
0.0
 10
-47.59389197188353
 20
-3.896596252393747
 30
0.0
  0
ELLIPSE
  5
31F6
330
1F
100
AcDbEntity
  8
AM_0
 48
0.5
100
AcDbEllipse
 10
-9.126053634831773
 20
8.646110489801433
 30
0.0
 11
11.14562543300876
 21
9.063208248177121
 31
0.0
210
0.0
220
0.0
230
1.0
 40
0.8733748142627085
 41
-1.568453043651302
 42
-1.457385524233373
  0
ELLIPSE
  5
31F7
330
1F
100
AcDbEntity
  8
AM_0
 48
0.5
100
AcDbEllipse
 10
-5.991234246712089
 20
5.202964197562841
 30
0.0
 11
-0.0000000000000265
 21
7.92360816745964
 31
0.0
210
0.0
220
0.0
230
0.9999999999999998
 40
0.9901960784313718
 41
3.517054509082677
 42
3.681821570856179
  0
ELLIPSE
  5
31F8
330
1F
100
AcDbEntity
  8
AM_0
 48
0.5
100
AcDbEllipse
 10
-1.570663938021882
 20
-1.327324050065353
 30
0.0
 11
-0.1546043322708473
 21
0.8364290137196002
 31
0.0
210
0.0
220
0.0
230
0.9999999999999998
 40
0.5149579428139041
 41
1.79668152805917
 42
4.932023417771146
  0
ELLIPSE
  5
31F9
330
1F
100
AcDbEntity
  8
AM_0
 48
0.5
100
AcDbEllipse
 10
-1.570739693072168
 20
-1.329132887884259
 30
0.0
 11
-0.7649042022232749
 21
0.4180743070662795
 31
0.0
210
0.0
220
0.0
230
1.0
 40
0.4914472873844045
 41
4.46521890995854
 42
7.608659251288052
  0
ELLIPSE
  5
31FA
330
1F
100
AcDbEntity
  8
AM_0
 48
0.5
100
AcDbEllipse
 10
3.165566634227041
 20
6.122864296869329
 30
0.0
 11
-10.62538045579246
 21
0.0000000000012393
 31
0.0
210
0.0
220
0.0
230
1.0
 40
0.9673788431474738
 41
0.5303675532341825
 42
0.9384884834290737
  0
ELLIPSE
  5
31FB
330
1F
100
AcDbEntity
  8
AM_0
 48
0.5
100
AcDbEllipse
 10
5.277632195533862
 20
-1.362030099537111
 30
0.0
 11
8.421789355181235
 21
0.4421331374934079
 31
0.0
210
0.0
220
0.0
230
1.0
 40
0.8535246258034021
 41
3.192403309378919
 42
3.62588335762515
  0
ELLIPSE
  5
31FC
330
1F
100
AcDbEntity
  8
AM_0
 48
0.5
100
AcDbEllipse
 10
-52.24278513358729
 20
-3.400259399413053
 30
0.0
 11
-1.599812014747293
 21
0.7757604107037076
 31
0.0
210
0.0
220
0.0
230
1.0
 40
0.9453973863696877
 41
0.4851731554652253
 42
2.036789463915572
  0
ELLIPSE
  5
31FD
330
1F
100
AcDbEntity
  8
AM_0
 48
0.5
100
AcDbEllipse
 10
-52.68243841142068
 20
-3.452054977415899
 30
0.0
 11
1.309871673116227
 21
0.1528949470039216
 31
0.0
210
0.0
220
0.0
230
0.9999999999999998
 40
0.9706697371423555
 41
1.168149932141088
 42
2.996396114402904
  0
VIEWPORT
  5
110
330
101
100
AcDbEntity
 67
     1
  8
0
100
AcDbViewport
 10
420.5
 20
297.0
 30
0.0
 40
948.9782706766916
 41
628.452
 68
     1
 69
     1
1001
ACAD
1000
MVIEW
1002
{
1070
    16
1010
0.0
1020
0.0
1030
0.0
1010
0.0
1020
0.0
1030
1.0
1040
0.0
1040
628.452
1040
420.5
1040
297.0
1040
50.0
1040
0.0
1040
0.0
1070
     0
1070
   100
1070
     1
1070
     1
1070
     0
1070
     0
1070
     0
1070
     0
1040
0.0
1040
0.0
1040
0.0
1040
10.0
1040
10.0
1040
10.0
1040
10.0
1070
     0
1002
{
1002
}
1002
}
  0
ENDSEC
  0
SECTION
  2
OBJECTS
  0
DICTIONARY
  5
C
330
0
100
AcDbDictionary
  3
ACAD_GROUP
350
D
  3
ACAD_LAYOUT
350
1A
  3
ACAD_MLINESTYLE
350
17
  3
ACAD_PLOTSETTINGS
350
19
  3
ACAD_PLOTSTYLENAME
350
E
  3
ACDBVARIABLEDICTIONARY
350
34
  3
ACMDICTIONARY
350
43
  3
AMG
350
2B
  3
AMGSNAPSETTINGS
350
6E
  3
DWGPROPS
350
32D6
  3
ACDBHEADERROUNDTRIPXREC
350
32E3
  0
DICTIONARY
  5
74
330
1F
100
AcDbDictionary
280
     1
  3
ACAD_INDEX
360
32D8
  3
ACAD_LAYOUTSELFREF
360
3306
  0
DICTIONARY
  5
330B
330
101
100
AcDbDictionary
280
     1
  3
ACAD_LAYOUTSELFREF
360
330C
  0
DICTIONARY
  5
D
102
{ACAD_REACTORS
330
C
102
}
330
C
100
AcDbDictionary
  0
DICTIONARY
  5
1A
102
{ACAD_REACTORS
330
C
102
}
330
C
100
AcDbDictionary
  0
DICTIONARY
  5
17
102
{ACAD_REACTORS
330
C
102
}
330
C
100
AcDbDictionary
  3
STANDARD
350
18
  0
DICTIONARY
  5
19
102
{ACAD_REACTORS
330
C
102
}
330
C
100
AcDbDictionary
  0
ACDBDICTIONARYWDFLT
  5
E
102
{ACAD_REACTORS
330
C
102
}
330
C
100
AcDbDictionary
281
     1
  3
Normal
350
F
100
AcDbDictionaryWithDefault
340
F
  0
DICTIONARY
  5
34
102
{ACAD_REACTORS
330
C
102
}
330
C
100
AcDbDictionary
  3
INDEXCTL
350
35
  3
SORTENTS
350
B5E
  0
DICTIONARY
  5
43
102
{ACAD_REACTORS
330
C
102
}
330
C
100
AcDbDictionary
  3
ACMSTDDICTIONARY
350
260
  0
DICTIONARY
  5
2B
102
{ACAD_REACTORS
330
C
102
}
330
C
100
AcDbDictionary
  3
ACMGSETTINGS
350
2C
  0
DICTIONARY
  5
6E
102
{ACAD_REACTORS
330
C
102
}
330
C
100
AcDbDictionary
  0
XRECORD
  5
32D6
102
{ACAD_REACTORS
330
C
102
}
330
C
100
AcDbXrecord
  1
DWGPROPS COOKIE
  2

  3

  4

  6

  7

  8

  9

300
AmdtFileType=82
301
=
302
=
303
=
304
=
305
=
306
=
307
=
308
=
309
=
 40
0.0605349189814815
 41
2452800.443498622
 42
2452946.621197187
  1

 90
        1
  0
DICTIONARY
  5
32E3
102
{ACAD_REACTORS
330
C
102
}
330
C
100
AcDbDictionary
  3
TSTACKALIGN
350
32E4
  3
TSTACKSIZE
350
32E5
  3
HYPERLINKBASE
350
32E6
  3
STYLESHEET
350
32E7
  3
LAYOUTDICT
350
32E8
  3
PLOTSETDICT
350
32E9
  3
PLOTSTYLNAMDICT
350
32EA
  3
LWETCUNION
350
32EB
  3
INSUNITS
350
32EC
  3
CEPSNTYPE
350
32ED
  3
FINGERPRINTGUID
350
32EE
  3
VERSIONGUID
350
32EF
  3
PSVPSCALE
350
32F0
  3
DIMSTYLEDATA
350
32F1
  3
PUCSORTHOREF
350
32F2
  3
PUCSORTHOVIEW
350
32F3
  3
PUCSBASE
350
32F4
  3
PUCSORGTOP
350
32F5
  3
PUCSORGBOTTOM
350
32F6
  3
PUCSORGLEFT
350
32F7
  3
PUCSORGRIGHT
350
32F8
  3
PUCSORGFRONT
350
32F9
  3
PUCSORGBACK
350
32FA
  3
UCSORTHOREF
350
32FB
  3
UCSORTHOVIEW
350
32FC
  3
UCSBASE
350
32FD
  3
UCSORGTOP
350
32FE
  3
UCSORGBOTTOM
350
32FF
  3
UCSORGLEFT
350
3300
  3
UCSORGRIGHT
350
3301
  3
UCSORGFRONT
350
3302
  3
UCSORGBACK
350
3303
  0
DICTIONARY
  5
32D8
102
{ACAD_REACTORS
330
74
102
}
330
74
100
AcDbDictionary
  3
*A1
350
32D9
  0
XRECORD
  5
3306
102
{ACAD_REACTORS
330
74
102
}
330
74
100
AcDbXrecord
340
1F
  0
XRECORD
  5
330C
102
{ACAD_REACTORS
330
330B
102
}
330
330B
100
AcDbXrecord
340
101
  0
MLINESTYLE
  5
18
102
{ACAD_REACTORS
330
17
102
}
330
17
100
AcDbMlineStyle
  2
STANDARD
 70
     0
  3

 62
   256
 51
90.0
 52
90.0
 71
     2
 49
0.5
 62
   256
  6
BYLAYER
 49
-0.5
 62
   256
  6
BYLAYER
  0
ACDBPLACEHOLDER
  5
F
102
{ACAD_REACTORS
330
E
102
}
330
E
100
AcDbPlaceHolder
280
     0
  0
DICTIONARYVAR
  5
35
102
{ACAD_REACTORS
330
34
102
}
330
34
100
DictionaryVariables
280
     0
  1
1
  0
DICTIONARYVAR
  5
B5E
102
{ACAD_REACTORS
330
34
102
}
330
34
100
DictionaryVariables
280
     0
  1
96
  0
DICTIONARY
  5
260
102
{ACAD_REACTORS
330
43
102
}
330
43
100
AcDbDictionary
  0
DICTIONARY
  5
2C
102
{ACAD_REACTORS
330
2B
102
}
330
2B
100
AcDbDictionary
  3
DWGSETTINGS
350
2D
  0
XRECORD
  5
32E4
102
{ACAD_REACTORS
330
32E3
102
}
330
32E3
100
AcDbXrecord
 90
        1
  0
XRECORD
  5
32E5
102
{ACAD_REACTORS
330
32E3
102
}
330
32E3
100
AcDbXrecord
 90
       70
  0
XRECORD
  5
32E6
102
{ACAD_REACTORS
330
32E3
102
}
330
32E3
100
AcDbXrecord
  1

  0
XRECORD
  5
32E7
102
{ACAD_REACTORS
330
32E3
102
}
330
32E3
100
AcDbXrecord
  1
ASAMI.ctb
  0
XRECORD
  5
32E8
102
{ACAD_REACTORS
330
32E3
102
}
330
32E3
100
AcDbXrecord
340
1A
  0
XRECORD
  5
32E9
102
{ACAD_REACTORS
330
32E3
102
}
330
32E3
100
AcDbXrecord
340
19
  0
XRECORD
  5
32EA
102
{ACAD_REACTORS
330
32E3
102
}
330
32E3
100
AcDbXrecord
340
E
  0
XRECORD
  5
32EB
102
{ACAD_REACTORS
330
32E3
102
}
330
32E3
100
AcDbXrecord
 90
    10781
  0
XRECORD
  5
32EC
102
{ACAD_REACTORS
330
32E3
102
}
330
32E3
100
AcDbXrecord
 90
        4
  0
XRECORD
  5
32ED
102
{ACAD_REACTORS
330
32E3
102
}
330
32E3
100
AcDbXrecord
 90
        0
  0
XRECORD
  5
32EE
102
{ACAD_REACTORS
330
32E3
102
}
330
32E3
100
AcDbXrecord
  1
{AFB28963-8C59-40AE-9337-C84526B81ACE}
  0
XRECORD
  5
32EF
102
{ACAD_REACTORS
330
32E3
102
}
330
32E3
100
AcDbXrecord
  1
{F431437B-499A-458B-BF36-07D38B86CFEF}
  0
XRECORD
  5
32F0
102
{ACAD_REACTORS
330
32E3
102
}
330
32E3
100
AcDbXrecord
 40
0.0
  0
XRECORD
  5
32F1
102
{ACAD_REACTORS
330
32E3
102
}
330
32E3
100
AcDbXrecord
1000
DSTYLE
1002
{
1070
    79
 70
     2
1070
   341
340
59
1070
   342
340
59
1070
   371
 70
    -1
1070
   372
 70
    -1
1002
}
  0
XRECORD
  5
32F2
102
{ACAD_REACTORS
330
32E3
102
}
330
32E3
100
AcDbXrecord
340
0
  0
XRECORD
  5
32F3
102
{ACAD_REACTORS
330
32E3
102
}
330
32E3
100
AcDbXrecord
 70
     0
  0
XRECORD
  5
32F4
102
{ACAD_REACTORS
330
32E3
102
}
330
32E3
100
AcDbXrecord
340
0
  0
XRECORD
  5
32F5
102
{ACAD_REACTORS
330
32E3
102
}
330
32E3
100
AcDbXrecord
 10
0.0
 20
0.0
 30
0.0
  0
XRECORD
  5
32F6
102
{ACAD_REACTORS
330
32E3
102
}
330
32E3
100
AcDbXrecord
 10
0.0
 20
0.0
 30
0.0
  0
XRECORD
  5
32F7
102
{ACAD_REACTORS
330
32E3
102
}
330
32E3
100
AcDbXrecord
 10
0.0
 20
0.0
 30
0.0
  0
XRECORD
  5
32F8
102
{ACAD_REACTORS
330
32E3
102
}
330
32E3
100
AcDbXrecord
 10
0.0
 20
0.0
 30
0.0
  0
XRECORD
  5
32F9
102
{ACAD_REACTORS
330
32E3
102
}
330
32E3
100
AcDbXrecord
 10
0.0
 20
0.0
 30
0.0
  0
XRECORD
  5
32FA
102
{ACAD_REACTORS
330
32E3
102
}
330
32E3
100
AcDbXrecord
 10
0.0
 20
0.0
 30
0.0
  0
XRECORD
  5
32FB
102
{ACAD_REACTORS
330
32E3
102
}
330
32E3
100
AcDbXrecord
340
0
  0
XRECORD
  5
32FC
102
{ACAD_REACTORS
330
32E3
102
}
330
32E3
100
AcDbXrecord
 70
     0
  0
XRECORD
  5
32FD
102
{ACAD_REACTORS
330
32E3
102
}
330
32E3
100
AcDbXrecord
340
0
  0
XRECORD
  5
32FE
102
{ACAD_REACTORS
330
32E3
102
}
330
32E3
100
AcDbXrecord
 10
0.0
 20
0.0
 30
0.0
  0
XRECORD
  5
32FF
102
{ACAD_REACTORS
330
32E3
102
}
330
32E3
100
AcDbXrecord
 10
0.0
 20
0.0
 30
0.0
  0
XRECORD
  5
3300
102
{ACAD_REACTORS
330
32E3
102
}
330
32E3
100
AcDbXrecord
 10
0.0
 20
0.0
 30
0.0
  0
XRECORD
  5
3301
102
{ACAD_REACTORS
330
32E3
102
}
330
32E3
100
AcDbXrecord
 10
0.0
 20
0.0
 30
0.0
  0
XRECORD
  5
3302
102
{ACAD_REACTORS
330
32E3
102
}
330
32E3
100
AcDbXrecord
 10
0.0
 20
0.0
 30
0.0
  0
XRECORD
  5
3303
102
{ACAD_REACTORS
330
32E3
102
}
330
32E3
100
AcDbXrecord
 10
0.0
 20
0.0
 30
0.0
  0
LAYER_INDEX
  5
32D9
102
{ACAD_REACTORS
330
32D8
102
}
330
32D8
100
AcDbIndex
 40
2453151.573060602
100
AcDbLayerIndex
  8
0
360
32DA
 90
        0
  8
AM_0
360
32DB
 90
       45
  8
AM_7
360
32DC
 90
        1
  8
AM_11
360
32DD
 90
       18
  8
AM_5
360
32DE
 90
        5
  8
Defpoints
360
32DF
 90
        0
  8
AM_6
360
32E0
 90
        1
  8
AM_CL
360
32E1
 90
        0
  0
XRECORD
  5
2D
102
{ACAD_REACTORS
330
2C
102
}
330
2C
100
AcDbXrecord
  1
VERSION
140
15.0
  1
PRODUCT
  2
AutoCAD Mechanical 2000
  0
IDBUFFER
  5
32DA
330
0
100
AcDbIdBuffer
  0
IDBUFFER
  5
32DB
330
0
100
AcDbIdBuffer
330
31DC
330
31DD
330
31DE
330
31DF
330
31E0
330
31E1
330
31E2
330
31E3
330
31E9
330
31EA
330
31EB
330
31EC
330
31ED
330
31EE
330
31EF
330
31F0
330
31F1
330
31F2
330
31F3
330
31F4
330
31F5
330
31F6
330
31F7
330
31F8
330
31F9
330
31FA
330
31FB
330
31FC
330
31FD
330
C1D
330
C20
330
24A7
330
24BE
330
2572
330
2C0E
330
2C11
330
2C12
330
2C13
330
2C14
330
2C15
330
2C23
330
2C72
330
2C73
330
2FB7
330
2FB9
  0
IDBUFFER
  5
32DC
330
0
100
AcDbIdBuffer
330
23EF
  0
IDBUFFER
  5
32DD
330
0
100
AcDbIdBuffer
330
31E7
330
31E8
330
24B7
330
24B8
330
24B9
330
24C7
330
24C8
330
24D4
330
24D5
330
24E6
330
24E7
330
2BF2
330
2BF3
330
2BF4
330
2BF5
330
31E4
330
31E5
330
31E6
  0
IDBUFFER
  5
32DE
330
0
100
AcDbIdBuffer
330
CC6
330
2069
330
2C16
330
2C81
330
2D60
  0
IDBUFFER
  5
32DF
330
0
100
AcDbIdBuffer
  0
IDBUFFER
  5
32E0
330
0
100
AcDbIdBuffer
330
19BD
  0
IDBUFFER
  5
32E1
330
0
100
AcDbIdBuffer
  0
ENDSEC
  0
EOF
