  0
SECTION
  2
HEADER
  9
$ACADVER
  1
AC1014
  9
$ACADMAINTVER
 70
     9
  9
$DWGCODEPAGE
  3
ANSI_932
  9
$INSBASE
 10
0.0
 20
0.0
 30
0.0
  9
$EXTMIN
 10
-138.876570648467
 20
-57.0171994990407
 30
-0.00000001
  9
$EXTMAX
 10
25.96180130285433
 20
34.47841543963114
 30
0.00000001
  9
$LIMMIN
 10
-159.5870916289195
 20
-83.01079634209816
  9
$LIMMAX
 10
37.8797084127442
 20
58.01900570136041
  9
$ORTHOMODE
 70
     0
  9
$REGENMODE
 70
     1
  9
$FILLMODE
 70
     1
  9
$QTEXTMODE
 70
     0
  9
$MIRRTEXT
 70
     0
  9
$DRAGMODE
 70
     2
  9
$LTSCALE
 40
0.5
  9
$OSMODE
 70
    55
  9
$ATTMODE
 70
     1
  9
$TEXTSIZE
 40
2.5
  9
$TRACEWID
 40
1.0
  9
$TEXTSTYLE
  7
STANDARD
  9
$CLAYER
  8
AM_0
  9
$CELTYPE
  6
BYLAYER
  9
$CECOLOR
 62
   256
  9
$CELTSCALE
 40
1.0
  9
$DELOBJ
 70
     1
  9
$DISPSILH
 70
     0
  9
$DIMSCALE
 40
0.5
  9
$DIMASZ
 40
2.5
  9
$DIMEXO
 40
1.0
  9
$DIMDLI
 40
12.0
  9
$DIMRND
 40
0.0
  9
$DIMDLE
 40
0.0
  9
$DIMEXE
 40
1.0
  9
$DIMTP
 40
0.1
  9
$DIMTM
 40
0.1
  9
$DIMTXT
 40
3.2
  9
$DIMCEN
 40
0.0
  9
$DIMTSZ
 40
0.0
  9
$DIMTOL
 70
     0
  9
$DIMLIM
 70
     0
  9
$DIMTIH
 70
     0
  9
$DIMTOH
 70
     0
  9
$DIMSE1
 70
     0
  9
$DIMSE2
 70
     0
  9
$DIMTAD
 70
     3
  9
$DIMZIN
 70
     8
  9
$DIMBLK
  1
OPEN30
  9
$DIMASO
 70
     1
  9
$DIMSHO
 70
     1
  9
$DIMPOST
  1

  9
$DIMAPOST
  1
"
  9
$DIMALT
 70
     0
  9
$DIMALTD
 70
     2
  9
$DIMALTF
 40
0.0393701
  9
$DIMLFAC
 40
1.0
  9
$DIMTOFL
 70
     1
  9
$DIMTVP
 40
0.0
  9
$DIMTIX
 70
     0
  9
$DIMSOXD
 70
     0
  9
$DIMSAH
 70
     0
  9
$DIMBLK1
  1

  9
$DIMBLK2
  1

  9
$DIMSTYLE
  2
AM_JIS
  9
$DIMCLRD
 70
   256
  9
$DIMCLRE
 70
   256
  9
$DIMCLRT
 70
     2
  9
$DIMTFAC
 40
0.71
  9
$DIMGAP
 40
1.5
  9
$DIMJUST
 70
     0
  9
$DIMSD1
 70
     0
  9
$DIMSD2
 70
     0
  9
$DIMTOLJ
 70
     0
  9
$DIMTZIN
 70
     0
  9
$DIMALTZ
 70
     0
  9
$DIMALTTZ
 70
     0
  9
$DIMFIT
 70
     3
  9
$DIMUPT
 70
     0
  9
$DIMUNIT
 70
     2
  9
$DIMDEC
 70
     3
  9
$DIMTDEC
 70
     3
  9
$DIMALTU
 70
     2
  9
$DIMALTTD
 70
     2
  9
$DIMTXSTY
  7
ASAMI
  9
$DIMAUNIT
 70
     0
  9
$LUNITS
 70
     2
  9
$LUPREC
 70
     2
  9
$SKETCHINC
 40
1.0
  9
$FILLETRAD
 40
2.5
  9
$AUNITS
 70
     0
  9
$AUPREC
 70
     0
  9
$MENU
  1
.
  9
$ELEVATION
 40
0.0
  9
$PELEVATION
 40
0.0
  9
$THICKNESS
 40
0.0
  9
$LIMCHECK
 70
     0
  9
$BLIPMODE
 70
     0
  9
$CHAMFERA
 40
2.5
  9
$CHAMFERB
 40
2.5
  9
$CHAMFERC
 40
20.0
  9
$CHAMFERD
 40
0.0
  9
$SKPOLY
 70
     0
  9
$TDCREATE
 40
2452800.443498622
  9
$TDUPDATE
 40
2453151.588785613
  9
$TDINDWG
 40
0.3605355324
  9
$TDUSRTIMER
 40
0.3605355324
  9
$USRTIMER
 70
     1
  9
$ANGBASE
 50
0.0
  9
$ANGDIR
 70
     0
  9
$PDMODE
 70
     0
  9
$PDSIZE
 40
0.0
  9
$PLINEWID
 40
0.0
  9
$COORDS
 70
     1
  9
$SPLFRAME
 70
     0
  9
$SPLINETYPE
 70
     6
  9
$SPLINESEGS
 70
     8
  9
$ATTDIA
 70
     1
  9
$ATTREQ
 70
     1
  9
$HANDLING
 70
 12289
  9
$HANDSEED
  5
44B1
  9
$SURFTAB1
 70
     6
  9
$SURFTAB2
 70
     6
  9
$SURFTYPE
 70
     6
  9
$SURFU
 70
     6
  9
$SURFV
 70
     6
  9
$UCSNAME
  2

  9
$UCSORG
 10
0.0000000000000031
 20
-0.0000000000000078
 30
0.0
  9
$UCSXDIR
 10
1.0
 20
0.0000000000000027
 30
0.0
  9
$UCSYDIR
 10
-0.0000000000000027
 20
1.0
 30
0.0
  9
$PUCSNAME
  2

  9
$PUCSORG
 10
0.0
 20
0.0
 30
0.0
  9
$PUCSXDIR
 10
1.0
 20
0.0
 30
0.0
  9
$PUCSYDIR
 10
0.0
 20
1.0
 30
0.0
  9
$USERI1
 70
     0
  9
$USERI2
 70
     0
  9
$USERI3
 70
     0
  9
$USERI4
 70
     0
  9
$USERI5
 70
     0
  9
$USERR1
 40
0.0
  9
$USERR2
 40
0.0
  9
$USERR3
 40
0.0
  9
$USERR4
 40
0.0
  9
$USERR5
 40
0.0
  9
$WORLDVIEW
 70
     1
  9
$SHADEDGE
 70
     3
  9
$SHADEDIF
 70
    70
  9
$TILEMODE
 70
     1
  9
$MAXACTVP
 70
    64
  9
$PINSBASE
 10
0.0
 20
0.0
 30
0.0
  9
$PLIMCHECK
 70
     0
  9
$PEXTMIN
 10
1.000000000000000E+20
 20
1.000000000000000E+20
 30
1.000000000000000E+20
  9
$PEXTMAX
 10
-1.000000000000000E+20
 20
-1.000000000000000E+20
 30
-1.000000000000000E+20
  9
$PLIMMIN
 10
0.0
 20
0.0
  9
$PLIMMAX
 10
841.0
 20
594.0
  9
$UNITMODE
 70
     0
  9
$VISRETAIN
 70
     1
  9
$PLINEGEN
 70
     0
  9
$PSLTSCALE
 70
     0
  9
$TREEDEPTH
 70
  3020
  9
$PICKSTYLE
 70
     0
  9
$CMLSTYLE
  2
STANDARD
  9
$CMLJUST
 70
     0
  9
$CMLSCALE
 40
20.0
  9
$PROXYGRAPHICS
 70
     1
  9
$MEASUREMENT
 70
     1
  0
ENDSEC
  0
SECTION
  2
CLASSES
  0
CLASS
  1
ACDBDICTIONARYWDFLT
  2
AcDbDictionaryWithDefault
  3
AutoCAD 2000
 90
        0
280
     0
281
     0
  0
CLASS
  1
ACDBPLACEHOLDER
  2
AcDbPlaceHolder
  3
AutoCAD 2000
 90
        0
280
     0
281
     0
  0
CLASS
  1
LAYOUT
  2
AcDbLayout
  3
AutoCAD 2000
 90
        0
280
     0
281
     0
  0
CLASS
  1
AMGSETTINGSOBJ
  2
AmgSettingsObj
  3
"AcadM|Product Description: AutoCAD Mechanical 2000|Company: Autodesk"
 90
        0
280
     0
281
     0
  0
CLASS
  1
ACME_DOCUMENT
  2
AcMeDbDoc
  3
AcMeServices
 90
        0
280
     0
281
     0
  0
CLASS
  1
ACMESCOPE
  2
AcMeScope
  3
AcMeServices
 90
        0
280
     0
281
     0
  0
CLASS
  1
ACMECOMMANDHISTORY
  2
AcMeCommandHistory
  3
AcMeServices
 90
        0
280
     0
281
     0
  0
CLASS
  1
DICTIONARYVAR
  2
AcDbDictionaryVar
  3
AutoCAD 2000
 90
        0
280
     0
281
     0
  0
CLASS
  1
ACIMSYSVARMAN
  2
AcImSysVarManager
  3
AcMeServices
 90
        0
280
     0
281
     0
  0
CLASS
  1
ACIMREALSYSVAR
  2
AcImRealSysVar
  3
AcMeServices
 90
        0
280
     0
281
     0
  0
CLASS
  1
ACIMINTSYSVAR
  2
AcImIntSysVar
  3
AcMeServices
 90
        0
280
     0
281
     0
  0
CLASS
  1
ACMEDRAWINGMAN
  2
AcMeDrawingMan
  3
AcMeServices
 90
        0
280
     0
281
     0
  0
CLASS
  1
ACMEVIEW
  2
AcMeView
  3
AcMeServices
 90
        0
280
     0
281
     0
  0
CLASS
  1
ACDBENTITYCACHE
  2
AcMeEntityCache
  3
AcMeServices
 90
        0
280
     0
281
     0
  0
CLASS
  1
GSMANAGER
  2
AcMeGSManager
  3
AcMeServices
 90
        0
280
     0
281
     0
  0
CLASS
  1
AmdtInternalReactor
  2
AmdtInternalReactor
  3
AcMeServices
 90
        0
280
     0
281
     0
  0
CLASS
  1
ACMESTATEMGR
  2
AcMeStateMgr
  3
AcMeServices
 90
        0
280
     0
281
     0
  0
CLASS
  1
ACME_DATABASE
  2
AcMeDbDatabase
  3
AcMeServices
 90
        0
280
     0
281
     0
  0
CLASS
  1
ACRFINSADJUSTERMGR
  2
AcRfInsAdjusterMgr
  3
AcMeServices
 90
        0
280
     0
281
     0
  0
CLASS
  1
ACMDATADICTIONARY
  2
AcmDataDictionary
  3
"AcmSymBB|Product Description: AutoCAD Mechanical 2000|Company: Autodesk"
 90
        0
280
     0
281
     0
  0
CLASS
  1
ACMDATAENTRYBLOCK
  2
AcmDataEntryBlock
  3
"AcmSymBB|Product Description: AutoCAD Mechanical 2000|Company: Autodesk"
 90
        0
280
     0
281
     0
  0
CLASS
  1
AMGOBJPROPCFG
  2
AmgObjPropCfg
  3
"AmgLay|Product Description: AutoCAD Mechanical 2000|Company: Autodesk"
 90
        1
280
     0
281
     0
  0
CLASS
  1
ACAMGFILTERDAT
  2
AcAmgFilterDat
  3
"AcadM|Product Description: AutoCAD Mechanical 2000|Company: Autodesk"
 90
        0
280
     0
281
     0
  0
CLASS
  1
LAYER_INDEX
  2
AcDbLayerIndex
  3
AutoCAD 2000
 90
        0
280
     0
281
     0
  0
CLASS
  1
IDBUFFER
  2
AcDbIdBuffer
  3
AutoCAD 2000
 90
        0
280
     0
281
     0
  0
CLASS
  1
ACIMSTRSYSVAR
  2
AcImStrSysVar
  3
AcMeServices
 90
        0
280
     0
281
     0
  0
CLASS
  1
ACMSTANDARDJIS
  2
AcmStandardJIS
  3
"AcmSymBB|Product Description: AutoCAD Mechanical 2000|Company: Autodesk"
 90
        0
280
     0
281
     0
  0
CLASS
  1
ACMSURFSTANDARDJIS
  2
AcmSurfTextStdJIS
  3
"AcmSymBB|Product Description: AutoCAD Mechanical 2000|Company: Autodesk"
 90
        0
280
     0
281
     0
  0
CLASS
  1
ACMFCFSTANDARDJIS
  2
AcmFCFStdJIS
  3
"AcmSymBB|Product Description: AutoCAD Mechanical 2000|Company: Autodesk"
 90
        0
280
     0
281
     0
  0
CLASS
  1
ACMWELDSTANDARDJIS
  2
AcmWeldingStdJIS
  3
"AcmSymBB|Product Description: AutoCAD Mechanical 2000|Company: Autodesk"
 90
        0
280
     0
281
     0
  0
CLASS
  1
ACMIDSTANDARDJIS
  2
AcmIdStdJIS
  3
"AcmSymBB|Product Description: AutoCAD Mechanical 2000|Company: Autodesk"
 90
        0
280
     0
281
     0
  0
CLASS
  1
ACMDATUMSTANDARDJIS
  2
AcmDatumStdJIS
  3
"AcmSymBB|Product Description: AutoCAD Mechanical 2000|Company: Autodesk"
 90
        0
280
     0
281
     0
  0
CLASS
  1
ACMBOMSTANDARDJIS
  2
AcmBOMStdJIS
  3
"AcmSymBB|Product Description: AutoCAD Mechanical 2000|Company: Autodesk"
 90
        0
280
     0
281
     0
  0
CLASS
  1
ACMSTANDARDANSI
  2
AcmStandardANSI
  3
"AcmSymBB|Product Description: AutoCAD Mechanical 2000|Company: Autodesk"
 90
        0
280
     0
281
     0
  0
CLASS
  1
ACMSURFSTANDARDANSI
  2
AcmSurfTextStdANSI
  3
"AcmSymBB|Product Description: AutoCAD Mechanical 2000|Company: Autodesk"
 90
        0
280
     0
281
     0
  0
CLASS
  1
ACMFCFSTANDARDANSI
  2
AcmFCFStdANSI
  3
"AcmSymBB|Product Description: AutoCAD Mechanical 2000|Company: Autodesk"
 90
        0
280
     0
281
     0
  0
CLASS
  1
ACMWELDSTANDARDANSI
  2
AcmWeldingStdANSI
  3
"AcmSymBB|Product Description: AutoCAD Mechanical 2000|Company: Autodesk"
 90
        0
280
     0
281
     0
  0
CLASS
  1
ACMIDSTANDARDANSI
  2
AcmIdStdANSI
  3
"AcmSymBB|Product Description: AutoCAD Mechanical 2000|Company: Autodesk"
 90
        0
280
     0
281
     0
  0
CLASS
  1
ACMDATUMSTANDARDANSI
  2
AcmDatumStdANSI
  3
"AcmSymBB|Product Description: AutoCAD Mechanical 2000|Company: Autodesk"
 90
        0
280
     0
281
     0
  0
CLASS
  1
ACMBOMSTANDARDANSI
  2
AcmBOMStdANSI
  3
"AcmSymBB|Product Description: AutoCAD Mechanical 2000|Company: Autodesk"
 90
        0
280
     0
281
     0
  0
CLASS
  1
ACMSTANDARDBSI
  2
AcmStandardBSI
  3
"AcmSymBB|Product Description: AutoCAD Mechanical 2000|Company: Autodesk"
 90
        0
280
     0
281
     0
  0
CLASS
  1
ACMSURFSTANDARDBSI
  2
AcmSurfTextStdBSI
  3
"AcmSymBB|Product Description: AutoCAD Mechanical 2000|Company: Autodesk"
 90
        0
280
     0
281
     0
  0
CLASS
  1
ACMFCFSTANDARDBSI
  2
AcmFCFStdBSI
  3
"AcmSymBB|Product Description: AutoCAD Mechanical 2000|Company: Autodesk"
 90
        0
280
     0
281
     0
  0
CLASS
  1
ACMWELDSTANDARDBSI
  2
AcmWeldingStdBSI
  3
"AcmSymBB|Product Description: AutoCAD Mechanical 2000|Company: Autodesk"
 90
        0
280
     0
281
     0
  0
CLASS
  1
ACMIDSTANDARDBSI
  2
AcmIdStdBSI
  3
"AcmSymBB|Product Description: AutoCAD Mechanical 2000|Company: Autodesk"
 90
        0
280
     0
281
     0
  0
CLASS
  1
ACMDATUMSTANDARDBSI
  2
AcmDatumStdBSI
  3
"AcmSymBB|Product Description: AutoCAD Mechanical 2000|Company: Autodesk"
 90
        0
280
     0
281
     0
  0
CLASS
  1
ACMBOMSTANDARDBSI
  2
AcmBOMStdBSI
  3
"AcmSymBB|Product Description: AutoCAD Mechanical 2000|Company: Autodesk"
 90
        0
280
     0
281
     0
  0
CLASS
  1
LONG_TRANSACTION
  2
AcDbLongTransaction
  3
AutoCAD 2000
 90
        0
280
     0
281
     0
  0
CLASS
  1
LWPOLYLINE
  2
AcDbPolyline
  3
AutoCAD 2000
 90
        0
280
     0
281
     1
  0
CLASS
  1
HATCH
  2
AcDbHatch
  3
AutoCAD 2000
 90
        0
280
     0
281
     1
  0
CLASS
  1
XRECORD
  2
AcDbXrecord
  3
AutoCAD 2000
 90
        0
280
     0
281
     0
  0
ENDSEC
  0
SECTION
  2
TABLES
  0
TABLE
  2
VPORT
  5
8
330
0
100
AcDbSymbolTable
 70
     3
  0
VPORT
  5
4486
330
8
100
AcDbSymbolTableRecord
100
AcDbViewportTableRecord
  2
*ACTIVE
 70
     0
 10
0.0
 20
0.0
 11
1.0
 21
1.0
 12
-44.15251955101616
 22
-14.91177459762511
 13
0.0
 23
0.0
 14
2.5
 24
2.5
 15
10.0
 25
10.0
 16
0.0
 26
0.0
 36
1.0
 17
0.0
 27
0.0
 37
0.0
 40
198.6961691429288
 41
1.56570841889117
 42
50.0
 43
0.0
 44
0.0
 50
0.0
 51
0.0
 71
     0
 72
   100
 73
     1
 74
     1
 75
     0
 76
     0
 77
     0
 78
     0
  0
ENDTAB
  0
TABLE
  2
LTYPE
  5
5
330
0
100
AcDbSymbolTable
 70
    10
  0
LTYPE
  5
14
330
5
100
AcDbSymbolTableRecord
100
AcDbLinetypeTableRecord
  2
BYBLOCK
 70
     0
  3

 72
    65
 73
     0
 40
0.0
  0
LTYPE
  5
15
330
5
100
AcDbSymbolTableRecord
100
AcDbLinetypeTableRecord
  2
BYLAYER
 70
     0
  3

 72
    65
 73
     0
 40
0.0
  0
LTYPE
  5
16
330
5
100
AcDbSymbolTableRecord
100
AcDbLinetypeTableRecord
  2
CONTINUOUS
 70
     0
  3
Solid line
 72
    65
 73
     0
 40
0.0
  0
LTYPE
  5
4B
330
5
100
AcDbSymbolTableRecord
100
AcDbLinetypeTableRecord
  2
AM_ISO02W050
 70
     0
  3
__ __ __ __ __ __ __ __ __ __ __ __ __ __ __
 72
    65
 73
     2
 40
7.5
 49
6.0
 74
     0
 49
-1.5
 74
     0
  0
LTYPE
  5
4C
330
5
100
AcDbSymbolTableRecord
100
AcDbLinetypeTableRecord
  2
AM_ISO08W050
 70
     0
  3
____ . ____ . ____ . ____ . ____ . ____ . ____
 72
    65
 73
     4
 40
18.0
 49
12.0
 74
     0
 49
-1.5
 74
     0
 49
3.0
 74
     0
 49
-1.5
 74
     0
  0
LTYPE
  5
4D
330
5
100
AcDbSymbolTableRecord
100
AcDbLinetypeTableRecord
  2
AM_ISO09W050
 70
     0
  3
_____ . . _____ . . _____ . . ____ .. ____
 72
    65
 73
     6
 40
22.5
 49
12.0
 74
     0
 49
-1.5
 74
     0
 49
3.0
 74
     0
 49
-1.5
 74
     0
 49
3.0
 74
     0
 49
-1.5
 74
     0
  0
LTYPE
  5
4E
330
5
100
AcDbSymbolTableRecord
100
AcDbLinetypeTableRecord
  2
AMCONSTR
 70
     0
  3
_______________________
 72
    65
 73
     2
 40
9999.0
 49
9999.0
 74
     0
 49
0.0
 74
     0
  0
LTYPE
  5
4F
330
5
100
AcDbSymbolTableRecord
100
AcDbLinetypeTableRecord
  2
AM_ISO02W050X2
 70
     0
  3
 _ _ _ _ _ _ _ _ _ _ _ _
 72
    65
 73
     2
 40
3.75
 49
3.0
 74
     0
 49
-0.75
 74
     0
  0
LTYPE
  5
50
330
5
100
AcDbSymbolTableRecord
100
AcDbLinetypeTableRecord
  2
AM_ISO08W050X2
 70
     0
  3
__ . __ . __ . __ . __ . __
 72
    65
 73
     4
 40
9.0
 49
6.0
 74
     0
 49
-0.75
 74
     0
 49
1.5
 74
     0
 49
-0.75
 74
     0
  0
LTYPE
  5
53
330
5
100
AcDbSymbolTableRecord
100
AcDbLinetypeTableRecord
  2
AMZIGZAG
 70
     0
  3
/\/-/\/-/\/-/\/-/\/-/\/
 72
    65
 73
     2
 40
11.00009999999999
 49
0.0001
 74
     4
 75
   135
340
52
 46
0.04
 50
0.0
 44
0.0
 45
0.0
 49
-11.0
 74
     0
  0
LTYPE
  5
166
330
5
100
AcDbSymbolTableRecord
100
AcDbLinetypeTableRecord
  2
ACJISTGL
 70
     0
  3
_ _ _ _ _
 72
    65
 73
     2
 40
3.0
 49
2.0
 74
     0
 49
-1.0
 74
     0
  0
LTYPE
  5
26A
330
5
100
AcDbSymbolTableRecord
100
AcDbLinetypeTableRecord
  2
ACJISTGB
 70
     0
  3
__ . . __ . .
 72
    65
 73
     6
 40
9.0
 49
4.0
 74
     0
 49
-1.0
 74
     0
 49
1.0
 74
     0
 49
-1.0
 74
     0
 49
1.0
 74
     0
 49
-1.0
 74
     0
  0
ENDTAB
  0
TABLE
  2
LAYER
  5
2
330
0
100
AcDbSymbolTable
 70
    10
  0
LAYER
  5
10
330
2
100
AcDbSymbolTableRecord
100
AcDbLayerTableRecord
  2
0
 70
     0
 62
     7
  6
CONTINUOUS
  0
LAYER
  5
3F9
330
2
100
AcDbSymbolTableRecord
100
AcDbLayerTableRecord
  2
AM_0
 70
     0
 62
     7
  6
CONTINUOUS
  0
LAYER
  5
BA4
330
2
100
AcDbSymbolTableRecord
100
AcDbLayerTableRecord
  2
PV0001_1
 70
     0
 62
     7
  6
CONTINUOUS
  0
LAYER
  5
C6C
330
2
100
AcDbSymbolTableRecord
100
AcDbLayerTableRecord
  2
AM_CL
 70
     0
 62
     1
  6
AMCONSTR
  0
LAYER
  5
C7C
330
2
100
AcDbSymbolTableRecord
100
AcDbLayerTableRecord
  2
AM_7
 70
     0
 62
     4
  6
AM_ISO08W050
  0
LAYER
  5
C97
330
2
100
AcDbSymbolTableRecord
100
AcDbLayerTableRecord
  2
AM_11
 70
     0
 62
     3
  6
AM_ISO09W050
  0
LAYER
  5
CC5
330
2
100
AcDbSymbolTableRecord
100
AcDbLayerTableRecord
  2
AM_5
 70
     0
 62
     3
  6
CONTINUOUS
  0
LAYER
  5
CC7
330
2
100
AcDbSymbolTableRecord
100
AcDbLayerTableRecord
  2
DEFPOINTS
 70
     0
 62
     7
  6
CONTINUOUS
  0
LAYER
  5
19BC
330
2
100
AcDbSymbolTableRecord
100
AcDbLayerTableRecord
  2
AM_6
 70
     0
 62
     2
  6
CONTINUOUS
  0
LAYER
  5
1F8E
330
2
100
AcDbSymbolTableRecord
100
AcDbLayerTableRecord
  2
AM_4
 70
     0
 62
     3
  6
CONTINUOUS
  0
ENDTAB
  0
TABLE
  2
STYLE
  5
3
330
0
100
AcDbSymbolTable
 70
     5
  0
STYLE
  5
11
330
3
100
AcDbSymbolTableRecord
100
AcDbTextStyleTableRecord
  2
STANDARD
 70
     0
 40
0.0
 41
1.0
 50
0.0
 71
     0
 42
2.5
  3
simplex.shx
  4
EXTFONT.SHX
  0
STYLE
  5
52
330
3
100
AcDbSymbolTableRecord
100
AcDbTextStyleTableRecord
  2

 70
     1
 40
0.0
 41
1.0
 50
0.0
 71
     0
 42
2.5
  3
ltypeshp.shx
  4

  0
STYLE
  5
6B
330
3
100
AcDbSymbolTableRecord
100
AcDbTextStyleTableRecord
  2
ASAMI
 70
     0
 40
0.0
 41
1.0
 50
0.0
 71
     0
 42
2.5
  3
simplex.shx
  4
EXTFONT.SHX
  0
STYLE
  5
262
330
3
100
AcDbSymbolTableRecord
100
AcDbTextStyleTableRecord
  2
ACJISTS
 70
     0
 40
1.0
 41
1.0
 50
0.0
 71
     0
 42
2.5
  3
simplex.shx
  4
bigfont.shx
  0
STYLE
  5
269
330
3
100
AcDbSymbolTableRecord
100
AcDbTextStyleTableRecord
  2
ACJISGDT
 70
     0
 40
0.0
 41
1.0
 50
0.0
 71
     0
 42
2.5
  3
amgdtans.shx
  4

  0
ENDTAB
  0
TABLE
  2
VIEW
  5
6
330
0
100
AcDbSymbolTable
 70
     0
  0
ENDTAB
  0
TABLE
  2
UCS
  5
7
330
0
100
AcDbSymbolTable
 70
     0
  0
ENDTAB
  0
TABLE
  2
APPID
  5
9
330
0
100
AcDbSymbolTable
 70
    16
  0
APPID
  5
12
330
9
100
AcDbSymbolTableRecord
100
AcDbRegAppTableRecord
  2
ACAD
 70
     0
  0
APPID
  5
30
330
9
100
AcDbSymbolTableRecord
100
AcDbRegAppTableRecord
  2
MCAD_NO_VIS
 70
     0
  0
APPID
  5
31
330
9
100
AcDbSymbolTableRecord
100
AcDbRegAppTableRecord
  2
ACAD_TEMP_GRAPHIC
 70
     0
  0
APPID
  5
2C2
330
9
100
AcDbSymbolTableRecord
100
AcDbRegAppTableRecord
  2
GENIUS_GENDTOL_13
 70
     0
  0
APPID
  5
339
330
9
100
AcDbSymbolTableRecord
100
AcDbRegAppTableRecord
  2
GENIUS_GENODEF_13
 70
     0
  0
APPID
  5
33A
330
9
100
AcDbSymbolTableRecord
100
AcDbRegAppTableRecord
  2
GENIUS_GENOBJ-N-RSBK_13
 70
     0
  0
APPID
  5
33B
330
9
100
AcDbSymbolTableRecord
100
AcDbRegAppTableRecord
  2
GENIUS_GENOBJ-N-LIB_13
 70
     0
  0
APPID
  5
33C
330
9
100
AcDbSymbolTableRecord
100
AcDbRegAppTableRecord
  2
GENIUS_GENSCALE_13
 70
     0
  0
APPID
  5
378
330
9
100
AcDbSymbolTableRecord
100
AcDbRegAppTableRecord
  2
GENIUS_GENDIMSH_14
 70
     0
  0
APPID
  5
C82
330
9
100
AcDbSymbolTableRecord
100
AcDbRegAppTableRecord
  2
GENIUS_GENOBJ-N-CRS_13
 70
     0
  0
APPID
  5
C83
330
9
100
AcDbSymbolTableRecord
100
AcDbRegAppTableRecord
  2
GENIUS_GENOENT_13
 70
     0
  0
APPID
  5
C84
330
9
100
AcDbSymbolTableRecord
100
AcDbRegAppTableRecord
  2
GENIUS_GENOREF_13
 70
     0
  0
APPID
  5
C85
330
9
100
AcDbSymbolTableRecord
100
AcDbRegAppTableRecord
  2
GENIUS_GENOLIS_13
 70
     0
  0
APPID
  5
CA0
330
9
100
AcDbSymbolTableRecord
100
AcDbRegAppTableRecord
  2
GENIUS_GENOBJ-N-CEN_13
 70
     0
  0
APPID
  5
31AE
330
9
100
AcDbSymbolTableRecord
100
AcDbRegAppTableRecord
  2
GENIUS_GENFIL_13
 70
     0
  0
APPID
  5
31AF
330
9
100
AcDbSymbolTableRecord
100
AcDbRegAppTableRecord
  2
GENIUS_GENOBJ-N-CHA_13
 70
     0
  0
ENDTAB
  0
TABLE
  2
DIMSTYLE
  5
A
330
0
100
AcDbSymbolTable
 70
    10
  0
DIMSTYLE
105
58
330
A
100
AcDbSymbolTableRecord
100
AcDbDimStyleTableRecord
  2
AM_JIS
 70
     0
  3

  4
"
  5
OPEN30
  6

  7

 40
0.5
 41
2.5
 42
1.0
 43
12.0
 44
1.0
 45
0.0
 46
0.0
 47
0.1
 48
0.1
140
3.2
141
0.0
142
0.0
143
0.0393701
144
1.0
145
0.0
146
0.71
147
1.5
 71
     0
 72
     0
 73
     0
 74
     0
 75
     0
 76
     0
 77
     3
 78
     8
170
     0
171
     2
172
     1
173
     0
174
     0
175
     0
176
   256
177
   256
178
     2
270
     2
271
     3
272
     3
273
     2
274
     2
340
6B
275
     0
280
     0
281
     0
282
     0
283
     0
284
     0
285
     0
286
     0
287
     3
288
     0
  0
DIMSTYLE
105
5F
330
A
100
AcDbSymbolTableRecord
100
AcDbDimStyleTableRecord
  2
AM_JIS$3
 70
     0
  3

  4
"
  5
OPEN30
  6

  7

 40
0.5
 41
2.5
 42
1.0
 43
10.0
 44
1.0
 45
0.0
 46
0.0
 47
0.1
 48
0.1
140
3.2
141
0.0
142
0.0
143
0.0393701
144
1.0
145
0.0
146
0.71
147
1.5
 71
     0
 72
     0
 73
     0
 74
     1
 75
     0
 76
     0
 77
     3
 78
     8
170
     0
171
     2
172
     0
173
     0
174
     0
175
     0
176
   256
177
   256
178
     2
270
     2
271
     2
272
     3
273
     2
274
     2
340
6B
275
     0
280
     0
281
     0
282
     0
283
     0
284
     0
285
     0
286
     0
287
     0
288
     1
  0
DIMSTYLE
105
60
330
A
100
AcDbSymbolTableRecord
100
AcDbDimStyleTableRecord
  2
AM_JIS$4
 70
     0
  3

  4
"
  5
OPEN30
  6

  7

 40
0.5
 41
2.5
 42
1.0
 43
10.0
 44
1.0
 45
0.0
 46
0.0
 47
0.1
 48
0.1
140
3.2
141
0.0
142
0.0
143
0.0393701
144
1.0
145
0.0
146
0.71
147
1.5
 71
     0
 72
     0
 73
     0
 74
     1
 75
     0
 76
     0
 77
     3
 78
     8
170
     0
171
     2
172
     0
173
     0
174
     0
175
     0
176
   256
177
   256
178
     2
270
     2
271
     2
272
     3
273
     2
274
     2
340
6B
275
     0
280
     0
281
     0
282
     0
283
     0
284
     0
285
     0
286
     0
287
     0
288
     1
  0
DIMSTYLE
105
61
330
A
100
AcDbSymbolTableRecord
100
AcDbDimStyleTableRecord
  2
AM_JIS$6
 70
     0
  3

  4
"
  5
OPEN30
  6

  7

 40
0.5
 41
2.5
 42
1.0
 43
10.0
 44
1.0
 45
0.0
 46
0.0
 47
0.1
 48
0.1
140
3.2
141
0.0
142
0.0
143
0.0393701
144
1.0
145
0.0
146
0.71
147
1.5
 71
     0
 72
     0
 73
     0
 74
     0
 75
     0
 76
     0
 77
     0
 78
     8
170
     0
171
     2
172
     1
173
     0
174
     0
175
     0
176
   256
177
   256
178
     2
270
     2
271
     2
272
     2
273
     2
274
     2
340
6B
275
     0
280
     0
281
     0
282
     0
283
     0
284
     0
285
     0
286
     0
287
     3
288
     0
  0
DIMSTYLE
105
62
330
A
100
AcDbSymbolTableRecord
100
AcDbDimStyleTableRecord
  2
AM_JIS$7
 70
     0
  3

  4
"
  5
OPEN30
  6

  7

 40
0.5
 41
2.5
 42
1.0
 43
10.0
 44
1.0
 45
0.0
 46
0.0
 47
0.1
 48
0.1
140
3.2
141
0.0
142
0.0
143
0.0393701
144
1.0
145
0.0
146
0.71
147
1.5
 71
     0
 72
     0
 73
     0
 74
     0
 75
     0
 76
     0
 77
     3
 78
     8
170
     0
171
     2
172
     1
173
     0
174
     0
175
     0
176
   256
177
   256
178
     2
270
     2
271
     2
272
     3
273
     2
274
     2
340
6B
275
     0
280
     0
281
     0
282
     0
283
     0
284
     0
285
     0
286
     0
287
     3
288
     0
  0
DIMSTYLE
105
63
330
A
100
AcDbSymbolTableRecord
100
AcDbDimStyleTableRecord
  2
AM_JIS$SF
 70
     0
  3

  4
"
  5
OPEN30
  6

  7

 40
0.5
 41
2.5
 42
1.0
 43
10.0
 44
1.0
 45
0.0
 46
0.0
 47
0.1
 48
0.1
140
3.2
141
0.0
142
0.0
143
0.0393701
144
1.0
145
0.0
146
0.71
147
1.5
 71
     0
 72
     0
 73
     0
 74
     0
 75
     1
 76
     1
 77
     3
 78
     8
170
     0
171
     2
172
     1
173
     0
174
     0
175
     0
176
   256
177
   256
178
     2
270
     2
271
     2
272
     2
273
     2
274
     2
340
6B
275
     0
280
     0
281
     0
282
     0
283
     0
284
     0
285
     0
286
     0
287
     3
288
     0
  0
DIMSTYLE
105
68
330
A
100
AcDbSymbolTableRecord
100
AcDbDimStyleTableRecord
  2
AM_JIS$SH
 70
     0
  3

  4
"
  5

  6
GENAXEH
  7
OPEN30
 40
0.5
 41
2.5
 42
1.0
 43
10.0
 44
1.0
 45
0.0
 46
0.0
 47
0.1
 48
0.1
140
3.2
141
0.0
142
0.0
143
0.0393701
144
2.0
145
0.0
146
0.71
147
1.5
 71
     0
 72
     0
 73
     0
 74
     0
 75
     1
 76
     1
 77
     3
 78
     8
170
     0
171
     2
172
     1
173
     1
174
     0
175
     0
176
   256
177
   256
178
     2
270
     2
271
     2
272
     2
273
     2
274
     2
340
6B
275
     0
280
     0
281
     0
282
     0
283
     0
284
     0
285
     0
286
     0
287
     3
288
     0
  0
DIMSTYLE
105
B34
102
{ACAD_REACTORS
330
31FC
330
433B
102
}
330
A
100
AcDbSymbolTableRecord
100
AcDbDimStyleTableRecord
  2
AM_JIS$2
 70
     0
  3

  4
"
  5
OPEN30
  6

  7

 40
0.5
 41
2.5
 42
1.0
 43
12.0
 44
1.0
 45
0.0
 46
0.0
 47
0.1
 48
0.1
140
3.2
141
0.0
142
0.0
143
0.0393701
144
1.0
145
0.0
146
0.71
147
1.5
 71
     0
 72
     0
 73
     0
 74
     0
 75
     0
 76
     0
 77
     3
 78
     8
170
     0
171
     2
172
     1
173
     0
174
     0
175
     0
176
   256
177
   256
178
     2
270
     2
271
     3
272
     3
273
     2
274
     2
340
6B
275
     0
280
     0
281
     0
282
     0
283
     0
284
     0
285
     0
286
     0
287
     3
288
     0
  0
DIMSTYLE
105
BA5
102
{ACAD_REACTORS
330
31FD
330
31FE
330
3202
330
320B
330
323E
102
}
330
A
100
AcDbSymbolTableRecord
100
AcDbDimStyleTableRecord
  2
AM_JIS$0
 70
     0
  3

  4
"
  5
OPEN30
  6

  7

 40
0.5
 41
2.5
 42
0.8
 43
10.0
 44
1.0
 45
0.0
 46
0.0
 47
0.1
 48
0.1000000001
140
3.799999999999999
141
0.0
142
0.0
143
0.0393701
144
1.0
145
0.0
146
0.71
147
1.5
 71
     0
 72
     0
 73
     0
 74
     0
 75
     0
 76
     0
 77
     3
 78
     9
170
     0
171
     2
172
     1
173
     0
174
     0
175
     0
176
     3
177
     3
178
     2
270
     2
271
     2
272
     2
273
     2
274
     2
340
11
275
     1
280
     0
281
     0
282
     0
283
     0
284
     8
285
     0
286
     0
287
     0
288
     0
  0
DIMSTYLE
105
BA6
330
A
100
AcDbSymbolTableRecord
100
AcDbDimStyleTableRecord
  2
AM_JISORG-1P0$2
 70
     0
  3

  4
"
  5
OPEN30
  6

  7

 40
1.0
 41
2.5
 42
0.0
 43
10.0
 44
1.0
 45
0.0
 46
0.0
 47
0.1
 48
0.1000000001
140
3.799999999999999
141
0.0
142
0.0
143
0.0393701
144
-0.999999980146674
145
0.0
146
0.71
147
1.5
 71
     0
 72
     0
 73
     0
 74
     0
 75
     0
 76
     0
 77
     3
 78
     1
170
     0
171
     2
172
     1
173
     0
174
     0
175
     0
176
     3
177
     3
178
     2
270
     2
271
     2
272
     2
273
     2
274
     2
340
11
275
     1
280
     0
281
     0
282
     0
283
     0
284
     8
285
     0
286
     0
287
     0
288
     0
  0
ENDTAB
  0
TABLE
  2
BLOCK_RECORD
  5
1
330
0
100
AcDbSymbolTable
 70
    15
  0
BLOCK_RECORD
  5
1F
102
{ACAD_XDICTIONARY
360
74
102
}
330
1
100
AcDbSymbolTableRecord
100
AcDbBlockTableRecord
  2
*MODEL_SPACE
  0
BLOCK_RECORD
  5
101
102
{ACAD_XDICTIONARY
360
44AF
102
}
330
1
100
AcDbSymbolTableRecord
100
AcDbBlockTableRecord
  2
*PAPER_SPACE
  0
BLOCK_RECORD
  5
59
330
1
100
AcDbSymbolTableRecord
100
AcDbBlockTableRecord
  2
_OPEN30
  0
BLOCK_RECORD
  5
64
330
1
100
AcDbSymbolTableRecord
100
AcDbBlockTableRecord
  2
GENAXEH
  0
BLOCK_RECORD
  5
C31
330
1
100
AcDbSymbolTableRecord
100
AcDbBlockTableRecord
  2
A$C36D02A34
  0
BLOCK_RECORD
  5
2453
330
1
100
AcDbSymbolTableRecord
100
AcDbBlockTableRecord
  2
*D6
  0
BLOCK_RECORD
  5
245F
330
1
100
AcDbSymbolTableRecord
100
AcDbBlockTableRecord
  2
A$C4FFC6CC0
  0
BLOCK_RECORD
  5
3244
330
1
100
AcDbSymbolTableRecord
100
AcDbBlockTableRecord
  2
*D8
  0
BLOCK_RECORD
  5
3252
330
1
100
AcDbSymbolTableRecord
100
AcDbBlockTableRecord
  2
*D9
  0
BLOCK_RECORD
  5
3260
330
1
100
AcDbSymbolTableRecord
100
AcDbBlockTableRecord
  2
*D10
  0
BLOCK_RECORD
  5
326E
330
1
100
AcDbSymbolTableRecord
100
AcDbBlockTableRecord
  2
*D11
  0
BLOCK_RECORD
  5
3288
330
1
100
AcDbSymbolTableRecord
100
AcDbBlockTableRecord
  2
*D12
  0
BLOCK_RECORD
  5
3294
330
1
100
AcDbSymbolTableRecord
100
AcDbBlockTableRecord
  2
*D13
  0
BLOCK_RECORD
  5
433C
330
1
100
AcDbSymbolTableRecord
100
AcDbBlockTableRecord
  2
*D14
  0
ENDTAB
  0
ENDSEC
  0
SECTION
  2
BLOCKS
  0
BLOCK
  5
20
330
1F
100
AcDbEntity
  8
0
100
AcDbBlockBegin
  2
*MODEL_SPACE
 70
     0
 10
0.0
 20
0.0
 30
0.0
  3
*MODEL_SPACE
  1

  0
ENDBLK
  5
21
330
1F
100
AcDbEntity
  8
0
100
AcDbBlockEnd
  0
BLOCK
  5
103
330
101
100
AcDbEntity
 67
     1
  8
0
100
AcDbBlockBegin
  2
*PAPER_SPACE
 70
     0
 10
0.0
 20
0.0
 30
0.0
  3
*PAPER_SPACE
  1

  0
ENDBLK
  5
104
330
101
100
AcDbEntity
 67
     1
  8
0
100
AcDbBlockEnd
  0
BLOCK
  5
5D
330
59
100
AcDbEntity
  8
0
100
AcDbBlockBegin
  2
_OPEN30
 70
     0
 10
0.0
 20
0.0
 30
0.0
  3
_OPEN30
  1

  0
LINE
  5
5A
330
59
100
AcDbEntity
  8
0
 62
     0
100
AcDbLine
 10
-1.0
 20
0.26794919
 30
0.0
 11
0.0
 21
0.0
 31
0.0
  0
LINE
  5
5B
330
59
100
AcDbEntity
  8
0
 62
     0
100
AcDbLine
 10
0.0
 20
0.0
 30
0.0
 11
-1.0
 21
-0.26794919
 31
0.0
  0
LINE
  5
5C
330
59
100
AcDbEntity
  8
0
 62
     0
100
AcDbLine
 10
0.0
 20
0.0
 30
0.0
 11
-1.0
 21
0.0
 31
0.0
  0
ENDBLK
  5
5E
330
59
100
AcDbEntity
  8
0
100
AcDbBlockEnd
  0
BLOCK
  5
66
330
64
100
AcDbEntity
  8
0
100
AcDbBlockBegin
  2
GENAXEH
 70
     0
 10
0.0
 20
0.0
 30
0.0
  3
GENAXEH
  1

  0
LINE
  5
65
330
64
100
AcDbEntity
  8
0
100
AcDbLine
 10
-1.0
 20
0.0
 30
0.0
 11
1.0
 21
0.0
 31
0.0
  0
ENDBLK
  5
67
330
64
100
AcDbEntity
  8
0
100
AcDbBlockEnd
  0
BLOCK
  5
C4B
330
C31
100
AcDbEntity
  8
0
100
AcDbBlockBegin
  2
A$C36D02A34
 70
     0
 10
0.0
 20
0.0
 30
0.0
  3
A$C36D02A34
  1

  0
ARC
  5
C32
330
C31
100
AcDbEntity
  8
PV0001_1
  6
CONTINUOUS
 48
0.5
100
AcDbCircle
 10
18.06811523436999
 20
-11.83651161193799
 30
0.0
 40
21.600000381469
100
AcDbArc
 50
123.2290435713209
 51
126.6341524197568
  0
ARC
  5
C33
330
C31
100
AcDbEntity
  8
PV0001_1
  6
CONTINUOUS
 48
0.5
100
AcDbCircle
 10
18.06811523436999
 20
-11.83651161193799
 30
0.0
 40
21.600000381469
100
AcDbArc
 50
135.0736707620117
 51
146.7709980930592
  0
ARC
  5
C34
330
C31
100
AcDbEntity
  8
PV0001_1
  6
CONTINUOUS
 48
0.5
100
AcDbCircle
 10
-18.0680770874
 20
11.8365631103514
 30
0.0
 40
21.600000381469
100
AcDbArc
 50
315.0734847530392
 51
326.770781348241
  0
ARC
  5
C35
330
C31
100
AcDbEntity
  8
PV0001_1
  6
CONTINUOUS
 48
0.5
100
AcDbCircle
 10
-18.0680770874
 20
11.8365631103514
 30
0.0
 40
21.600000381469
100
AcDbArc
 50
303.2288882981993
 51
306.633986901359
  0
ARC
  5
C36
330
C31
100
AcDbEntity
  8
PV0001_1
  6
CONTINUOUS
 48
0.5
100
AcDbCircle
 10
-0.6269836425800009
 20
-2.044216156005997
 30
0.0
 40
2.0
100
AcDbArc
 50
337.4067997351092
 51
43.42231293132884
  0
ARC
  5
C37
330
C31
100
AcDbEntity
  8
PV0001_1
  6
CONTINUOUS
 48
0.5
100
AcDbCircle
 10
0.626953125
 20
2.044223785401001
 30
0.0
 40
2.0
100
AcDbArc
 50
157.4068184044407
 51
223.4222769591536
  0
CIRCLE
  5
C38
330
C31
100
AcDbEntity
  8
PV0001_1
  6
CONTINUOUS
 48
0.5
100
AcDbCircle
 10
3.856727600100001
 20
4.596265792847002
 30
0.0
 40
1.6000000238419
  0
CIRCLE
  5
C39
330
C31
100
AcDbEntity
  8
PV0001_1
  6
CONTINUOUS
 48
0.5
100
AcDbCircle
 10
-3.856727600100001
 20
-4.596265792845997
 30
0.0
 40
1.6000000238419
  0
ARC
  5
C3A
330
C31
100
AcDbEntity
  8
PV0001_1
  6
CONTINUOUS
 48
0.5
100
AcDbCircle
 10
-5.58123779297
 20
5.092639923096001
 30
0.0
 40
5.019082546234099
100
AcDbArc
 50
240.2658959250867
 51
321.5156269706421
  0
ARC
  5
C3B
330
C31
100
AcDbEntity
  8
PV0001_1
  6
CONTINUOUS
 48
0.5
100
AcDbCircle
 10
5.486755371089998
 20
-4.601703643798998
 30
0.0
 40
4.651036739349399
100
AcDbArc
 50
56.25271400417071
 51
145.528859890601
  0
ARC
  5
C3C
330
C31
100
AcDbEntity
  8
PV0001_1
  6
CONTINUOUS
 48
0.5
100
AcDbCircle
 10
-2.11590576172
 20
-3.453323364257997
 30
0.0
 40
4.050000190734899
100
AcDbArc
 50
43.42230610113921
 51
58.50391703385149
  0
ARC
  5
C3D
330
C31
100
AcDbEntity
  8
PV0001_1
  6
CONTINUOUS
 48
0.5
100
AcDbCircle
 10
2.115875244139999
 20
3.453330993653001
 30
0.0
 40
4.050000190734899
100
AcDbArc
 50
223.4222942619974
 51
238.5038164022482
  0
ARC
  5
C3E
330
C31
100
AcDbEntity
  8
PV0001_1
  6
CONTINUOUS
 48
0.5
100
AcDbCircle
 10
-6.70369720459
 20
5.094657897949002
 30
0.0
 40
5.940000057220499
100
AcDbArc
 50
328.2536768887549
 51
31.74641873389623
  0
ARC
  5
C3F
330
C31
100
AcDbEntity
  8
PV0001_1
  6
CONTINUOUS
 48
0.5
100
AcDbCircle
 10
6.703674316410001
 20
-5.094650268553998
 30
0.0
 40
5.940000057220499
100
AcDbArc
 50
148.2533403882529
 51
211.7466423089037
  0
ARC
  5
C40
330
C31
100
AcDbEntity
  8
PV0001_1
  6
CONTINUOUS
 48
0.5
100
AcDbCircle
 10
0.0
 20
0.0
 30
0.0
 40
8.812800407409699
100
AcDbArc
 50
175.2198288164333
 51
272.8622597568298
  0
ARC
  5
C41
330
C31
100
AcDbEntity
  8
PV0001_1
  6
CONTINUOUS
 48
0.5
100
AcDbCircle
 10
0.0
 20
0.0
 30
0.0
 40
9.1800003051758
100
AcDbArc
 50
272.7511362215027
 51
280.3697477877874
  0
ARC
  5
C42
330
C31
100
AcDbEntity
  8
PV0001_1
  6
CONTINUOUS
 48
0.5
100
AcDbCircle
 10
0.0
 20
0.0
 30
0.0
 40
8.812800407409699
100
AcDbArc
 50
355.2198199654955
 51
92.86229572901076
  0
ARC
  5
C43
330
C31
100
AcDbEntity
  8
PV0001_1
  6
CONTINUOUS
 48
0.5
100
AcDbCircle
 10
0.0
 20
0.0
 30
0.0
 40
9.1800003051758
100
AcDbArc
 50
92.75115489083434
 51
100.3697664571193
  0
CIRCLE
  5
C44
330
C31
100
AcDbEntity
  8
PV0001_1
  6
CONTINUOUS
100
AcDbCircle
 10
0.0
 20
0.0
 30
0.0
 40
9.1800003051758
  0
LINE
  5
C45
330
C31
100
AcDbEntity
  8
PV0001_1
  6
CONTINUOUS
 48
0.5
100
AcDbLine
 10
-1.652404785160001
 20
9.030059814453
 30
0.0
 11
-1.652404785160001
 21
8.220062255860002
 31
0.0
  0
LINE
  5
C46
330
C31
100
AcDbEntity
  8
PV0001_1
  6
CONTINUOUS
 48
0.5
100
AcDbLine
 10
1.652404785160001
 20
-8.220058441161999
 30
0.0
 11
1.652404785160001
 21
-9.030055999755997
 31
0.0
  0
LINE
  5
C47
330
C31
100
AcDbEntity
  8
PV0001_1
  6
CONTINUOUS
 48
0.5
100
AcDbLine
 10
-8.78217315674
 20
0.7343807220460015
 30
0.0
 11
-8.070594787600001
 21
0.7343997955320028
 31
0.0
  0
LINE
  5
C48
330
C31
100
AcDbEntity
  8
PV0001_1
  6
CONTINUOUS
 48
0.5
100
AcDbLine
 10
8.07057952881
 20
-0.7343864440919994
 30
0.0
 11
8.78215789795
 21
-0.7343654632569994
 31
0.0
  0
LINE
  5
C49
330
C31
100
AcDbEntity
  8
PV0001_1
  6
CONTINUOUS
 48
0.5
100
AcDbLine
 10
0.4406127929700006
 20
-9.169414520263
 30
0.0
 11
0.4406127929700006
 21
-8.812801361083998
 31
0.0
  0
LINE
  5
C4A
330
C31
100
AcDbEntity
  8
PV0001_1
  6
CONTINUOUS
 48
0.5
100
AcDbLine
 10
-0.4406127929700006
 20
9.169418334961001
 30
0.0
 11
-0.4406127929700006
 21
8.812805175781001
 31
0.0
  0
ENDBLK
  5
C4C
330
C31
100
AcDbEntity
  8
0
100
AcDbBlockEnd
  0
BLOCK
  5
245D
330
2453
100
AcDbEntity
  8
0
100
AcDbBlockBegin
  2
*D6
 70
     1
 10
0.0
 20
0.0
 30
0.0
  3
*D6
  1

  0
LINE
  5
2454
330
2453
100
AcDbEntity
  8
AM_5
 62
     3
100
AcDbLine
 10
-137.574381722344
 20
-5.00000294019065
 30
0.0
 11
-152.8199008769066
 21
-5.000002940190694
 31
0.0
  0
LINE
  5
2455
330
2453
100
AcDbEntity
  8
AM_5
 62
     3
100
AcDbLine
 10
-137.5743817223442
 20
5.00002461040103
 30
0.0
 11
-152.8199008769066
 21
5.000024610400987
 31
0.0
  0
LINE
  5
2456
330
2453
100
AcDbEntity
  8
AM_5
 62
     3
100
AcDbLine
 10
-151.8199008769066
 20
-2.500002940190691
 30
0.0
 11
-151.8199008769066
 21
2.50002461040099
 31
0.0
  0
INSERT
  5
2457
330
2453
100
AcDbEntity
  8
AM_5
 62
     3
100
AcDbBlockReference
  2
_OPEN30
 10
-151.8199008769066
 20
-5.00000294019069
 30
0.0
 41
2.5
 42
2.5
 43
2.5
 50
270.0000000000001
  0
INSERT
  5
2458
330
2453
100
AcDbEntity
  8
AM_5
 62
     3
100
AcDbBlockReference
  2
_OPEN30
 10
-151.8199008769066
 20
5.00002461040099
 30
0.0
 41
2.5
 42
2.5
 43
2.5
 50
90.00000000000015
  0
MTEXT
  5
2459
330
2453
100
AcDbEntity
  8
AM_5
 62
     2
100
AcDbMText
 10
-155.2199008769066
 20
0.000010835105146
 30
0.0
 40
3.799999999999999
 41
0.0
 71
     5
 72
     1
  1
%%c10
 11
-0.0000000000000028
 21
1.0
 31
0.0
1001
ACAD
1000
MTEXTBEGIN
1070
    73
1070
     1
1070
    44
1040
1.0
1070
    74
1070
     0
1000
MTEXTEND
  0
POINT
  5
245A
330
2453
100
AcDbEntity
  8
DEFPOINTS
 62
     0
100
AcDbPoint
 10
-137.5743817223441
 20
-5.000002940190223
 30
0.0
  0
POINT
  5
245B
330
2453
100
AcDbEntity
  8
DEFPOINTS
 62
     0
100
AcDbPoint
 10
-137.5743817223441
 20
5.000024610401458
 30
0.0
  0
POINT
  5
245C
330
2453
100
AcDbEntity
  8
DEFPOINTS
 62
     0
100
AcDbPoint
 10
-151.8199008769066
 20
5.000024610401462
 30
0.0
  0
ENDBLK
  5
245E
330
2453
100
AcDbEntity
  8
0
100
AcDbBlockEnd
  0
BLOCK
  5
246B
330
245F
100
AcDbEntity
  8
0
100
AcDbBlockBegin
  2
A$C4FFC6CC0
 70
     0
 10
0.0
 20
0.0
 30
0.0
  3
A$C4FFC6CC0
  1

  0
DIMENSION
  5
2460
330
245F
100
AcDbEntity
  8
AM_5
100
AcDbDimension
  2
*D6
 10
-70.00000100000002
 20
5.000008477104842
 30
0.0
 11
-70.00000100000002
 21
-0.0000052981910228
 31
0.0
 12
81.81989987690661
 22
-0.0000161332966199
 32
0.0
 70
   128
  1
%%c<>
 51
359.9999999999998
  3
AM_JIS$0
100
AcDbAlignedDimension
 13
-55.75448184543748
 23
-5.000019073486843
 33
0.0
 14
-55.75448184543756
 24
5.000008477104838
 34
0.0
 50
270.0
100
AcDbRotatedDimension
1001
ACAD
1000
DSTYLE
1002
{
1070
   271
1070
     0
1002
}
1001
GENIUS_GENDTOL_13
1000

1000
h7
1000

1040
0.0
  0
LINE
  5
2461
330
245F
100
AcDbEntity
  8
AM_0
 48
0.5
100
AcDbLine
 10
-56.0
 20
-4.754495620727796
 30
0.0
 11
-56.00000000000003
 21
4.754485024345811
 31
0.0
  0
LINE
  5
2462
330
245F
100
AcDbEntity
  8
AM_0
 48
0.5
100
AcDbLine
 10
-55.75448184543751
 20
-5.000019073486843
 30
0.0
 11
-55.75448184543754
 21
5.000008477104838
 31
0.0
  0
LINE
  5
2463
330
245F
100
AcDbEntity
  8
AM_0
100
AcDbLine
 10
-0.0000000000000142
 20
4.999995231627903
 30
0.0
 11
-55.75448184543754
 21
4.999995231627746
 31
0.0
  0
LINE
  5
2464
330
245F
100
AcDbEntity
  8
AM_0
 48
0.5
100
AcDbLine
 10
-55.99996821086117
 20
4.754439989725671
 30
0.0
 11
-55.75443945990975
 21
4.999963442484006
 31
0.0
  0
LINE
  5
2465
330
245F
100
AcDbEntity
  8
AM_0
100
AcDbLine
 10
-55.75448184543751
 20
-5.000008477105588
 30
0.0
 11
0.0000000000000142
 21
-5.00000847710543
 31
0.0
  0
LINE
  5
2466
330
245F
100
AcDbEntity
  8
AM_0
 48
0.5
100
AcDbLine
 10
-55.99996821086114
 20
-4.754474427965309
 30
0.0
 11
-55.75443945990972
 21
-4.999997880724334
 31
0.0
  0
LINE
  5
2467
330
245F
100
AcDbEntity
  8
AM_0
100
AcDbLine
 10
0.7794201296714505
 20
4.549985867772141
 30
0.0
 11
0.7794201296714789
 21
-4.550003370497427
 31
0.0
  0
LINE
  5
2468
330
245F
100
AcDbEntity
  8
AM_0
 48
0.5
100
AcDbLine
 10
0.0000000000000142
 20
-5.00000847710543
 30
0.0
 11
-0.0000000000000142
 21
5.000008477104995
 31
0.0
  0
LINE
  5
2469
330
245F
100
AcDbEntity
  8
AM_0
 48
0.5
100
AcDbLine
 10
0.7794201296714647
 20
-4.550003370497435
 30
0.0
 11
-0.0000105963812445
 21
-5.00000847710543
 31
0.0
  0
LINE
  5
246A
330
245F
100
AcDbEntity
  8
AM_0
 48
0.5
100
AcDbLine
 10
0.7794201296714647
 20
4.549985867772141
 30
0.0
 11
-0.0000000000000142
 21
4.999984635246652
 31
0.0
  0
ENDBLK
  5
246C
330
245F
100
AcDbEntity
  8
0
100
AcDbBlockEnd
  0
BLOCK
  5
3250
330
3244
100
AcDbEntity
  8
0
100
AcDbBlockBegin
  2
*D8
 70
     1
 10
0.0
 20
0.0
 30
0.0
  3
*D8
  1

  0
LINE
  5
4440
330
3244
100
AcDbEntity
  8
AM_5
100
AcDbLine
 10
0.1710100704080519
 20
-0.46984631084965
 30
0.0
 11
9.086785877063137
 21
-24.96573922009959
 31
0.0
  0
LINE
  5
4441
330
3244
100
AcDbEntity
  8
AM_5
100
AcDbLine
 10
0.1710098052266613
 20
0.4698478148157159
 30
0.0
 11
9.086803162895327
 21
24.96573617330548
 31
0.0
  0
ARC
  5
4442
330
3244
100
AcDbEntity
  8
AM_5
100
AcDbCircle
 10
-0.0000005904945895
 20
0.000001622370506
 30
0.0
 40
26.06798645212636
100
AcDbArc
 50
292.747683789327
 51
67.25227654009559
  0
INSERT
  5
4443
330
3244
100
AcDbEntity
  8
AM_5
100
AcDbBlockReference
  2
_OPEN30
 10
8.915775806655064
 20
-24.49589290924994
 30
0.0
 41
1.25
 42
1.25
 43
1.25
 50
201.3738418181571
  0
INSERT
  5
4444
330
3244
100
AcDbEntity
  8
AM_5
100
AcDbBlockReference
  2
_OPEN30
 10
8.915792767174076
 20
24.49588998086027
 30
0.0
 41
1.25
 42
1.25
 43
1.25
 50
158.6261185112654
  0
MTEXT
  5
4445
330
3244
100
AcDbEntity
  8
AM_5
 62
     2
100
AcDbMText
 10
24.5179858616302
 20
-0.0000074021342835
 30
0.0
 40
1.6
 41
0.0
 71
     5
 72
     1
  1
140°
  7
ASAMI
 11
0.0000000000000001
 21
1.0
 31
0.0
1001
ACAD
1000
MTEXTBEGIN
1070
    73
1070
     1
1070
    44
1040
1.0
1070
    74
1070
     0
1000
MTEXTEND
  0
POINT
  5
4446
330
3244
100
AcDbEntity
  8
DEFPOINTS
 62
     0
100
AcDbPoint
 10
23.93604920048916
 20
10.32499257015299
 30
0.0
  0
POINT
  5
4447
330
3244
100
AcDbEntity
  8
DEFPOINTS
 62
     0
100
AcDbPoint
 10
-0.0000000000000213
 20
0.0
 30
0.0
  0
POINT
  5
4448
330
3244
100
AcDbEntity
  8
DEFPOINTS
 62
     0
100
AcDbPoint
 10
-0.0000006834663893
 20
0.0000013669331338
 30
0.0
  0
POINT
  5
4449
330
3244
100
AcDbEntity
  8
DEFPOINTS
 62
     0
100
AcDbPoint
 10
-0.286932261784635
 20
-0.7883349736532637
 30
0.0
  0
POINT
  5
444A
330
3244
100
AcDbEntity
  8
DEFPOINTS
 62
     0
100
AcDbPoint
 10
-0.2869274775186525
 20
0.7883267720540062
 30
0.0
  0
ENDBLK
  5
3251
330
3244
100
AcDbEntity
  8
0
100
AcDbBlockEnd
  0
BLOCK
  5
325E
330
3252
100
AcDbEntity
  8
0
100
AcDbBlockBegin
  2
*D9
 70
     1
 10
0.0
 20
0.0
 30
0.0
  3
*D9
  1

  0
LINE
  5
4226
330
3252
100
AcDbEntity
  8
AM_5
 62
     3
100
AcDbLine
 10
-1.874435706291486
 20
-5.550000572204505
 30
0.0
 11
-1.874435706291487
 21
-26.80683532974023
 31
0.0
  0
LINE
  5
4227
330
3252
100
AcDbEntity
  8
AM_5
 62
     3
100
AcDbLine
 10
-25.87428217306907
 20
-7.337256195184308
 30
0.0
 11
-25.87428217306907
 21
-26.80683532974023
 31
0.0
  0
LINE
  5
4228
330
3252
100
AcDbEntity
  8
AM_5
 62
     3
100
AcDbLine
 10
-3.124435706291488
 20
-26.30683532974023
 30
0.0
 11
-24.62428217306907
 21
-26.30683532974023
 31
0.0
  0
INSERT
  5
4229
330
3252
100
AcDbEntity
  8
AM_5
 62
     3
100
AcDbBlockReference
  2
_OPEN30
 10
-1.874435706291487
 20
-26.30683532974023
 30
0.0
 41
1.25
 42
1.25
 43
1.25
  0
INSERT
  5
422A
330
3252
100
AcDbEntity
  8
AM_5
 62
     3
100
AcDbBlockReference
  2
_OPEN30
 10
-25.87428217306907
 20
-26.30683532974023
 30
0.0
 41
1.25
 42
1.25
 43
1.25
 50
180.0
  0
MTEXT
  5
422B
330
3252
100
AcDbEntity
  8
AM_5
 62
     2
100
AcDbMText
 10
-13.99210532643579
 20
-24.60683532974023
 30
0.0
 40
1.9
 41
0.0
 71
     5
 72
     1
  1
24
1001
ACAD
1000
MTEXTBEGIN
1070
    73
1070
     1
1070
    44
1040
1.0
1070
    74
1070
     0
1000
MTEXTEND
  0
POINT
  5
422C
330
3252
100
AcDbEntity
  8
DEFPOINTS
 62
     0
100
AcDbPoint
 10
-1.874435706291486
 20
-5.150000572204505
 30
0.0
  0
POINT
  5
422D
330
3252
100
AcDbEntity
  8
DEFPOINTS
 62
     0
100
AcDbPoint
 10
-25.87428217306907
 20
-6.937256195184308
 30
0.0
  0
POINT
  5
422E
330
3252
100
AcDbEntity
  8
DEFPOINTS
 62
     0
100
AcDbPoint
 10
-25.87428217306907
 20
-26.30683532974023
 30
0.0
  0
ENDBLK
  5
325F
330
3252
100
AcDbEntity
  8
0
100
AcDbBlockEnd
  0
BLOCK
  5
326C
330
3260
100
AcDbEntity
  8
0
100
AcDbBlockBegin
  2
*D10
 70
     1
 10
0.0
 20
0.0
 30
0.0
  3
*D10
  1

  0
LINE
  5
410B
330
3260
100
AcDbEntity
  8
AM_5
 62
     3
100
AcDbLine
 10
-1.474450747172017
 20
-5.149978836872267
 30
0.0
 11
14.09701150240485
 21
-5.149978836872271
 31
0.0
  0
LINE
  5
410C
330
3260
100
AcDbEntity
  8
AM_5
 62
     3
100
AcDbLine
 10
-1.474435706291554
 20
5.149999427795521
 30
0.0
 11
14.09701150240485
 21
5.149999427795516
 31
0.0
  0
LINE
  5
410D
330
3260
100
AcDbEntity
  8
AM_5
 62
     3
100
AcDbLine
 10
13.59701150240485
 20
-6.39997883687227
 30
0.0
 11
13.59701150240485
 21
-7.64997883687227
 31
0.0
  0
LINE
  5
410E
330
3260
100
AcDbEntity
  8
AM_5
 62
     3
100
AcDbLine
 10
13.59701150240485
 20
6.399999427795517
 30
0.0
 11
13.59701150240485
 21
7.649999427795517
 31
0.0
  0
LINE
  5
410F
330
3260
100
AcDbEntity
  8
AM_5
 62
     3
100
AcDbLine
 10
13.59701150240485
 20
-5.14997883687227
 30
0.0
 11
13.59701150240485
 21
5.149999427795517
 31
0.0
  0
INSERT
  5
4110
330
3260
100
AcDbEntity
  8
AM_5
 62
     3
100
AcDbBlockReference
  2
_OPEN30
 10
13.59701150240485
 20
-5.14997883687227
 30
0.0
 41
1.25
 42
1.25
 43
1.25
 50
90.0
  0
INSERT
  5
4111
330
3260
100
AcDbEntity
  8
AM_5
 62
     3
100
AcDbBlockReference
  2
_OPEN30
 10
13.59701150240485
 20
5.149999427795517
 30
0.0
 41
1.25
 42
1.25
 43
1.25
 50
270.0
  0
MTEXT
  5
4112
330
3260
100
AcDbEntity
  8
AM_5
 62
     2
100
AcDbMText
 10
11.89701150240485
 20
0.0000102954616079
 30
0.0
 40
1.9
 41
0.0
 71
     5
 72
     1
  1
%%C10.3
 11
0.0000000000000001
 21
1.0
 31
0.0
1001
ACAD
1000
MTEXTBEGIN
1070
    73
1070
     1
1070
    44
1040
1.0
1070
    74
1070
     0
1000
MTEXTEND
  0
POINT
  5
4113
330
3260
100
AcDbEntity
  8
DEFPOINTS
 62
     0
100
AcDbPoint
 10
-1.874450747172017
 20
-5.149978836872267
 30
0.0
  0
POINT
  5
4114
330
3260
100
AcDbEntity
  8
DEFPOINTS
 62
     0
100
AcDbPoint
 10
-1.874435706291554
 20
5.149999427795521
 30
0.0
  0
POINT
  5
4115
330
3260
100
AcDbEntity
  8
DEFPOINTS
 62
     0
100
AcDbPoint
 10
13.59701150240485
 20
5.149999427795517
 30
0.0
  0
ENDBLK
  5
326D
330
3260
100
AcDbEntity
  8
0
100
AcDbBlockEnd
  0
BLOCK
  5
3278
330
326E
100
AcDbEntity
  8
0
100
AcDbBlockBegin
  2
*D11
 70
     1
 10
0.0
 20
0.0
 30
0.0
  3
*D11
  1

  0
LINE
  5
4169
330
326E
100
AcDbEntity
  8
AM_5
 62
     3
100
AcDbLine
 10
-1.874450747172017
 20
-6.155882925145681
 30
0.0
 11
-1.874450747172019
 21
-46.26719949904066
 31
0.0
  0
LINE
  5
416A
330
326E
100
AcDbEntity
  8
AM_5
 62
     3
100
AcDbLine
 10
-125.874450747172
 20
-7.400291516732027
 30
0.0
 11
-125.874450747172
 21
-46.26719949904066
 31
0.0
  0
LINE
  5
416B
330
326E
100
AcDbEntity
  8
AM_5
 62
     3
100
AcDbLine
 10
-3.124450747172019
 20
-45.76719949904067
 30
0.0
 11
-124.624450747172
 21
-45.76719949904067
 31
0.0
  0
INSERT
  5
416C
330
326E
100
AcDbEntity
  8
AM_5
 62
     3
100
AcDbBlockReference
  2
_OPEN30
 10
-1.874450747172019
 20
-45.76719949904067
 30
0.0
 41
1.25
 42
1.25
 43
1.25
  0
INSERT
  5
416D
330
326E
100
AcDbEntity
  8
AM_5
 62
     3
100
AcDbBlockReference
  2
_OPEN30
 10
-125.874450747172
 20
-45.76719949904067
 30
0.0
 41
1.25
 42
1.25
 43
1.25
 50
180.0
  0
MTEXT
  5
416E
330
326E
100
AcDbEntity
  8
AM_5
 62
     2
100
AcDbMText
 10
-63.87445074717202
 20
-44.06719949904067
 30
0.0
 40
1.9
 41
0.0
 71
     5
 72
     1
  1
124
1001
ACAD
1000
MTEXTBEGIN
1070
    73
1070
     1
1070
    44
1040
1.0
1070
    74
1070
     0
1000
MTEXTEND
  0
POINT
  5
416F
330
326E
100
AcDbEntity
  8
DEFPOINTS
 62
     0
100
AcDbPoint
 10
-1.874450747172017
 20
-5.755882925145681
 30
0.0
  0
POINT
  5
4170
330
326E
100
AcDbEntity
  8
DEFPOINTS
 62
     0
100
AcDbPoint
 10
-125.874450747172
 20
-7.000291516732026
 30
0.0
  0
POINT
  5
4171
330
326E
100
AcDbEntity
  8
DEFPOINTS
 62
     0
100
AcDbPoint
 10
-125.874450747172
 20
-45.76719949904067
 30
0.0
  0
ENDBLK
  5
3279
330
326E
100
AcDbEntity
  8
0
100
AcDbBlockEnd
  0
BLOCK
  5
3292
330
3288
100
AcDbEntity
  8
0
100
AcDbBlockBegin
  2
*D12
 70
     1
 10
0.0
 20
0.0
 30
0.0
  3
*D12
  1

  0
LINE
  5
4437
330
3288
100
AcDbEntity
  8
AM_5
 62
     3
100
AcDbLine
 10
-1.874450747172017
 20
-5.550000572204505
 30
0.0
 11
-1.874450747172019
 21
-37.04507123093065
 31
0.0
  0
LINE
  5
4438
330
3288
100
AcDbEntity
  8
AM_5
 62
     3
100
AcDbLine
 10
-61.87445074717214
 20
-4.833535828181533
 30
0.0
 11
-61.87445074717214
 21
-37.04507123093065
 31
0.0
  0
LINE
  5
4439
330
3288
100
AcDbEntity
  8
AM_5
 62
     3
100
AcDbLine
 10
-3.124450747172019
 20
-36.54507123093065
 30
0.0
 11
-60.62445074717214
 21
-36.54507123093065
 31
0.0
  0
INSERT
  5
443A
330
3288
100
AcDbEntity
  8
AM_5
 62
     3
100
AcDbBlockReference
  2
_OPEN30
 10
-1.874450747172019
 20
-36.54507123093065
 30
0.0
 41
1.25
 42
1.25
 43
1.25
  0
INSERT
  5
443B
330
3288
100
AcDbEntity
  8
AM_5
 62
     3
100
AcDbBlockReference
  2
_OPEN30
 10
-61.87445074717214
 20
-36.54507123093065
 30
0.0
 41
1.25
 42
1.25
 43
1.25
 50
180.0
  0
MTEXT
  5
443C
330
3288
100
AcDbEntity
  8
AM_5
 62
     2
100
AcDbMText
 10
-31.87445074717207
 20
-34.84507123093065
 30
0.0
 40
1.9
 41
0.0
 71
     5
 72
     1
  1
60
1001
ACAD
1000
MTEXTBEGIN
1070
    73
1070
     1
1070
    44
1040
1.0
1070
    74
1070
     0
1000
MTEXTEND
  0
POINT
  5
443D
330
3288
100
AcDbEntity
  8
DEFPOINTS
 62
     0
100
AcDbPoint
 10
-1.874450747172017
 20
-5.150000572204505
 30
0.0
  0
POINT
  5
443E
330
3288
100
AcDbEntity
  8
DEFPOINTS
 62
     0
100
AcDbPoint
 10
-61.87445074717214
 20
-4.433535828181533
 30
0.0
  0
POINT
  5
443F
330
3288
100
AcDbEntity
  8
DEFPOINTS
 62
     0
100
AcDbPoint
 10
-61.87445074717214
 20
-36.54507123093065
 30
0.0
  0
ENDBLK
  5
3293
330
3288
100
AcDbEntity
  8
0
100
AcDbBlockEnd
  0
BLOCK
  5
32A0
330
3294
100
AcDbEntity
  8
0
100
AcDbBlockBegin
  2
*D13
 70
     1
 10
0.0
 20
0.0
 30
0.0
  3
*D13
  1

  0
LINE
  5
4160
330
3294
100
AcDbEntity
  8
AM_5
 62
     3
100
AcDbLine
 10
-125.8563951916164
 20
7.000287639233851
 30
0.0
 11
-136.726570648467
 21
7.000287639233855
 31
0.0
  0
LINE
  5
4161
330
3294
100
AcDbEntity
  8
AM_5
 62
     3
100
AcDbLine
 10
-125.8563951916164
 20
-7.000291516732029
 30
0.0
 11
-136.726570648467
 21
-7.000291516732025
 31
0.0
  0
LINE
  5
4162
330
3294
100
AcDbEntity
  8
AM_5
 62
     3
100
AcDbLine
 10
-136.226570648467
 20
5.750287639233855
 30
0.0
 11
-136.226570648467
 21
-5.750291516732025
 31
0.0
  0
INSERT
  5
4163
330
3294
100
AcDbEntity
  8
AM_5
 62
     3
100
AcDbBlockReference
  2
_OPEN30
 10
-136.226570648467
 20
7.000287639233855
 30
0.0
 41
1.25
 42
1.25
 43
1.25
 50
90.0
  0
INSERT
  5
4164
330
3294
100
AcDbEntity
  8
AM_5
 62
     3
100
AcDbBlockReference
  2
_OPEN30
 10
-136.226570648467
 20
-7.000291516732025
 30
0.0
 41
1.25
 42
1.25
 43
1.25
 50
270.0
  0
MTEXT
  5
4165
330
3294
100
AcDbEntity
  8
AM_5
 62
     2
100
AcDbMText
 10
-137.926570648467
 20
-0.0000019387491069
 30
0.0
 40
1.9
 41
0.0
 71
     5
 72
     1
  1
%%C14
 11
0.0000000000000001
 21
1.0
 31
0.0
1001
ACAD
1000
MTEXTBEGIN
1070
    73
1070
     1
1070
    44
1040
1.0
1070
    74
1070
     0
1000
MTEXTEND
  0
POINT
  5
4166
330
3294
100
AcDbEntity
  8
DEFPOINTS
 62
     0
100
AcDbPoint
 10
-125.4563951916164
 20
7.000287639233851
 30
0.0
  0
POINT
  5
4167
330
3294
100
AcDbEntity
  8
DEFPOINTS
 62
     0
100
AcDbPoint
 10
-125.4563951916164
 20
-7.000291516732029
 30
0.0
  0
POINT
  5
4168
330
3294
100
AcDbEntity
  8
DEFPOINTS
 62
     0
100
AcDbPoint
 10
-136.226570648467
 20
-7.000291516732025
 30
0.0
  0
ENDBLK
  5
32A1
330
3294
100
AcDbEntity
  8
0
100
AcDbBlockEnd
  0
BLOCK
  5
434C
330
433C
100
AcDbEntity
  8
0
100
AcDbBlockBegin
  2
*D14
 70
     1
 10
0.0
 20
0.0
 30
0.0
  3
*D14
  1

  0
LINE
  5
4418
330
433C
100
AcDbEntity
  8
AM_5
100
AcDbLine
 10
-26.22801331565364
 20
7.205737060182035
 30
0.0
 11
-53.50069137640984
 21
34.47841543963114
 31
0.0
  0
LINE
  5
4419
330
433C
100
AcDbEntity
  8
AM_5
100
AcDbLine
 10
-26.22800413569966
 20
-7.290813884373743
 30
0.0
 11
-53.5006913764095
 21
-34.56350144377713
 31
0.0
  0
ARC
  5
441A
330
433C
100
AcDbEntity
  8
AM_5
100
AcDbCircle
 10
-18.97973333809804
 20
-0.0425430020728272
 30
0.0
 40
48.3200073291344
100
AcDbArc
 50
136.4822370559933
 51
223.5177629440071
  0
INSERT
  5
441B
330
433C
100
AcDbEntity
  8
AM_5
100
AcDbBlockReference
  2
_OPEN30
 10
-53.14713798788228
 20
34.12486204697215
 30
0.0
 41
1.25
 42
1.25
 43
1.25
 50
45.74111836061526
  0
INSERT
  5
441C
330
433C
100
AcDbEntity
  8
AM_5
100
AcDbBlockReference
  2
_OPEN30
 10
-53.14713798788194
 20
-34.20994805111814
 30
0.0
 41
1.25
 42
1.25
 43
1.25
 50
314.2588816393853
  0
MTEXT
  5
441D
330
433C
100
AcDbEntity
  8
AM_5
 62
     2
100
AcDbMText
 10
-68.84974066723244
 20
-0.0425430020730727
 30
0.0
 40
1.6
 41
0.0
 71
     5
 72
     1
  1
90°
  7
ASAMI
 11
-0.0000000000000028
 21
1.0
 31
0.0
1001
ACAD
1000
MTEXTBEGIN
1070
    73
1070
     1
1070
    44
1040
1.0
1070
    74
1070
     0
1000
MTEXTEND
  0
POINT
  5
441E
330
433C
100
AcDbEntity
  8
DEFPOINTS
 62
     0
100
AcDbPoint
 10
-65.65327631942944
 20
12.46359524510064
 30
0.0
  0
POINT
  5
441F
330
433C
100
AcDbEntity
  8
DEFPOINTS
 62
     0
100
AcDbPoint
 10
-24.08128581822316
 20
-5.144095541811783
 30
0.0
  0
POINT
  5
4420
330
433C
100
AcDbEntity
  8
DEFPOINTS
 62
     0
100
AcDbPoint
 10
-24.17227570728951
 20
5.149999427795817
 30
0.0
  0
POINT
  5
4421
330
433C
100
AcDbEntity
  8
DEFPOINTS
 62
     0
100
AcDbPoint
 10
-25.87445992712606
 20
6.85218366752313
 30
0.0
  0
POINT
  5
4422
330
433C
100
AcDbEntity
  8
DEFPOINTS
 62
     0
100
AcDbPoint
 10
-25.87445074717212
 20
-6.937260491714674
 30
0.0
  0
ENDBLK
  5
434D
330
433C
100
AcDbEntity
  8
0
100
AcDbBlockEnd
  0
ENDSEC
  0
SECTION
  2
ENTITIES
  0
TEXT
  5
19BD
330
1F
100
AcDbEntity
  8
AM_6
100
AcDbText
 10
-75.83873646145772
 20
-57.0171994990407
 30
0.0
 40
2.5
  1
MDW103S2HK
 50
0.0000000000001527
 72
     4
 11
-63.87445074717199
 21
-55.76719949904067
 31
0.0
100
AcDbText
  0
DIMENSION
  5
31FC
330
1F
100
AcDbEntity
  8
AM_5
100
AcDbDimension
  2
*D8
 10
-0.2869274775186525
 20
0.7883267720540062
 30
0.0
 11
24.5179858616302
 21
-0.0000074021342875
 31
0.0
 70
    34
  1
<>
  3
AM_JIS$2
100
AcDb2LineAngularDimension
 13
-0.0000006834663893
 23
0.0000013669331338
 33
0.0
 14
-0.286932261784635
 24
-0.7883349736532637
 34
0.0
 15
-0.0000000000000213
 25
0.0
 35
0.0
 16
23.93604920048916
 26
10.32499257015299
 36
0.0
1001
ACAD
1000
DSTYLE
1002
{
1070
   179
1070
     3
1002
}
1001
GENIUS_GENDTOL_13
1000

1000
h7
1000

1040
0.0
  0
DIMENSION
  5
31FD
330
1F
100
AcDbEntity
  8
AM_5
100
AcDbDimension
  2
*D9
 10
-25.87428217306907
 20
-26.30683532974023
 30
0.0
 11
-13.99210532643579
 21
-26.30683532974023
 31
0.0
 70
   160
  1
<>
  3
AM_JIS$0
100
AcDbAlignedDimension
 13
-1.874435706291486
 23
-5.150000572204505
 33
0.0
 14
-25.87428217306907
 24
-6.937256195184308
 34
0.0
 50
180.0
100
AcDbRotatedDimension
1001
GENIUS_GENDTOL_13
1000

1000
h7
1000

1040
0.0
1001
ACAD
1000
DSTYLE
1002
{
1070
   271
1070
     3
1002
}
  0
DIMENSION
  5
31FE
330
1F
100
AcDbEntity
  8
AM_5
100
AcDbDimension
  2
*D10
 10
13.59701150240485
 20
5.149999427795517
 30
0.0
 11
13.59701150240485
 21
0.0000102954616076
 31
0.0
 70
   160
  1
%%C<>
  3
AM_JIS$0
100
AcDbAlignedDimension
 13
-1.874450747172017
 23
-5.149978836872267
 33
0.0
 14
-1.874435706291554
 24
5.149999427795521
 34
0.0
 50
90.0
100
AcDbRotatedDimension
1001
ACAD
1000
DSTYLE
1002
{
1070
   271
1070
     1
1002
}
1001
GENIUS_GENDTOL_13
1000

1000
h7
1000

1040
0.0
  0
LINE
  5
31FF
330
1F
100
AcDbEntity
  8
AM_0
100
AcDbLine
 10
-57.24457103051498
 20
7.000287639233978
 30
0.0
 11
-125.4563951916164
 21
7.000287639233847
 31
0.0
  0
LINE
  5
3200
330
1F
100
AcDbEntity
  8
AM_0
100
AcDbLine
 10
-56.08448129886638
 20
-7.000291188301402
 30
0.0
 11
-125.4563951916163
 21
-7.000293460137012
 31
0.0
  0
LINE
  5
3201
330
1F
100
AcDbEntity
  8
AM_7
100
AcDbLine
 10
3.226237378435541
 20
0.0
 30
0.0
 11
-129.3135714705889
 21
-0.0000000000003211
 31
0.0
  0
DIMENSION
  5
3202
330
1F
100
AcDbEntity
  8
AM_5
100
AcDbDimension
  2
*D11
 10
-125.874450747172
 20
-45.76719949904067
 30
0.0
 11
-63.87445074717202
 21
-44.06719949904067
 31
0.0
 70
    32
  1
<>
  3
AM_JIS$0
100
AcDbAlignedDimension
 13
-1.874450747172017
 23
-5.755882925145681
 33
0.0
 14
-125.874450747172
 24
-7.000291516732026
 34
0.0
 50
180.0
100
AcDbRotatedDimension
1001
GENIUS_GENDTOL_13
1000

1000
h7
1000

1040
0.0
1001
ACAD
1000
DSTYLE
1002
{
1070
   271
1070
     1
1002
}
  0
DIMENSION
  5
320B
330
1F
100
AcDbEntity
  8
AM_5
100
AcDbDimension
  2
*D12
 10
-61.87445074717214
 20
-36.54507123093065
 30
0.0
 11
-31.87445074717207
 21
-34.84507123093065
 31
0.0
 70
    32
  1
<>
  3
AM_JIS$0
100
AcDbAlignedDimension
 13
-1.874450747172017
 23
-5.150000572204505
 33
0.0
 14
-61.87445074717214
 24
-4.433535828181533
 34
0.0
 50
180.0
100
AcDbRotatedDimension
1001
GENIUS_GENDTOL_13
1000

1000
h7
1000

1040
0.0
1001
ACAD
1000
DSTYLE
1002
{
1070
   271
1070
     1
1002
}
  0
LINE
  5
320C
330
1F
100
AcDbEntity
  8
AM_0
 48
0.5
100
AcDbLine
 10
-4.782063237694596
 20
5.149999427795521
 30
0.0
 11
-1.874435706291554
 21
5.149999427795521
 31
0.0
  0
LINE
  5
320D
330
1F
100
AcDbEntity
  8
AM_0
 48
0.5
100
AcDbLine
 10
-1.705411567511722
 20
4.463333415984809
 30
0.0
 11
-4.782001557553066
 21
4.463333415984809
 31
0.0
  0
LINE
  5
320E
330
1F
100
AcDbEntity
  8
AM_0
 48
0.5
100
AcDbLine
 10
-4.138111086147357
 20
-5.150000572204505
 30
0.0
 11
-1.874435706291486
 21
-5.150000572204505
 31
0.0
  0
LINE
  5
3212
330
1F
100
AcDbEntity
  8
AM_0
 48
0.5
100
AcDbLine
 10
-1.718244584401568
 20
-4.720827356974707
 30
0.0
 11
-1.874450747172017
 21
-5.150000572204505
 31
0.0
  0
ARC
  5
3213
330
1F
100
AcDbEntity
  8
AM_0
 48
0.5
100
AcDbCircle
 10
7.21101334889717
 20
6.366955025990856
 30
0.0
 40
9.079721005757418
100
AcDbArc
 50
190.4452443731646
 51
209.5547271424571
  0
LINE
  5
3214
330
1F
100
AcDbEntity
  8
AM_0
 48
0.5
100
AcDbLine
 10
-1.718251132964749
 20
4.720855681101773
 30
0.0
 11
-1.87444747289046
 21
5.149996153513828
 31
0.0
  0
ARC
  5
3215
330
1F
100
AcDbEntity
  8
AM_0
 48
0.5
100
AcDbCircle
 10
7.211013348897202
 20
-6.366959444681259
 30
0.0
 40
9.079721005757418
100
AcDbArc
 50
150.4452250462215
 51
169.5547078155142
  0
LINE
  5
3216
330
1F
100
AcDbEntity
  8
AM_0
 48
0.5
100
AcDbLine
 10
-0.0000025427818109
 20
-0.0000005722045787
 30
0.0
 11
-2.49875942846243
 21
2.003582399763623
 31
0.0
  0
LINE
  5
3217
330
1F
100
AcDbEntity
  8
AM_0
 48
0.5
100
AcDbLine
 10
-0.0000013510381721
 20
0.0000027020771326
 30
0.0
 11
-0.687302573521412
 21
-1.888337834676331
 31
0.0
  0
LINE
  5
3218
330
1F
100
AcDbEntity
  8
AM_0
 48
0.5
100
AcDbLine
 10
0.0000002861021976
 20
-0.00000057220456
 30
0.0
 11
-0.687291113535488
 21
1.888317044575966
 31
0.0
  0
ELLIPSE
  5
3219
330
1F
100
AcDbEntity
  8
AM_0
 48
0.5
100
AcDbEllipse
 10
3.990707243026986
 20
-1.144774627685163
 30
0.0
 11
-0.0000000000000994
 21
-8.240000327428136
 31
0.0
210
0.0
220
0.0
230
1.0
 40
0.8144800295859889
 41
-1.443613828220574
 42
-1.063207999863884
  0
ELLIPSE
  5
321A
330
1F
100
AcDbEntity
  8
AM_0
 48
0.5
100
AcDbEllipse
 10
-6.272453104170037
 20
6.742484773189152
 30
0.0
 11
19.69995614481329
 21
16.65048800645262
 31
0.0
210
0.0
220
0.0
230
1.0
 40
0.3566671075771178
 41
4.664193379463919
 42
4.72937592476327
  0
ELLIPSE
  5
321B
330
1F
100
AcDbEntity
  8
AM_0
 48
0.5
100
AcDbEllipse
 10
-7.608754292214937
 20
8.643566449482934
 30
0.0
 11
-0.000000000022809
 21
-12.41719564597062
 31
0.0
210
0.0
220
0.0
230
1.0
 40
0.8144800295862854
 41
0.5105833252303227
 42
0.5990781029097283
  0
ELLIPSE
  5
321C
330
1F
100
AcDbEntity
  8
AM_0
 48
0.5
100
AcDbEllipse
 10
-1.597479334241504
 20
-1.342164707184134
 30
0.0
 11
0.1092810856673327
 21
-0.847381066211
 31
0.0
210
0.0
220
0.0
230
1.0
 40
0.4109961598300527
 41
-1.300749870782985
 42
1.834592018928995
  0
ELLIPSE
  5
321D
330
1F
100
AcDbEntity
  8
AM_0
 48
0.5
100
AcDbEllipse
 10
-1.597479334241504
 20
-1.342164707184134
 30
0.0
 11
0.5758924717022924
 21
-0.4759070597068681
 31
0.0
210
0.0
220
0.0
230
1.0
 40
0.5375531060333493
 41
1.479250058199623
 42
4.62269039952912
  0
DIMENSION
  5
323E
330
1F
100
AcDbEntity
  8
AM_5
100
AcDbDimension
  2
*D13
 10
-136.226570648467
 20
-7.000291516732025
 30
0.0
 11
-137.926570648467
 21
-0.0000019387491069
 31
0.0
 70
    32
  1
%%C<>
  3
AM_JIS$0
100
AcDbAlignedDimension
 13
-125.4563951916164
 23
7.000287639233851
 33
0.0
 14
-125.4563951916164
 24
-7.000291516732029
 34
0.0
 50
270.0
100
AcDbRotatedDimension
1001
ACAD
1000
DSTYLE
1002
{
1070
   271
1070
     1
1002
}
1001
GENIUS_GENDTOL_13
1000

1000
h7
1000

1040
0.0
  0
LINE
  5
323F
330
1F
100
AcDbEntity
  8
AM_0
100
AcDbLine
 10
-125.4563951916164
 20
-7.000291516732029
 30
0.0
 11
-125.4563951916165
 21
7.00028763923385
 31
0.0
  0
LINE
  5
3240
330
1F
100
AcDbEntity
  8
AM_0
 48
0.5
100
AcDbLine
 10
-125.874450747172
 20
-0.0000000000002807
 30
0.0
 11
-125.874450747172
 21
-6.489850916016389
 31
0.0
  0
LINE
  5
3241
330
1F
100
AcDbEntity
  8
AM_0
 48
0.5
100
AcDbLine
 10
-125.874450747172
 20
-0.0000000000002807
 30
0.0
 11
-125.874450747172
 21
6.489847002630956
 31
0.0
  0
LINE
  5
3242
330
1F
100
AcDbEntity
  8
AM_0
100
AcDbLine
 10
-125.874450747172
 20
6.489847002630956
 30
0.0
 11
-125.4563951916165
 21
7.00028763923385
 31
0.0
1001
GENIUS_GENFIL_13
1070
     0
1040
1.0
1040
1.0
1040
20.0
1040
0.0
1002
{
1002
}
1001
GENIUS_GENODEF_13
1002
{
1000
HIER
1070
     0
1002
}
1002
{
1000
MANEDIT
1070
     0
1002
}
1002
{
1000
NOSEL
1070
     0
1002
}
1002
{
1000
BEHIND
1070
     0
1002
}
1002
{
1000
REACTOR
1002
}
1001
GENIUS_GENOBJ-N-CHA_13
1002
{
1000
OWNER
1000
GEN
1002
}
  0
LINE
  5
3243
330
1F
100
AcDbEntity
  8
AM_0
 48
0.5
100
AcDbLine
 10
-125.4563951916164
 20
-7.000291516732029
 30
0.0
 11
-125.874450747172
 21
-6.489850916016389
 31
0.0
1001
GENIUS_GENFIL_13
1070
     0
1040
1.0
1040
1.0
1040
20.0
1040
0.0
1002
{
1002
}
1001
GENIUS_GENODEF_13
1002
{
1000
HIER
1070
     0
1002
}
1002
{
1000
MANEDIT
1070
     0
1002
}
1002
{
1000
NOSEL
1070
     0
1002
}
1002
{
1000
BEHIND
1070
     0
1002
}
1002
{
1000
REACTOR
1002
}
1001
GENIUS_GENOBJ-N-CHA_13
1002
{
1000
OWNER
1000
GEN
1002
}
  0
ELLIPSE
  5
3B09
330
1F
100
AcDbEntity
  8
AM_0
 48
0.5
100
AcDbEllipse
 10
2.395759655345722
 20
6.182891273498551
 30
0.0
 11
1.270559906842585
 21
10.01692873459444
 31
0.0
210
0.0
220
0.0
230
1.0
 40
0.8466078179710086
 41
2.225987634979885
 42
2.658835137844322
  0
SPLINE
  5
3B0A
330
1F
100
AcDbEntity
  8
AM_0
 48
0.5
100
AcDbSpline
210
0.0
220
0.0
230
1.0
 70
     8
 71
     3
 72
    10
 73
     6
 74
     0
 42
0.0000000001
 43
0.0000000001
 40
0.0
 40
0.0
 40
0.0
 40
0.0
 40
2.69986029516136
 40
4.147722969032201
 40
6.285750005020438
 40
6.285750005020438
 40
6.285750005020438
 40
6.285750005020438
 10
-5.102661132562428
 20
0.9321219762166469
 30
0.0
 10
-4.585300856217125
 20
0.4536513881125997
 30
0.0
 10
-3.790494137770218
 20
-0.2814101451976415
 30
0.0
 10
-1.910883016951437
 20
0.0744460202695374
 30
0.0
 10
-2.26486846286185
 20
1.273016672342507
 30
0.0
 10
-2.498759428462431
 20
2.003582399763624
 30
0.0
  0
SPLINE
  5
3B0B
330
1F
100
AcDbEntity
  8
AM_0
100
AcDbSpline
210
0.0
220
0.0
230
1.0
 70
     8
 71
     3
 72
    17
 73
    13
 74
     0
 42
0.0000000001
 43
0.0000000001
 40
1.580019955310467
 40
1.580019955310467
 40
1.580019955310467
 40
1.580019955310467
 40
2.030549285115227
 40
3.082371838836284
 40
4.126290986361125
 40
5.162752068350215
 40
6.192395305374981
 40
7.216039564037012
 40
8.234688489606833
 40
9.249433870634691
 40
10.26152376260694
 40
11.27226744710342
 40
11.27226744710342
 40
11.27226744710342
 40
11.27226744710352
 10
-11.10108296873858
 20
-3.800852222144887
 30
0.0
 10
-11.20392934664941
 20
-3.839997836627722
 30
0.0
 10
-11.54747080136655
 20
-3.968302816739628
 30
0.0
 10
-12.13398125928422
 20
-4.169553768876937
 30
0.0
 10
-12.86046122653783
 20
-4.394928137505726
 30
0.0
 10
-13.58714119304628
 20
-4.592776909835971
 30
0.0
 10
-14.31385445577708
 20
-4.762435665223247
 30
0.0
 10
-15.04064689261547
 20
-4.902670297687503
 30
0.0
 10
-15.76748954145774
 20
-5.012680550015967
 30
0.0
 10
-16.49437744934165
 20
-5.091753518964069
 30
0.0
 10
-17.22129270763152
 20
-5.139380202647628
 30
0.0
 10
-17.70602049890559
 20
-5.150000601673068
 30
0.0
 10
-17.9482230929308
 20
-5.150000572204405
 30
0.0
  0
SPLINE
  5
3B0C
330
1F
100
AcDbEntity
  8
AM_0
 48
0.5
100
AcDbSpline
210
0.0
220
0.0
230
1.0
 70
     8
 71
     3
 72
    16
 73
    12
 74
     0
 42
0.0000000001
 43
0.0000000001
 40
0.0
 40
0.0
 40
0.0
 40
0.0
 40
1.010743614677189
 40
2.022833924044153
 40
3.037578959561199
 40
4.056212747067873
 40
5.079857613375832
 40
6.109500119648989
 40
7.14596120163808
 40
8.18989512056258
 40
8.362086094421943
 40
8.362086094421943
 40
8.362086094421943
 40
8.362086094421943
 10
-4.254956298629938
 20
4.463333415984833
 30
0.0
 10
-4.49714547503857
 20
4.463302468866046
 30
0.0
 10
-4.981893187391604
 20
4.452735119508036
 30
0.0
 10
-5.708799901197275
 20
4.405075220532986
 30
0.0
 10
-6.435686801626824
 20
4.326016675795627
 30
0.0
 10
-7.162525640532135
 20
4.216003871605344
 30
0.0
 10
-7.889311891997507
 20
4.075758291222963
 30
0.0
 10
-8.616033157382087
 20
3.906130137391752
 30
0.0
 10
-9.342689705967407
 20
3.708187858501798
 30
0.0
 10
-9.865223944835134
 20
3.546352100267588
 30
0.0
 10
-10.14609607546252
 20
3.453619332966392
 30
0.0
 10
-10.18583993095048
 20
3.440383266029104
 30
0.0
  0
LINE
  5
3B0D
330
1F
100
AcDbEntity
  8
AM_11
 48
0.5
100
AcDbLine
 10
-17.94822309293087
 20
5.149999427795622
 30
0.0
 11
-4.255011180734337
 21
5.149999427795545
 31
0.0
  0
LINE
  5
3B0E
330
1F
100
AcDbEntity
  8
AM_11
 48
0.5
100
AcDbLine
 10
-17.94822309293086
 20
-5.150000572204405
 30
0.0
 11
-4.255011180734318
 21
-5.150000572204481
 31
0.0
  0
SPLINE
  5
3B0F
330
1F
100
AcDbEntity
  8
AM_0
 48
0.5
100
AcDbSpline
210
0.0
220
0.0
230
1.0
 70
     8
 71
     3
 72
    25
 73
    21
 74
     0
 42
0.0000000001
 43
0.0000000001
 40
6.846175049578289
 40
6.846175049578289
 40
6.846175049578289
 40
6.846175049578289
 40
7.604337694224321
 40
8.711974558287883
 40
9.814980593243754
 40
10.91239053451967
 40
12.0033633515982
 40
13.08720139956839
 40
14.16337181880432
 40
15.23152222380919
 40
16.29148850140128
 40
17.34331105512262
 40
18.38723020264746
 40
19.42369128463655
 40
20.45333379090873
 40
21.47697865721768
 40
22.49561244472435
 40
23.5103574802404
 40
24.52244778960836
 40
25.53320666051913
 40
25.53320666051913
 40
25.53320666051913
 40
25.53320666051913
 10
-5.102777350311094
 20
0.9321831440772744
 30
0.0
 10
-5.267907617379777
 20
1.022607984835948
 30
0.0
 10
-5.674632286852918
 20
1.244234036689596
 30
0.0
 10
-6.323555794841752
 20
1.592266719654156
 30
0.0
 10
-7.049675477112964
 20
1.971893170101386
 30
0.0
 10
-7.775831676414628
 20
2.339390659894842
 30
0.0
 10
-8.502030631781751
 20
2.692499607799274
 30
0.0
 10
-9.228280434862828
 20
3.029041508792377
 30
0.0
 10
-9.954587801187393
 20
3.346940942586972
 30
0.0
 10
-10.68095609317592
 20
3.644244187063498
 30
0.0
 10
-11.40739425782248
 20
3.919101029183532
 30
0.0
 10
-12.13390131144305
 20
4.169826036464916
 30
0.0
 10
-12.86048247238529
 20
4.394854687486975
 30
0.0
 10
-13.58713517651098
 20
4.592794315013198
 30
0.0
 10
-14.31385658514733
 20
4.762431690746099
 30
0.0
 10
-15.04064265443124
 20
4.902642379475181
 30
0.0
 10
-15.76748207586338
 20
5.012784674362912
 30
0.0
 10
-16.49436683893559
 20
5.091362569775867
 30
0.0
 10
-17.22128514411789
 20
5.140809860512278
 30
0.0
 10
-17.70601679338065
 20
5.146937583122421
 30
0.0
 10
-17.94822309293085
 20
5.149999427795485
 30
0.0
  0
SPLINE
  5
3B10
330
1F
100
AcDbEntity
  8
AM_0
 48
0.5
100
AcDbSpline
210
0.0
220
0.0
230
1.0
 70
     8
 71
     3
 72
    17
 73
    13
 74
     0
 42
0.0000000001
 43
0.0000000001
 40
0.0
 40
0.0
 40
0.0
 40
0.0
 40
1.010743614677189
 40
2.022833924044153
 40
3.037578959561199
 40
4.056212747067873
 40
5.079857613375832
 40
6.109500119648989
 40
7.14596120163808
 40
8.18989512056258
 40
9.241717674284874
 40
9.693948937866434
 40
9.693948937866434
 40
9.693948937866434
 40
9.693948937866434
 10
-4.25501118073432
 20
5.149999427795408
 30
0.0
 10
-4.497213822032963
 20
5.146937510719501
 30
0.0
 10
-4.981941810612357
 20
5.140809596930086
 30
0.0
 10
-5.70885647192781
 20
5.091362593076017
 30
0.0
 10
-6.435741206588578
 20
5.012784596091932
 30
0.0
 10
-7.162580735204871
 20
4.9026426709673
 30
0.0
 10
-7.889366401328483
 20
4.762430595022537
 30
0.0
 10
-8.616089327990946
 20
4.592798441621279
 30
0.0
 10
-9.342739761349157
 20
4.394838189034437
 30
0.0
 10
-10.06934589835679
 20
4.169882556664983
 30
0.0
 10
-10.65588131933256
 20
3.967231536540794
 30
0.0
 10
-11.0003293077346
 20
3.840545506471324
 30
0.0
 10
-11.10371411398988
 20
3.801767760740668
 30
0.0
  0
SPLINE
  5
3B13
330
1F
100
AcDbEntity
  8
AM_0
100
AcDbSpline
210
0.0
220
0.0
230
1.0
 70
     8
 71
     3
 72
    12
 73
     8
 74
     0
 42
0.0000000001
 43
0.0000000001
 40
17.01223159661598
 40
17.01223159661598
 40
17.01223159661598
 40
17.01223159661598
 40
17.38177054169784
 40
18.41822485651776
 40
19.46214173629503
 40
20.51396345435107
 40
21.10941894199757
 40
21.10941894199757
 40
21.10941894199757
 40
21.10941894199757
 10
-27.68141925247337
 20
6.954144616377394
 30
0.0
 10
-27.6101370250748
 20
6.873500423887254
 30
0.0
 10
-27.34021855288782
 20
6.563492926002056
 30
0.0
 10
-26.87839700339909
 20
6.002796128392267
 30
0.0
 10
-26.3035866544058
 20
5.250181257932871
 30
0.0
 10
-25.71972664481577
 20
4.655028596024338
 30
0.0
 10
-25.45452642159631
 20
4.307786154854914
 30
0.0
 10
-24.70110671673074
 20
3.600477734131681
 30
0.0
  0
ELLIPSE
  5
3B14
330
1F
100
AcDbEntity
  8
AM_0
100
AcDbEllipse
 10
-13.06157569274145
 20
-0.5514081319070402
 30
0.0
 11
64.17796983765659
 21
188.2380245736174
 31
0.0
210
0.0
220
0.0
230
0.9999999999999998
 40
0.0621318807593063
 41
1.561690310077613
 42
1.569923020572398
  0
ELLIPSE
  5
3B16
330
1F
100
AcDbEntity
  8
AM_0
100
AcDbEllipse
 10
-23.04555112888891
 20
65.98047349692932
 30
0.0
 11
1.622303604502772
 21
68.28230215281175
 31
0.0
210
0.0
220
0.0
230
1.0
 40
0.5807177899118359
 41
3.084529988637577
 42
3.134366324086853
  0
ELLIPSE
  5
3B17
330
1F
100
AcDbEntity
  8
AM_0
100
AcDbEllipse
 10
-12.98068082660603
 20
0.5514069874983187
 30
0.0
 11
-2.466079533643043
 21
14.60303633305596
 31
0.0
210
0.0
220
0.0
230
1.0
 40
0.830439517592152
 41
1.625592411746627
 42
1.828019079174281
  0
LINE
  5
3B1B
330
1F
100
AcDbEntity
  8
AM_0
 48
0.5
100
AcDbLine
 10
-24.17227570728951
 20
5.149999427795817
 30
0.0
 11
-17.94822309293087
 21
5.149999427795622
 31
0.0
  0
LINE
  5
3B1C
330
1F
100
AcDbEntity
  8
AM_0
 48
0.5
100
AcDbLine
 10
-24.07538078776156
 20
-5.150000572204369
 30
0.0
 11
-17.94822309293086
 21
-5.150000572204405
 31
0.0
  0
SPLINE
  5
3B1D
330
1F
100
AcDbEntity
  8
AM_0
100
AcDbSpline
210
0.0
220
0.0
230
1.0
 70
     8
 71
     3
 72
    11
 73
     7
 74
     0
 42
0.0000000001
 43
0.0000000001
 40
11.27226913003534
 40
11.27226913003534
 40
11.27226913003534
 40
11.2722691300354
 40
12.28301561507924
 40
13.29510212255852
 40
14.30984805882082
 40
15.09690564740603
 40
15.09690564740603
 40
15.09690564740603
 40
15.09690564740603
 10
-17.94822309293087
 20
-5.150000572204405
 30
0.0
 10
-18.18950471345464
 20
-5.124794975624188
 30
0.0
 10
-18.67161285148462
 20
-5.063773323295873
 30
0.0
 10
-19.39228554198262
 20
-4.94067755687964
 30
0.0
 10
-21.57738966695911
 20
-4.066290197360062
 30
0.0
 10
-23.32134806393692
 20
-3.142384807194761
 30
0.0
 10
-24.95435370131325
 20
-2.293237948412199
 30
0.0
  0
SPLINE
  5
3B1E
330
1F
100
AcDbEntity
  8
AM_0
100
AcDbSpline
210
0.0
220
0.0
230
1.0
 70
     8
 71
     3
 72
    33
 73
    29
 74
     0
 42
0.0000000001
 43
0.0000000001
 40
0.0
 40
0.0
 40
0.0
 40
0.0
 40
1.010743684496582
 40
2.022833576467832
 40
3.037578957496688
 40
4.056212745003489
 40
5.079857003664532
 40
6.109500240690281
 40
7.145961322679372
 40
8.189895241603872
 40
9.241717795325891
 40
10.30168407291828
 40
11.36983447792315
 40
12.44600489715814
 40
13.52984294512926
 40
14.62081576220742
 40
15.7182257034828
 40
16.82123173843959
 40
17.92886860250316
 40
19.0400688939571
 40
20.15368796660465
 40
21.26852814259644
 40
22.38336992938901
 40
23.49698739941135
 40
24.6081876908653
 40
25.71582455492886
 40
26.81883757994213
 40
27.56016774795276
 40
27.56016774795276
 40
27.56016774795276
 40
27.56016774795276
 10
-4.255011180734336
 20
-5.150000572204483
 30
0.0
 10
-4.497213777954978
 20
-5.146936446970897
 30
0.0
 10
-4.981941561546975
 20
-5.140804115401452
 30
0.0
 10
-5.708856835255152
 20
-5.091370638545395
 30
0.0
 10
-6.4357410796911
 20
-5.012784323809142
 30
0.0
 10
-7.162580337128632
 20
-4.902642614843657
 30
0.0
 10
-7.889367354856183
 20
-4.762438142975489
 30
0.0
 10
-8.61608779499082
 20
-4.592794375148074
 30
0.0
 10
-9.342744088380248
 20
-4.394854092247615
 30
0.0
 10
-10.06932979105162
 20
-4.169829385859474
 30
0.0
 10
-10.7958399536321
 20
-3.919101894030008
 30
0.0
 10
-11.52227819737332
 20
-3.644245407307385
 30
0.0
 10
-12.24864646782164
 20
-3.346942066233231
 30
0.0
 10
-12.97495384036686
 20
-3.029042659625937
 30
0.0
 10
-13.70120364031463
 20
-2.692500747450845
 30
0.0
 10
-14.42740260198897
 20
-2.339391816965474
 30
0.0
 10
-15.15355877903468
 20
-1.971894268282899
 30
0.0
 10
-15.87967854458607
 20
-1.592268037451786
 30
0.0
 10
-16.60576894571815
 20
-1.202847973470104
 30
0.0
 10
-17.33183775190681
 20
-0.8060309105662108
 30
0.0
 10
-18.05789133146659
 20
-0.4042563169652002
 30
0.0
 10
-18.78393993739873
 20
-0.000001622991566
 30
0.0
 10
-19.5099852839801
 20
0.4042603478187025
 30
0.0
 10
-20.23604129711325
 20
0.8060286847264695
 30
0.0
 10
-20.96210920696021
 20
1.202846948773041
 30
0.0
 10
-21.68820090270345
 20
1.592268496271623
 30
0.0
 10
-22.05848257025027
 20
1.931028844093121
 30
0.0
 10
-22.45374326256837
 20
2.13788414655812
 30
0.0
 10
-24.70110671673629
 20
3.600477734135844
 30
0.0
  0
SPLINE
  5
3B1F
330
1F
100
AcDbEntity
  8
AM_0
100
AcDbSpline
210
0.0
220
0.0
230
1.0
 70
     8
 71
     3
 72
    37
 73
    33
 74
     0
 42
0.0000000001
 43
0.0000000001
 40
0.0
 40
0.0
 40
0.0
 40
0.0
 40
2.022498070421493
 40
3.03724345144935
 40
4.055877238956151
 40
5.079521497617194
 40
6.109164734642943
 40
7.145625816632033
 40
8.189544964155905
 40
9.24138217828764
 40
10.30134845588002
 40
11.3694988608849
 40
12.44566928012083
 40
13.52950732809102
 40
14.62048014516917
 40
15.71789008644548
 40
16.82089612140135
 40
17.92853298546491
 40
19.03973327691977
 40
20.1533523495664
 40
21.2681925255582
 40
22.3830327015509
 40
23.49665177419753
 40
24.60785206565148
 40
25.71548892971504
 40
26.81849496467183
 40
27.91590490594683
 40
29.00687772302536
 40
30.09072288467331
 40
31.16689330390925
 40
32.23504370891412
 40
32.37258236425404
 40
32.37258236425404
 40
32.37258236425404
 40
32.37258236425404
 10
-2.220142348796138
 20
-5.150000572204493
 30
0.0
 10
-2.704893815415149
 20
-5.138268474104876
 30
0.0
 10
-3.432859018003476
 20
-5.120650045367558
 30
0.0
 10
-4.400866093164292
 20
-5.012176616309262
 30
0.0
 10
-5.127713159735557
 20
-4.902806544607422
 30
0.0
 10
-5.854498098185515
 20
-4.762393950785969
 30
0.0
 10
-6.581218993913783
 20
-4.592805951963831
 30
0.0
 10
-7.307872113612692
 20
-4.394853323250882
 30
0.0
 10
-8.034456240247299
 20
-4.169825600363444
 30
0.0
 10
-8.760968140261734
 20
-3.919104486831418
 30
0.0
 10
-9.48740926577901
 20
-3.644245047979325
 30
0.0
 10
-10.21377766289331
 20
-3.346942163618011
 30
0.0
 10
-10.94008500110165
 20
-3.029042633218706
 30
0.0
 10
-11.66633481040281
 20
-2.692500754708447
 30
0.0
 10
-12.39253376934115
 20
-2.339391814587318
 30
0.0
 10
-13.11868994789773
 20
-1.971894270488835
 30
0.0
 10
-13.84480971014203
 20
-1.592268030980734
 30
0.0
 10
-14.57090012305138
 20
-1.202847997271328
 30
0.0
 10
-15.29696888525406
 20
-0.8060308214841382
 30
0.0
 10
-16.02302262943561
 20
-0.4042566503116763
 30
0.0
 10
-16.74907027028121
 20
-0.0000005722862985
 30
0.0
 10
-17.47511791096728
 20
0.4042555062304802
 30
0.0
 10
-18.20117165562722
 20
0.8060296759296248
 30
0.0
 10
-18.92724041608123
 20
1.202846857100437
 30
0.0
 10
-19.65333083547496
 20
1.592266870844866
 30
0.0
 10
-20.37945057367571
 20
1.971893184380064
 30
0.0
 10
-21.10560684127376
 20
2.339390454330015
 30
0.0
 10
-21.83180704957445
 20
2.692501176173291
 30
0.0
 10
-22.26828104779327
 20
3.029039997029947
 30
0.0
 10
-22.99458968162257
 20
3.346941157509123
 30
0.0
 10
-23.1902350950035
 20
3.558658642643133
 30
0.0
 10
-23.46474903291008
 20
3.666189554032744
 30
0.0
 10
-24.50762234996849
 20
4.183133466469294
 30
0.0
  0
LINE
  5
3C2A
330
1F
100
AcDbEntity
  8
AM_0
100
AcDbLine
 10
-24.08128581822316
 20
-5.144095541811783
 30
0.0
 11
-25.87445074717212
 21
-6.937260491714674
 31
0.0
  0
ELLIPSE
  5
4204
330
1F
100
AcDbEntity
  8
AM_0
100
AcDbEllipse
 10
-30.19453529949096
 20
8.584536219922407
 30
0.0
 11
-3.896976966961376
 21
2.596407807436534
 31
0.0
210
0.0
220
0.0
230
1.0
 40
0.8805229881428324
 41
3.02829721568969
 42
3.374996264584811
  0
LINE
  5
4205
330
1F
100
AcDbEntity
  8
AM_0
 48
0.5
100
AcDbLine
 10
-28.35924515790249
 20
6.992392169327857
 30
0.0
 11
-25.87445992712606
 21
6.85218366752313
 31
0.0
  0
LINE
  5
4206
330
1F
100
AcDbEntity
  8
AM_0
 48
0.5
100
AcDbLine
 10
-28.03770139898165
 20
-6.992396315937652
 30
0.0
 11
-25.87428217306907
 21
-6.937256195184308
 31
0.0
  0
ELLIPSE
  5
4207
330
1F
100
AcDbEntity
  8
AM_0
100
AcDbEllipse
 10
-12.66469530778856
 20
0.4917827866827847
 30
0.0
 11
1.192012105730856
 21
17.69671837162716
 31
0.0
210
0.0
220
0.0
230
0.9999999999999998
 40
0.8089727124604888
 41
1.77410650313576
 42
2.057770594261602
  0
SPLINE
  5
4208
330
1F
100
AcDbEntity
  8
AM_0
100
AcDbSpline
210
0.0
220
0.0
230
1.0
 70
     8
 71
     3
 72
     8
 73
     4
 74
     0
 42
0.0000000001
 43
0.0000000001
 40
16.03460024169435
 40
16.03460024169435
 40
16.03460024169435
 40
16.03460024169435
 40
16.03905285852473
 40
16.03905285852473
 40
16.03905285852473
 40
16.03905285852473
 10
-43.42639020499265
 20
6.993495947499385
 30
0.0
 10
-43.42514121648634
 20
6.993128159111739
 30
0.0
 10
-43.42389224555929
 20
6.9927602345517
 30
0.0
 10
-43.42264329222144
 20
6.992392173849808
 30
0.0
  0
LINE
  5
4209
330
1F
100
AcDbEntity
  8
AM_0
100
AcDbLine
 10
-43.42264329222149
 20
6.992392173849933
 30
0.0
 11
-44.03080365454682
 21
6.992392173849941
 31
0.0
  0
SPLINE
  5
420A
330
1F
100
AcDbEntity
  8
AM_0
 48
0.5
100
AcDbSpline
210
0.0
220
0.0
230
1.0
 70
     8
 71
     3
 72
    16
 73
    12
 74
     0
 42
0.0000000001
 43
0.0000000001
 40
0.0
 40
0.0
 40
0.0
 40
0.0
 40
1.010743614677189
 40
2.022833924044153
 40
3.037578959561199
 40
4.056212747067873
 40
5.079857613375832
 40
6.109500119648989
 40
7.14596120163808
 40
8.18989512056258
 40
8.493066654868243
 40
8.493066654868243
 40
8.493066654868243
 40
8.493066654868243
 10
-44.03084123546571
 20
6.9923921693277
 30
0.0
 10
-44.31968604505315
 20
6.992357154051572
 30
0.0
 10
-44.89781617765788
 20
6.980400672382092
 30
0.0
 10
-45.76475513195187
 20
6.926475635066428
 30
0.0
 10
-46.63167045599564
 20
6.837024438845666
 30
0.0
 10
-47.49852845988153
 20
6.712549886890269
 30
0.0
 10
-48.36532374581571
 20
6.553868305138793
 30
0.0
 10
-49.23204152666721
 20
6.361941659849093
 30
0.0
 10
-50.09868212359233
 20
6.137978852435762
 30
0.0
 10
-50.7581148459269
 20
5.944221707040227
 30
0.0
 10
-51.12899744263494
 20
5.827274544318283
 30
0.0
 10
-53.21035681427587
 20
5.327922551830504
 30
0.0
  0
ELLIPSE
  5
420B
330
1F
100
AcDbEntity
  8
AM_0
100
AcDbEllipse
 10
-39.18277068625787
 20
-4.815556995680807
 30
0.0
 11
-0.0000000000486153
 21
1.679787665505718
 31
0.0
210
0.0
220
0.0
230
1.0
 40
0.8506270278035611
 41
3.427918371510467
 42
3.631632084737701
  0
LINE
  5
420C
330
1F
100
AcDbEntity
  8
AM_0
100
AcDbLine
 10
-40.41288353972087
 20
-6.992396206417899
 30
0.0
 11
-38.77921493807884
 21
-6.426957270005591
 31
0.0
  0
LINE
  5
420D
330
1F
100
AcDbEntity
  8
AM_0
100
AcDbLine
 10
-38.51025644873217
 20
-6.297657674917247
 30
0.0
 11
-36.37822345816967
 21
-4.960633248450264
 31
0.0
  0
LINE
  5
420E
330
1F
100
AcDbEntity
  8
AM_0
100
AcDbLine
 10
-40.41288353972087
 20
-6.992396206417899
 30
0.0
 11
-43.55051191573416
 21
-6.992396392563901
 31
0.0
  0
SPLINE
  5
420F
330
1F
100
AcDbEntity
  8
AM_0
 48
0.5
100
AcDbSpline
210
0.0
220
0.0
230
1.0
 70
     8
 71
     3
 72
    15
 73
    11
 74
     0
 42
0.0000000001
 43
0.0000000001
 40
7.907745354493536
 40
7.907745354493536
 40
7.907745354493536
 40
7.907745354493536
 40
8.189873411961459
 40
9.241710626092514
 40
10.30166235592959
 40
11.36982472628033
 40
12.44598212828784
 40
13.52983440361964
 40
14.62080578343036
 40
14.83017027485111
 40
14.83017027485111
 40
14.83017027485111
 40
14.83017027485111
 10
-34.75583701775972
 20
-5.75491511036231
 30
0.0
 10
-34.83375453456643
 20
-5.722422634551846
 30
0.0
 10
-35.2017948245001
 20
-5.566603393467487
 30
0.0
 10
-35.8590944648991
 20
-5.268832699904696
 30
0.0
 10
-36.72547346002264
 20
-4.838486286128321
 30
0.0
 10
-37.5917738546429
 20
-4.373058168006825
 30
0.0
 10
-38.45799499806678
 20
-3.875315295999437
 30
0.0
 10
-39.32415311792686
 20
-3.348428517555709
 30
0.0
 10
-39.95520702648575
 20
-2.945638686754567
 30
0.0
 10
-40.29817449398753
 20
-2.721407517768197
 30
0.0
 10
-41.00329370743803
 20
-2.325899741115541
 30
0.0
  0
ELLIPSE
  5
4210
330
1F
100
AcDbEntity
  8
AM_0
100
AcDbEllipse
 10
-54.6873695305809
 20
-4.816009283519887
 30
0.0
 11
-0.0000000000234293
 21
1.586987319537636
 31
0.0
210
0.0
220
0.0
230
1.0
 40
0.8506270278083832
 41
3.427918371525217
 42
3.631632084750912
  0
LINE
  5
4211
330
1F
100
AcDbEntity
  8
AM_0
100
AcDbLine
 10
-56.08448129886638
 20
-7.000291188301402
 30
0.0
 11
-54.30610833415858
 21
-6.338387292695812
 31
0.0
  0
LINE
  5
4212
330
1F
100
AcDbEntity
  8
AM_0
100
AcDbLine
 10
-54.05200853283265
 20
-6.216230890407542
 30
0.0
 11
-51.831534363356
 21
-4.823743899788333
 31
0.0
  0
SPLINE
  5
4213
330
1F
100
AcDbEntity
  8
AM_0
 48
0.5
100
AcDbSpline
210
0.0
220
0.0
230
1.0
 70
     8
 71
     3
 72
    15
 73
    11
 74
     0
 42
0.0000000001
 43
0.0000000001
 40
7.907745354493536
 40
7.907745354493536
 40
7.907745354493536
 40
7.907745354493536
 40
8.189873411961459
 40
9.241710626092514
 40
10.30166235592959
 40
11.36982472628033
 40
12.44598212828784
 40
13.52983440361964
 40
14.62080578343036
 40
14.90544694398022
 40
14.90544694398022
 40
14.90544694398022
 40
14.90544694398022
 10
-50.50500307861138
 20
-5.426040927429783
 30
0.0
 10
-50.57861602010461
 20
-5.395343507660347
 30
0.0
 10
-50.92632381984454
 20
-5.248132544740094
 30
0.0
 10
-51.5473107551993
 20
-4.966812277591071
 30
0.0
 10
-52.36582639703176
 20
-4.560240473490193
 30
0.0
 10
-53.18426778066809
 20
-4.120525063749924
 30
0.0
 10
-54.0026342913628
 20
-3.650280137866667
 30
0.0
 10
-54.82094126024841
 20
-3.152501368923371
 30
0.0
 10
-55.4359561342798
 20
-2.759948951940491
 30
0.0
 10
-55.77866388387722
 20
-2.535578608651226
 30
0.0
 10
-55.84952445059375
 20
-2.488956448445783
 30
0.0
  0
SPLINE
  5
4214
330
1F
100
AcDbEntity
  8
AM_0
 48
0.5
100
AcDbSpline
210
0.0
220
0.0
230
1.0
 70
     8
 71
     3
 72
    15
 73
    11
 74
     0
 42
0.0000000001
 43
0.0000000001
 40
0.0
 40
0.0
 40
0.0
 40
0.0
 40
1.010743684496582
 40
2.022833993863546
 40
3.037578683882831
 40
4.056212471389632
 40
5.079857945358201
 40
6.109499720892564
 40
7.145961650132166
 40
7.907745354493536
 40
7.907745354493536
 40
7.907745354493536
 40
7.907745354493536
 10
-43.55051191573436
 20
-6.992396392563899
 30
0.0
 10
-44.02239936999989
 20
-6.92875582334653
 30
0.0
 10
-44.59680885241643
 20
-6.887907887813505
 30
0.0
 10
-45.46375710720362
 20
-6.810491925897624
 30
0.0
 10
-46.33067020169035
 20
-6.68747575679411
 30
0.0
 10
-47.19752916567411
 20
-6.515034727137777
 30
0.0
 10
-48.06432300461975
 20
-6.29550629383231
 30
0.0
 10
-48.93104267587443
 20
-6.029929698934687
 30
0.0
 10
-49.71905804698437
 20
-5.748135210369211
 30
0.0
 10
-50.21704533036564
 20
-5.548994780521201
 30
0.0
 10
-50.42743310647108
 20
-5.46126072525259
 30
0.0
  0
SPLINE
  5
4215
330
1F
100
AcDbEntity
  8
AM_0
100
AcDbSpline
210
0.0
220
0.0
230
1.0
 70
     8
 71
     3
 72
    23
 73
    19
 74
     0
 42
0.0000000001
 43
0.0000000001
 40
16.03905285852473
 40
16.03905285852473
 40
16.03905285852473
 40
16.03905285852473
 40
16.35212704903564
 40
17.38177054169784
 40
18.41822485651776
 40
19.46214173629503
 40
20.51396345435107
 40
21.57393551351153
 40
22.64208202342361
 40
23.7182574881101
 40
24.80209208578934
 40
25.89306333925047
 40
26.99048218457928
 40
28.09348763352352
 40
29.20111863782268
 40
30.31232390128032
 40
31.42594612798585
 40
32.5407912310448
 40
32.5407912310486
 40
32.5407912310486
 40
32.5407912310486
 10
-57.24457103051497
 20
6.981539703788797
 30
0.0
 10
-57.15675411966589
 20
6.955660471274791
 30
0.0
 10
-56.78049646990984
 20
6.841782560519774
 30
0.0
 10
-56.11674915765383
 20
6.618413717004552
 30
0.0
 10
-55.25558599572081
 20
6.285645076770682
 30
0.0
 10
-54.39522272263903
 20
5.912001360704864
 30
0.0
 10
-53.53560849885644
 20
5.499645028057289
 30
0.0
 10
-52.6767128151409
 20
5.05087497461401
 30
0.0
 10
-51.81848602938041
 20
4.568256559253047
 30
0.0
 10
-50.96086837792356
 20
4.054598500093365
 30
0.0
 10
-50.10381112785505
 20
3.512809612776029
 30
0.0
 10
-49.24724556578758
 20
2.946042440597102
 30
0.0
 10
-48.39110227666089
 20
2.357591279231597
 30
0.0
 10
-47.53532421808942
 20
1.750839476162703
 30
0.0
 10
-46.67983978816254
 20
1.129315210034446
 30
0.0
 10
-45.82456975090394
 20
0.4966477265751185
 30
0.0
 10
-44.96944446318963
 20
-0.1434968374689363
 30
0.0
 10
-44.39951406228266
 20
-0.572678764917537
 30
0.0
 10
-41.00329370741492
 20
-2.325899741127477
 30
0.0
  0
ELLIPSE
  5
4216
330
1F
100
AcDbEntity
  8
AM_0
100
AcDbEllipse
 10
-58.21276605588139
 20
-4.42806078631388
 30
0.0
 11
-3.671333685553587
 21
0.0901773502294977
 31
0.0
210
0.0
220
0.0
230
1.0
 40
0.7003067649761342
 41
4.03038821477537
 42
7.871181265099831
  0
SPLINE
  5
4217
330
1F
100
AcDbEntity
  8
AM_0
 48
0.5
100
AcDbSpline
210
0.0
220
0.0
230
1.0
 70
     8
 71
     3
 72
    12
 73
     8
 74
     0
 42
0.0000000001
 43
0.0000000001
 40
3.172436591848706
 40
3.172436591848706
 40
3.172436591848706
 40
3.172436591848706
 40
4.056212471389632
 40
5.079857945358201
 40
6.109499720892564
 40
7.145961650132166
 40
7.907745354493536
 40
7.907745354493536
 40
7.907745354493536
 40
7.907745354493536
 10
-28.03770139898165
 20
-6.992396315937653
 30
0.0
 10
-30.11420992042896
 20
-6.99638365211429
 30
0.0
 10
-31.56398548858066
 20
-6.799051772974087
 30
0.0
 10
-32.39272691590844
 20
-6.589160678942031
 30
0.0
 10
-33.25944658716309
 20
-6.323584084044408
 30
0.0
 10
-34.04746195827305
 20
-6.04178959547893
 30
0.0
 10
-34.54544924165434
 20
-5.842649165630922
 30
0.0
 10
-34.75583701775972
 20
-5.75491511036231
 30
0.0
  0
SPLINE
  5
4218
330
1F
100
AcDbEntity
  8
AM_0
 48
0.5
100
AcDbSpline
210
0.0
220
0.0
230
1.0
 70
     8
 71
     3
 72
    16
 73
    12
 74
     0
 42
0.0000000001
 43
0.0000000001
 40
0.0
 40
0.0
 40
0.0
 40
0.0
 40
1.010743614677189
 40
2.022833924044153
 40
3.037578959561199
 40
4.056212747067873
 40
5.079857613375832
 40
6.109500119648989
 40
7.14596120163808
 40
8.18989512056258
 40
8.545190612624931
 40
8.545190612624931
 40
8.545190612624931
 40
8.545190612624931
 10
-28.35924515790247
 20
6.992392169327572
 30
0.0
 10
-28.64808996748994
 20
6.99235715405144
 30
0.0
 10
-29.22622010009465
 20
6.980400672381961
 30
0.0
 10
-30.09315905438862
 20
6.926475635066299
 30
0.0
 10
-30.96007437843237
 20
6.837024438845539
 30
0.0
 10
-31.82693238231827
 20
6.712549886890142
 30
0.0
 10
-32.69372766825248
 20
6.553868305138599
 30
0.0
 10
-33.560445449104
 20
6.361941659848901
 30
0.0
 10
-34.42708604602911
 20
6.137978852435571
 30
0.0
 10
-35.1009392776528
 20
5.939984615642575
 30
0.0
 10
-35.48610000728251
 20
5.818213257697362
 30
0.0
 10
-38.79962273973099
 20
5.026013386762213
 30
0.0
  0
SPLINE
  5
4219
330
1F
100
AcDbEntity
  8
AM_0
100
AcDbSpline
210
0.0
220
0.0
230
1.0
 70
     8
 71
     3
 72
    23
 73
    19
 74
     0
 42
0.0000000001
 43
0.0000000001
 40
16.03905285852473
 40
16.03905285852473
 40
16.03905285852473
 40
16.03905285852473
 40
16.35212704903564
 40
17.38177054169784
 40
18.41822485651776
 40
19.46214173629503
 40
20.51396345435107
 40
21.57393551351153
 40
22.64208202342361
 40
23.7182574881101
 40
24.80209208578934
 40
25.89306333925047
 40
26.99048218457928
 40
28.09348763352352
 40
29.20111863782268
 40
30.31232390128032
 40
31.42594612798585
 40
32.5407912310448
 40
32.5407912310486
 40
32.5407912310486
 40
32.5407912310486
 10
-43.42268091871132
 20
6.992392169327692
 30
0.0
 10
-43.33486400786224
 20
6.966512936813685
 30
0.0
 10
-42.95860635810618
 20
6.852635026058666
 30
0.0
 10
-42.29485904585016
 20
6.629266182543446
 30
0.0
 10
-41.43369588391716
 20
6.296497542309578
 30
0.0
 10
-40.57333261083537
 20
5.92285382624376
 30
0.0
 10
-39.71371838705279
 20
5.510497493596183
 30
0.0
 10
-38.85482270333724
 20
5.061727440152903
 30
0.0
 10
-37.99659591757674
 20
4.579109024791939
 30
0.0
 10
-37.1389782661199
 20
4.065450965632258
 30
0.0
 10
-36.2819210160514
 20
3.523662078314922
 30
0.0
 10
-35.42535545398393
 20
2.956894906135997
 30
0.0
 10
-34.56921216485724
 20
2.36844374477049
 30
0.0
 10
-33.71343410628576
 20
1.761691941701597
 30
0.0
 10
-32.85794967635887
 20
1.14016767557334
 30
0.0
 10
-32.00267963910028
 20
0.5075001921140121
 30
0.0
 10
-31.14755435138598
 20
-0.1326443719300427
 30
0.0
 10
-30.577623950479
 20
-0.5618262993786432
 30
0.0
 10
-26.92667792735875
 20
-2.136960586953361
 30
0.0
  0
LINE
  5
432E
330
1F
100
AcDbEntity
  8
AM_0
100
AcDbLine
 10
-24.17227570728951
 20
5.149999427795817
 30
0.0
 11
-25.87445992712606
 21
6.85218366752313
 31
0.0
  0
DIMENSION
  5
433B
330
1F
100
AcDbEntity
  8
AM_5
100
AcDbDimension
  2
*D14
 10
-25.87445074717212
 20
-6.937260491714674
 30
0.0
 11
-68.84974066723244
 21
-0.0425430020728614
 31
0.0
 70
    34
  1
<>
 51
359.9999999999998
  3
AM_JIS$2
100
AcDb2LineAngularDimension
 13
-24.17227570728951
 23
5.149999427795817
 33
0.0
 14
-25.87445992712606
 24
6.85218366752313
 34
0.0
 15
-24.08128581822316
 25
-5.144095541811783
 35
0.0
 16
-65.65327631942944
 26
12.46359524510064
 36
0.0
1001
ACAD
1000
DSTYLE
1002
{
1070
   179
1070
     3
1002
}
1001
GENIUS_GENDTOL_13
1000

1000
h7
1000

1040
0.0
  0
VIEWPORT
  5
110
330
101
100
AcDbEntity
 67
     1
  8
0
100
AcDbViewport
 10
420.5
 20
297.0
 30
0.0
 40
948.9782706766916
 41
628.452
 68
     1
 69
     1
1001
ACAD
1000
MVIEW
1002
{
1070
    16
1010
0.0
1020
0.0
1030
0.0
1010
0.0
1020
0.0
1030
1.0
1040
0.0
1040
628.452
1040
420.5
1040
297.0
1040
50.0
1040
0.0
1040
0.0
1070
     0
1070
   100
1070
     1
1070
     1
1070
     0
1070
     0
1070
     0
1070
     0
1040
0.0
1040
0.0
1040
0.0
1040
10.0
1040
10.0
1040
10.0
1040
10.0
1070
     0
1002
{
1002
}
1002
}
  0
ENDSEC
  0
SECTION
  2
OBJECTS
  0
DICTIONARY
  5
C
330
0
100
AcDbDictionary
  3
ACAD_GROUP
350
D
  3
ACAD_LAYOUT
350
1A
  3
ACAD_MLINESTYLE
350
17
  3
ACAD_PLOTSETTINGS
350
19
  3
ACAD_PLOTSTYLENAME
350
E
  3
ACDBVARIABLEDICTIONARY
350
34
  3
ACMDICTIONARY
350
43
  3
AMG
350
2B
  3
AMGSNAPSETTINGS
350
6E
  3
DWGPROPS
350
4478
  3
ACDBHEADERROUNDTRIPXREC
350
4487
  0
DICTIONARY
  5
74
330
1F
100
AcDbDictionary
280
     1
  3
ACAD_INDEX
360
447A
  3
ACAD_LAYOUTSELFREF
360
44AA
  0
DICTIONARY
  5
44AF
330
101
100
AcDbDictionary
280
     1
  3
ACAD_LAYOUTSELFREF
360
44B0
  0
DICTIONARY
  5
D
102
{ACAD_REACTORS
330
C
102
}
330
C
100
AcDbDictionary
  0
DICTIONARY
  5
1A
102
{ACAD_REACTORS
330
C
102
}
330
C
100
AcDbDictionary
  0
DICTIONARY
  5
17
102
{ACAD_REACTORS
330
C
102
}
330
C
100
AcDbDictionary
  3
STANDARD
350
18
  0
DICTIONARY
  5
19
102
{ACAD_REACTORS
330
C
102
}
330
C
100
AcDbDictionary
  0
ACDBDICTIONARYWDFLT
  5
E
102
{ACAD_REACTORS
330
C
102
}
330
C
100
AcDbDictionary
281
     1
  3
Normal
350
F
100
AcDbDictionaryWithDefault
340
F
  0
DICTIONARY
  5
34
102
{ACAD_REACTORS
330
C
102
}
330
C
100
AcDbDictionary
  3
INDEXCTL
350
35
  3
SORTENTS
350
B5E
  0
DICTIONARY
  5
43
102
{ACAD_REACTORS
330
C
102
}
330
C
100
AcDbDictionary
  3
ACMSTDDICTIONARY
350
260
  0
DICTIONARY
  5
2B
102
{ACAD_REACTORS
330
C
102
}
330
C
100
AcDbDictionary
  3
ACMGSETTINGS
350
2C
  0
DICTIONARY
  5
6E
102
{ACAD_REACTORS
330
C
102
}
330
C
100
AcDbDictionary
  0
XRECORD
  5
4478
102
{ACAD_REACTORS
330
C
102
}
330
C
100
AcDbXrecord
  1
DWGPROPS COOKIE
  2

  3

  4

  6

  7

  8

  9

300
AmdtFileType=82
301
=
302
=
303
=
304
=
305
=
306
=
307
=
308
=
309
=
 40
0.3604391435185185
 41
2452800.443498622
 42
2452983.889658657
  1

 90
        1
  0
DICTIONARY
  5
4487
102
{ACAD_REACTORS
330
C
102
}
330
C
100
AcDbDictionary
  3
TSTACKALIGN
350
4488
  3
TSTACKSIZE
350
4489
  3
HYPERLINKBASE
350
448A
  3
STYLESHEET
350
448B
  3
LAYOUTDICT
350
448C
  3
PLOTSETDICT
350
448D
  3
PLOTSTYLNAMDICT
350
448E
  3
LWETCUNION
350
448F
  3
INSUNITS
350
4490
  3
CEPSNTYPE
350
4491
  3
FINGERPRINTGUID
350
4492
  3
VERSIONGUID
350
4493
  3
PSVPSCALE
350
4494
  3
DIMSTYLEDATA
350
4495
  3
PUCSORTHOREF
350
4496
  3
PUCSORTHOVIEW
350
4497
  3
PUCSBASE
350
4498
  3
PUCSORGTOP
350
4499
  3
PUCSORGBOTTOM
350
449A
  3
PUCSORGLEFT
350
449B
  3
PUCSORGRIGHT
350
449C
  3
PUCSORGFRONT
350
449D
  3
PUCSORGBACK
350
449E
  3
UCSORTHOREF
350
449F
  3
UCSORTHOVIEW
350
44A0
  3
UCSBASE
350
44A1
  3
UCSORGTOP
350
44A2
  3
UCSORGBOTTOM
350
44A3
  3
UCSORGLEFT
350
44A4
  3
UCSORGRIGHT
350
44A5
  3
UCSORGFRONT
350
44A6
  3
UCSORGBACK
350
44A7
  0
DICTIONARY
  5
447A
102
{ACAD_REACTORS
330
74
102
}
330
74
100
AcDbDictionary
  3
*A1
350
447B
  0
XRECORD
  5
44AA
102
{ACAD_REACTORS
330
74
102
}
330
74
100
AcDbXrecord
340
1F
  0
XRECORD
  5
44B0
102
{ACAD_REACTORS
330
44AF
102
}
330
44AF
100
AcDbXrecord
340
101
  0
MLINESTYLE
  5
18
102
{ACAD_REACTORS
330
17
102
}
330
17
100
AcDbMlineStyle
  2
STANDARD
 70
     0
  3

 62
   256
 51
90.0
 52
90.0
 71
     2
 49
0.5
 62
   256
  6
BYLAYER
 49
-0.5
 62
   256
  6
BYLAYER
  0
ACDBPLACEHOLDER
  5
F
102
{ACAD_REACTORS
330
E
102
}
330
E
100
AcDbPlaceHolder
280
     0
  0
DICTIONARYVAR
  5
35
102
{ACAD_REACTORS
330
34
102
}
330
34
100
DictionaryVariables
280
     0
  1
1
  0
DICTIONARYVAR
  5
B5E
102
{ACAD_REACTORS
330
34
102
}
330
34
100
DictionaryVariables
280
     0
  1
96
  0
DICTIONARY
  5
260
102
{ACAD_REACTORS
330
43
102
}
330
43
100
AcDbDictionary
  0
DICTIONARY
  5
2C
102
{ACAD_REACTORS
330
2B
102
}
330
2B
100
AcDbDictionary
  3
DWGSETTINGS
350
2D
  0
XRECORD
  5
4488
102
{ACAD_REACTORS
330
4487
102
}
330
4487
100
AcDbXrecord
 90
        1
  0
XRECORD
  5
4489
102
{ACAD_REACTORS
330
4487
102
}
330
4487
100
AcDbXrecord
 90
       70
  0
XRECORD
  5
448A
102
{ACAD_REACTORS
330
4487
102
}
330
4487
100
AcDbXrecord
  1

  0
XRECORD
  5
448B
102
{ACAD_REACTORS
330
4487
102
}
330
4487
100
AcDbXrecord
  1
ASAMI.ctb
  0
XRECORD
  5
448C
102
{ACAD_REACTORS
330
4487
102
}
330
4487
100
AcDbXrecord
340
1A
  0
XRECORD
  5
448D
102
{ACAD_REACTORS
330
4487
102
}
330
4487
100
AcDbXrecord
340
19
  0
XRECORD
  5
448E
102
{ACAD_REACTORS
330
4487
102
}
330
4487
100
AcDbXrecord
340
E
  0
XRECORD
  5
448F
102
{ACAD_REACTORS
330
4487
102
}
330
4487
100
AcDbXrecord
 90
    10781
  0
XRECORD
  5
4490
102
{ACAD_REACTORS
330
4487
102
}
330
4487
100
AcDbXrecord
 90
        4
  0
XRECORD
  5
4491
102
{ACAD_REACTORS
330
4487
102
}
330
4487
100
AcDbXrecord
 90
        0
  0
XRECORD
  5
4492
102
{ACAD_REACTORS
330
4487
102
}
330
4487
100
AcDbXrecord
  1
{AFB28963-8C59-40AE-9337-C84526B81ACE}
  0
XRECORD
  5
4493
102
{ACAD_REACTORS
330
4487
102
}
330
4487
100
AcDbXrecord
  1
{4BB9DE9B-965E-4196-A436-E9D58D03B97E}
  0
XRECORD
  5
4494
102
{ACAD_REACTORS
330
4487
102
}
330
4487
100
AcDbXrecord
 40
0.0
  0
XRECORD
  5
4495
102
{ACAD_REACTORS
330
4487
102
}
330
4487
100
AcDbXrecord
1000
DSTYLE
1002
{
1070
    79
 70
     2
1070
   341
340
59
1070
   342
340
59
1070
   371
 70
    -1
1070
   372
 70
    -1
1002
}
  0
XRECORD
  5
4496
102
{ACAD_REACTORS
330
4487
102
}
330
4487
100
AcDbXrecord
340
0
  0
XRECORD
  5
4497
102
{ACAD_REACTORS
330
4487
102
}
330
4487
100
AcDbXrecord
 70
     0
  0
XRECORD
  5
4498
102
{ACAD_REACTORS
330
4487
102
}
330
4487
100
AcDbXrecord
340
0
  0
XRECORD
  5
4499
102
{ACAD_REACTORS
330
4487
102
}
330
4487
100
AcDbXrecord
 10
0.0
 20
0.0
 30
0.0
  0
XRECORD
  5
449A
102
{ACAD_REACTORS
330
4487
102
}
330
4487
100
AcDbXrecord
 10
0.0
 20
0.0
 30
0.0
  0
XRECORD
  5
449B
102
{ACAD_REACTORS
330
4487
102
}
330
4487
100
AcDbXrecord
 10
0.0
 20
0.0
 30
0.0
  0
XRECORD
  5
449C
102
{ACAD_REACTORS
330
4487
102
}
330
4487
100
AcDbXrecord
 10
0.0
 20
0.0
 30
0.0
  0
XRECORD
  5
449D
102
{ACAD_REACTORS
330
4487
102
}
330
4487
100
AcDbXrecord
 10
0.0
 20
0.0
 30
0.0
  0
XRECORD
  5
449E
102
{ACAD_REACTORS
330
4487
102
}
330
4487
100
AcDbXrecord
 10
0.0
 20
0.0
 30
0.0
  0
XRECORD
  5
449F
102
{ACAD_REACTORS
330
4487
102
}
330
4487
100
AcDbXrecord
340
0
  0
XRECORD
  5
44A0
102
{ACAD_REACTORS
330
4487
102
}
330
4487
100
AcDbXrecord
 70
     0
  0
XRECORD
  5
44A1
102
{ACAD_REACTORS
330
4487
102
}
330
4487
100
AcDbXrecord
340
0
  0
XRECORD
  5
44A2
102
{ACAD_REACTORS
330
4487
102
}
330
4487
100
AcDbXrecord
 10
0.0
 20
0.0
 30
0.0
  0
XRECORD
  5
44A3
102
{ACAD_REACTORS
330
4487
102
}
330
4487
100
AcDbXrecord
 10
0.0
 20
0.0
 30
0.0
  0
XRECORD
  5
44A4
102
{ACAD_REACTORS
330
4487
102
}
330
4487
100
AcDbXrecord
 10
0.0
 20
0.0
 30
0.0
  0
XRECORD
  5
44A5
102
{ACAD_REACTORS
330
4487
102
}
330
4487
100
AcDbXrecord
 10
0.0
 20
0.0
 30
0.0
  0
XRECORD
  5
44A6
102
{ACAD_REACTORS
330
4487
102
}
330
4487
100
AcDbXrecord
 10
0.0
 20
0.0
 30
0.0
  0
XRECORD
  5
44A7
102
{ACAD_REACTORS
330
4487
102
}
330
4487
100
AcDbXrecord
 10
0.0
 20
0.0
 30
0.0
  0
LAYER_INDEX
  5
447B
102
{ACAD_REACTORS
330
447A
102
}
330
447A
100
AcDbIndex
 40
2453151.588785613
100
AcDbLayerIndex
  8
0
360
447C
 90
        0
  8
AM_0
360
447D
 90
       61
  8
PV0001_1
360
447E
 90
        0
  8
AM_CL
360
447F
 90
        0
  8
AM_7
360
4480
 90
        1
  8
AM_11
360
4481
 90
        2
  8
AM_5
360
4482
 90
        7
  8
Defpoints
360
4483
 90
        0
  8
AM_6
360
4484
 90
        1
  8
AM_4
360
4485
 90
        0
  0
XRECORD
  5
2D
102
{ACAD_REACTORS
330
2C
102
}
330
2C
100
AcDbXrecord
  1
VERSION
140
15.0
  1
PRODUCT
  2
AutoCAD Mechanical 2000
  0
IDBUFFER
  5
447C
330
0
100
AcDbIdBuffer
  0
IDBUFFER
  5
447D
330
0
100
AcDbIdBuffer
330
420E
330
420F
330
4210
330
4211
330
4212
330
4213
330
4214
330
4215
330
4216
330
4217
330
4218
330
4219
330
432E
330
31FF
330
3200
330
320C
330
320D
330
320E
330
3212
330
3213
330
3214
330
3215
330
3216
330
3217
330
3218
330
3219
330
321A
330
321B
330
321C
330
321D
330
323F
330
3240
330
3241
330
3242
330
3243
330
3B09
330
3B0A
330
3B0B
330
3B0C
330
3B0F
330
3B10
330
3B13
330
3B14
330
3B16
330
3B17
330
3B1B
330
3B1C
330
3B1D
330
3B1E
330
3B1F
330
3C2A
330
4204
330
4205
330
4206
330
4207
330
4208
330
4209
330
420A
330
420B
330
420C
330
420D
  0
IDBUFFER
  5
447E
330
0
100
AcDbIdBuffer
  0
IDBUFFER
  5
447F
330
0
100
AcDbIdBuffer
  0
IDBUFFER
  5
4480
330
0
100
AcDbIdBuffer
330
3201
  0
IDBUFFER
  5
4481
330
0
100
AcDbIdBuffer
330
3B0D
330
3B0E
  0
IDBUFFER
  5
4482
330
0
100
AcDbIdBuffer
330
31FC
330
31FD
330
31FE
330
3202
330
320B
330
323E
330
433B
  0
IDBUFFER
  5
4483
330
0
100
AcDbIdBuffer
  0
IDBUFFER
  5
4484
330
0
100
AcDbIdBuffer
330
19BD
  0
IDBUFFER
  5
4485
330
0
100
AcDbIdBuffer
  0
ENDSEC
  0
EOF
