  0
SECTION
  2
HEADER
  9
$ACADVER
  1
AC1014
  9
$ACADMAINTVER
 70
     9
  9
$DWGCODEPAGE
  3
ANSI_932
  9
$INSBASE
 10
0.0
 20
0.0
 30
0.0
  9
$EXTMIN
 10
-169.9063263261578
 20
-57.20423142777247
 30
-0.00000001
  9
$EXTMAX
 10
39.23483264146893
 20
37.80837687831515
 30
0.00000001
  9
$LIMMIN
 10
-198.5514507705493
 20
-89.42588225302049
  9
$LIMMAX
 10
61.2168440872432
 20
64.7532582636806
  9
$ORTHOMODE
 70
     0
  9
$REGENMODE
 70
     1
  9
$FILLMODE
 70
     1
  9
$QTEXTMODE
 70
     0
  9
$MIRRTEXT
 70
     0
  9
$DRAGMODE
 70
     2
  9
$LTSCALE
 40
1.0
  9
$OSMODE
 70
    55
  9
$ATTMODE
 70
     1
  9
$TEXTSIZE
 40
2.5
  9
$TRACEWID
 40
1.0
  9
$TEXTSTYLE
  7
STANDARD
  9
$CLAYER
  8
AM_0
  9
$CELTYPE
  6
BYLAYER
  9
$CECOLOR
 62
   256
  9
$CELTSCALE
 40
1.0
  9
$DELOBJ
 70
     1
  9
$DISPSILH
 70
     0
  9
$DIMSCALE
 40
1.0
  9
$DIMASZ
 40
2.5
  9
$DIMEXO
 40
1.0
  9
$DIMDLI
 40
12.0
  9
$DIMRND
 40
0.0
  9
$DIMDLE
 40
0.0
  9
$DIMEXE
 40
1.0
  9
$DIMTP
 40
0.1
  9
$DIMTM
 40
0.1
  9
$DIMTXT
 40
3.2
  9
$DIMCEN
 40
0.0
  9
$DIMTSZ
 40
0.0
  9
$DIMTOL
 70
     0
  9
$DIMLIM
 70
     0
  9
$DIMTIH
 70
     0
  9
$DIMTOH
 70
     0
  9
$DIMSE1
 70
     0
  9
$DIMSE2
 70
     0
  9
$DIMTAD
 70
     3
  9
$DIMZIN
 70
     8
  9
$DIMBLK
  1
OPEN30
  9
$DIMASO
 70
     1
  9
$DIMSHO
 70
     1
  9
$DIMPOST
  1

  9
$DIMAPOST
  1
"
  9
$DIMALT
 70
     0
  9
$DIMALTD
 70
     2
  9
$DIMALTF
 40
0.0393701
  9
$DIMLFAC
 40
1.0
  9
$DIMTOFL
 70
     1
  9
$DIMTVP
 40
0.0
  9
$DIMTIX
 70
     0
  9
$DIMSOXD
 70
     0
  9
$DIMSAH
 70
     0
  9
$DIMBLK1
  1

  9
$DIMBLK2
  1

  9
$DIMSTYLE
  2
AM_JIS
  9
$DIMCLRD
 70
   256
  9
$DIMCLRE
 70
   256
  9
$DIMCLRT
 70
     2
  9
$DIMTFAC
 40
0.71
  9
$DIMGAP
 40
1.5
  9
$DIMJUST
 70
     0
  9
$DIMSD1
 70
     0
  9
$DIMSD2
 70
     0
  9
$DIMTOLJ
 70
     0
  9
$DIMTZIN
 70
     0
  9
$DIMALTZ
 70
     0
  9
$DIMALTTZ
 70
     0
  9
$DIMFIT
 70
     3
  9
$DIMUPT
 70
     0
  9
$DIMUNIT
 70
     2
  9
$DIMDEC
 70
     3
  9
$DIMTDEC
 70
     3
  9
$DIMALTU
 70
     2
  9
$DIMALTTD
 70
     2
  9
$DIMTXSTY
  7
ASAMI
  9
$DIMAUNIT
 70
     0
  9
$LUNITS
 70
     2
  9
$LUPREC
 70
     2
  9
$SKETCHINC
 40
1.0
  9
$FILLETRAD
 40
2.5
  9
$AUNITS
 70
     0
  9
$AUPREC
 70
     0
  9
$MENU
  1
.
  9
$ELEVATION
 40
0.0
  9
$PELEVATION
 40
0.0
  9
$THICKNESS
 40
0.0
  9
$LIMCHECK
 70
     0
  9
$BLIPMODE
 70
     0
  9
$CHAMFERA
 40
2.5
  9
$CHAMFERB
 40
2.5
  9
$CHAMFERC
 40
20.0
  9
$CHAMFERD
 40
0.0
  9
$SKPOLY
 70
     0
  9
$TDCREATE
 40
2452800.443498622
  9
$TDUPDATE
 40
2453151.586012175
  9
$TDINDWG
 40
0.1002370718
  9
$TDUSRTIMER
 40
0.1002370718
  9
$USRTIMER
 70
     1
  9
$ANGBASE
 50
0.0
  9
$ANGDIR
 70
     0
  9
$PDMODE
 70
     0
  9
$PDSIZE
 40
0.0
  9
$PLINEWID
 40
0.0
  9
$COORDS
 70
     1
  9
$SPLFRAME
 70
     0
  9
$SPLINETYPE
 70
     6
  9
$SPLINESEGS
 70
     8
  9
$ATTDIA
 70
     1
  9
$ATTREQ
 70
     1
  9
$HANDLING
 70
 12289
  9
$HANDSEED
  5
2A08
  9
$SURFTAB1
 70
     6
  9
$SURFTAB2
 70
     6
  9
$SURFTYPE
 70
     6
  9
$SURFU
 70
     6
  9
$SURFV
 70
     6
  9
$UCSNAME
  2

  9
$UCSORG
 10
0.0
 20
0.0
 30
0.0
  9
$UCSXDIR
 10
1.0
 20
0.0000000000000027
 30
0.0
  9
$UCSYDIR
 10
-0.0000000000000027
 20
1.0
 30
0.0
  9
$PUCSNAME
  2

  9
$PUCSORG
 10
0.0
 20
0.0
 30
0.0
  9
$PUCSXDIR
 10
1.0
 20
0.0
 30
0.0
  9
$PUCSYDIR
 10
0.0
 20
1.0
 30
0.0
  9
$USERI1
 70
     0
  9
$USERI2
 70
     0
  9
$USERI3
 70
     0
  9
$USERI4
 70
     0
  9
$USERI5
 70
     0
  9
$USERR1
 40
0.0
  9
$USERR2
 40
0.0
  9
$USERR3
 40
0.0
  9
$USERR4
 40
0.0
  9
$USERR5
 40
0.0
  9
$WORLDVIEW
 70
     1
  9
$SHADEDGE
 70
     3
  9
$SHADEDIF
 70
    70
  9
$TILEMODE
 70
     1
  9
$MAXACTVP
 70
    64
  9
$PINSBASE
 10
0.0
 20
0.0
 30
0.0
  9
$PLIMCHECK
 70
     0
  9
$PEXTMIN
 10
1.000000000000000E+20
 20
1.000000000000000E+20
 30
1.000000000000000E+20
  9
$PEXTMAX
 10
-1.000000000000000E+20
 20
-1.000000000000000E+20
 30
-1.000000000000000E+20
  9
$PLIMMIN
 10
0.0
 20
0.0
  9
$PLIMMAX
 10
841.0
 20
594.0
  9
$UNITMODE
 70
     0
  9
$VISRETAIN
 70
     1
  9
$PLINEGEN
 70
     0
  9
$PSLTSCALE
 70
     0
  9
$TREEDEPTH
 70
  3020
  9
$PICKSTYLE
 70
     0
  9
$CMLSTYLE
  2
STANDARD
  9
$CMLJUST
 70
     0
  9
$CMLSCALE
 40
20.0
  9
$PROXYGRAPHICS
 70
     1
  9
$MEASUREMENT
 70
     1
  0
ENDSEC
  0
SECTION
  2
CLASSES
  0
CLASS
  1
ACDBDICTIONARYWDFLT
  2
AcDbDictionaryWithDefault
  3
AutoCAD 2000
 90
        0
280
     0
281
     0
  0
CLASS
  1
ACDBPLACEHOLDER
  2
AcDbPlaceHolder
  3
AutoCAD 2000
 90
        0
280
     0
281
     0
  0
CLASS
  1
LAYOUT
  2
AcDbLayout
  3
AutoCAD 2000
 90
        0
280
     0
281
     0
  0
CLASS
  1
AMGSETTINGSOBJ
  2
AmgSettingsObj
  3
"AcadM|Product Description: AutoCAD Mechanical 2000|Company: Autodesk"
 90
        0
280
     0
281
     0
  0
CLASS
  1
ACME_DOCUMENT
  2
AcMeDbDoc
  3
AcMeServices
 90
        0
280
     0
281
     0
  0
CLASS
  1
ACMESCOPE
  2
AcMeScope
  3
AcMeServices
 90
        0
280
     0
281
     0
  0
CLASS
  1
ACMECOMMANDHISTORY
  2
AcMeCommandHistory
  3
AcMeServices
 90
        0
280
     0
281
     0
  0
CLASS
  1
DICTIONARYVAR
  2
AcDbDictionaryVar
  3
AutoCAD 2000
 90
        0
280
     0
281
     0
  0
CLASS
  1
ACIMSYSVARMAN
  2
AcImSysVarManager
  3
AcMeServices
 90
        0
280
     0
281
     0
  0
CLASS
  1
ACIMREALSYSVAR
  2
AcImRealSysVar
  3
AcMeServices
 90
        0
280
     0
281
     0
  0
CLASS
  1
ACIMINTSYSVAR
  2
AcImIntSysVar
  3
AcMeServices
 90
        0
280
     0
281
     0
  0
CLASS
  1
ACMEDRAWINGMAN
  2
AcMeDrawingMan
  3
AcMeServices
 90
        0
280
     0
281
     0
  0
CLASS
  1
ACMEVIEW
  2
AcMeView
  3
AcMeServices
 90
        0
280
     0
281
     0
  0
CLASS
  1
ACDBENTITYCACHE
  2
AcMeEntityCache
  3
AcMeServices
 90
        0
280
     0
281
     0
  0
CLASS
  1
GSMANAGER
  2
AcMeGSManager
  3
AcMeServices
 90
        0
280
     0
281
     0
  0
CLASS
  1
AmdtInternalReactor
  2
AmdtInternalReactor
  3
AcMeServices
 90
        0
280
     0
281
     0
  0
CLASS
  1
ACMESTATEMGR
  2
AcMeStateMgr
  3
AcMeServices
 90
        0
280
     0
281
     0
  0
CLASS
  1
ACME_DATABASE
  2
AcMeDbDatabase
  3
AcMeServices
 90
        0
280
     0
281
     0
  0
CLASS
  1
ACRFINSADJUSTERMGR
  2
AcRfInsAdjusterMgr
  3
AcMeServices
 90
        0
280
     0
281
     0
  0
CLASS
  1
ACMDATADICTIONARY
  2
AcmDataDictionary
  3
"AcmSymBB|Product Description: AutoCAD Mechanical 2000|Company: Autodesk"
 90
        0
280
     0
281
     0
  0
CLASS
  1
ACMDATAENTRYBLOCK
  2
AcmDataEntryBlock
  3
"AcmSymBB|Product Description: AutoCAD Mechanical 2000|Company: Autodesk"
 90
        0
280
     0
281
     0
  0
CLASS
  1
AMGOBJPROPCFG
  2
AmgObjPropCfg
  3
"AmgLay|Product Description: AutoCAD Mechanical 2000|Company: Autodesk"
 90
        1
280
     0
281
     0
  0
CLASS
  1
ACAMGFILTERDAT
  2
AcAmgFilterDat
  3
"AcadM|Product Description: AutoCAD Mechanical 2000|Company: Autodesk"
 90
        0
280
     0
281
     0
  0
CLASS
  1
LAYER_INDEX
  2
AcDbLayerIndex
  3
AutoCAD 2000
 90
        0
280
     0
281
     0
  0
CLASS
  1
IDBUFFER
  2
AcDbIdBuffer
  3
AutoCAD 2000
 90
        0
280
     0
281
     0
  0
CLASS
  1
ACIMSTRSYSVAR
  2
AcImStrSysVar
  3
AcMeServices
 90
        0
280
     0
281
     0
  0
CLASS
  1
ACMSTANDARDJIS
  2
AcmStandardJIS
  3
"AcmSymBB|Product Description: AutoCAD Mechanical 2000|Company: Autodesk"
 90
        0
280
     0
281
     0
  0
CLASS
  1
ACMSURFSTANDARDJIS
  2
AcmSurfTextStdJIS
  3
"AcmSymBB|Product Description: AutoCAD Mechanical 2000|Company: Autodesk"
 90
        0
280
     0
281
     0
  0
CLASS
  1
ACMFCFSTANDARDJIS
  2
AcmFCFStdJIS
  3
"AcmSymBB|Product Description: AutoCAD Mechanical 2000|Company: Autodesk"
 90
        0
280
     0
281
     0
  0
CLASS
  1
ACMWELDSTANDARDJIS
  2
AcmWeldingStdJIS
  3
"AcmSymBB|Product Description: AutoCAD Mechanical 2000|Company: Autodesk"
 90
        0
280
     0
281
     0
  0
CLASS
  1
ACMIDSTANDARDJIS
  2
AcmIdStdJIS
  3
"AcmSymBB|Product Description: AutoCAD Mechanical 2000|Company: Autodesk"
 90
        0
280
     0
281
     0
  0
CLASS
  1
ACMDATUMSTANDARDJIS
  2
AcmDatumStdJIS
  3
"AcmSymBB|Product Description: AutoCAD Mechanical 2000|Company: Autodesk"
 90
        0
280
     0
281
     0
  0
CLASS
  1
ACMBOMSTANDARDJIS
  2
AcmBOMStdJIS
  3
"AcmSymBB|Product Description: AutoCAD Mechanical 2000|Company: Autodesk"
 90
        0
280
     0
281
     0
  0
CLASS
  1
ACMSTANDARDANSI
  2
AcmStandardANSI
  3
"AcmSymBB|Product Description: AutoCAD Mechanical 2000|Company: Autodesk"
 90
        0
280
     0
281
     0
  0
CLASS
  1
ACMSURFSTANDARDANSI
  2
AcmSurfTextStdANSI
  3
"AcmSymBB|Product Description: AutoCAD Mechanical 2000|Company: Autodesk"
 90
        0
280
     0
281
     0
  0
CLASS
  1
ACMFCFSTANDARDANSI
  2
AcmFCFStdANSI
  3
"AcmSymBB|Product Description: AutoCAD Mechanical 2000|Company: Autodesk"
 90
        0
280
     0
281
     0
  0
CLASS
  1
ACMWELDSTANDARDANSI
  2
AcmWeldingStdANSI
  3
"AcmSymBB|Product Description: AutoCAD Mechanical 2000|Company: Autodesk"
 90
        0
280
     0
281
     0
  0
CLASS
  1
ACMIDSTANDARDANSI
  2
AcmIdStdANSI
  3
"AcmSymBB|Product Description: AutoCAD Mechanical 2000|Company: Autodesk"
 90
        0
280
     0
281
     0
  0
CLASS
  1
ACMDATUMSTANDARDANSI
  2
AcmDatumStdANSI
  3
"AcmSymBB|Product Description: AutoCAD Mechanical 2000|Company: Autodesk"
 90
        0
280
     0
281
     0
  0
CLASS
  1
ACMBOMSTANDARDANSI
  2
AcmBOMStdANSI
  3
"AcmSymBB|Product Description: AutoCAD Mechanical 2000|Company: Autodesk"
 90
        0
280
     0
281
     0
  0
CLASS
  1
ACMSTANDARDBSI
  2
AcmStandardBSI
  3
"AcmSymBB|Product Description: AutoCAD Mechanical 2000|Company: Autodesk"
 90
        0
280
     0
281
     0
  0
CLASS
  1
ACMSURFSTANDARDBSI
  2
AcmSurfTextStdBSI
  3
"AcmSymBB|Product Description: AutoCAD Mechanical 2000|Company: Autodesk"
 90
        0
280
     0
281
     0
  0
CLASS
  1
ACMFCFSTANDARDBSI
  2
AcmFCFStdBSI
  3
"AcmSymBB|Product Description: AutoCAD Mechanical 2000|Company: Autodesk"
 90
        0
280
     0
281
     0
  0
CLASS
  1
ACMWELDSTANDARDBSI
  2
AcmWeldingStdBSI
  3
"AcmSymBB|Product Description: AutoCAD Mechanical 2000|Company: Autodesk"
 90
        0
280
     0
281
     0
  0
CLASS
  1
ACMIDSTANDARDBSI
  2
AcmIdStdBSI
  3
"AcmSymBB|Product Description: AutoCAD Mechanical 2000|Company: Autodesk"
 90
        0
280
     0
281
     0
  0
CLASS
  1
ACMDATUMSTANDARDBSI
  2
AcmDatumStdBSI
  3
"AcmSymBB|Product Description: AutoCAD Mechanical 2000|Company: Autodesk"
 90
        0
280
     0
281
     0
  0
CLASS
  1
ACMBOMSTANDARDBSI
  2
AcmBOMStdBSI
  3
"AcmSymBB|Product Description: AutoCAD Mechanical 2000|Company: Autodesk"
 90
        0
280
     0
281
     0
  0
CLASS
  1
LONG_TRANSACTION
  2
AcDbLongTransaction
  3
AutoCAD 2000
 90
        0
280
     0
281
     0
  0
CLASS
  1
LWPOLYLINE
  2
AcDbPolyline
  3
AutoCAD 2000
 90
        0
280
     0
281
     1
  0
CLASS
  1
HATCH
  2
AcDbHatch
  3
AutoCAD 2000
 90
        0
280
     0
281
     1
  0
CLASS
  1
XRECORD
  2
AcDbXrecord
  3
AutoCAD 2000
 90
        0
280
     0
281
     0
  0
ENDSEC
  0
SECTION
  2
TABLES
  0
TABLE
  2
VPORT
  5
8
330
0
100
AcDbSymbolTable
 70
     3
  0
VPORT
  5
29DD
330
8
100
AcDbSymbolTableRecord
100
AcDbViewportTableRecord
  2
*ACTIVE
 70
     0
 10
0.0
 20
0.0
 11
1.0
 21
1.0
 12
-50.39610194601483
 22
-22.48116471444164
 13
0.0
 23
0.0
 14
2.5
 24
2.5
 15
10.0
 25
10.0
 16
0.0
 26
0.0
 36
1.0
 17
0.0
 27
0.0
 37
0.0
 40
195.7470704892578
 41
1.56570841889117
 42
50.0
 43
0.0
 44
0.0
 50
0.0
 51
0.0
 71
     0
 72
   100
 73
     1
 74
     1
 75
     0
 76
     0
 77
     0
 78
     0
  0
ENDTAB
  0
TABLE
  2
LTYPE
  5
5
330
0
100
AcDbSymbolTable
 70
    10
  0
LTYPE
  5
14
330
5
100
AcDbSymbolTableRecord
100
AcDbLinetypeTableRecord
  2
BYBLOCK
 70
     0
  3

 72
    65
 73
     0
 40
0.0
  0
LTYPE
  5
15
330
5
100
AcDbSymbolTableRecord
100
AcDbLinetypeTableRecord
  2
BYLAYER
 70
     0
  3

 72
    65
 73
     0
 40
0.0
  0
LTYPE
  5
16
330
5
100
AcDbSymbolTableRecord
100
AcDbLinetypeTableRecord
  2
CONTINUOUS
 70
     0
  3
Solid line
 72
    65
 73
     0
 40
0.0
  0
LTYPE
  5
4B
330
5
100
AcDbSymbolTableRecord
100
AcDbLinetypeTableRecord
  2
AM_ISO02W050
 70
     0
  3
__ __ __ __ __ __ __ __ __ __ __ __ __ __ __
 72
    65
 73
     2
 40
7.5
 49
6.0
 74
     0
 49
-1.5
 74
     0
  0
LTYPE
  5
4C
330
5
100
AcDbSymbolTableRecord
100
AcDbLinetypeTableRecord
  2
AM_ISO08W050
 70
     0
  3
____ . ____ . ____ . ____ . ____ . ____ . ____
 72
    65
 73
     4
 40
18.0
 49
12.0
 74
     0
 49
-1.5
 74
     0
 49
3.0
 74
     0
 49
-1.5
 74
     0
  0
LTYPE
  5
4D
330
5
100
AcDbSymbolTableRecord
100
AcDbLinetypeTableRecord
  2
AM_ISO09W050
 70
     0
  3
_____ . . _____ . . _____ . . ____ .. ____
 72
    65
 73
     6
 40
22.5
 49
12.0
 74
     0
 49
-1.5
 74
     0
 49
3.0
 74
     0
 49
-1.5
 74
     0
 49
3.0
 74
     0
 49
-1.5
 74
     0
  0
LTYPE
  5
4E
330
5
100
AcDbSymbolTableRecord
100
AcDbLinetypeTableRecord
  2
AMCONSTR
 70
     0
  3
_______________________
 72
    65
 73
     2
 40
9999.0
 49
9999.0
 74
     0
 49
0.0
 74
     0
  0
LTYPE
  5
4F
330
5
100
AcDbSymbolTableRecord
100
AcDbLinetypeTableRecord
  2
AM_ISO02W050X2
 70
     0
  3
 _ _ _ _ _ _ _ _ _ _ _ _
 72
    65
 73
     2
 40
3.75
 49
3.0
 74
     0
 49
-0.75
 74
     0
  0
LTYPE
  5
50
330
5
100
AcDbSymbolTableRecord
100
AcDbLinetypeTableRecord
  2
AM_ISO08W050X2
 70
     0
  3
__ . __ . __ . __ . __ . __
 72
    65
 73
     4
 40
9.0
 49
6.0
 74
     0
 49
-0.75
 74
     0
 49
1.5
 74
     0
 49
-0.75
 74
     0
  0
LTYPE
  5
53
330
5
100
AcDbSymbolTableRecord
100
AcDbLinetypeTableRecord
  2
AMZIGZAG
 70
     0
  3
/\/-/\/-/\/-/\/-/\/-/\/
 72
    65
 73
     2
 40
11.00009999999999
 49
0.0001
 74
     4
 75
   135
340
52
 46
0.04
 50
0.0
 44
0.0
 45
0.0
 49
-11.0
 74
     0
  0
LTYPE
  5
166
330
5
100
AcDbSymbolTableRecord
100
AcDbLinetypeTableRecord
  2
ACJISTGL
 70
     0
  3
_ _ _ _ _
 72
    65
 73
     2
 40
3.0
 49
2.0
 74
     0
 49
-1.0
 74
     0
  0
LTYPE
  5
26A
330
5
100
AcDbSymbolTableRecord
100
AcDbLinetypeTableRecord
  2
ACJISTGB
 70
     0
  3
__ . . __ . .
 72
    65
 73
     6
 40
9.0
 49
4.0
 74
     0
 49
-1.0
 74
     0
 49
1.0
 74
     0
 49
-1.0
 74
     0
 49
1.0
 74
     0
 49
-1.0
 74
     0
  0
ENDTAB
  0
TABLE
  2
LAYER
  5
2
330
0
100
AcDbSymbolTable
 70
    10
  0
LAYER
  5
10
330
2
100
AcDbSymbolTableRecord
100
AcDbLayerTableRecord
  2
0
 70
     0
 62
     7
  6
CONTINUOUS
  0
LAYER
  5
3F9
330
2
100
AcDbSymbolTableRecord
100
AcDbLayerTableRecord
  2
AM_0
 70
     0
 62
     7
  6
CONTINUOUS
  0
LAYER
  5
BA4
330
2
100
AcDbSymbolTableRecord
100
AcDbLayerTableRecord
  2
PV0001_1
 70
     0
 62
     7
  6
CONTINUOUS
  0
LAYER
  5
C6C
330
2
100
AcDbSymbolTableRecord
100
AcDbLayerTableRecord
  2
AM_CL
 70
     0
 62
     1
  6
AMCONSTR
  0
LAYER
  5
C7C
330
2
100
AcDbSymbolTableRecord
100
AcDbLayerTableRecord
  2
AM_7
 70
     0
 62
     4
  6
AM_ISO08W050
  0
LAYER
  5
C97
330
2
100
AcDbSymbolTableRecord
100
AcDbLayerTableRecord
  2
AM_11
 70
     0
 62
     3
  6
AM_ISO09W050
  0
LAYER
  5
CC5
330
2
100
AcDbSymbolTableRecord
100
AcDbLayerTableRecord
  2
AM_5
 70
     0
 62
     3
  6
CONTINUOUS
  0
LAYER
  5
CC7
330
2
100
AcDbSymbolTableRecord
100
AcDbLayerTableRecord
  2
DEFPOINTS
 70
     0
 62
     7
  6
CONTINUOUS
  0
LAYER
  5
19BC
330
2
100
AcDbSymbolTableRecord
100
AcDbLayerTableRecord
  2
AM_6
 70
     0
 62
     2
  6
CONTINUOUS
  0
LAYER
  5
1F8E
330
2
100
AcDbSymbolTableRecord
100
AcDbLayerTableRecord
  2
AM_4
 70
     0
 62
     3
  6
CONTINUOUS
  0
ENDTAB
  0
TABLE
  2
STYLE
  5
3
330
0
100
AcDbSymbolTable
 70
     5
  0
STYLE
  5
11
330
3
100
AcDbSymbolTableRecord
100
AcDbTextStyleTableRecord
  2
STANDARD
 70
     0
 40
0.0
 41
1.0
 50
0.0
 71
     0
 42
2.5
  3
simplex.shx
  4
EXTFONT.SHX
  0
STYLE
  5
52
330
3
100
AcDbSymbolTableRecord
100
AcDbTextStyleTableRecord
  2

 70
     1
 40
0.0
 41
1.0
 50
0.0
 71
     0
 42
2.5
  3
ltypeshp.shx
  4

  0
STYLE
  5
6B
330
3
100
AcDbSymbolTableRecord
100
AcDbTextStyleTableRecord
  2
ASAMI
 70
     0
 40
0.0
 41
1.0
 50
0.0
 71
     0
 42
2.5
  3
simplex.shx
  4
EXTFONT.SHX
  0
STYLE
  5
262
330
3
100
AcDbSymbolTableRecord
100
AcDbTextStyleTableRecord
  2
ACJISTS
 70
     0
 40
1.0
 41
1.0
 50
0.0
 71
     0
 42
2.5
  3
simplex.shx
  4
bigfont.shx
  0
STYLE
  5
269
330
3
100
AcDbSymbolTableRecord
100
AcDbTextStyleTableRecord
  2
ACJISGDT
 70
     0
 40
0.0
 41
1.0
 50
0.0
 71
     0
 42
2.5
  3
amgdtans.shx
  4

  0
ENDTAB
  0
TABLE
  2
VIEW
  5
6
330
0
100
AcDbSymbolTable
 70
     0
  0
ENDTAB
  0
TABLE
  2
UCS
  5
7
330
0
100
AcDbSymbolTable
 70
     0
  0
ENDTAB
  0
TABLE
  2
APPID
  5
9
330
0
100
AcDbSymbolTable
 70
    14
  0
APPID
  5
12
330
9
100
AcDbSymbolTableRecord
100
AcDbRegAppTableRecord
  2
ACAD
 70
     0
  0
APPID
  5
30
330
9
100
AcDbSymbolTableRecord
100
AcDbRegAppTableRecord
  2
MCAD_NO_VIS
 70
     0
  0
APPID
  5
31
330
9
100
AcDbSymbolTableRecord
100
AcDbRegAppTableRecord
  2
ACAD_TEMP_GRAPHIC
 70
     0
  0
APPID
  5
2C2
330
9
100
AcDbSymbolTableRecord
100
AcDbRegAppTableRecord
  2
GENIUS_GENDTOL_13
 70
     0
  0
APPID
  5
339
330
9
100
AcDbSymbolTableRecord
100
AcDbRegAppTableRecord
  2
GENIUS_GENODEF_13
 70
     0
  0
APPID
  5
33A
330
9
100
AcDbSymbolTableRecord
100
AcDbRegAppTableRecord
  2
GENIUS_GENOBJ-N-RSBK_13
 70
     0
  0
APPID
  5
33B
330
9
100
AcDbSymbolTableRecord
100
AcDbRegAppTableRecord
  2
GENIUS_GENOBJ-N-LIB_13
 70
     0
  0
APPID
  5
33C
330
9
100
AcDbSymbolTableRecord
100
AcDbRegAppTableRecord
  2
GENIUS_GENSCALE_13
 70
     0
  0
APPID
  5
378
330
9
100
AcDbSymbolTableRecord
100
AcDbRegAppTableRecord
  2
GENIUS_GENDIMSH_14
 70
     0
  0
APPID
  5
C82
330
9
100
AcDbSymbolTableRecord
100
AcDbRegAppTableRecord
  2
GENIUS_GENOBJ-N-CRS_13
 70
     0
  0
APPID
  5
C83
330
9
100
AcDbSymbolTableRecord
100
AcDbRegAppTableRecord
  2
GENIUS_GENOENT_13
 70
     0
  0
APPID
  5
C84
330
9
100
AcDbSymbolTableRecord
100
AcDbRegAppTableRecord
  2
GENIUS_GENOREF_13
 70
     0
  0
APPID
  5
C85
330
9
100
AcDbSymbolTableRecord
100
AcDbRegAppTableRecord
  2
GENIUS_GENOLIS_13
 70
     0
  0
APPID
  5
CA0
330
9
100
AcDbSymbolTableRecord
100
AcDbRegAppTableRecord
  2
GENIUS_GENOBJ-N-CEN_13
 70
     0
  0
ENDTAB
  0
TABLE
  2
DIMSTYLE
  5
A
330
0
100
AcDbSymbolTable
 70
    10
  0
DIMSTYLE
105
58
330
A
100
AcDbSymbolTableRecord
100
AcDbDimStyleTableRecord
  2
AM_JIS
 70
     0
  3

  4
"
  5
OPEN30
  6

  7

 40
1.0
 41
2.5
 42
1.0
 43
12.0
 44
1.0
 45
0.0
 46
0.0
 47
0.1
 48
0.1
140
3.2
141
0.0
142
0.0
143
0.0393701
144
1.0
145
0.0
146
0.71
147
1.5
 71
     0
 72
     0
 73
     0
 74
     0
 75
     0
 76
     0
 77
     3
 78
     8
170
     0
171
     2
172
     1
173
     0
174
     0
175
     0
176
   256
177
   256
178
     2
270
     2
271
     3
272
     3
273
     2
274
     2
340
6B
275
     0
280
     0
281
     0
282
     0
283
     0
284
     0
285
     0
286
     0
287
     3
288
     0
  0
DIMSTYLE
105
5F
330
A
100
AcDbSymbolTableRecord
100
AcDbDimStyleTableRecord
  2
AM_JIS$3
 70
     0
  3

  4
"
  5
OPEN30
  6

  7

 40
1.0
 41
2.5
 42
1.0
 43
10.0
 44
1.0
 45
0.0
 46
0.0
 47
0.1
 48
0.1
140
3.2
141
0.0
142
0.0
143
0.0393701
144
1.0
145
0.0
146
0.71
147
1.5
 71
     0
 72
     0
 73
     0
 74
     1
 75
     0
 76
     0
 77
     3
 78
     8
170
     0
171
     2
172
     0
173
     0
174
     0
175
     0
176
   256
177
   256
178
     2
270
     2
271
     2
272
     3
273
     2
274
     2
340
6B
275
     0
280
     0
281
     0
282
     0
283
     0
284
     0
285
     0
286
     0
287
     0
288
     1
  0
DIMSTYLE
105
60
330
A
100
AcDbSymbolTableRecord
100
AcDbDimStyleTableRecord
  2
AM_JIS$4
 70
     0
  3

  4
"
  5
OPEN30
  6

  7

 40
1.0
 41
2.5
 42
1.0
 43
10.0
 44
1.0
 45
0.0
 46
0.0
 47
0.1
 48
0.1
140
3.2
141
0.0
142
0.0
143
0.0393701
144
1.0
145
0.0
146
0.71
147
1.5
 71
     0
 72
     0
 73
     0
 74
     1
 75
     0
 76
     0
 77
     3
 78
     8
170
     0
171
     2
172
     0
173
     0
174
     0
175
     0
176
   256
177
   256
178
     2
270
     2
271
     2
272
     3
273
     2
274
     2
340
6B
275
     0
280
     0
281
     0
282
     0
283
     0
284
     0
285
     0
286
     0
287
     0
288
     1
  0
DIMSTYLE
105
61
330
A
100
AcDbSymbolTableRecord
100
AcDbDimStyleTableRecord
  2
AM_JIS$6
 70
     0
  3

  4
"
  5
OPEN30
  6

  7

 40
1.0
 41
2.5
 42
1.0
 43
10.0
 44
1.0
 45
0.0
 46
0.0
 47
0.1
 48
0.1
140
3.2
141
0.0
142
0.0
143
0.0393701
144
1.0
145
0.0
146
0.71
147
1.5
 71
     0
 72
     0
 73
     0
 74
     0
 75
     0
 76
     0
 77
     0
 78
     8
170
     0
171
     2
172
     1
173
     0
174
     0
175
     0
176
   256
177
   256
178
     2
270
     2
271
     2
272
     2
273
     2
274
     2
340
6B
275
     0
280
     0
281
     0
282
     0
283
     0
284
     0
285
     0
286
     0
287
     3
288
     0
  0
DIMSTYLE
105
62
330
A
100
AcDbSymbolTableRecord
100
AcDbDimStyleTableRecord
  2
AM_JIS$7
 70
     0
  3

  4
"
  5
OPEN30
  6

  7

 40
1.0
 41
2.5
 42
1.0
 43
10.0
 44
1.0
 45
0.0
 46
0.0
 47
0.1
 48
0.1
140
3.2
141
0.0
142
0.0
143
0.0393701
144
1.0
145
0.0
146
0.71
147
1.5
 71
     0
 72
     0
 73
     0
 74
     0
 75
     0
 76
     0
 77
     3
 78
     8
170
     0
171
     2
172
     1
173
     0
174
     0
175
     0
176
   256
177
   256
178
     2
270
     2
271
     2
272
     3
273
     2
274
     2
340
6B
275
     0
280
     0
281
     0
282
     0
283
     0
284
     0
285
     0
286
     0
287
     3
288
     0
  0
DIMSTYLE
105
63
330
A
100
AcDbSymbolTableRecord
100
AcDbDimStyleTableRecord
  2
AM_JIS$SF
 70
     0
  3

  4
"
  5
OPEN30
  6

  7

 40
1.0
 41
2.5
 42
1.0
 43
10.0
 44
1.0
 45
0.0
 46
0.0
 47
0.1
 48
0.1
140
3.2
141
0.0
142
0.0
143
0.0393701
144
1.0
145
0.0
146
0.71
147
1.5
 71
     0
 72
     0
 73
     0
 74
     0
 75
     1
 76
     1
 77
     3
 78
     8
170
     0
171
     2
172
     1
173
     0
174
     0
175
     0
176
   256
177
   256
178
     2
270
     2
271
     2
272
     2
273
     2
274
     2
340
6B
275
     0
280
     0
281
     0
282
     0
283
     0
284
     0
285
     0
286
     0
287
     3
288
     0
  0
DIMSTYLE
105
68
330
A
100
AcDbSymbolTableRecord
100
AcDbDimStyleTableRecord
  2
AM_JIS$SH
 70
     0
  3

  4
"
  5

  6
GENAXEH
  7
OPEN30
 40
1.0
 41
2.5
 42
1.0
 43
10.0
 44
1.0
 45
0.0
 46
0.0
 47
0.1
 48
0.1
140
3.2
141
0.0
142
0.0
143
0.0393701
144
2.0
145
0.0
146
0.71
147
1.5
 71
     0
 72
     0
 73
     0
 74
     0
 75
     1
 76
     1
 77
     3
 78
     8
170
     0
171
     2
172
     1
173
     1
174
     0
175
     0
176
   256
177
   256
178
     2
270
     2
271
     2
272
     2
273
     2
274
     2
340
6B
275
     0
280
     0
281
     0
282
     0
283
     0
284
     0
285
     0
286
     0
287
     3
288
     0
  0
DIMSTYLE
105
B34
102
{ACAD_REACTORS
330
11B2
102
}
330
A
100
AcDbSymbolTableRecord
100
AcDbDimStyleTableRecord
  2
AM_JIS$2
 70
     0
  3

  4
"
  5
OPEN30
  6

  7

 40
1.0
 41
2.5
 42
1.0
 43
12.0
 44
1.0
 45
0.0
 46
0.0
 47
0.1
 48
0.1
140
3.2
141
0.0
142
0.0
143
0.0393701
144
1.0
145
0.0
146
0.71
147
1.5
 71
     0
 72
     0
 73
     0
 74
     0
 75
     0
 76
     0
 77
     3
 78
     8
170
     0
171
     2
172
     1
173
     0
174
     0
175
     0
176
   256
177
   256
178
     2
270
     2
271
     3
272
     3
273
     2
274
     2
340
6B
275
     0
280
     0
281
     0
282
     0
283
     0
284
     0
285
     0
286
     0
287
     3
288
     0
  0
DIMSTYLE
105
BA5
102
{ACAD_REACTORS
330
CC6
330
2069
330
23DF
330
246E
102
}
330
A
100
AcDbSymbolTableRecord
100
AcDbDimStyleTableRecord
  2
AM_JIS$0
 70
     0
  3

  4
"
  5
OPEN30
  6

  7

 40
1.0
 41
2.5
 42
0.8
 43
10.0
 44
1.0
 45
0.0
 46
0.0
 47
0.1
 48
0.1000000001
140
3.799999999999999
141
0.0
142
0.0
143
0.0393701
144
1.0
145
0.0
146
0.71
147
1.5
 71
     0
 72
     0
 73
     0
 74
     0
 75
     0
 76
     0
 77
     3
 78
     9
170
     0
171
     2
172
     1
173
     0
174
     0
175
     0
176
     3
177
     3
178
     2
270
     2
271
     2
272
     2
273
     2
274
     2
340
11
275
     1
280
     0
281
     0
282
     0
283
     0
284
     8
285
     0
286
     0
287
     0
288
     0
  0
DIMSTYLE
105
BA6
330
A
100
AcDbSymbolTableRecord
100
AcDbDimStyleTableRecord
  2
AM_JISORG-1P0$2
 70
     0
  3

  4
"
  5
OPEN30
  6

  7

 40
1.0
 41
2.5
 42
0.0
 43
10.0
 44
1.0
 45
0.0
 46
0.0
 47
0.1
 48
0.1000000001
140
3.799999999999999
141
0.0
142
0.0
143
0.0393701
144
-0.999999980146674
145
0.0
146
0.71
147
1.5
 71
     0
 72
     0
 73
     0
 74
     0
 75
     0
 76
     0
 77
     3
 78
     1
170
     0
171
     2
172
     1
173
     0
174
     0
175
     0
176
     3
177
     3
178
     2
270
     2
271
     2
272
     2
273
     2
274
     2
340
11
275
     1
280
     0
281
     0
282
     0
283
     0
284
     8
285
     0
286
     0
287
     0
288
     0
  0
ENDTAB
  0
TABLE
  2
BLOCK_RECORD
  5
1
330
0
100
AcDbSymbolTable
 70
    13
  0
BLOCK_RECORD
  5
1F
102
{ACAD_XDICTIONARY
360
74
102
}
330
1
100
AcDbSymbolTableRecord
100
AcDbBlockTableRecord
  2
*MODEL_SPACE
  0
BLOCK_RECORD
  5
101
102
{ACAD_XDICTIONARY
360
2A06
102
}
330
1
100
AcDbSymbolTableRecord
100
AcDbBlockTableRecord
  2
*PAPER_SPACE
  0
BLOCK_RECORD
  5
59
330
1
100
AcDbSymbolTableRecord
100
AcDbBlockTableRecord
  2
_OPEN30
  0
BLOCK_RECORD
  5
64
330
1
100
AcDbSymbolTableRecord
100
AcDbBlockTableRecord
  2
GENAXEH
  0
BLOCK_RECORD
  5
C31
330
1
100
AcDbSymbolTableRecord
100
AcDbBlockTableRecord
  2
A$C36D02A34
  0
BLOCK_RECORD
  5
CC8
330
1
100
AcDbSymbolTableRecord
100
AcDbBlockTableRecord
  2
*D6
  0
BLOCK_RECORD
  5
11B3
330
1
100
AcDbSymbolTableRecord
100
AcDbBlockTableRecord
  2
*D7
  0
BLOCK_RECORD
  5
206A
330
1
100
AcDbSymbolTableRecord
100
AcDbBlockTableRecord
  2
*D8
  0
BLOCK_RECORD
  5
23E0
330
1
100
AcDbSymbolTableRecord
100
AcDbBlockTableRecord
  2
*D9
  0
BLOCK_RECORD
  5
2453
330
1
100
AcDbSymbolTableRecord
100
AcDbBlockTableRecord
  2
*D10
  0
BLOCK_RECORD
  5
245F
330
1
100
AcDbSymbolTableRecord
100
AcDbBlockTableRecord
  2
A$C4FFC6CC0
  0
BLOCK_RECORD
  5
2479
330
1
100
AcDbSymbolTableRecord
100
AcDbBlockTableRecord
  2
*D12
  0
ENDTAB
  0
ENDSEC
  0
SECTION
  2
BLOCKS
  0
BLOCK
  5
20
330
1F
100
AcDbEntity
  8
0
100
AcDbBlockBegin
  2
*MODEL_SPACE
 70
     0
 10
0.0
 20
0.0
 30
0.0
  3
*MODEL_SPACE
  1

  0
ENDBLK
  5
21
330
1F
100
AcDbEntity
  8
0
100
AcDbBlockEnd
  0
BLOCK
  5
103
330
101
100
AcDbEntity
 67
     1
  8
0
100
AcDbBlockBegin
  2
*PAPER_SPACE
 70
     0
 10
0.0
 20
0.0
 30
0.0
  3
*PAPER_SPACE
  1

  0
ENDBLK
  5
104
330
101
100
AcDbEntity
 67
     1
  8
0
100
AcDbBlockEnd
  0
BLOCK
  5
5D
330
59
100
AcDbEntity
  8
0
100
AcDbBlockBegin
  2
_OPEN30
 70
     0
 10
0.0
 20
0.0
 30
0.0
  3
_OPEN30
  1

  0
LINE
  5
5A
330
59
100
AcDbEntity
  8
0
 62
     0
100
AcDbLine
 10
-1.0
 20
0.26794919
 30
0.0
 11
0.0
 21
0.0
 31
0.0
  0
LINE
  5
5B
330
59
100
AcDbEntity
  8
0
 62
     0
100
AcDbLine
 10
0.0
 20
0.0
 30
0.0
 11
-1.0
 21
-0.26794919
 31
0.0
  0
LINE
  5
5C
330
59
100
AcDbEntity
  8
0
 62
     0
100
AcDbLine
 10
0.0
 20
0.0
 30
0.0
 11
-1.0
 21
0.0
 31
0.0
  0
ENDBLK
  5
5E
330
59
100
AcDbEntity
  8
0
100
AcDbBlockEnd
  0
BLOCK
  5
66
330
64
100
AcDbEntity
  8
0
100
AcDbBlockBegin
  2
GENAXEH
 70
     0
 10
0.0
 20
0.0
 30
0.0
  3
GENAXEH
  1

  0
LINE
  5
65
330
64
100
AcDbEntity
  8
0
100
AcDbLine
 10
-1.0
 20
0.0
 30
0.0
 11
1.0
 21
0.0
 31
0.0
  0
ENDBLK
  5
67
330
64
100
AcDbEntity
  8
0
100
AcDbBlockEnd
  0
BLOCK
  5
C4B
330
C31
100
AcDbEntity
  8
0
100
AcDbBlockBegin
  2
A$C36D02A34
 70
     0
 10
0.0
 20
0.0
 30
0.0
  3
A$C36D02A34
  1

  0
ARC
  5
C32
330
C31
100
AcDbEntity
  8
PV0001_1
  6
CONTINUOUS
 48
0.5
100
AcDbCircle
 10
18.06811523436999
 20
-11.83651161193799
 30
0.0
 40
21.600000381469
100
AcDbArc
 50
123.2290435713209
 51
126.6341524197568
  0
ARC
  5
C33
330
C31
100
AcDbEntity
  8
PV0001_1
  6
CONTINUOUS
 48
0.5
100
AcDbCircle
 10
18.06811523436999
 20
-11.83651161193799
 30
0.0
 40
21.600000381469
100
AcDbArc
 50
135.0736707620117
 51
146.7709980930592
  0
ARC
  5
C34
330
C31
100
AcDbEntity
  8
PV0001_1
  6
CONTINUOUS
 48
0.5
100
AcDbCircle
 10
-18.0680770874
 20
11.8365631103514
 30
0.0
 40
21.600000381469
100
AcDbArc
 50
315.0734847530392
 51
326.770781348241
  0
ARC
  5
C35
330
C31
100
AcDbEntity
  8
PV0001_1
  6
CONTINUOUS
 48
0.5
100
AcDbCircle
 10
-18.0680770874
 20
11.8365631103514
 30
0.0
 40
21.600000381469
100
AcDbArc
 50
303.2288882981993
 51
306.633986901359
  0
ARC
  5
C36
330
C31
100
AcDbEntity
  8
PV0001_1
  6
CONTINUOUS
 48
0.5
100
AcDbCircle
 10
-0.6269836425800009
 20
-2.044216156005997
 30
0.0
 40
2.0
100
AcDbArc
 50
337.4067997351092
 51
43.42231293132884
  0
ARC
  5
C37
330
C31
100
AcDbEntity
  8
PV0001_1
  6
CONTINUOUS
 48
0.5
100
AcDbCircle
 10
0.626953125
 20
2.044223785401001
 30
0.0
 40
2.0
100
AcDbArc
 50
157.4068184044407
 51
223.4222769591536
  0
CIRCLE
  5
C38
330
C31
100
AcDbEntity
  8
PV0001_1
  6
CONTINUOUS
 48
0.5
100
AcDbCircle
 10
3.856727600100001
 20
4.596265792847002
 30
0.0
 40
1.6000000238419
  0
CIRCLE
  5
C39
330
C31
100
AcDbEntity
  8
PV0001_1
  6
CONTINUOUS
 48
0.5
100
AcDbCircle
 10
-3.856727600100001
 20
-4.596265792845997
 30
0.0
 40
1.6000000238419
  0
ARC
  5
C3A
330
C31
100
AcDbEntity
  8
PV0001_1
  6
CONTINUOUS
 48
0.5
100
AcDbCircle
 10
-5.58123779297
 20
5.092639923096001
 30
0.0
 40
5.019082546234099
100
AcDbArc
 50
240.2658959250867
 51
321.5156269706421
  0
ARC
  5
C3B
330
C31
100
AcDbEntity
  8
PV0001_1
  6
CONTINUOUS
 48
0.5
100
AcDbCircle
 10
5.486755371089998
 20
-4.601703643798998
 30
0.0
 40
4.651036739349399
100
AcDbArc
 50
56.25271400417071
 51
145.528859890601
  0
ARC
  5
C3C
330
C31
100
AcDbEntity
  8
PV0001_1
  6
CONTINUOUS
 48
0.5
100
AcDbCircle
 10
-2.11590576172
 20
-3.453323364257997
 30
0.0
 40
4.050000190734899
100
AcDbArc
 50
43.42230610113921
 51
58.50391703385149
  0
ARC
  5
C3D
330
C31
100
AcDbEntity
  8
PV0001_1
  6
CONTINUOUS
 48
0.5
100
AcDbCircle
 10
2.115875244139999
 20
3.453330993653001
 30
0.0
 40
4.050000190734899
100
AcDbArc
 50
223.4222942619974
 51
238.5038164022482
  0
ARC
  5
C3E
330
C31
100
AcDbEntity
  8
PV0001_1
  6
CONTINUOUS
 48
0.5
100
AcDbCircle
 10
-6.70369720459
 20
5.094657897949002
 30
0.0
 40
5.940000057220499
100
AcDbArc
 50
328.2536768887549
 51
31.74641873389623
  0
ARC
  5
C3F
330
C31
100
AcDbEntity
  8
PV0001_1
  6
CONTINUOUS
 48
0.5
100
AcDbCircle
 10
6.703674316410001
 20
-5.094650268553998
 30
0.0
 40
5.940000057220499
100
AcDbArc
 50
148.2533403882529
 51
211.7466423089037
  0
ARC
  5
C40
330
C31
100
AcDbEntity
  8
PV0001_1
  6
CONTINUOUS
 48
0.5
100
AcDbCircle
 10
0.0
 20
0.0
 30
0.0
 40
8.812800407409699
100
AcDbArc
 50
175.2198288164333
 51
272.8622597568298
  0
ARC
  5
C41
330
C31
100
AcDbEntity
  8
PV0001_1
  6
CONTINUOUS
 48
0.5
100
AcDbCircle
 10
0.0
 20
0.0
 30
0.0
 40
9.1800003051758
100
AcDbArc
 50
272.7511362215027
 51
280.3697477877874
  0
ARC
  5
C42
330
C31
100
AcDbEntity
  8
PV0001_1
  6
CONTINUOUS
 48
0.5
100
AcDbCircle
 10
0.0
 20
0.0
 30
0.0
 40
8.812800407409699
100
AcDbArc
 50
355.2198199654955
 51
92.86229572901076
  0
ARC
  5
C43
330
C31
100
AcDbEntity
  8
PV0001_1
  6
CONTINUOUS
 48
0.5
100
AcDbCircle
 10
0.0
 20
0.0
 30
0.0
 40
9.1800003051758
100
AcDbArc
 50
92.75115489083434
 51
100.3697664571193
  0
CIRCLE
  5
C44
330
C31
100
AcDbEntity
  8
PV0001_1
  6
CONTINUOUS
100
AcDbCircle
 10
0.0
 20
0.0
 30
0.0
 40
9.1800003051758
  0
LINE
  5
C45
330
C31
100
AcDbEntity
  8
PV0001_1
  6
CONTINUOUS
 48
0.5
100
AcDbLine
 10
-1.652404785160001
 20
9.030059814453
 30
0.0
 11
-1.652404785160001
 21
8.220062255860002
 31
0.0
  0
LINE
  5
C46
330
C31
100
AcDbEntity
  8
PV0001_1
  6
CONTINUOUS
 48
0.5
100
AcDbLine
 10
1.652404785160001
 20
-8.220058441161999
 30
0.0
 11
1.652404785160001
 21
-9.030055999755997
 31
0.0
  0
LINE
  5
C47
330
C31
100
AcDbEntity
  8
PV0001_1
  6
CONTINUOUS
 48
0.5
100
AcDbLine
 10
-8.78217315674
 20
0.7343807220460015
 30
0.0
 11
-8.070594787600001
 21
0.7343997955320028
 31
0.0
  0
LINE
  5
C48
330
C31
100
AcDbEntity
  8
PV0001_1
  6
CONTINUOUS
 48
0.5
100
AcDbLine
 10
8.07057952881
 20
-0.7343864440919994
 30
0.0
 11
8.78215789795
 21
-0.7343654632569994
 31
0.0
  0
LINE
  5
C49
330
C31
100
AcDbEntity
  8
PV0001_1
  6
CONTINUOUS
 48
0.5
100
AcDbLine
 10
0.4406127929700006
 20
-9.169414520263
 30
0.0
 11
0.4406127929700006
 21
-8.812801361083998
 31
0.0
  0
LINE
  5
C4A
330
C31
100
AcDbEntity
  8
PV0001_1
  6
CONTINUOUS
 48
0.5
100
AcDbLine
 10
-0.4406127929700006
 20
9.169418334961001
 30
0.0
 11
-0.4406127929700006
 21
8.812805175781001
 31
0.0
  0
ENDBLK
  5
C4C
330
C31
100
AcDbEntity
  8
0
100
AcDbBlockEnd
  0
BLOCK
  5
CD2
330
CC8
100
AcDbEntity
  8
0
100
AcDbBlockBegin
  2
*D6
 70
     1
 10
0.0
 20
0.0
 30
0.0
  3
*D6
  1

  0
LINE
  5
2853
330
CC8
100
AcDbEntity
  8
AM_5
 62
     3
100
AcDbLine
 10
-150.9108474997253
 20
-6.186843049243704
 30
0.0
 11
-150.9108474997253
 21
-35.7042314277724
 31
0.0
  0
LINE
  5
2854
330
CC8
100
AcDbEntity
  8
AM_5
 62
     3
100
AcDbLine
 10
-1.910847689212435
 20
-6.050010518155426
 30
0.0
 11
-1.910847689212437
 21
-35.7042314277724
 31
0.0
  0
LINE
  5
2855
330
CC8
100
AcDbEntity
  8
AM_5
 62
     3
100
AcDbLine
 10
-148.4108474997253
 20
-34.7042314277724
 30
0.0
 11
-4.410847689212436
 21
-34.7042314277724
 31
0.0
  0
INSERT
  5
2856
330
CC8
100
AcDbEntity
  8
AM_5
 62
     3
100
AcDbBlockReference
  2
_OPEN30
 10
-150.9108474997253
 20
-34.7042314277724
 30
0.0
 41
2.5
 42
2.5
 43
2.5
 50
180.0
  0
INSERT
  5
2857
330
CC8
100
AcDbEntity
  8
AM_5
 62
     3
100
AcDbBlockReference
  2
_OPEN30
 10
-1.910847689212437
 20
-34.7042314277724
 30
0.0
 41
2.5
 42
2.5
 43
2.5
  0
MTEXT
  5
2858
330
CC8
100
AcDbEntity
  8
AM_5
 62
     2
100
AcDbMText
 10
-76.41084759446889
 20
-31.3042314277724
 30
0.0
 40
3.799999999999999
 41
0.0
 71
     5
 72
     1
  1
149
1001
ACAD
1000
MTEXTBEGIN
1070
    73
1070
     1
1070
    44
1040
1.0
1070
    74
1070
     0
1000
MTEXTEND
  0
POINT
  5
2859
330
CC8
100
AcDbEntity
  8
DEFPOINTS
 62
     0
100
AcDbPoint
 10
-150.9108474997253
 20
-5.386843049243704
 30
0.0
  0
POINT
  5
285A
330
CC8
100
AcDbEntity
  8
DEFPOINTS
 62
     0
100
AcDbPoint
 10
-1.910847689212435
 20
-5.250010518155426
 30
0.0
  0
POINT
  5
285B
330
CC8
100
AcDbEntity
  8
DEFPOINTS
 62
     0
100
AcDbPoint
 10
-1.910847689212437
 20
-34.7042314277724
 30
0.0
  0
ENDBLK
  5
CD3
330
CC8
100
AcDbEntity
  8
0
100
AcDbBlockEnd
  0
BLOCK
  5
11C1
330
11B3
100
AcDbEntity
  8
0
100
AcDbBlockBegin
  2
*D7
 70
     1
 10
0.0
 20
0.0
 30
0.0
  3
*D7
  1

  0
LINE
  5
2819
330
11B3
100
AcDbEntity
  8
AM_5
100
AcDbLine
 10
0.3420137829869789
 20
-0.9396926216993264
 30
0.0
 11
13.76111803885969
 21
-37.80837886037386
 31
0.0
  0
LINE
  5
281A
330
11B3
100
AcDbEntity
  8
AM_5
100
AcDbLine
 10
0.342013060370197
 20
0.9396961578450159
 30
0.0
 11
13.76114421670844
 21
37.80837687831515
 31
0.0
  0
ARC
  5
281B
330
11B3
100
AcDbEntity
  8
AM_5
100
AcDbCircle
 10
-0.0000077310723222
 20
0.0000037729546026
 30
0.0
 40
39.23484037254356
100
AcDbArc
 50
293.651440515705
 51
66.34851981371579
  0
INSERT
  5
281C
330
11B3
100
AcDbEntity
  8
AM_5
100
AcDbBlockReference
  2
_OPEN30
 10
13.41909789804356
 20
-36.86868623867456
 30
0.0
 41
2.5
 42
2.5
 43
2.5
 50
201.8257201813457
  0
INSERT
  5
281D
330
11B3
100
AcDbEntity
  8
AM_5
100
AcDbBlockReference
  2
_OPEN30
 10
13.41912342526592
 20
36.86868449342473
 30
0.0
 41
2.5
 42
2.5
 43
2.5
 50
158.174240148075
  0
MTEXT
  5
281E
330
11B3
100
AcDbEntity
  8
AM_5
 62
     2
100
AcDbMText
 10
36.13483264146888
 20
-0.0000098097983982
 30
0.0
 40
3.2
 41
0.0
 71
     5
 72
     1
  1
140°
  7
ASAMI
 11
0.0000000000000001
 21
1.0
 31
0.0
1001
ACAD
1000
MTEXTBEGIN
1070
    73
1070
     1
1070
    44
1040
1.0
1070
    74
1070
     0
1000
MTEXTEND
  0
POINT
  5
281F
330
11B3
100
AcDbEntity
  8
DEFPOINTS
 62
     0
100
AcDbPoint
 10
36.02606180917421
 20
15.5401135711605
 30
0.0
  0
POINT
  5
2820
330
11B3
100
AcDbEntity
  8
DEFPOINTS
 62
     0
100
AcDbPoint
 10
-0.0000079472858279
 20
0.0000031789141527
 30
0.0
  0
POINT
  5
2821
330
11B3
100
AcDbEntity
  8
DEFPOINTS
 62
     0
100
AcDbPoint
 10
-0.000006357829155
 20
-0.0000000000000221
 30
0.0
  0
POINT
  5
2822
330
11B3
100
AcDbEntity
  8
DEFPOINTS
 62
     0
100
AcDbPoint
 10
-0.6672795613608193
 20
1.833318074544154
 30
0.0
  0
POINT
  5
2823
330
11B3
100
AcDbEntity
  8
DEFPOINTS
 62
     0
100
AcDbPoint
 10
-0.667290687560822
 20
-1.833337148030858
 30
0.0
  0
ENDBLK
  5
11C2
330
11B3
100
AcDbEntity
  8
0
100
AcDbBlockEnd
  0
BLOCK
  5
2074
330
206A
100
AcDbEntity
  8
0
100
AcDbBlockBegin
  2
*D8
 70
     1
 10
0.0
 20
0.0
 30
0.0
  3
*D8
  1

  0
LINE
  5
2865
330
206A
100
AcDbEntity
  8
AM_5
 62
     3
100
AcDbLine
 10
-89.91084749972532
 20
-6.464986195547017
 30
0.0
 11
-89.91084749972527
 21
-23.59106985728133
 31
0.0
  0
LINE
  5
2866
330
206A
100
AcDbEntity
  8
AM_5
 62
     3
100
AcDbLine
 10
-1.910847689212417
 20
-6.050010518155431
 30
0.0
 11
-1.910847689212367
 21
-23.59106985728108
 31
0.0
  0
LINE
  5
2867
330
206A
100
AcDbEntity
  8
AM_5
 62
     3
100
AcDbLine
 10
-87.41084749972527
 20
-22.59106985728133
 30
0.0
 11
-4.410847689212371
 21
-22.59106985728109
 31
0.0
  0
INSERT
  5
2868
330
206A
100
AcDbEntity
  8
AM_5
 62
     3
100
AcDbBlockReference
  2
_OPEN30
 10
-89.91084749972527
 20
-22.59106985728134
 30
0.0
 41
2.5
 42
2.5
 43
2.5
 50
180.0000000000001
  0
INSERT
  5
2869
330
206A
100
AcDbEntity
  8
AM_5
 62
     3
100
AcDbBlockReference
  2
_OPEN30
 10
-1.91084768921237
 20
-22.59106985728108
 30
0.0
 41
2.5
 42
2.5
 43
2.5
 50
0.0000000000001527
  0
MTEXT
  5
286A
330
206A
100
AcDbEntity
  8
AM_5
 62
     2
100
AcDbMText
 10
-45.91084759446882
 20
-19.19106985728121
 30
0.0
 40
3.799999999999999
 41
0.0
 71
     5
 72
     1
  1
88
1001
ACAD
1000
MTEXTBEGIN
1070
    73
1070
     1
1070
    44
1040
1.0
1070
    74
1070
     0
1000
MTEXTEND
  0
POINT
  5
286B
330
206A
100
AcDbEntity
  8
DEFPOINTS
 62
     0
100
AcDbPoint
 10
-89.91084749972534
 20
-5.664986195546755
 30
0.0
  0
POINT
  5
286C
330
206A
100
AcDbEntity
  8
DEFPOINTS
 62
     0
100
AcDbPoint
 10
-1.910847689212435
 20
-5.250010518155426
 30
0.0
  0
POINT
  5
286D
330
206A
100
AcDbEntity
  8
DEFPOINTS
 62
     0
100
AcDbPoint
 10
-1.910847689212436
 20
-22.59106985728107
 30
0.0
  0
ENDBLK
  5
2075
330
206A
100
AcDbEntity
  8
0
100
AcDbBlockEnd
  0
BLOCK
  5
23EC
330
23E0
100
AcDbEntity
  8
0
100
AcDbBlockBegin
  2
*D9
 70
     1
 10
0.0
 20
0.0
 30
0.0
  3
*D9
  1

  0
LINE
  5
2825
330
23E0
100
AcDbEntity
  8
AM_5
 62
     3
100
AcDbLine
 10
-1.276991276520356
 20
-5.250009997538156
 30
0.0
 11
21.24341892183227
 21
-5.250009997538162
 31
0.0
  0
LINE
  5
2826
330
23E0
100
AcDbEntity
  8
AM_5
 62
     3
100
AcDbLine
 10
-1.277001616630444
 20
5.250000016041455
 30
0.0
 11
21.24341892183227
 21
5.250000016041449
 31
0.0
  0
LINE
  5
2827
330
23E0
100
AcDbEntity
  8
AM_5
 62
     3
100
AcDbLine
 10
20.24341892183227
 20
-7.750009997538162
 30
0.0
 11
20.24341892183227
 21
-10.25000999753816
 31
0.0
  0
LINE
  5
2828
330
23E0
100
AcDbEntity
  8
AM_5
 62
     3
100
AcDbLine
 10
20.24341892183227
 20
7.750000016041449
 30
0.0
 11
20.24341892183228
 21
27.81024042288379
 31
0.0
  0
LINE
  5
2829
330
23E0
100
AcDbEntity
  8
AM_5
 62
     3
100
AcDbLine
 10
20.24341892183227
 20
-5.250009997538162
 30
0.0
 11
20.24341892183227
 21
5.250000016041449
 31
0.0
  0
INSERT
  5
282A
330
23E0
100
AcDbEntity
  8
AM_5
 62
     3
100
AcDbBlockReference
  2
_OPEN30
 10
20.24341892183227
 20
-5.250009997538162
 30
0.0
 41
2.5
 42
2.5
 43
2.5
 50
90.0
  0
INSERT
  5
282B
330
23E0
100
AcDbEntity
  8
AM_5
 62
     3
100
AcDbBlockReference
  2
_OPEN30
 10
20.24341892183227
 20
5.250000016041449
 30
0.0
 41
2.5
 42
2.5
 43
2.5
 50
270.0
  0
MTEXT
  5
282C
330
23E0
100
AcDbEntity
  8
AM_5
 62
     2
100
AcDbMText
 10
16.84341892183227
 20
19.16262137526475
 30
0.0
 40
3.799999999999999
 41
0.0
 71
     5
 72
     1
  1
%%c10.5
 11
0.0000000000000001
 21
1.0
 31
0.0
1001
ACAD
1000
MTEXTBEGIN
1070
    73
1070
     1
1070
    44
1040
1.0
1070
    74
1070
     0
1000
MTEXTEND
  0
POINT
  5
282D
330
23E0
100
AcDbEntity
  8
DEFPOINTS
 62
     0
100
AcDbPoint
 10
-2.076991276520356
 20
-5.250009997538155
 30
0.0
  0
POINT
  5
282E
330
23E0
100
AcDbEntity
  8
DEFPOINTS
 62
     0
100
AcDbPoint
 10
-2.077001616630444
 20
5.250000016041456
 30
0.0
  0
POINT
  5
282F
330
23E0
100
AcDbEntity
  8
DEFPOINTS
 62
     0
100
AcDbPoint
 10
20.24341892183227
 20
5.250000016041449
 30
0.0
  0
ENDBLK
  5
23ED
330
23E0
100
AcDbEntity
  8
0
100
AcDbBlockEnd
  0
BLOCK
  5
245D
330
2453
100
AcDbEntity
  8
0
100
AcDbBlockBegin
  2
*D10
 70
     1
 10
0.0
 20
0.0
 30
0.0
  3
*D10
  1

  0
LINE
  5
2454
330
2453
100
AcDbEntity
  8
AM_5
 62
     3
100
AcDbLine
 10
-137.574381722344
 20
-5.00000294019065
 30
0.0
 11
-152.8199008769066
 21
-5.000002940190694
 31
0.0
  0
LINE
  5
2455
330
2453
100
AcDbEntity
  8
AM_5
 62
     3
100
AcDbLine
 10
-137.5743817223442
 20
5.00002461040103
 30
0.0
 11
-152.8199008769066
 21
5.000024610400987
 31
0.0
  0
LINE
  5
2456
330
2453
100
AcDbEntity
  8
AM_5
 62
     3
100
AcDbLine
 10
-151.8199008769066
 20
-2.500002940190691
 30
0.0
 11
-151.8199008769066
 21
2.50002461040099
 31
0.0
  0
INSERT
  5
2457
330
2453
100
AcDbEntity
  8
AM_5
 62
     3
100
AcDbBlockReference
  2
_OPEN30
 10
-151.8199008769066
 20
-5.00000294019069
 30
0.0
 41
2.5
 42
2.5
 43
2.5
 50
270.0000000000001
  0
INSERT
  5
2458
330
2453
100
AcDbEntity
  8
AM_5
 62
     3
100
AcDbBlockReference
  2
_OPEN30
 10
-151.8199008769066
 20
5.00002461040099
 30
0.0
 41
2.5
 42
2.5
 43
2.5
 50
90.00000000000015
  0
MTEXT
  5
2459
330
2453
100
AcDbEntity
  8
AM_5
 62
     2
100
AcDbMText
 10
-155.2199008769066
 20
0.000010835105146
 30
0.0
 40
3.799999999999999
 41
0.0
 71
     5
 72
     1
  1
%%c10
 11
-0.0000000000000028
 21
1.0
 31
0.0
1001
ACAD
1000
MTEXTBEGIN
1070
    73
1070
     1
1070
    44
1040
1.0
1070
    74
1070
     0
1000
MTEXTEND
  0
POINT
  5
245A
330
2453
100
AcDbEntity
  8
DEFPOINTS
 62
     0
100
AcDbPoint
 10
-137.5743817223441
 20
-5.000002940190223
 30
0.0
  0
POINT
  5
245B
330
2453
100
AcDbEntity
  8
DEFPOINTS
 62
     0
100
AcDbPoint
 10
-137.5743817223441
 20
5.000024610401458
 30
0.0
  0
POINT
  5
245C
330
2453
100
AcDbEntity
  8
DEFPOINTS
 62
     0
100
AcDbPoint
 10
-151.8199008769066
 20
5.000024610401462
 30
0.0
  0
ENDBLK
  5
245E
330
2453
100
AcDbEntity
  8
0
100
AcDbBlockEnd
  0
BLOCK
  5
246B
330
245F
100
AcDbEntity
  8
0
100
AcDbBlockBegin
  2
A$C4FFC6CC0
 70
     0
 10
0.0
 20
0.0
 30
0.0
  3
A$C4FFC6CC0
  1

  0
DIMENSION
  5
2460
330
245F
100
AcDbEntity
  8
AM_5
100
AcDbDimension
  2
*D10
 10
-70.00000100000002
 20
5.000008477104842
 30
0.0
 11
-70.00000100000002
 21
-0.0000052981910228
 31
0.0
 12
81.81989987690661
 22
-0.0000161332966199
 32
0.0
 70
   128
  1
%%c<>
 51
359.9999999999998
  3
AM_JIS$0
100
AcDbAlignedDimension
 13
-55.75448184543748
 23
-5.000019073486843
 33
0.0
 14
-55.75448184543756
 24
5.000008477104838
 34
0.0
 50
270.0
100
AcDbRotatedDimension
1001
ACAD
1000
DSTYLE
1002
{
1070
   271
1070
     0
1002
}
1001
GENIUS_GENDTOL_13
1000

1000
h7
1000

1040
0.0
  0
LINE
  5
2461
330
245F
100
AcDbEntity
  8
AM_0
 48
0.5
100
AcDbLine
 10
-56.0
 20
-4.754495620727796
 30
0.0
 11
-56.00000000000003
 21
4.754485024345811
 31
0.0
  0
LINE
  5
2462
330
245F
100
AcDbEntity
  8
AM_0
 48
0.5
100
AcDbLine
 10
-55.75448184543751
 20
-5.000019073486843
 30
0.0
 11
-55.75448184543754
 21
5.000008477104838
 31
0.0
  0
LINE
  5
2463
330
245F
100
AcDbEntity
  8
AM_0
100
AcDbLine
 10
-0.0000000000000142
 20
4.999995231627903
 30
0.0
 11
-55.75448184543754
 21
4.999995231627746
 31
0.0
  0
LINE
  5
2464
330
245F
100
AcDbEntity
  8
AM_0
 48
0.5
100
AcDbLine
 10
-55.99996821086117
 20
4.754439989725671
 30
0.0
 11
-55.75443945990975
 21
4.999963442484006
 31
0.0
  0
LINE
  5
2465
330
245F
100
AcDbEntity
  8
AM_0
100
AcDbLine
 10
-55.75448184543751
 20
-5.000008477105588
 30
0.0
 11
0.0000000000000142
 21
-5.00000847710543
 31
0.0
  0
LINE
  5
2466
330
245F
100
AcDbEntity
  8
AM_0
 48
0.5
100
AcDbLine
 10
-55.99996821086114
 20
-4.754474427965309
 30
0.0
 11
-55.75443945990972
 21
-4.999997880724334
 31
0.0
  0
LINE
  5
2467
330
245F
100
AcDbEntity
  8
AM_0
100
AcDbLine
 10
0.7794201296714505
 20
4.549985867772141
 30
0.0
 11
0.7794201296714789
 21
-4.550003370497427
 31
0.0
  0
LINE
  5
2468
330
245F
100
AcDbEntity
  8
AM_0
 48
0.5
100
AcDbLine
 10
0.0000000000000142
 20
-5.00000847710543
 30
0.0
 11
-0.0000000000000142
 21
5.000008477104995
 31
0.0
  0
LINE
  5
2469
330
245F
100
AcDbEntity
  8
AM_0
 48
0.5
100
AcDbLine
 10
0.7794201296714647
 20
-4.550003370497435
 30
0.0
 11
-0.0000105963812445
 21
-5.00000847710543
 31
0.0
  0
LINE
  5
246A
330
245F
100
AcDbEntity
  8
AM_0
 48
0.5
100
AcDbLine
 10
0.7794201296714647
 20
4.549985867772141
 30
0.0
 11
-0.0000000000000142
 21
4.999984635246652
 31
0.0
  0
ENDBLK
  5
246C
330
245F
100
AcDbEntity
  8
0
100
AcDbBlockEnd
  0
BLOCK
  5
2483
330
2479
100
AcDbEntity
  8
0
100
AcDbBlockBegin
  2
*D12
 70
     1
 10
0.0
 20
0.0
 30
0.0
  3
*D12
  1

  0
LINE
  5
29B5
330
2479
100
AcDbEntity
  8
AM_5
 62
     3
100
AcDbLine
 10
-151.3223175832971
 20
-5.499949032446852
 30
0.0
 11
-165.6063263261578
 21
-5.499949032446848
 31
0.0
  0
LINE
  5
29B6
330
2479
100
AcDbEntity
  8
AM_5
 62
     3
100
AcDbLine
 10
-151.5717194452171
 20
5.360859883114699
 30
0.0
 11
-165.6063263261578
 21
5.360859883114702
 31
0.0
  0
LINE
  5
29B7
330
2479
100
AcDbEntity
  8
AM_5
 62
     3
100
AcDbLine
 10
-164.6063263261578
 20
-7.999949032446848
 30
0.0
 11
-164.6063263261578
 21
-10.49994903244684
 31
0.0
  0
LINE
  5
29B8
330
2479
100
AcDbEntity
  8
AM_5
 62
     3
100
AcDbLine
 10
-164.6063263261578
 20
7.860859883114702
 30
0.0
 11
-164.6063263261578
 21
10.3608598831147
 31
0.0
  0
LINE
  5
29B9
330
2479
100
AcDbEntity
  8
AM_5
 62
     3
100
AcDbLine
 10
-164.6063263261578
 20
-5.499949032446848
 30
0.0
 11
-164.6063263261578
 21
5.360859883114702
 31
0.0
  0
INSERT
  5
29BA
330
2479
100
AcDbEntity
  8
AM_5
 62
     3
100
AcDbBlockReference
  2
_OPEN30
 10
-164.6063263261578
 20
-5.499949032446848
 30
0.0
 41
2.5
 42
2.5
 43
2.5
 50
90.0
  0
INSERT
  5
29BB
330
2479
100
AcDbEntity
  8
AM_5
 62
     3
100
AcDbBlockReference
  2
_OPEN30
 10
-164.6063263261578
 20
5.360859883114702
 30
0.0
 41
2.5
 42
2.5
 43
2.5
 50
270.0
  0
MTEXT
  5
29BC
330
2479
100
AcDbEntity
  8
AM_5
 62
     2
100
AcDbMText
 10
-168.0063263261578
 20
-0.0000055138095371
 30
0.0
 40
3.799999999999999
 41
0.0
 71
     5
 72
     1
  1
%%c11
 11
0.0000000000000001
 21
1.0
 31
0.0
1001
ACAD
1000
MTEXTBEGIN
1070
    73
1070
     1
1070
    44
1040
1.0
1070
    74
1070
     0
1000
MTEXTEND
  0
POINT
  5
29BD
330
2479
100
AcDbEntity
  8
DEFPOINTS
 62
     0
100
AcDbPoint
 10
-150.5223175832971
 20
-5.499949032446852
 30
0.0
  0
POINT
  5
29BE
330
2479
100
AcDbEntity
  8
DEFPOINTS
 62
     0
100
AcDbPoint
 10
-150.7717194452171
 20
5.360859883114699
 30
0.0
  0
POINT
  5
29BF
330
2479
100
AcDbEntity
  8
DEFPOINTS
 62
     0
100
AcDbPoint
 10
-164.6063263261578
 20
5.360859883114702
 30
0.0
  0
ENDBLK
  5
2484
330
2479
100
AcDbEntity
  8
0
100
AcDbBlockEnd
  0
ENDSEC
  0
SECTION
  2
ENTITIES
  0
DIMENSION
  5
CC6
330
1F
100
AcDbEntity
  8
AM_5
100
AcDbDimension
  2
*D6
 10
-1.910847689212437
 20
-34.7042314277724
 30
0.0
 11
-76.41084759446889
 21
-31.3042314277724
 31
0.0
 70
    32
  1
<>
  3
AM_JIS$0
100
AcDbAlignedDimension
 13
-150.9108474997253
 23
-5.386843049243704
 33
0.0
 14
-1.910847689212435
 24
-5.250010518155426
 34
0.0
 50
0.0000000000001132
100
AcDbRotatedDimension
1001
GENIUS_GENDTOL_13
1000

1000
h7
1000

1040
0.0
  0
DIMENSION
  5
11B2
330
1F
100
AcDbEntity
  8
AM_5
100
AcDbDimension
  2
*D7
 10
-0.667290687560822
 20
-1.833337148030858
 30
0.0
 11
36.13483264146888
 21
-0.000009809798404
 31
0.0
 70
    34
  1
<>
  3
AM_JIS$2
100
AcDb2LineAngularDimension
 13
-0.000006357829155
 23
-0.0000000000000221
 33
0.0
 14
-0.6672795613608193
 24
1.833318074544154
 34
0.0
 15
-0.0000079472858279
 25
0.0000031789141527
 35
0.0
 16
36.02606180917421
 26
15.5401135711605
 36
0.0
1001
ACAD
1000
DSTYLE
1002
{
1070
   179
1070
     3
1002
}
1001
GENIUS_GENDTOL_13
1000

1000
h7
1000

1040
0.0
  0
TEXT
  5
19BD
330
1F
100
AcDbEntity
  8
AM_6
100
AcDbText
 10
-101.8506410326923
 20
-57.20423142777247
 30
0.0
 40
5.0
  1
MDW1050LDLH
 50
0.0000000000001527
 72
     4
 11
-76.37445055650193
 21
-54.7042314277724
 31
0.0
100
AcDbText
  0
DIMENSION
  5
2069
330
1F
100
AcDbEntity
  8
AM_5
100
AcDbDimension
  2
*D8
 10
-1.910847689212436
 20
-22.59106985728107
 30
0.0
 11
-45.91084759446888
 21
-19.19106985728108
 31
0.0
 70
    32
  1
<>
 51
359.9999999999998
  3
AM_JIS$0
100
AcDbAlignedDimension
 13
-89.91084749972534
 23
-5.664986195546755
 33
0.0
 14
-1.910847689212435
 24
-5.250010518155426
 34
0.0
 50
0.0000000000001527
100
AcDbRotatedDimension
1001
GENIUS_GENDTOL_13
1000

1000
h7
1000

1040
0.0
1001
ACAD
1000
DSTYLE
1002
{
1070
   174
1070
     1
1002
}
  0
DIMENSION
  5
23DF
330
1F
100
AcDbEntity
  8
AM_5
100
AcDbDimension
  2
*D9
 10
20.24341892183227
 20
5.250000016041449
 30
0.0
 11
20.24341892183227
 21
19.16262137526475
 31
0.0
 70
   160
  1
%%c<>
  3
AM_JIS$0
100
AcDbAlignedDimension
 13
-2.076991276520356
 23
-5.250009997538155
 33
0.0
 14
-2.077001616630444
 24
5.250000016041456
 34
0.0
 50
89.99999999999925
100
AcDbRotatedDimension
1001
ACAD
1000
DSTYLE
1002
{
1070
   271
1070
     1
1002
}
1001
GENIUS_GENDTOL_13
1000

1000
h7
1000

1040
0.0
  0
LINE
  5
23EE
330
1F
100
AcDbEntity
  8
AM_0
 48
0.5
100
AcDbLine
 10
-0.0000006211109107
 20
0.0000033539012932
 30
0.0
 11
-2.608317814623917
 21
2.042487511737115
 31
0.0
  0
LINE
  5
23EF
330
1F
100
AcDbEntity
  8
AM_7
100
AcDbLine
 10
-153.703287727106
 20
-0.0000000566722871
 30
0.0
 11
2.575000114683452
 21
-0.000000056673012
 31
0.0
1001
GENIUS_GENODEF_13
1002
{
1000
HIER
1070
     0
1002
}
1002
{
1000
MANEDIT
1070
     0
1002
}
1002
{
1000
NOSEL
1070
     0
1002
}
1002
{
1000
BEHIND
1070
     0
1002
}
1002
{
1000
REACTOR
1002
}
1001
GENIUS_GENOBJ-N-CEN_13
1002
{
1000
OWNER
1000
GEN
1002
}
  0
ELLIPSE
  5
23F0
330
1F
100
AcDbEntity
  8
AM_0
 48
0.5
100
AcDbEllipse
 10
-9.38436401841867
 20
8.900407330341742
 30
0.0
 11
13.07107709672119
 21
0.0000000000107947
 31
0.0
210
0.0
220
0.0
230
1.0
 40
0.9782030834662359
 41
-0.8976689894976418
 42
-0.7699457724871442
  0
LINE
  5
23F3
330
1F
100
AcDbEntity
  8
AM_0
 48
0.5
100
AcDbLine
 10
-4.898796676739355
 20
-5.249999983958473
 30
0.0
 11
-1.910847499725337
 21
-5.250010587123089
 31
0.0
  0
LINE
  5
23F4
330
1F
100
AcDbEntity
  8
AM_0
 48
0.5
100
AcDbLine
 10
-4.898796676739099
 20
5.250000016041528
 30
0.0
 11
-1.910841487722894
 21
5.250000016041451
 31
0.0
  0
ELLIPSE
  5
23F9
330
1F
100
AcDbEntity
  8
AM_0
 48
0.5
100
AcDbEllipse
 10
-9.384364018418649
 20
8.811403290577366
 30
0.0
 11
-13.07107709671918
 21
0.0000000000336769
 31
0.0
210
0.0
220
0.0
230
1.0
 40
0.9684210526316562
 41
2.081379652025842
 42
2.169874429705356
  0
ELLIPSE
  5
23FA
330
1F
100
AcDbEntity
  8
AM_0
 48
0.5
100
AcDbEllipse
 10
-1.615205095311317
 20
-1.368225558452309
 30
0.0
 11
-0.1603150261715054
 21
0.8610948001400327
 31
0.0
210
0.0
220
0.0
230
1.0
 40
0.5152501739358818
 41
1.798162171007052
 42
4.933504060719028
  0
ELLIPSE
  5
23FB
330
1F
100
AcDbEntity
  8
AM_0
 48
0.5
100
AcDbEllipse
 10
-1.615205095311317
 20
-1.368225558452309
 30
0.0
 11
-0.7864296644148585
 21
0.4305979922960712
 31
0.0
210
0.0
220
0.0
230
0.9999999999999998
 40
0.4917327715137214
 41
4.465806703923373
 42
7.609247045252885
  0
ELLIPSE
  5
2406
330
1F
100
AcDbEntity
  8
AM_0
 48
0.5
100
AcDbEllipse
 10
5.632558890278346
 20
-1.402090335153735
 30
0.0
 11
8.557134498139294
 21
1.474560473328099
 31
0.0
210
0.0
220
0.0
230
1.0
 40
0.7942690286321142
 41
3.047630762756404
 42
3.514242806610301
  0
DIMENSION
  5
246E
330
1F
100
AcDbEntity
  8
AM_5
100
AcDbDimension
  2
*D12
 10
-164.6063263261578
 20
5.360859883114702
 30
0.0
 11
-164.6063263261578
 21
-0.0000055138095375
 31
0.0
 70
   160
  1
%%c<>
  3
AM_JIS$0
100
AcDbAlignedDimension
 13
-150.5223175832971
 23
-5.499949032446852
 33
0.0
 14
-150.7717194452171
 24
5.360859883114699
 34
0.0
 50
270.0
100
AcDbRotatedDimension
1001
ACAD
1000
DSTYLE
1002
{
1070
   271
1070
     0
1002
}
1001
GENIUS_GENDTOL_13
1000

1000
h7
1000

1040
0.0
  0
LINE
  5
246F
330
1F
100
AcDbEntity
  8
AM_0
 48
0.5
100
AcDbLine
 10
-150.9108474997253
 20
-5.22177096047166
 30
0.0
 11
-150.9108474997254
 21
5.221770847127102
 31
0.0
  0
LINE
  5
2470
330
1F
100
AcDbEntity
  8
AM_0
 48
0.5
100
AcDbLine
 10
-150.632675430606
 20
-5.499949032446853
 30
0.0
 11
-150.6326754306061
 21
5.499948919102294
 31
0.0
  0
LINE
  5
2471
330
1F
100
AcDbEntity
  8
AM_0
100
AcDbLine
 10
-89.91084749972536
 20
5.499948919102627
 30
0.0
 11
-150.6326274078031
 21
5.499948919102294
 31
0.0
  0
LINE
  5
2472
330
1F
100
AcDbEntity
  8
AM_0
 48
0.5
100
AcDbLine
 10
-150.9108114826311
 20
5.221770847127102
 30
0.0
 11
-150.6326274078031
 21
5.499948919102295
 31
0.0
  0
LINE
  5
2538
330
1F
100
AcDbEntity
  8
AM_0
100
AcDbLine
 10
-1.910841487722893
 20
5.250000016041451
 30
0.0
 11
0.000001653757556
 21
0.0000016327042598
 31
0.0
  0
LINE
  5
2539
330
1F
100
AcDbEntity
  8
AM_0
100
AcDbLine
 10
-1.910847689212435
 20
-5.250010518155426
 30
0.0
 11
0.000001653757556
 21
0.000004903634402
 31
0.0
  0
LINE
  5
26EC
330
1F
100
AcDbEntity
  8
AM_0
 48
0.5
100
AcDbLine
 10
-84.50512170280459
 20
-5.249055805653533
 30
0.0
 11
-89.47629077444737
 21
-5.249057590130428
 31
0.0
  0
LINE
  5
27F7
330
1F
100
AcDbEntity
  8
AM_0
100
AcDbLine
 10
-89.91084749972534
 20
-5.49994903244686
 30
0.0
 11
-89.91084749972536
 21
5.499948919102628
 31
0.0
  0
LINE
  5
2803
330
1F
100
AcDbEntity
  8
AM_0
100
AcDbLine
 10
-89.47629077444744
 20
5.249057476785265
 30
0.0
 11
-89.47629077444743
 21
-5.249057384941489
 31
0.0
  0
LINE
  5
291A
330
1F
100
AcDbEntity
  8
AM_0
100
AcDbLine
 10
-89.91084749972536
 20
5.499948919102627
 30
0.0
 11
-89.47629077444746
 21
5.249057476785269
 31
0.0
  0
LINE
  5
291B
330
1F
100
AcDbEntity
  8
AM_0
 48
0.5
100
AcDbLine
 10
-82.26116124312703
 20
5.249054886804604
 30
0.0
 11
-89.47629077444746
 21
5.249057476785265
 31
0.0
  0
SPLINE
  5
2960
330
1F
100
AcDbEntity
  8
AM_0
100
AcDbSpline
210
0.0
220
0.0
230
1.0
 70
     8
 71
     3
 72
    46
 73
    42
 74
     0
 42
0.0000000001
 43
0.0000000001
 40
0.0
 40
0.0
 40
0.0
 40
0.0
 40
1.685415058684571
 40
2.531036209541119
 40
3.379897699130121
 40
4.232934581347655
 40
5.090970612202441
 40
5.954688180526682
 40
6.824620803463246
 40
7.701151815239689
 40
8.584457046566678
 40
9.474582384070741
 40
10.37139106676737
 40
11.27458944007583
 40
12.18373345430765
 40
13.09824173870457
 40
14.01741343450111
 40
14.9404441545541
 40
15.86644439743314
 40
16.79446029130534
 40
17.7234937712985
 40
18.65252725129241
 40
19.58054314516461
 40
20.50654338804289
 40
21.42957410809586
 40
22.34874580389317
 40
23.26325408828901
 40
24.17239810252111
 40
25.07560240389441
 40
25.97241108659103
 40
26.8625364240951
 40
27.74584165542183
 40
28.62236045019041
 40
29.49229307312697
 40
30.35601064145121
 40
31.21404606334468
 40
32.06708345193547
 40
32.91595755657689
 40
33.76157841950693
 40
34.60498701064689
 40
35.44727335621125
 40
35.44727335621125
 40
35.44727335621125
 40
35.44727335621125
 10
-2.226615681899899
 20
-5.249999983958528
 30
0.0
 10
-2.806110000690636
 20
-5.238040078128705
 30
0.0
 10
-3.676353266006812
 20
-5.220079543978975
 30
0.0
 10
-4.833553685672249
 20
-5.10949983474488
 30
0.0
 10
-5.70246027948936
 20
-4.998006072330304
 30
0.0
 10
-6.571292602477397
 20
-4.854867020376434
 30
0.0
 10
-7.440048365834526
 20
-4.681986050703348
 30
0.0
 10
-8.308723106592015
 20
-4.480189681626952
 30
0.0
 10
-9.177315369850198
 20
-4.250792488392197
 30
0.0
 10
-10.0458212900667
 20
-3.995203003723617
 30
0.0
 10
-10.91424260317657
 20
-3.715006488388822
 30
0.0
 10
-11.78257697339053
 20
-3.411930732486555
 30
0.0
 10
-12.65083835096479
 20
-3.087858395671679
 30
0.0
 10
-13.51903095582326
 20
-2.744781723403929
 30
0.0
 10
-14.3871627718066
 20
-2.384816299008542
 30
0.0
 10
-15.25524344614332
 20
-2.010182880267256
 30
0.0
 10
-16.12328058673639
 20
-1.62318525746771
 30
0.0
 10
-16.99128264177735
 20
-1.226203669705805
 30
0.0
 10
-17.85925881456237
 20
-0.8216813060391009
 30
0.0
 10
-18.72721703411047
 20
-0.4121056946498543
 30
0.0
 10
-19.59516795744855
 20
0.0000000159586184
 30
0.0
 10
-20.46311888059595
 20
0.4121057270678831
 30
0.0
 10
-21.33107710071599
 20
0.8216813369554868
 30
0.0
 10
-22.1990532714105
 20
1.226203706110027
 30
0.0
 10
-23.06705533420319
 20
1.623185273519547
 30
0.0
 10
-23.93509244605349
 20
2.01018297178367
 30
0.0
 10
-24.80317322683454
 20
2.384816111053081
 30
0.0
 10
-25.67130653636338
 20
2.744783351767009
 30
0.0
 10
-26.53950251459948
 20
3.087856907009276
 30
0.0
 10
-27.40776544101898
 20
3.411930905556118
 30
0.0
 10
-28.27609979101562
 20
3.71500675163955
 30
0.0
 10
-29.1445175367494
 20
3.995200692207819
 30
0.0
 10
-30.01301767028955
 20
4.250794130629218
 30
0.0
 10
-30.88160638801239
 20
4.48019226097661
 30
0.0
 10
-31.75028062602656
 20
4.681975427475128
 30
0.0
 10
-32.61903702630226
 20
4.854906539441985
 30
0.0
 10
-33.48787489424521
 20
4.997841186994236
 30
0.0
 10
-34.35677701080693
 20
5.110119844725865
 30
0.0
 10
-35.22573288591972
 20
5.190224754858911
 30
0.0
 10
-36.09472030348445
 20
5.240631703747617
 30
0.0
 10
-36.67418655316387
 20
5.246878631567759
 30
0.0
 10
-36.96372678917749
 20
5.25000001604253
 30
0.0
  0
SPLINE
  5
2961
330
1F
100
AcDbEntity
  8
AM_0
 48
0.5
100
AcDbSpline
210
0.0
220
0.0
230
1.0
 70
     8
 71
     3
 72
    10
 73
     6
 74
     0
 42
0.0000000001
 43
0.0000000001
 40
0.0
 40
0.0
 40
0.0
 40
0.0
 40
2.69986029516136
 40
4.147722969032201
 40
6.285750005020438
 40
6.285750005020438
 40
6.285750005020438
 40
6.285750005020438
 10
-5.780208053328917
 20
0.9502220314223563
 30
0.0
 10
-5.149989504377427
 20
0.4624607522872437
 30
0.0
 10
-4.181801648257276
 20
-0.2868738205049137
 30
0.0
 10
-1.89216742754863
 20
0.0758921734179468
 30
0.0
 10
-2.323372149425387
 20
1.297736042036094
 30
0.0
 10
-2.608284678842847
 20
2.042487511737129
 30
0.0
  0
ELLIPSE
  5
2962
330
1F
100
AcDbEntity
  8
AM_0
 48
0.5
100
AcDbEllipse
 10
3.35393711484236
 20
6.30294801408815
 30
0.0
 11
-6.764793004920059
 21
9.135945108231494
 31
0.0
210
0.0
220
0.0
230
1.0
 40
0.9305930348016236
 41
1.470868345029395
 42
1.845209479440898
  0
SPLINE
  5
2963
330
1F
100
AcDbEntity
  8
AM_0
100
AcDbSpline
210
0.0
220
0.0
230
1.0
 70
     8
 71
     3
 72
    17
 73
    13
 74
     0
 42
0.0000000001
 43
0.0000000001
 40
1.580019955310467
 40
1.580019955310467
 40
1.580019955310467
 40
1.580019955310467
 40
2.030549285115227
 40
3.082371838836284
 40
4.126290986361125
 40
5.162752068350215
 40
6.192395305374981
 40
7.216039564037012
 40
8.234688489606833
 40
9.249433870634691
 40
10.26152376260694
 40
11.27226744710342
 40
11.27226744710342
 40
11.27226744710342
 40
11.27226744710352
 10
-13.08714072372737
 20
-3.874654578557557
 30
0.0
 10
-13.21242226932602
 20
-3.91456030205952
 30
0.0
 10
-13.63090472148867
 20
-4.045356641008485
 30
0.0
 10
-14.3453580466354
 20
-4.250515378624151
 30
0.0
 10
-15.23031418211442
 20
-4.480265948585464
 30
0.0
 10
-16.115513945189
 20
-4.681956444650321
 30
0.0
 10
-17.00075426780769
 20
-4.854909544802363
 30
0.0
 10
-17.88609103577299
 20
-4.997867179838682
 30
0.0
 10
-18.77148896911512
 20
-5.110013553571725
 30
0.0
 10
-19.6569420344201
 20
-5.190621919975069
 30
0.0
 10
-20.54242841641745
 20
-5.239173393632957
 30
0.0
 10
-21.1328959478854
 20
-5.250000013998688
 30
0.0
 10
-21.42793322526809
 20
-5.249999983957899
 30
0.0
  0
SPLINE
  5
2964
330
1F
100
AcDbEntity
  8
AM_0
100
AcDbSpline
210
0.0
220
0.0
230
1.0
 70
     8
 71
     3
 72
    22
 73
    18
 74
     0
 42
0.0000000001
 43
0.0000000001
 40
17.17441611292
 40
17.17441611292
 40
17.17441611292
 40
17.17441611292
 40
17.38177636558528
 40
18.41823744757437
 40
19.46215659509824
 40
20.51397914882054
 40
21.57394542641293
 40
22.64209583141747
 40
23.71826625065247
 40
24.80210429862395
 40
25.8930771157021
 40
26.99048705697709
 40
28.09349309193389
 40
29.20112995599786
 40
30.31233024745139
 40
31.42594771747373
 40
32.5407895042663
 40
32.54078950426994
 40
32.54078950426994
 40
32.54078950426994
 10
-24.80763865651491
 20
-4.714537981615346
 30
0.0
 10
-24.86693208699781
 20
-4.702384746544638
 30
0.0
 10
-25.22236382071442
 20
-4.628358063347605
 30
0.0
 10
-25.87349472838479
 20
-4.479924928750225
 30
0.0
 10
-26.7585740648824
 20
-4.250527147037182
 30
0.0
 10
-27.64356321365349
 20
-3.994933596083304
 30
0.0
 10
-28.52846842267186
 20
-3.71473975420886
 30
0.0
 10
-29.41328852303925
 20
-3.411663623936338
 30
0.0
 10
-30.2980344058651
 20
-3.087591388074267
 30
0.0
 10
-31.18271016777153
 20
-2.744514690313781
 30
0.0
 10
-32.06732399411306
 20
-2.384549265851546
 30
0.0
 10
-32.95188572123455
 20
-2.00991587335059
 30
0.0
 10
-33.83640302659815
 20
-1.622918144870592
 30
0.0
 10
-34.72088481430049
 20
-1.225936955831921
 30
0.0
 10
-35.60533892450289
 20
-0.8214132911903025
 30
0.0
 10
-36.4897784596238
 20
-0.4118432806048473
 30
0.0
 10
-37.07928907977832
 20
-0.137153362356149
 30
0.0
 10
-37.37420633266713
 20
0.0002670448518866
 30
0.0
  0
LINE
  5
2965
330
1F
100
AcDbEntity
  8
AM_0
 48
0.5
100
AcDbLine
 10
-36.27079085497162
 20
-5.249999983957523
 30
0.0
 11
-21.42793322526817
 21
-5.249999983957899
 31
0.0
  0
SPLINE
  5
2966
330
1F
100
AcDbEntity
  8
AM_0
100
AcDbSpline
210
0.0
220
0.0
230
1.0
 70
     8
 71
     3
 72
    11
 73
     7
 74
     0
 42
0.0000000001
 43
0.0000000001
 40
11.27226913003534
 40
11.27226913003534
 40
11.27226913003534
 40
11.2722691300354
 40
12.28301561507924
 40
13.29510212255852
 40
14.30984805882082
 40
15.18258238371378
 40
15.18258238371378
 40
15.18258238371378
 40
15.18258238371378
 10
-21.42793322526814
 20
-5.249999983957899
 30
0.0
 10
-21.72184862567216
 20
-5.22430495831785
 30
0.0
 10
-22.30912504614505
 20
-5.162098419536476
 30
0.0
 10
-23.18700709090314
 20
-5.036612444063575
 30
0.0
 10
-24.02013263084946
 20
-4.88673320536179
 30
0.0
 10
-24.55894932659867
 20
-4.771516573879444
 30
0.0
 10
-24.80725140279129
 20
-4.714602740325199
 30
0.0
  0
LINE
  5
2967
330
1F
100
AcDbEntity
  8
AM_11
 48
0.5
100
AcDbLine
 10
-50.78896238972564
 20
5.250745873820675
 30
0.0
 11
-40.14424488114765
 21
5.250000016042712
 31
0.0
  0
SPLINE
  5
2968
330
1F
100
AcDbEntity
  8
AM_0
100
AcDbSpline
210
0.0
220
0.0
230
1.0
 70
     8
 71
     3
 72
    17
 73
    13
 74
     0
 42
0.0000000001
 43
0.0000000001
 40
1.580019955310467
 40
1.580019955310467
 40
1.580019955310467
 40
1.580019955310467
 40
2.030549285115227
 40
3.082371838836284
 40
4.126290986361125
 40
5.162752068350215
 40
6.192395305374981
 40
7.216039564037012
 40
8.234688489606833
 40
9.249433870634691
 40
10.26152376260694
 40
11.27226744710342
 40
11.27226744710342
 40
11.27226744710342
 40
11.27226744710352
 10
-44.61028197077967
 20
-3.874654578556643
 30
0.0
 10
-44.73556351637833
 20
-3.914560302058607
 30
0.0
 10
-45.15404596854097
 20
-4.045356641007571
 30
0.0
 10
-45.86849929368773
 20
-4.250515378623237
 30
0.0
 10
-46.75345542916678
 20
-4.480265948584549
 30
0.0
 10
-47.63865519224136
 20
-4.681956444649408
 30
0.0
 10
-48.52389551486006
 20
-4.854909544801447
 30
0.0
 10
-49.40923228282537
 20
-4.997867179837769
 30
0.0
 10
-50.29463021616745
 20
-5.110013553570813
 30
0.0
 10
-51.18008328147244
 20
-5.190621919974154
 30
0.0
 10
-52.06556966346979
 20
-5.239173393632047
 30
0.0
 10
-52.65603719493775
 20
-5.25000001399777
 30
0.0
 10
-52.95107447232044
 20
-5.249999983956983
 30
0.0
  0
SPLINE
  5
2969
330
1F
100
AcDbEntity
  8
AM_0
100
AcDbSpline
210
0.0
220
0.0
230
1.0
 70
     8
 71
     3
 72
    11
 73
     7
 74
     0
 42
0.0000000001
 43
0.0000000001
 40
11.27226913003534
 40
11.27226913003534
 40
11.27226913003534
 40
11.2722691300354
 40
12.28301561507924
 40
13.29510212255852
 40
14.30984805882082
 40
15.18258238371378
 40
15.18258238371378
 40
15.18258238371378
 40
15.18258238371378
 10
-52.95107447232048
 20
-5.249999983956983
 30
0.0
 10
-53.24498987272451
 20
-5.22430495831694
 30
0.0
 10
-53.8322662931974
 20
-5.162098419535563
 30
0.0
 10
-54.7101483379555
 20
-5.036612444062662
 30
0.0
 10
-55.54327387790183
 20
-4.886733205360878
 30
0.0
 10
-56.08209057365105
 20
-4.771516573878531
 30
0.0
 10
-56.33039264984366
 20
-4.714602740324284
 30
0.0
  0
LINE
  5
296A
330
1F
100
AcDbEntity
  8
AM_11
 48
0.5
100
AcDbLine
 10
-52.95107447231838
 20
-5.249999983956982
 30
0.0
 11
-36.27079085497163
 21
-5.250745841735126
 31
0.0
  0
SPLINE
  5
296B
330
1F
100
AcDbEntity
  8
AM_0
100
AcDbSpline
210
0.0
220
0.0
230
1.0
 70
     8
 71
     3
 72
    23
 73
    19
 74
     0
 42
0.0000000001
 43
0.0000000001
 40
16.03460024169435
 40
16.03460024169435
 40
16.03460024169435
 40
16.03460024169435
 40
16.35212704903564
 40
17.38177054169784
 40
18.41822485651776
 40
19.46214173629503
 40
20.51396345435107
 40
21.57393551351153
 40
22.64208202342361
 40
23.7182574881101
 40
24.80209208578934
 40
25.89306333925047
 40
26.99048218457928
 40
28.09348763352352
 40
29.20111863782268
 40
30.31232390128032
 40
31.42594612798585
 40
32.5407912310448
 40
32.5407912310486
 40
32.5407912310486
 40
32.5407912310486
 10
-50.78896238972566
 20
5.250745873820674
 30
0.0
 10
-50.69798954424544
 20
5.233022798343655
 30
0.0
 10
-50.31240665019279
 20
5.155843792910038
 30
0.0
 10
-49.63319822987581
 20
5.004623310764012
 30
0.0
 10
-48.75362154750128
 20
4.779760107543955
 30
0.0
 10
-47.87486185732177
 20
4.52727621122918
 30
0.0
 10
-46.99686723272651
 20
4.248632869831337
 30
0.0
 10
-46.11960651213022
 20
3.945383526216724
 30
0.0
 10
-45.24302899196576
 20
3.619261681517673
 30
0.0
 10
-44.36707363070634
 20
3.272165283067315
 30
0.0
 10
-43.49169065342226
 20
2.906059917533063
 30
0.0
 10
-42.61680987748601
 20
2.523075866732502
 30
0.0
 10
-41.74236040359417
 20
2.125439199436508
 30
0.0
 10
-40.86828396967237
 20
1.715436159782059
 30
0.0
 10
-39.99450744280707
 20
1.295450859297118
 30
0.0
 10
-39.12094989278636
 20
0.8679357040113181
 30
0.0
 10
-38.24754018736644
 20
0.4353680284825203
 30
0.0
 10
-37.66542344878129
 20
0.1453550545964972
 30
0.0
 10
-37.37420633266323
 20
0.0002670448500003
 30
0.0
  0
LINE
  5
296C
330
1F
100
AcDbEntity
  8
AM_0
 48
0.5
100
AcDbLine
 10
-40.14425924777781
 20
5.250000016042712
 30
0.0
 11
-21.42793322526781
 21
5.250000016042103
 31
0.0
  0
LINE
  5
296D
330
1F
100
AcDbEntity
  8
AM_11
 48
0.5
100
AcDbLine
 10
-21.42793322526817
 20
-5.249999983957899
 30
0.0
 11
-4.747649607919274
 21
-5.249999983958435
 31
0.0
  0
SPLINE
  5
296E
330
1F
100
AcDbEntity
  8
AM_0
100
AcDbSpline
210
0.0
220
0.0
230
1.0
 70
     8
 71
     3
 72
    55
 73
    51
 74
     0
 42
0.0000000001
 43
0.0000000001
 40
0.0
 40
0.0
 40
0.0
 40
0.0
 40
1.010743684496582
 40
2.022833576467832
 40
3.037578957496688
 40
4.056212745003489
 40
5.079857003664532
 40
6.109500240690281
 40
7.145961322679372
 40
8.189895241603872
 40
9.241717795325891
 40
10.30168407291828
 40
11.36983447792315
 40
12.44600489715814
 40
13.52984294512926
 40
14.62081576220742
 40
15.7182257034828
 40
16.82123173843959
 40
17.92886860250316
 40
19.0400688939571
 40
20.15368796660465
 40
21.26852814259644
 40
22.38336992938901
 40
23.49698739941135
 40
24.6081876908653
 40
25.71582455492886
 40
26.81883757994213
 40
27.91624752121713
 40
29.00722033829659
 40
30.09105838626677
 40
31.16722880550176
 40
32.23537921050758
 40
33.29534548809967
 40
34.347168041821
 40
35.39108718934584
 40
36.42754827133493
 40
37.45720575381954
 40
38.48085062012849
 40
39.49948440763516
 40
40.51422944315121
 40
41.52631975251916
 40
42.53706336719636
 40
43.54780698187354
 40
44.55989729124051
 40
45.57464232675757
 40
46.59327611426424
 40
47.6169209805722
 40
48.64656348684535
 40
49.68302456883444
 40
50.58557219878025
 40
50.58557219878025
 40
50.58557219878025
 40
50.58557219878025
 10
-4.747649607919274
 20
-5.249999983958435
 30
0.0
 10
-5.042686889194395
 20
-5.246876361147454
 30
0.0
 10
-5.633154411304472
 20
-5.240624955178579
 30
0.0
 10
-6.518640812083479
 20
-5.19023160498546
 30
0.0
 10
-7.404089414786725
 20
-5.110119342390163
 30
0.0
 10
-8.28948321691454
 20
-4.997838959464105
 30
0.0
 10
-9.17481338363054
 20
-4.854912070666489
 30
0.0
 10
-10.06006244934998
 20
-4.681974249094852
 30
0.0
 10
-10.94523337519176
 20
-4.480190465555568
 30
0.0
 10
-11.83031831147865
 20
-4.250796347392892
 30
0.0
 10
-12.71531122916917
 20
-3.995200360576387
 30
0.0
 10
-13.60021653946375
 20
-3.715006854694015
 30
0.0
 10
-14.4850366123153
 20
-3.41193063321057
 30
0.0
 10
-15.36978250284185
 20
-3.0878584225914
 30
0.0
 10
-16.25445826173971
 20
-2.744781716005282
 30
0.0
 10
-17.13907209237526
 20
-2.384816301432676
 30
0.0
 10
-18.02363380523558
 20
-2.010182878018437
 30
0.0
 10
-18.90815116370658
 20
-1.623185264064467
 30
0.0
 10
-19.79263275212999
 20
-1.226203645442371
 30
0.0
 10
-20.67708803483465
 20
-0.8216813968509944
 30
0.0
 10
-21.56152476933529
 20
-0.4121053548306002
 30
0.0
 10
-22.44595544524862
 20
-0.0000010551485721
 30
0.0
 10
-23.33038215080824
 20
0.4121106626676769
 30
0.0
 10
-24.21482184974802
 20
0.8216803265057432
 30
0.0
 10
-25.09927604058079
 20
1.226203799562936
 30
0.0
 10
-25.98375920602508
 20
1.623186930508057
 30
0.0
 10
-26.86828023389838
 20
2.010181241756432
 30
0.0
 10
-27.75284334283078
 20
2.384816565083386
 30
0.0
 10
-28.63745730117515
 20
2.744781687761155
 30
0.0
 10
-29.52213302788248
 20
3.087858466495014
 30
0.0
 10
-30.40687892067453
 20
3.411930677588238
 30
0.0
 10
-31.29169901606311
 20
3.715006826601589
 30
0.0
 10
-32.17660423502582
 20
3.995200618587311
 30
0.0
 10
-33.06159334934187
 20
4.250794348494522
 30
0.0
 10
-33.94667281240072
 20
4.480191471147818
 30
0.0
 10
-34.83184340989002
 20
4.681979312305139
 30
0.0
 10
-35.71709879658448
 20
4.854897381976918
 30
0.0
 10
-36.60243188818117
 20
4.997868509668045
 30
0.0
 10
-37.48782595277932
 20
5.110015798692474
 30
0.0
 10
-38.37327517071918
 20
5.190614553874957
 30
0.0
 10
-39.25876082071124
 20
5.239181261802617
 30
0.0
 10
-40.14426592871346
 20
5.255405791894984
 30
0.0
 10
-41.02977103541276
 20
5.239181261777233
 30
0.0
 10
-41.9152566893211
 20
5.190614553977112
 30
0.0
 10
-42.80070589284234
 20
5.110015798308018
 30
0.0
 10
-43.6861000114994
 20
4.99786851111346
 30
0.0
 10
-44.57142858370057
 20
4.85489807355003
 30
0.0
 10
-45.45668048282577
 20
4.681981080299246
 30
0.0
 10
-46.30160429421994
 20
4.489351361610084
 30
0.0
 10
-46.84980048531837
 20
4.348479427274225
 30
0.0
 10
-47.10413156680313
 20
4.279825661525554
 30
0.0
  0
SPLINE
  5
296F
330
1F
100
AcDbEntity
  8
AM_0
 48
0.5
100
AcDbSpline
210
0.0
220
0.0
230
1.0
 70
     8
 71
     3
 72
    25
 73
    21
 74
     0
 42
0.0000000001
 43
0.0000000001
 40
6.846175049578289
 40
6.846175049578289
 40
6.846175049578289
 40
6.846175049578289
 40
7.604337694224321
 40
8.711974558287883
 40
9.814980593243754
 40
10.91239053451967
 40
12.0033633515982
 40
13.08720139956839
 40
14.16337181880432
 40
15.23152222380919
 40
16.29148850140128
 40
17.34331105512262
 40
18.38723020264746
 40
19.42369128463655
 40
20.45333379090873
 40
21.47697865721768
 40
22.49561244472435
 40
23.5103574802404
 40
24.52244778960836
 40
25.53320666051913
 40
25.53320666051913
 40
25.53320666051913
 40
25.53320666051913
 10
-5.7803496231097
 20
0.9502843870084983
 30
0.0
 10
-5.981501822182926
 20
1.042465049917879
 30
0.0
 10
-6.476950434567401
 20
1.268394520253989
 30
0.0
 10
-7.267431749588718
 20
1.623185119392718
 30
0.0
 10
-8.151949006612623
 20
2.010182957227458
 30
0.0
 10
-9.036510746583854
 20
2.384816320609038
 30
0.0
 10
-9.921124569536273
 20
2.744781752938878
 30
0.0
 10
-10.80580033225095
 20
3.087858448126143
 30
0.0
 10
-11.69054621519986
 20
3.411930686460416
 30
0.0
 10
-12.57536631429049
 20
3.715006809470397
 30
0.0
 10
-13.46027152823653
 20
3.995200677651164
 30
0.0
 10
-14.34526065877072
 20
4.250794131675741
 30
0.0
 10
-15.23034006258428
 20
4.480192271067137
 30
0.0
 10
-16.11550661619128
 20
4.681975386506552
 30
0.0
 10
-17.00075686168382
 20
4.854906691865398
 30
0.0
 10
-17.88608587306035
 20
4.997839918239767
 30
0.0
 10
-18.77147987495693
 20
5.110120898464991
 30
0.0
 10
-19.65692910943309
 20
5.190224578254961
 30
0.0
 10
-20.54241920297961
 20
5.240632010558979
 30
0.0
 10
-21.13289143402762
 20
5.246878718074468
 30
0.0
 10
-21.42793322526781
 20
5.250000016042104
 30
0.0
  0
SPLINE
  5
2970
330
1F
100
AcDbEntity
  8
AM_0
 48
0.5
100
AcDbSpline
210
0.0
220
0.0
230
1.0
 70
     8
 71
     3
 72
    16
 73
    12
 74
     0
 42
0.0000000001
 43
0.0000000001
 40
0.0
 40
0.0
 40
0.0
 40
0.0
 40
1.010743614677189
 40
2.022833924044153
 40
3.037578959561199
 40
4.056212747067873
 40
5.079857613375832
 40
6.109500119648989
 40
7.14596120163808
 40
8.18989512056258
 40
8.545190612624931
 40
8.545190612624931
 40
8.545190612624931
 40
8.545190612624931
 10
-4.747649607918943
 20
5.250000016041567
 30
0.0
 10
-5.042670540732353
 20
5.249968468007932
 30
0.0
 10
-5.633162338913606
 20
5.239195927400169
 30
0.0
 10
-6.518638312511447
 20
5.190610593493663
 30
0.0
 10
-7.404090150593436
 20
5.110016931382832
 30
0.0
 10
-8.289483442889316
 20
4.997867956237417
 30
0.0
 10
-9.174812676188832
 20
4.854899160702007
 30
0.0
 10
-10.0600627471803
 20
4.681977256311047
 30
0.0
 10
-10.94523398388707
 20
4.480191438025175
 30
0.0
 10
-11.63349564680879
 20
4.301802760241668
 30
0.0
 10
-12.02689194117451
 20
4.192089306519042
 30
0.0
 10
-12.12665504434926
 20
4.16377695348539
 30
0.0
  0
SPLINE
  5
2971
330
1F
100
AcDbEntity
  8
AM_0
 48
0.5
100
AcDbSpline
210
0.0
220
0.0
230
1.0
 70
     8
 71
     3
 72
    17
 73
    13
 74
     0
 42
0.0000000001
 43
0.0000000001
 40
0.0
 40
0.0
 40
0.0
 40
0.0
 40
1.010743614677189
 40
2.022833924044153
 40
3.037578959561199
 40
4.056212747067873
 40
5.079857613375832
 40
6.109500119648989
 40
7.14596120163808
 40
8.18989512056258
 40
9.241717674284874
 40
9.693948937866434
 40
9.693948937866434
 40
9.693948937866434
 40
9.693948937866434
 10
-4.747649607918943
 20
5.250000016041567
 30
0.0
 10
-5.042686942887323
 20
5.246878644265082
 30
0.0
 10
-5.633154714701313
 20
5.240631741858496
 30
0.0
 10
-6.518640369498712
 20
5.190224602007145
 30
0.0
 10
-7.404089569365692
 20
5.110120818673816
 30
0.0
 10
-8.289483701827872
 20
4.997840215391621
 30
0.0
 10
-9.174812222097651
 20
4.854905574865394
 30
0.0
 10
-10.06006431676232
 20
4.681979593242821
 30
0.0
 10
-10.94522810425097
 20
4.480175452256243
 30
0.0
 10
-11.83033793247169
 20
4.250851749355446
 30
0.0
 10
-12.5448216661809
 20
4.044265757966728
 30
0.0
 10
-12.96440840556771
 20
3.91511980498331
 30
0.0
 10
-13.09034583362477
 20
3.875589093316045
 30
0.0
  0
LINE
  5
2972
330
1F
100
AcDbEntity
  8
AM_11
 48
0.5
100
AcDbLine
 10
-21.42793322526781
 20
5.250000016042103
 30
0.0
 11
-4.747649607918943
 21
5.250000016041568
 31
0.0
  0
ELLIPSE
  5
2973
330
1F
100
AcDbEntity
  8
AM_0
 48
0.5
100
AcDbEllipse
 10
-84.72231749680508
 20
-3.498719063912318
 30
0.0
 11
-0.1068762710760576
 21
1.341521185225357
 31
0.0
210
0.0
220
0.0
230
1.0
 40
0.8817215430851462
 41
-0.5196071524483712
 42
1.461008697464123
  0
ELLIPSE
  5
2974
330
1F
100
AcDbEntity
  8
AM_0
 48
0.5
100
AcDbEllipse
 10
-84.29396955468996
 20
-3.445400086556448
 30
0.0
 11
0.2111521515937273
 21
1.7939637487347
 31
0.0
210
0.0
220
0.0
230
1.0
 40
0.8932680396294468
 41
1.675550419230345
 42
3.356861004153295
  0
SPLINE
  5
2975
330
1F
100
AcDbEntity
  8
AM_0
 48
0.5
100
AcDbSpline
210
0.0
220
0.0
230
1.0
 70
     8
 71
     3
 72
    26
 73
    22
 74
     0
 42
0.0000000001
 43
0.0000000001
 40
0.0
 40
0.0
 40
0.0
 40
0.0
 40
0.8422864037471089
 40
1.685694647057321
 40
2.531315797913884
 40
3.380177287502886
 40
4.233214169721234
 40
5.09125020057522
 40
5.954967768899448
 40
6.824900391836836
 40
7.701419186604396
 40
8.584724417931369
 40
9.47485577056355
 40
10.37165251267315
 40
11.27486274211709
 40
12.18400675634887
 40
13.09851504074504
 40
14.01768673654235
 40
14.94071745659532
 40
15.8667176994736
 40
16.76607142455336
 40
16.76607142455336
 40
16.76607142455336
 40
16.76607142455336
 10
-69.18765967728543
 20
-5.249999983956452
 30
0.0
 10
-69.48157388349933
 20
-5.246876361281592
 30
0.0
 10
-70.06979375966588
 20
-5.240624955585108
 30
0.0
 10
-70.95190950885257
 20
-5.190231603345113
 30
0.0
 10
-71.83398760640449
 20
-5.110119348560127
 30
0.0
 10
-72.71601110232691
 20
-4.997838936275569
 30
0.0
 10
-73.59797124137426
 20
-4.854912157877773
 30
0.0
 10
-74.4798504514793
 20
-4.681973920624054
 30
0.0
 10
-75.36164814596705
 20
-4.480192662345764
 30
0.0
 10
-76.24335831099665
 20
-4.250793900780514
 30
0.0
 10
-77.1249788621199
 20
-3.995201016915549
 30
0.0
 10
-78.00651705510685
 20
-3.715004842119472
 30
0.0
 10
-78.88796923715116
 20
-3.411935497454853
 30
0.0
 10
-79.76934539535425
 20
-3.087852085435106
 30
0.0
 10
-80.65065731432268
 20
-2.744785275378571
 30
0.0
 10
-81.53190689824061
 20
-2.384816198964538
 30
0.0
 10
-82.41310071636057
 20
-2.01018126166643
 30
0.0
 10
-83.29425495077018
 20
-1.623191880163149
 30
0.0
 10
-84.17535503941754
 20
-1.226178663756392
 30
0.0
 10
-85.04740431585839
 20
-0.8259489631287898
 30
0.0
 10
-85.62516977140669
 20
-0.5570718428008813
 30
0.0
 10
-85.90983538902991
 20
-0.4245958167804966
 30
0.0
  0
LINE
  5
2976
330
1F
100
AcDbEntity
  8
AM_0
 48
0.5
100
AcDbLine
 10
-74.43291819576079
 20
2.660077587912229
 30
0.0
 11
-85.90982873374182
 21
-0.424592478920613
 31
0.0
  0
SPLINE
  5
2977
330
1F
100
AcDbEntity
  8
AM_0
 48
0.5
100
AcDbSpline
210
0.0
220
0.0
230
1.0
 70
     8
 71
     3
 72
    22
 73
    18
 74
     0
 42
0.0000000001
 43
0.0000000001
 40
0.0
 40
0.0
 40
0.0
 40
0.0
 40
1.010743684496582
 40
2.022833993863546
 40
3.037578683882831
 40
4.056212471389632
 40
5.079857945358201
 40
6.109499720892564
 40
7.145961650132166
 40
8.189873411961459
 40
9.241710626092514
 40
10.30166235592959
 40
11.36982472628033
 40
12.44598212828784
 40
13.52983440361964
 40
14.62080578343036
 40
14.90544694398022
 40
14.90544694398022
 40
14.90544694398022
 40
14.90544694398022
 10
-71.65698438428607
 20
-5.24999998395637
 30
0.0
 10
-71.95089864662662
 20
-5.246877294334034
 30
0.0
 10
-72.53911875649546
 20
-5.240627754695846
 30
0.0
 10
-73.42123358192224
 20
-5.190220366854983
 30
0.0
 10
-74.30331263194702
 20
-5.110121591444316
 30
0.0
 10
-75.1853366044987
 20
-4.997841105011975
 30
0.0
 10
-76.06729431270145
 20
-4.854900881757468
 30
0.0
 10
-76.94917655570852
 20
-4.681977597086717
 30
0.0
 10
-77.830970410815
 20
-4.480189006284929
 30
0.0
 10
-78.71268194154321
 20
-4.2507869234959
 30
0.0
 10
-79.59430320678307
 20
-3.995203696973749
 30
0.0
 10
-80.47583881380079
 20
-3.714994835024859
 30
0.0
 10
-81.35729444526196
 20
-3.411943434750867
 30
0.0
 10
-82.23866943909001
 20
-3.087851123897262
 30
0.0
 10
-83.11998030680697
 20
-2.744782517218063
 30
0.0
 10
-83.78234701380158
 20
-2.474235802201135
 30
0.0
 10
-84.15144085713329
 20
-2.31959999638767
 30
0.0
 10
-84.22775719062967
 20
-2.287468052359667
 30
0.0
  0
SPLINE
  5
2978
330
1F
100
AcDbEntity
  8
AM_0
100
AcDbSpline
210
0.0
220
0.0
230
1.0
 70
     8
 71
     3
 72
    23
 73
    19
 74
     0
 42
0.0000000001
 43
0.0000000001
 40
16.03460024169435
 40
16.03460024169435
 40
16.03460024169435
 40
16.03460024169435
 40
16.35212704903564
 40
17.38177054169784
 40
18.41822485651776
 40
19.46214173629503
 40
20.51396345435107
 40
21.57393551351153
 40
22.64208202342361
 40
23.7182574881101
 40
24.80209208578934
 40
25.89306333925047
 40
26.99048218457928
 40
28.09348763352352
 40
29.20111863782268
 40
30.31232390128032
 40
31.42594612798585
 40
32.5407912310448
 40
32.5407912310486
 40
32.5407912310486
 40
32.5407912310486
 10
-82.26116124252003
 20
5.25074587382162
 30
0.0
 10
-82.1705346900126
 20
5.250000016044004
 30
0.0
 10
-81.78641953774532
 20
5.155843792910983
 30
0.0
 10
-81.10979656038978
 20
5.004623310764953
 30
0.0
 10
-80.23356803341854
 20
4.779760107544896
 30
0.0
 10
-79.35815338871814
 20
4.527276211230116
 30
0.0
 10
-78.48350089733909
 20
4.248632869832273
 30
0.0
 10
-77.60957951631446
 20
3.945383526217659
 30
0.0
 10
-76.73633873508291
 20
3.619261681518606
 30
0.0
 10
-75.86371774447548
 20
3.272165283068245
 30
0.0
 10
-74.99166695903344
 20
2.906059917533992
 30
0.0
 10
-74.12011646328308
 20
2.523075866733427
 30
0.0
 10
-73.24899562780287
 20
2.125439199437431
 30
0.0
 10
-72.37824641229625
 20
1.71543615978298
 30
0.0
 10
-71.50779596223387
 20
1.295450859298036
 30
0.0
 10
-70.63756365546918
 20
0.8679357040122336
 30
0.0
 10
-69.76747863052693
 20
0.4353680284834331
 30
0.0
 10
-69.18757775025492
 20
0.1453550545974088
 30
0.0
 10
-68.89746916757163
 20
0.000267044850911
 30
0.0
  0
SPLINE
  5
2979
330
1F
100
AcDbEntity
  8
AM_0
100
AcDbSpline
210
0.0
220
0.0
230
1.0
 70
     8
 71
     3
 72
    13
 73
     9
 74
     0
 42
0.0000000001
 43
0.0000000001
 40
16.03460056234195
 40
16.03460056234195
 40
16.03460056234195
 40
16.03460056234195
 40
16.35212717791071
 40
17.38177067057215
 40
18.41822498539278
 40
19.46214186516937
 40
20.5139635832251
 40
21.34083983469381
 40
21.34083983469381
 40
21.34083983469381
 40
21.34083983469381
 10
-84.15794078701029
 20
-5.238247623612608
 30
0.0
 10
-83.89924843028675
 20
-5.206401600383547
 30
0.0
 10
-83.53177511106689
 20
-5.155578006911126
 30
0.0
 10
-82.85515250254896
 20
-5.004355759230509
 30
0.0
 10
-81.97892386530833
 20
-4.779493179502304
 30
0.0
 10
-81.10350925047111
 20
-4.527009114335433
 30
0.0
 10
-80.29346274723158
 20
-4.268947738620321
 30
0.0
 10
-79.77666734300638
 20
-4.09125411616554
 30
0.0
 10
-79.54995229654493
 20
-4.010934979671394
 30
0.0
  0
LINE
  5
297A
330
1F
100
AcDbEntity
  8
AM_11
 48
0.5
100
AcDbLine
 10
-84.33553087443412
 20
-5.249999983955921
 30
0.0
 11
-71.65697772899797
 21
-5.24999998395637
 31
0.0
  0
LINE
  5
297B
330
1F
100
AcDbEntity
  8
AM_11
 48
0.5
100
AcDbLine
 10
-83.35358336161965
 20
5.250000016044046
 30
0.0
 11
-71.65697772899758
 21
5.250000016043633
 31
0.0
  0
LINE
  5
297C
330
1F
100
AcDbEntity
  8
AM_0
 48
0.5
100
AcDbLine
 10
-71.66752876343585
 20
-5.249999983956306
 30
0.0
 11
-54.45157847909944
 21
-5.249999983956828
 31
0.0
  0
LINE
  5
297D
330
1F
100
AcDbEntity
  8
AM_0
100
AcDbLine
 10
-71.66752208268622
 20
5.250000016043625
 30
0.0
 11
-50.78896238972564
 21
5.250745873820675
 31
0.0
  0
SPLINE
  5
297E
330
1F
100
AcDbEntity
  8
AM_0
100
AcDbSpline
210
0.0
220
0.0
230
1.0
 70
     8
 71
     3
 72
    55
 73
    51
 74
     0
 42
0.0000000001
 43
0.0000000001
 40
0.0
 40
0.0
 40
0.0
 40
0.0
 40
1.010743684496582
 40
2.022833576467832
 40
3.037578957496688
 40
4.056212745003489
 40
5.079857003664532
 40
6.109500240690281
 40
7.145961322679372
 40
8.189895241603872
 40
9.241717795325891
 40
10.30168407291828
 40
11.36983447792315
 40
12.44600489715814
 40
13.52984294512926
 40
14.62081576220742
 40
15.7182257034828
 40
16.82123173843959
 40
17.92886860250316
 40
19.0400688939571
 40
20.15368796660465
 40
21.26852814259644
 40
22.38336992938901
 40
23.49698739941135
 40
24.6081876908653
 40
25.71582455492886
 40
26.81883757994213
 40
27.91624752121713
 40
29.00722033829659
 40
30.09105838626677
 40
31.16722880550176
 40
32.23537921050758
 40
33.29534548809967
 40
34.347168041821
 40
35.39108718934584
 40
36.42754827133493
 40
37.45720575381954
 40
38.48085062012849
 40
39.49948440763516
 40
40.51422944315121
 40
41.52631975251916
 40
42.53706336719636
 40
43.54780698187354
 40
44.55989729124051
 40
45.57464232675757
 40
46.59327611426424
 40
47.6169209805722
 40
48.64656348684535
 40
49.68302456883444
 40
50.58557219878025
 40
50.58557219878025
 40
50.58557219878025
 40
50.58557219878025
 10
-36.27079085497163
 20
-5.249999983957524
 30
0.0
 10
-36.56582813624673
 20
-5.246876361146542
 30
0.0
 10
-37.15629565835682
 20
-5.240624955177663
 30
0.0
 10
-38.04178205913583
 20
-5.190231604984547
 30
0.0
 10
-38.92723066183909
 20
-5.110119342389249
 30
0.0
 10
-39.81262446396689
 20
-4.997838959463188
 30
0.0
 10
-40.6979546306829
 20
-4.854912070665577
 30
0.0
 10
-41.58320369640236
 20
-4.681974249093938
 30
0.0
 10
-42.46837462224415
 20
-4.480190465554655
 30
0.0
 10
-43.353459558531
 20
-4.250796347391977
 30
0.0
 10
-44.23845247622148
 20
-3.995200360575475
 30
0.0
 10
-45.12335778651607
 20
-3.7150068546931
 30
0.0
 10
-46.00817785936762
 20
-3.411930633209656
 30
0.0
 10
-46.89292374989419
 20
-3.087858422590486
 30
0.0
 10
-47.77759950879206
 20
-2.744781716004367
 30
0.0
 10
-48.6622133394276
 20
-2.384816301431761
 30
0.0
 10
-49.54677505228796
 20
-2.010182878017523
 30
0.0
 10
-50.43129241075895
 20
-1.623185264063553
 30
0.0
 10
-51.31577399918228
 20
-1.226203645441457
 30
0.0
 10
-52.20022928188695
 20
-0.8216813968500808
 30
0.0
 10
-53.08466601638762
 20
-0.4121053548296862
 30
0.0
 10
-53.96909669230095
 20
-0.0000010551476582
 30
0.0
 10
-54.85352339786059
 20
0.4121106626685908
 30
0.0
 10
-55.7379630968004
 20
0.8216803265066573
 30
0.0
 10
-56.62241728763318
 20
1.226203799563851
 30
0.0
 10
-57.50690045307738
 20
1.623186930508971
 30
0.0
 10
-58.39142148095069
 20
2.010181241757347
 30
0.0
 10
-59.27598458988311
 20
2.384816565084299
 30
0.0
 10
-60.16059854822747
 20
2.744781687762068
 30
0.0
 10
-61.04527427493483
 20
3.087858466495928
 30
0.0
 10
-61.93002016772688
 20
3.411930677589154
 30
0.0
 10
-62.81484026311548
 20
3.715006826602504
 30
0.0
 10
-63.69974548207817
 20
3.995200618588225
 30
0.0
 10
-64.58473459639421
 20
4.250794348495436
 30
0.0
 10
-65.46981405945302
 20
4.480191471148733
 30
0.0
 10
-66.3549846569423
 20
4.681979312306053
 30
0.0
 10
-67.24024004363679
 20
4.854897381977831
 30
0.0
 10
-68.12557313523351
 20
4.997868509668955
 30
0.0
 10
-69.01096719983167
 20
5.110015798693384
 30
0.0
 10
-69.89641641777149
 20
5.190614553875875
 30
0.0
 10
-70.78190206776355
 20
5.239181261803532
 30
0.0
 10
-71.66740717576577
 20
5.255405791895896
 30
0.0
 10
-72.55291228246512
 20
5.239181261778149
 30
0.0
 10
-73.43839793637346
 20
5.190614553978023
 30
0.0
 10
-74.32384713989467
 20
5.110015798308935
 30
0.0
 10
-75.20924125855174
 20
4.997868511114376
 30
0.0
 10
-76.09456983075289
 20
4.854898073550944
 30
0.0
 10
-76.97982172987811
 20
4.681981080300162
 30
0.0
 10
-77.82474554127228
 20
4.489351361610994
 30
0.0
 10
-78.37294173237063
 20
4.348479427275139
 30
0.0
 10
-78.62727281385544
 20
4.279825661526468
 30
0.0
  0
SPLINE
  5
297F
330
1F
100
AcDbEntity
  8
AM_0
100
AcDbSpline
210
0.0
220
0.0
230
1.0
 70
     8
 71
     3
 72
    46
 73
    42
 74
     0
 42
0.0000000001
 43
0.0000000001
 40
0.0
 40
0.0
 40
0.0
 40
0.0
 40
1.685415058684573
 40
2.531036209541122
 40
3.379897699130124
 40
4.232934581347651
 40
5.090970612202446
 40
5.954688180526682
 40
6.824620803463244
 40
7.701151815239691
 40
8.584457046566678
 40
9.474582384070743
 40
10.37139106676737
 40
11.27458944007583
 40
12.18373345430765
 40
13.09824173870457
 40
14.0174134345011
 40
14.94044415455409
 40
15.86644439743313
 40
16.79446029130533
 40
17.72349377129849
 40
18.65252725129241
 40
19.5805431451646
 40
20.5065433880429
 40
21.42957410809586
 40
22.34874580389317
 40
23.26325408828901
 40
24.17239810252111
 40
25.07560240389441
 40
25.97241108659103
 40
26.8625364240951
 40
27.74584165542183
 40
28.62236045019041
 40
29.49229307312697
 40
30.35601064145121
 40
31.21404606334469
 40
32.06708345193547
 40
32.91595755657689
 40
33.76157841950692
 40
34.60498701064691
 40
35.44727335621125
 40
35.44727335621125
 40
35.44727335621125
 40
35.44727335621125
 10
-33.79203061533782
 20
-5.249999983957607
 30
0.0
 10
-34.38252698675003
 20
-5.238040078127787
 30
0.0
 10
-35.26929235053728
 20
-5.220079543978052
 30
0.0
 10
-36.44846292503926
 20
-5.109499834743951
 30
0.0
 10
-37.33386623980488
 20
-4.998006072329377
 30
0.0
 10
-38.21919387366444
 20
-4.8548670203755
 30
0.0
 10
-39.10444349436189
 20
-4.681986050702415
 30
0.0
 10
-39.98961055419629
 20
-4.480189681626015
 30
0.0
 10
-40.87469357064578
 20
-4.250792488391259
 30
0.0
 10
-41.75968860477837
 20
-3.995203003722675
 30
0.0
 10
-42.6445974254869
 20
-3.715006488387877
 30
0.0
 10
-43.52941765263568
 20
-3.411930732485611
 30
0.0
 10
-44.41416350133506
 20
-3.08785839567073
 30
0.0
 10
-45.29883927162669
 20
-2.744781723402974
 30
0.0
 10
-46.18345309892943
 20
-2.384816299007593
 30
0.0
 10
-47.0680148136302
 20
-2.010182880266297
 30
0.0
 10
-47.95253216807273
 20
-1.623185257466753
 30
0.0
 10
-48.83701377084243
 20
-1.226203669704842
 30
0.0
 10
-49.72146899996587
 20
-0.821681306038139
 30
0.0
 10
-50.60590593499934
 20
-0.4121056946488881
 30
0.0
 10
-51.49033543529973
 20
0.0000000159595866
 30
0.0
 10
-52.37476493540582
 20
0.412105727068853
 30
0.0
 10
-53.25920187102205
 20
0.8216813369564619
 30
0.0
 10
-54.14365709801533
 20
1.226203706111
 30
0.0
 10
-55.02813870868394
 20
1.623185273520524
 30
0.0
 10
-55.91265603383796
 20
2.010182971784651
 30
0.0
 10
-56.797217857004
 20
2.384816111054063
 30
0.0
 10
-57.68183320620809
 20
2.744783351767994
 30
0.0
 10
-58.566512413923
 20
3.087856907010267
 30
0.0
 10
-59.45125984087336
 20
3.411930905557107
 30
0.0
 10
-60.33608004742101
 20
3.715006751640543
 30
0.0
 10
-61.22098523302465
 20
3.995200692208813
 30
0.0
 10
-62.10597437061728
 20
4.250794130630215
 30
0.0
 10
-62.99105377421727
 20
4.480192260977612
 30
0.0
 10
-63.87622032176349
 20
4.681975427476133
 30
0.0
 10
-64.76147059147173
 20
4.854906539442993
 30
0.0
 10
-65.64680387556063
 20
4.997841186995241
 30
0.0
 10
-66.53220262806737
 20
5.110119844726869
 30
0.0
 10
-67.41765615976412
 20
5.190224754859927
 30
0.0
 10
-68.30314183276538
 20
5.240631703748629
 30
0.0
 10
-68.89360960215705
 20
5.246878631568772
 30
0.0
 10
-69.18864693591499
 20
5.250000016043547
 30
0.0
  0
SPLINE
  5
2980
330
1F
100
AcDbEntity
  8
AM_0
100
AcDbSpline
210
0.0
220
0.0
230
1.0
 70
     8
 71
     3
 72
    22
 73
    18
 74
     0
 42
0.0000000001
 43
0.0000000001
 40
17.17441611292
 40
17.17441611292
 40
17.17441611292
 40
17.17441611292
 40
17.38177636558528
 40
18.41823744757437
 40
19.46215659509824
 40
20.51397914882054
 40
21.57394542641293
 40
22.64209583141747
 40
23.71826625065247
 40
24.80210429862395
 40
25.8930771157021
 40
26.99048705697709
 40
28.09349309193389
 40
29.20112995599786
 40
30.31233024745139
 40
31.42594771747373
 40
32.5407895042663
 40
32.54078950426994
 40
32.54078950426994
 40
32.54078950426994
 10
-56.33077990356728
 20
-4.714537981614428
 30
0.0
 10
-56.39007333405021
 20
-4.702384746543721
 30
0.0
 10
-56.74550506776681
 20
-4.628358063346688
 30
0.0
 10
-57.39663597543717
 20
-4.479924928749309
 30
0.0
 10
-58.28171531193472
 20
-4.250527147036267
 30
0.0
 10
-59.16670446070579
 20
-3.99493359608239
 30
0.0
 10
-60.05160966972416
 20
-3.714739754207947
 30
0.0
 10
-60.93642977009158
 20
-3.411663623935423
 30
0.0
 10
-61.82117565291743
 20
-3.087591388073352
 30
0.0
 10
-62.70585141482386
 20
-2.744514690312867
 30
0.0
 10
-63.59046524116538
 20
-2.384549265850633
 30
0.0
 10
-64.47502696828691
 20
-2.009915873349677
 30
0.0
 10
-65.35954427365045
 20
-1.622918144869678
 30
0.0
 10
-66.2440260613528
 20
-1.225936955831007
 30
0.0
 10
-67.12848017155522
 20
-0.8214132911893887
 30
0.0
 10
-68.01291970667612
 20
-0.4118432806039336
 30
0.0
 10
-68.60243032683064
 20
-0.137153362355235
 30
0.0
 10
-68.89734757971943
 20
0.0002670448528006
 30
0.0
  0
LINE
  5
299A
330
1F
100
AcDbEntity
  8
AM_0
100
AcDbLine
 10
-89.91084749972534
 20
-5.499949032447792
 30
0.0
 11
-89.47629077444743
 21
-5.249057590130433
 31
0.0
  0
LINE
  5
299B
330
1F
100
AcDbEntity
  8
AM_0
100
AcDbLine
 10
-89.91084749972534
 20
-5.499949032446861
 30
0.0
 11
-150.632627407803
 21
-5.499949032446852
 31
0.0
  0
LINE
  5
299C
330
1F
100
AcDbEntity
  8
AM_0
 48
0.5
100
AcDbLine
 10
-150.910811482631
 20
-5.22177096047166
 30
0.0
 11
-150.632627407803
 21
-5.499949032446853
 31
0.0
  0
VIEWPORT
  5
110
330
101
100
AcDbEntity
 67
     1
  8
0
100
AcDbViewport
 10
420.5
 20
297.0
 30
0.0
 40
948.9782706766916
 41
628.452
 68
     1
 69
     1
1001
ACAD
1000
MVIEW
1002
{
1070
    16
1010
0.0
1020
0.0
1030
0.0
1010
0.0
1020
0.0
1030
1.0
1040
0.0
1040
628.452
1040
420.5
1040
297.0
1040
50.0
1040
0.0
1040
0.0
1070
     0
1070
   100
1070
     1
1070
     1
1070
     0
1070
     0
1070
     0
1070
     0
1040
0.0
1040
0.0
1040
0.0
1040
10.0
1040
10.0
1040
10.0
1040
10.0
1070
     0
1002
{
1002
}
1002
}
  0
ENDSEC
  0
SECTION
  2
OBJECTS
  0
DICTIONARY
  5
C
330
0
100
AcDbDictionary
  3
ACAD_GROUP
350
D
  3
ACAD_LAYOUT
350
1A
  3
ACAD_MLINESTYLE
350
17
  3
ACAD_PLOTSETTINGS
350
19
  3
ACAD_PLOTSTYLENAME
350
E
  3
ACDBVARIABLEDICTIONARY
350
34
  3
ACMDICTIONARY
350
43
  3
AMG
350
2B
  3
AMGSNAPSETTINGS
350
6E
  3
DWGPROPS
350
29CF
  3
ACDBHEADERROUNDTRIPXREC
350
29DE
  0
DICTIONARY
  5
74
330
1F
100
AcDbDictionary
280
     1
  3
ACAD_INDEX
360
29D1
  3
ACAD_LAYOUTSELFREF
360
2A01
  0
DICTIONARY
  5
2A06
330
101
100
AcDbDictionary
280
     1
  3
ACAD_LAYOUTSELFREF
360
2A07
  0
DICTIONARY
  5
D
102
{ACAD_REACTORS
330
C
102
}
330
C
100
AcDbDictionary
  0
DICTIONARY
  5
1A
102
{ACAD_REACTORS
330
C
102
}
330
C
100
AcDbDictionary
  0
DICTIONARY
  5
17
102
{ACAD_REACTORS
330
C
102
}
330
C
100
AcDbDictionary
  3
STANDARD
350
18
  0
DICTIONARY
  5
19
102
{ACAD_REACTORS
330
C
102
}
330
C
100
AcDbDictionary
  0
ACDBDICTIONARYWDFLT
  5
E
102
{ACAD_REACTORS
330
C
102
}
330
C
100
AcDbDictionary
281
     1
  3
Normal
350
F
100
AcDbDictionaryWithDefault
340
F
  0
DICTIONARY
  5
34
102
{ACAD_REACTORS
330
C
102
}
330
C
100
AcDbDictionary
  3
INDEXCTL
350
35
  3
SORTENTS
350
B5E
  0
DICTIONARY
  5
43
102
{ACAD_REACTORS
330
C
102
}
330
C
100
AcDbDictionary
  3
ACMSTDDICTIONARY
350
260
  0
DICTIONARY
  5
2B
102
{ACAD_REACTORS
330
C
102
}
330
C
100
AcDbDictionary
  3
ACMGSETTINGS
350
2C
  0
DICTIONARY
  5
6E
102
{ACAD_REACTORS
330
C
102
}
330
C
100
AcDbDictionary
  0
XRECORD
  5
29CF
102
{ACAD_REACTORS
330
C
102
}
330
C
100
AcDbXrecord
  1
DWGPROPS COOKIE
  2

  3

  4

  6

  7

  8

  9

300
AmdtFileType=82
301
=
302
=
303
=
304
=
305
=
306
=
307
=
308
=
309
=
 40
0.1001385069444444
 41
2452800.443498622
 42
2452983.084746123
  1

 90
        1
  0
DICTIONARY
  5
29DE
102
{ACAD_REACTORS
330
C
102
}
330
C
100
AcDbDictionary
  3
TSTACKALIGN
350
29DF
  3
TSTACKSIZE
350
29E0
  3
HYPERLINKBASE
350
29E1
  3
STYLESHEET
350
29E2
  3
LAYOUTDICT
350
29E3
  3
PLOTSETDICT
350
29E4
  3
PLOTSTYLNAMDICT
350
29E5
  3
LWETCUNION
350
29E6
  3
INSUNITS
350
29E7
  3
CEPSNTYPE
350
29E8
  3
FINGERPRINTGUID
350
29E9
  3
VERSIONGUID
350
29EA
  3
PSVPSCALE
350
29EB
  3
DIMSTYLEDATA
350
29EC
  3
PUCSORTHOREF
350
29ED
  3
PUCSORTHOVIEW
350
29EE
  3
PUCSBASE
350
29EF
  3
PUCSORGTOP
350
29F0
  3
PUCSORGBOTTOM
350
29F1
  3
PUCSORGLEFT
350
29F2
  3
PUCSORGRIGHT
350
29F3
  3
PUCSORGFRONT
350
29F4
  3
PUCSORGBACK
350
29F5
  3
UCSORTHOREF
350
29F6
  3
UCSORTHOVIEW
350
29F7
  3
UCSBASE
350
29F8
  3
UCSORGTOP
350
29F9
  3
UCSORGBOTTOM
350
29FA
  3
UCSORGLEFT
350
29FB
  3
UCSORGRIGHT
350
29FC
  3
UCSORGFRONT
350
29FD
  3
UCSORGBACK
350
29FE
  0
DICTIONARY
  5
29D1
102
{ACAD_REACTORS
330
74
102
}
330
74
100
AcDbDictionary
  3
*A1
350
29D2
  0
XRECORD
  5
2A01
102
{ACAD_REACTORS
330
74
102
}
330
74
100
AcDbXrecord
340
1F
  0
XRECORD
  5
2A07
102
{ACAD_REACTORS
330
2A06
102
}
330
2A06
100
AcDbXrecord
340
101
  0
MLINESTYLE
  5
18
102
{ACAD_REACTORS
330
17
102
}
330
17
100
AcDbMlineStyle
  2
STANDARD
 70
     0
  3

 62
   256
 51
90.0
 52
90.0
 71
     2
 49
0.5
 62
   256
  6
BYLAYER
 49
-0.5
 62
   256
  6
BYLAYER
  0
ACDBPLACEHOLDER
  5
F
102
{ACAD_REACTORS
330
E
102
}
330
E
100
AcDbPlaceHolder
280
     0
  0
DICTIONARYVAR
  5
35
102
{ACAD_REACTORS
330
34
102
}
330
34
100
DictionaryVariables
280
     0
  1
1
  0
DICTIONARYVAR
  5
B5E
102
{ACAD_REACTORS
330
34
102
}
330
34
100
DictionaryVariables
280
     0
  1
96
  0
DICTIONARY
  5
260
102
{ACAD_REACTORS
330
43
102
}
330
43
100
AcDbDictionary
  0
DICTIONARY
  5
2C
102
{ACAD_REACTORS
330
2B
102
}
330
2B
100
AcDbDictionary
  3
DWGSETTINGS
350
2D
  0
XRECORD
  5
29DF
102
{ACAD_REACTORS
330
29DE
102
}
330
29DE
100
AcDbXrecord
 90
        1
  0
XRECORD
  5
29E0
102
{ACAD_REACTORS
330
29DE
102
}
330
29DE
100
AcDbXrecord
 90
       70
  0
XRECORD
  5
29E1
102
{ACAD_REACTORS
330
29DE
102
}
330
29DE
100
AcDbXrecord
  1

  0
XRECORD
  5
29E2
102
{ACAD_REACTORS
330
29DE
102
}
330
29DE
100
AcDbXrecord
  1
ASAMI.ctb
  0
XRECORD
  5
29E3
102
{ACAD_REACTORS
330
29DE
102
}
330
29DE
100
AcDbXrecord
340
1A
  0
XRECORD
  5
29E4
102
{ACAD_REACTORS
330
29DE
102
}
330
29DE
100
AcDbXrecord
340
19
  0
XRECORD
  5
29E5
102
{ACAD_REACTORS
330
29DE
102
}
330
29DE
100
AcDbXrecord
340
E
  0
XRECORD
  5
29E6
102
{ACAD_REACTORS
330
29DE
102
}
330
29DE
100
AcDbXrecord
 90
    10781
  0
XRECORD
  5
29E7
102
{ACAD_REACTORS
330
29DE
102
}
330
29DE
100
AcDbXrecord
 90
        4
  0
XRECORD
  5
29E8
102
{ACAD_REACTORS
330
29DE
102
}
330
29DE
100
AcDbXrecord
 90
        0
  0
XRECORD
  5
29E9
102
{ACAD_REACTORS
330
29DE
102
}
330
29DE
100
AcDbXrecord
  1
{AFB28963-8C59-40AE-9337-C84526B81ACE}
  0
XRECORD
  5
29EA
102
{ACAD_REACTORS
330
29DE
102
}
330
29DE
100
AcDbXrecord
  1
{035E2E61-EC50-4F22-B232-919D43310749}
  0
XRECORD
  5
29EB
102
{ACAD_REACTORS
330
29DE
102
}
330
29DE
100
AcDbXrecord
 40
0.0
  0
XRECORD
  5
29EC
102
{ACAD_REACTORS
330
29DE
102
}
330
29DE
100
AcDbXrecord
1000
DSTYLE
1002
{
1070
    79
 70
     2
1070
   341
340
59
1070
   342
340
59
1070
   371
 70
    -1
1070
   372
 70
    -1
1002
}
  0
XRECORD
  5
29ED
102
{ACAD_REACTORS
330
29DE
102
}
330
29DE
100
AcDbXrecord
340
0
  0
XRECORD
  5
29EE
102
{ACAD_REACTORS
330
29DE
102
}
330
29DE
100
AcDbXrecord
 70
     0
  0
XRECORD
  5
29EF
102
{ACAD_REACTORS
330
29DE
102
}
330
29DE
100
AcDbXrecord
340
0
  0
XRECORD
  5
29F0
102
{ACAD_REACTORS
330
29DE
102
}
330
29DE
100
AcDbXrecord
 10
0.0
 20
0.0
 30
0.0
  0
XRECORD
  5
29F1
102
{ACAD_REACTORS
330
29DE
102
}
330
29DE
100
AcDbXrecord
 10
0.0
 20
0.0
 30
0.0
  0
XRECORD
  5
29F2
102
{ACAD_REACTORS
330
29DE
102
}
330
29DE
100
AcDbXrecord
 10
0.0
 20
0.0
 30
0.0
  0
XRECORD
  5
29F3
102
{ACAD_REACTORS
330
29DE
102
}
330
29DE
100
AcDbXrecord
 10
0.0
 20
0.0
 30
0.0
  0
XRECORD
  5
29F4
102
{ACAD_REACTORS
330
29DE
102
}
330
29DE
100
AcDbXrecord
 10
0.0
 20
0.0
 30
0.0
  0
XRECORD
  5
29F5
102
{ACAD_REACTORS
330
29DE
102
}
330
29DE
100
AcDbXrecord
 10
0.0
 20
0.0
 30
0.0
  0
XRECORD
  5
29F6
102
{ACAD_REACTORS
330
29DE
102
}
330
29DE
100
AcDbXrecord
340
0
  0
XRECORD
  5
29F7
102
{ACAD_REACTORS
330
29DE
102
}
330
29DE
100
AcDbXrecord
 70
     0
  0
XRECORD
  5
29F8
102
{ACAD_REACTORS
330
29DE
102
}
330
29DE
100
AcDbXrecord
340
0
  0
XRECORD
  5
29F9
102
{ACAD_REACTORS
330
29DE
102
}
330
29DE
100
AcDbXrecord
 10
0.0
 20
0.0
 30
0.0
  0
XRECORD
  5
29FA
102
{ACAD_REACTORS
330
29DE
102
}
330
29DE
100
AcDbXrecord
 10
0.0
 20
0.0
 30
0.0
  0
XRECORD
  5
29FB
102
{ACAD_REACTORS
330
29DE
102
}
330
29DE
100
AcDbXrecord
 10
0.0
 20
0.0
 30
0.0
  0
XRECORD
  5
29FC
102
{ACAD_REACTORS
330
29DE
102
}
330
29DE
100
AcDbXrecord
 10
0.0
 20
0.0
 30
0.0
  0
XRECORD
  5
29FD
102
{ACAD_REACTORS
330
29DE
102
}
330
29DE
100
AcDbXrecord
 10
0.0
 20
0.0
 30
0.0
  0
XRECORD
  5
29FE
102
{ACAD_REACTORS
330
29DE
102
}
330
29DE
100
AcDbXrecord
 10
0.0
 20
0.0
 30
0.0
  0
LAYER_INDEX
  5
29D2
102
{ACAD_REACTORS
330
29D1
102
}
330
29D1
100
AcDbIndex
 40
2453151.586012175
100
AcDbLayerIndex
  8
0
360
29D3
 90
        0
  8
AM_0
360
29D4
 90
       49
  8
PV0001_1
360
29D5
 90
        0
  8
AM_CL
360
29D6
 90
        0
  8
AM_7
360
29D7
 90
        1
  8
AM_11
360
29D8
 90
        6
  8
AM_5
360
29D9
 90
        5
  8
Defpoints
360
29DA
 90
        0
  8
AM_6
360
29DB
 90
        1
  8
AM_4
360
29DC
 90
        0
  0
XRECORD
  5
2D
102
{ACAD_REACTORS
330
2C
102
}
330
2C
100
AcDbXrecord
  1
VERSION
140
15.0
  1
PRODUCT
  2
AutoCAD Mechanical 2000
  0
IDBUFFER
  5
29D3
330
0
100
AcDbIdBuffer
  0
IDBUFFER
  5
29D4
330
0
100
AcDbIdBuffer
330
299C
330
23EE
330
23F0
330
23F3
330
23F4
330
23F9
330
23FA
330
23FB
330
2406
330
246F
330
2470
330
2471
330
2472
330
2538
330
2539
330
26EC
330
27F7
330
2803
330
291A
330
291B
330
2960
330
2961
330
2962
330
2963
330
2964
330
2965
330
2966
330
2968
330
2969
330
296B
330
296C
330
296E
330
296F
330
2970
330
2971
330
2973
330
2974
330
2975
330
2976
330
2977
330
2978
330
2979
330
297C
330
297D
330
297E
330
297F
330
2980
330
299A
330
299B
  0
IDBUFFER
  5
29D5
330
0
100
AcDbIdBuffer
  0
IDBUFFER
  5
29D6
330
0
100
AcDbIdBuffer
  0
IDBUFFER
  5
29D7
330
0
100
AcDbIdBuffer
330
23EF
  0
IDBUFFER
  5
29D8
330
0
100
AcDbIdBuffer
330
2967
330
296A
330
296D
330
2972
330
297A
330
297B
  0
IDBUFFER
  5
29D9
330
0
100
AcDbIdBuffer
330
CC6
330
11B2
330
2069
330
23DF
330
246E
  0
IDBUFFER
  5
29DA
330
0
100
AcDbIdBuffer
  0
IDBUFFER
  5
29DB
330
0
100
AcDbIdBuffer
330
19BD
  0
IDBUFFER
  5
29DC
330
0
100
AcDbIdBuffer
  0
ENDSEC
  0
EOF
