  0
SECTION
  2
HEADER
  9
$ACADVER
  1
AC1014
  9
$ACADMAINTVER
 70
     9
  9
$DWGCODEPAGE
  3
ANSI_932
  9
$INSBASE
 10
0.0
 20
0.0
 30
0.0
  9
$EXTMIN
 10
-204.0500009999949
 20
-52.00000153234519
 30
-0.00000001
  9
$EXTMAX
 10
33.71255126791501
 20
32.71209737342723
 30
0.00000001
  9
$LIMMIN
 10
-215.8880745101946
 20
-77.78003132195954
  9
$LIMMAX
 10
43.5805256180954
 20
51.10866983542132
  9
$ORTHOMODE
 70
     0
  9
$REGENMODE
 70
     1
  9
$FILLMODE
 70
     1
  9
$QTEXTMODE
 70
     0
  9
$MIRRTEXT
 70
     0
  9
$DRAGMODE
 70
     2
  9
$LTSCALE
 40
1.0
  9
$OSMODE
 70
    55
  9
$ATTMODE
 70
     1
  9
$TEXTSIZE
 40
2.5
  9
$TRACEWID
 40
1.0
  9
$TEXTSTYLE
  7
STANDARD
  9
$CLAYER
  8
AM_0
  9
$CELTYPE
  6
BYLAYER
  9
$CECOLOR
 62
   256
  9
$CELTSCALE
 40
1.0
  9
$DELOBJ
 70
     1
  9
$DISPSILH
 70
     0
  9
$DIMSCALE
 40
1.0
  9
$DIMASZ
 40
2.5
  9
$DIMEXO
 40
1.0
  9
$DIMDLI
 40
12.0
  9
$DIMRND
 40
0.0
  9
$DIMDLE
 40
0.0
  9
$DIMEXE
 40
1.0
  9
$DIMTP
 40
0.1
  9
$DIMTM
 40
0.1
  9
$DIMTXT
 40
3.2
  9
$DIMCEN
 40
0.0
  9
$DIMTSZ
 40
0.0
  9
$DIMTOL
 70
     0
  9
$DIMLIM
 70
     0
  9
$DIMTIH
 70
     0
  9
$DIMTOH
 70
     0
  9
$DIMSE1
 70
     0
  9
$DIMSE2
 70
     0
  9
$DIMTAD
 70
     3
  9
$DIMZIN
 70
     8
  9
$DIMBLK
  1
OPEN30
  9
$DIMASO
 70
     1
  9
$DIMSHO
 70
     1
  9
$DIMPOST
  1

  9
$DIMAPOST
  1
"
  9
$DIMALT
 70
     0
  9
$DIMALTD
 70
     2
  9
$DIMALTF
 40
0.0393701
  9
$DIMLFAC
 40
1.0
  9
$DIMTOFL
 70
     1
  9
$DIMTVP
 40
0.0
  9
$DIMTIX
 70
     0
  9
$DIMSOXD
 70
     0
  9
$DIMSAH
 70
     0
  9
$DIMBLK1
  1

  9
$DIMBLK2
  1

  9
$DIMSTYLE
  2
AM_JIS
  9
$DIMCLRD
 70
   256
  9
$DIMCLRE
 70
   256
  9
$DIMCLRT
 70
     2
  9
$DIMTFAC
 40
0.71
  9
$DIMGAP
 40
1.5
  9
$DIMJUST
 70
     0
  9
$DIMSD1
 70
     0
  9
$DIMSD2
 70
     0
  9
$DIMTOLJ
 70
     0
  9
$DIMTZIN
 70
     0
  9
$DIMALTZ
 70
     0
  9
$DIMALTTZ
 70
     0
  9
$DIMFIT
 70
     3
  9
$DIMUPT
 70
     0
  9
$DIMUNIT
 70
     2
  9
$DIMDEC
 70
     3
  9
$DIMTDEC
 70
     3
  9
$DIMALTU
 70
     2
  9
$DIMALTTD
 70
     2
  9
$DIMTXSTY
  7
ASAMI
  9
$DIMAUNIT
 70
     0
  9
$LUNITS
 70
     2
  9
$LUPREC
 70
     2
  9
$SKETCHINC
 40
1.0
  9
$FILLETRAD
 40
2.5
  9
$AUNITS
 70
     0
  9
$AUPREC
 70
     0
  9
$MENU
  1
.
  9
$ELEVATION
 40
0.0
  9
$PELEVATION
 40
0.0
  9
$THICKNESS
 40
0.0
  9
$LIMCHECK
 70
     0
  9
$BLIPMODE
 70
     0
  9
$CHAMFERA
 40
0.75
  9
$CHAMFERB
 40
0.75
  9
$CHAMFERC
 40
20.0
  9
$CHAMFERD
 40
0.0
  9
$SKPOLY
 70
     0
  9
$TDCREATE
 40
2452800.443498622
  9
$TDUPDATE
 40
2453151.724675728
  9
$TDINDWG
 40
0.1709805324
  9
$TDUSRTIMER
 40
0.1709805324
  9
$USRTIMER
 70
     1
  9
$ANGBASE
 50
0.0
  9
$ANGDIR
 70
     0
  9
$PDMODE
 70
     0
  9
$PDSIZE
 40
0.0
  9
$PLINEWID
 40
0.0
  9
$COORDS
 70
     1
  9
$SPLFRAME
 70
     0
  9
$SPLINETYPE
 70
     6
  9
$SPLINESEGS
 70
     8
  9
$ATTDIA
 70
     1
  9
$ATTREQ
 70
     1
  9
$HANDLING
 70
 12289
  9
$HANDSEED
  5
5D91
  9
$SURFTAB1
 70
     6
  9
$SURFTAB2
 70
     6
  9
$SURFTYPE
 70
     6
  9
$SURFU
 70
     6
  9
$SURFV
 70
     6
  9
$UCSNAME
  2

  9
$UCSORG
 10
0.0
 20
0.0
 30
0.0
  9
$UCSXDIR
 10
1.0
 20
0.000000000000002
 30
0.0
  9
$UCSYDIR
 10
-0.000000000000002
 20
1.0
 30
0.0
  9
$PUCSNAME
  2

  9
$PUCSORG
 10
0.0
 20
0.0
 30
0.0
  9
$PUCSXDIR
 10
1.0
 20
0.0
 30
0.0
  9
$PUCSYDIR
 10
0.0
 20
1.0
 30
0.0
  9
$USERI1
 70
     0
  9
$USERI2
 70
     0
  9
$USERI3
 70
     0
  9
$USERI4
 70
     0
  9
$USERI5
 70
     0
  9
$USERR1
 40
0.0
  9
$USERR2
 40
0.0
  9
$USERR3
 40
0.0
  9
$USERR4
 40
0.0
  9
$USERR5
 40
0.0
  9
$WORLDVIEW
 70
     1
  9
$SHADEDGE
 70
     3
  9
$SHADEDIF
 70
    70
  9
$TILEMODE
 70
     1
  9
$MAXACTVP
 70
    64
  9
$PINSBASE
 10
0.0
 20
0.0
 30
0.0
  9
$PLIMCHECK
 70
     0
  9
$PEXTMIN
 10
1.000000000000000E+20
 20
1.000000000000000E+20
 30
1.000000000000000E+20
  9
$PEXTMAX
 10
-1.000000000000000E+20
 20
-1.000000000000000E+20
 30
-1.000000000000000E+20
  9
$PLIMMIN
 10
0.0
 20
0.0
  9
$PLIMMAX
 10
841.0
 20
594.0
  9
$UNITMODE
 70
     0
  9
$VISRETAIN
 70
     1
  9
$PLINEGEN
 70
     0
  9
$PSLTSCALE
 70
     0
  9
$TREEDEPTH
 70
  3020
  9
$PICKSTYLE
 70
     0
  9
$CMLSTYLE
  2
STANDARD
  9
$CMLJUST
 70
     0
  9
$CMLSCALE
 40
20.0
  9
$PROXYGRAPHICS
 70
     1
  9
$MEASUREMENT
 70
     1
  0
ENDSEC
  0
SECTION
  2
CLASSES
  0
CLASS
  1
ACDBDICTIONARYWDFLT
  2
AcDbDictionaryWithDefault
  3
AutoCAD 2000
 90
        0
280
     0
281
     0
  0
CLASS
  1
ACDBPLACEHOLDER
  2
AcDbPlaceHolder
  3
AutoCAD 2000
 90
        0
280
     0
281
     0
  0
CLASS
  1
LAYOUT
  2
AcDbLayout
  3
AutoCAD 2000
 90
        0
280
     0
281
     0
  0
CLASS
  1
AMGSETTINGSOBJ
  2
AmgSettingsObj
  3
"AcadM|Product Description: AutoCAD Mechanical 2000|Company: Autodesk"
 90
        0
280
     0
281
     0
  0
CLASS
  1
ACME_DOCUMENT
  2
AcMeDbDoc
  3
AcMeServices
 90
        0
280
     0
281
     0
  0
CLASS
  1
ACMESCOPE
  2
AcMeScope
  3
AcMeServices
 90
        0
280
     0
281
     0
  0
CLASS
  1
ACMECOMMANDHISTORY
  2
AcMeCommandHistory
  3
AcMeServices
 90
        0
280
     0
281
     0
  0
CLASS
  1
DICTIONARYVAR
  2
AcDbDictionaryVar
  3
AutoCAD 2000
 90
        0
280
     0
281
     0
  0
CLASS
  1
ACIMSYSVARMAN
  2
AcImSysVarManager
  3
AcMeServices
 90
        0
280
     0
281
     0
  0
CLASS
  1
ACIMREALSYSVAR
  2
AcImRealSysVar
  3
AcMeServices
 90
        0
280
     0
281
     0
  0
CLASS
  1
ACIMINTSYSVAR
  2
AcImIntSysVar
  3
AcMeServices
 90
        0
280
     0
281
     0
  0
CLASS
  1
ACMEDRAWINGMAN
  2
AcMeDrawingMan
  3
AcMeServices
 90
        0
280
     0
281
     0
  0
CLASS
  1
ACMEVIEW
  2
AcMeView
  3
AcMeServices
 90
        0
280
     0
281
     0
  0
CLASS
  1
ACDBENTITYCACHE
  2
AcMeEntityCache
  3
AcMeServices
 90
        0
280
     0
281
     0
  0
CLASS
  1
GSMANAGER
  2
AcMeGSManager
  3
AcMeServices
 90
        0
280
     0
281
     0
  0
CLASS
  1
AmdtInternalReactor
  2
AmdtInternalReactor
  3
AcMeServices
 90
        0
280
     0
281
     0
  0
CLASS
  1
ACMESTATEMGR
  2
AcMeStateMgr
  3
AcMeServices
 90
        0
280
     0
281
     0
  0
CLASS
  1
ACME_DATABASE
  2
AcMeDbDatabase
  3
AcMeServices
 90
        0
280
     0
281
     0
  0
CLASS
  1
ACRFINSADJUSTERMGR
  2
AcRfInsAdjusterMgr
  3
AcMeServices
 90
        0
280
     0
281
     0
  0
CLASS
  1
ACMDATADICTIONARY
  2
AcmDataDictionary
  3
"AcmSymBB|Product Description: AutoCAD Mechanical 2000|Company: Autodesk"
 90
        0
280
     0
281
     0
  0
CLASS
  1
ACMDATAENTRYBLOCK
  2
AcmDataEntryBlock
  3
"AcmSymBB|Product Description: AutoCAD Mechanical 2000|Company: Autodesk"
 90
        0
280
     0
281
     0
  0
CLASS
  1
AMGOBJPROPCFG
  2
AmgObjPropCfg
  3
"AmgLay|Product Description: AutoCAD Mechanical 2000|Company: Autodesk"
 90
        1
280
     0
281
     0
  0
CLASS
  1
ACAMGFILTERDAT
  2
AcAmgFilterDat
  3
"AcadM|Product Description: AutoCAD Mechanical 2000|Company: Autodesk"
 90
        0
280
     0
281
     0
  0
CLASS
  1
LAYER_INDEX
  2
AcDbLayerIndex
  3
AutoCAD 2000
 90
        0
280
     0
281
     0
  0
CLASS
  1
IDBUFFER
  2
AcDbIdBuffer
  3
AutoCAD 2000
 90
        0
280
     0
281
     0
  0
CLASS
  1
ACIMSTRSYSVAR
  2
AcImStrSysVar
  3
AcMeServices
 90
        0
280
     0
281
     0
  0
CLASS
  1
ACMSTANDARDJIS
  2
AcmStandardJIS
  3
"AcmSymBB|Product Description: AutoCAD Mechanical 2000|Company: Autodesk"
 90
        0
280
     0
281
     0
  0
CLASS
  1
ACMSURFSTANDARDJIS
  2
AcmSurfTextStdJIS
  3
"AcmSymBB|Product Description: AutoCAD Mechanical 2000|Company: Autodesk"
 90
        0
280
     0
281
     0
  0
CLASS
  1
ACMFCFSTANDARDJIS
  2
AcmFCFStdJIS
  3
"AcmSymBB|Product Description: AutoCAD Mechanical 2000|Company: Autodesk"
 90
        0
280
     0
281
     0
  0
CLASS
  1
ACMWELDSTANDARDJIS
  2
AcmWeldingStdJIS
  3
"AcmSymBB|Product Description: AutoCAD Mechanical 2000|Company: Autodesk"
 90
        0
280
     0
281
     0
  0
CLASS
  1
ACMIDSTANDARDJIS
  2
AcmIdStdJIS
  3
"AcmSymBB|Product Description: AutoCAD Mechanical 2000|Company: Autodesk"
 90
        0
280
     0
281
     0
  0
CLASS
  1
ACMDATUMSTANDARDJIS
  2
AcmDatumStdJIS
  3
"AcmSymBB|Product Description: AutoCAD Mechanical 2000|Company: Autodesk"
 90
        0
280
     0
281
     0
  0
CLASS
  1
ACMBOMSTANDARDJIS
  2
AcmBOMStdJIS
  3
"AcmSymBB|Product Description: AutoCAD Mechanical 2000|Company: Autodesk"
 90
        0
280
     0
281
     0
  0
CLASS
  1
ACMSTANDARDANSI
  2
AcmStandardANSI
  3
"AcmSymBB|Product Description: AutoCAD Mechanical 2000|Company: Autodesk"
 90
        0
280
     0
281
     0
  0
CLASS
  1
ACMSURFSTANDARDANSI
  2
AcmSurfTextStdANSI
  3
"AcmSymBB|Product Description: AutoCAD Mechanical 2000|Company: Autodesk"
 90
        0
280
     0
281
     0
  0
CLASS
  1
ACMFCFSTANDARDANSI
  2
AcmFCFStdANSI
  3
"AcmSymBB|Product Description: AutoCAD Mechanical 2000|Company: Autodesk"
 90
        0
280
     0
281
     0
  0
CLASS
  1
ACMWELDSTANDARDANSI
  2
AcmWeldingStdANSI
  3
"AcmSymBB|Product Description: AutoCAD Mechanical 2000|Company: Autodesk"
 90
        0
280
     0
281
     0
  0
CLASS
  1
ACMIDSTANDARDANSI
  2
AcmIdStdANSI
  3
"AcmSymBB|Product Description: AutoCAD Mechanical 2000|Company: Autodesk"
 90
        0
280
     0
281
     0
  0
CLASS
  1
ACMDATUMSTANDARDANSI
  2
AcmDatumStdANSI
  3
"AcmSymBB|Product Description: AutoCAD Mechanical 2000|Company: Autodesk"
 90
        0
280
     0
281
     0
  0
CLASS
  1
ACMBOMSTANDARDANSI
  2
AcmBOMStdANSI
  3
"AcmSymBB|Product Description: AutoCAD Mechanical 2000|Company: Autodesk"
 90
        0
280
     0
281
     0
  0
CLASS
  1
ACMSTANDARDBSI
  2
AcmStandardBSI
  3
"AcmSymBB|Product Description: AutoCAD Mechanical 2000|Company: Autodesk"
 90
        0
280
     0
281
     0
  0
CLASS
  1
ACMSURFSTANDARDBSI
  2
AcmSurfTextStdBSI
  3
"AcmSymBB|Product Description: AutoCAD Mechanical 2000|Company: Autodesk"
 90
        0
280
     0
281
     0
  0
CLASS
  1
ACMFCFSTANDARDBSI
  2
AcmFCFStdBSI
  3
"AcmSymBB|Product Description: AutoCAD Mechanical 2000|Company: Autodesk"
 90
        0
280
     0
281
     0
  0
CLASS
  1
ACMWELDSTANDARDBSI
  2
AcmWeldingStdBSI
  3
"AcmSymBB|Product Description: AutoCAD Mechanical 2000|Company: Autodesk"
 90
        0
280
     0
281
     0
  0
CLASS
  1
ACMIDSTANDARDBSI
  2
AcmIdStdBSI
  3
"AcmSymBB|Product Description: AutoCAD Mechanical 2000|Company: Autodesk"
 90
        0
280
     0
281
     0
  0
CLASS
  1
ACMDATUMSTANDARDBSI
  2
AcmDatumStdBSI
  3
"AcmSymBB|Product Description: AutoCAD Mechanical 2000|Company: Autodesk"
 90
        0
280
     0
281
     0
  0
CLASS
  1
ACMBOMSTANDARDBSI
  2
AcmBOMStdBSI
  3
"AcmSymBB|Product Description: AutoCAD Mechanical 2000|Company: Autodesk"
 90
        0
280
     0
281
     0
  0
CLASS
  1
LONG_TRANSACTION
  2
AcDbLongTransaction
  3
AutoCAD 2000
 90
        0
280
     0
281
     0
  0
CLASS
  1
LWPOLYLINE
  2
AcDbPolyline
  3
AutoCAD 2000
 90
        0
280
     0
281
     1
  0
CLASS
  1
HATCH
  2
AcDbHatch
  3
AutoCAD 2000
 90
        0
280
     0
281
     1
  0
CLASS
  1
XRECORD
  2
AcDbXrecord
  3
AutoCAD 2000
 90
        0
280
     0
281
     0
  0
ENDSEC
  0
SECTION
  2
TABLES
  0
TABLE
  2
VPORT
  5
8
330
0
100
AcDbSymbolTable
 70
     3
  0
VPORT
  5
5D5B
330
8
100
AcDbSymbolTableRecord
100
AcDbViewportTableRecord
  2
*ACTIVE
 70
     0
 10
0.0
 20
0.0
 11
1.0
 21
1.0
 12
-67.27030060838564
 22
-31.4134452382513
 13
0.0
 23
0.0
 14
2.5
 24
2.5
 15
10.0
 25
10.0
 16
0.0
 26
0.0
 36
1.0
 17
0.0
 27
0.0
 37
0.0
 40
226.190129357281
 41
1.56570841889117
 42
50.0
 43
0.0
 44
0.0
 50
0.0
 51
0.0
 71
     0
 72
   100
 73
     1
 74
     1
 75
     0
 76
     0
 77
     0
 78
     0
  0
ENDTAB
  0
TABLE
  2
LTYPE
  5
5
330
0
100
AcDbSymbolTable
 70
    10
  0
LTYPE
  5
14
330
5
100
AcDbSymbolTableRecord
100
AcDbLinetypeTableRecord
  2
BYBLOCK
 70
     0
  3

 72
    65
 73
     0
 40
0.0
  0
LTYPE
  5
15
330
5
100
AcDbSymbolTableRecord
100
AcDbLinetypeTableRecord
  2
BYLAYER
 70
     0
  3

 72
    65
 73
     0
 40
0.0
  0
LTYPE
  5
16
330
5
100
AcDbSymbolTableRecord
100
AcDbLinetypeTableRecord
  2
CONTINUOUS
 70
     0
  3
Solid line
 72
    65
 73
     0
 40
0.0
  0
LTYPE
  5
4B
330
5
100
AcDbSymbolTableRecord
100
AcDbLinetypeTableRecord
  2
AM_ISO02W050
 70
     0
  3
__ __ __ __ __ __ __ __ __ __ __ __ __ __ __
 72
    65
 73
     2
 40
7.5
 49
6.0
 74
     0
 49
-1.5
 74
     0
  0
LTYPE
  5
4C
330
5
100
AcDbSymbolTableRecord
100
AcDbLinetypeTableRecord
  2
AM_ISO08W050
 70
     0
  3
____ . ____ . ____ . ____ . ____ . ____ . ____
 72
    65
 73
     4
 40
18.0
 49
12.0
 74
     0
 49
-1.5
 74
     0
 49
3.0
 74
     0
 49
-1.5
 74
     0
  0
LTYPE
  5
4D
330
5
100
AcDbSymbolTableRecord
100
AcDbLinetypeTableRecord
  2
AM_ISO09W050
 70
     0
  3
_____ . . _____ . . _____ . . ____ .. ____
 72
    65
 73
     6
 40
22.5
 49
12.0
 74
     0
 49
-1.5
 74
     0
 49
3.0
 74
     0
 49
-1.5
 74
     0
 49
3.0
 74
     0
 49
-1.5
 74
     0
  0
LTYPE
  5
4E
330
5
100
AcDbSymbolTableRecord
100
AcDbLinetypeTableRecord
  2
AMCONSTR
 70
     0
  3
_______________________
 72
    65
 73
     2
 40
9999.0
 49
9999.0
 74
     0
 49
0.0
 74
     0
  0
LTYPE
  5
4F
330
5
100
AcDbSymbolTableRecord
100
AcDbLinetypeTableRecord
  2
AM_ISO02W050X2
 70
     0
  3
 _ _ _ _ _ _ _ _ _ _ _ _
 72
    65
 73
     2
 40
3.75
 49
3.0
 74
     0
 49
-0.75
 74
     0
  0
LTYPE
  5
50
330
5
100
AcDbSymbolTableRecord
100
AcDbLinetypeTableRecord
  2
AM_ISO08W050X2
 70
     0
  3
__ . __ . __ . __ . __ . __
 72
    65
 73
     4
 40
9.0
 49
6.0
 74
     0
 49
-0.75
 74
     0
 49
1.5
 74
     0
 49
-0.75
 74
     0
  0
LTYPE
  5
53
330
5
100
AcDbSymbolTableRecord
100
AcDbLinetypeTableRecord
  2
AMZIGZAG
 70
     0
  3
/\/-/\/-/\/-/\/-/\/-/\/
 72
    65
 73
     2
 40
11.00009999999999
 49
0.0001
 74
     4
 75
   135
340
52
 46
0.04
 50
0.0
 44
0.0
 45
0.0
 49
-11.0
 74
     0
  0
LTYPE
  5
166
330
5
100
AcDbSymbolTableRecord
100
AcDbLinetypeTableRecord
  2
ACJISTGL
 70
     0
  3
_ _ _ _ _
 72
    65
 73
     2
 40
3.0
 49
2.0
 74
     0
 49
-1.0
 74
     0
  0
LTYPE
  5
26A
330
5
100
AcDbSymbolTableRecord
100
AcDbLinetypeTableRecord
  2
ACJISTGB
 70
     0
  3
__ . . __ . .
 72
    65
 73
     6
 40
9.0
 49
4.0
 74
     0
 49
-1.0
 74
     0
 49
1.0
 74
     0
 49
-1.0
 74
     0
 49
1.0
 74
     0
 49
-1.0
 74
     0
  0
ENDTAB
  0
TABLE
  2
LAYER
  5
2
330
0
100
AcDbSymbolTable
 70
     7
  0
LAYER
  5
10
330
2
100
AcDbSymbolTableRecord
100
AcDbLayerTableRecord
  2
0
 70
     0
 62
     7
  6
CONTINUOUS
  0
LAYER
  5
3F9
330
2
100
AcDbSymbolTableRecord
100
AcDbLayerTableRecord
  2
AM_0
 70
     0
 62
     7
  6
CONTINUOUS
  0
LAYER
  5
C7C
330
2
100
AcDbSymbolTableRecord
100
AcDbLayerTableRecord
  2
AM_7
 70
     0
 62
     4
  6
AM_ISO08W050
  0
LAYER
  5
C97
330
2
100
AcDbSymbolTableRecord
100
AcDbLayerTableRecord
  2
AM_11
 70
     0
 62
     3
  6
AM_ISO09W050
  0
LAYER
  5
CC5
330
2
100
AcDbSymbolTableRecord
100
AcDbLayerTableRecord
  2
AM_5
 70
     0
 62
     3
  6
CONTINUOUS
  0
LAYER
  5
CC7
330
2
100
AcDbSymbolTableRecord
100
AcDbLayerTableRecord
  2
DEFPOINTS
 70
     0
 62
     7
  6
CONTINUOUS
  0
LAYER
  5
19BC
330
2
100
AcDbSymbolTableRecord
100
AcDbLayerTableRecord
  2
AM_6
 70
     0
 62
     2
  6
CONTINUOUS
  0
ENDTAB
  0
TABLE
  2
STYLE
  5
3
330
0
100
AcDbSymbolTable
 70
     5
  0
STYLE
  5
11
330
3
100
AcDbSymbolTableRecord
100
AcDbTextStyleTableRecord
  2
STANDARD
 70
     0
 40
0.0
 41
1.0
 50
0.0
 71
     0
 42
2.5
  3
simplex.shx
  4
EXTFONT.SHX
  0
STYLE
  5
52
330
3
100
AcDbSymbolTableRecord
100
AcDbTextStyleTableRecord
  2

 70
     1
 40
0.0
 41
1.0
 50
0.0
 71
     0
 42
2.5
  3
ltypeshp.shx
  4

  0
STYLE
  5
6B
330
3
100
AcDbSymbolTableRecord
100
AcDbTextStyleTableRecord
  2
ASAMI
 70
     0
 40
0.0
 41
1.0
 50
0.0
 71
     0
 42
2.5
  3
simplex.shx
  4
EXTFONT.SHX
  0
STYLE
  5
262
330
3
100
AcDbSymbolTableRecord
100
AcDbTextStyleTableRecord
  2
ACJISTS
 70
     0
 40
1.0
 41
1.0
 50
0.0
 71
     0
 42
2.5
  3
simplex.shx
  4
bigfont.shx
  0
STYLE
  5
269
330
3
100
AcDbSymbolTableRecord
100
AcDbTextStyleTableRecord
  2
ACJISGDT
 70
     0
 40
0.0
 41
1.0
 50
0.0
 71
     0
 42
2.5
  3
amgdtans.shx
  4

  0
ENDTAB
  0
TABLE
  2
VIEW
  5
6
330
0
100
AcDbSymbolTable
 70
     0
  0
ENDTAB
  0
TABLE
  2
UCS
  5
7
330
0
100
AcDbSymbolTable
 70
     0
  0
ENDTAB
  0
TABLE
  2
APPID
  5
9
330
0
100
AcDbSymbolTable
 70
    18
  0
APPID
  5
12
330
9
100
AcDbSymbolTableRecord
100
AcDbRegAppTableRecord
  2
ACAD
 70
     0
  0
APPID
  5
30
330
9
100
AcDbSymbolTableRecord
100
AcDbRegAppTableRecord
  2
MCAD_NO_VIS
 70
     0
  0
APPID
  5
31
330
9
100
AcDbSymbolTableRecord
100
AcDbRegAppTableRecord
  2
ACAD_TEMP_GRAPHIC
 70
     0
  0
APPID
  5
2C2
330
9
100
AcDbSymbolTableRecord
100
AcDbRegAppTableRecord
  2
GENIUS_GENDTOL_13
 70
     0
  0
APPID
  5
339
330
9
100
AcDbSymbolTableRecord
100
AcDbRegAppTableRecord
  2
GENIUS_GENODEF_13
 70
     0
  0
APPID
  5
33A
330
9
100
AcDbSymbolTableRecord
100
AcDbRegAppTableRecord
  2
GENIUS_GENOBJ-N-RSBK_13
 70
     0
  0
APPID
  5
33B
330
9
100
AcDbSymbolTableRecord
100
AcDbRegAppTableRecord
  2
GENIUS_GENOBJ-N-LIB_13
 70
     0
  0
APPID
  5
33C
330
9
100
AcDbSymbolTableRecord
100
AcDbRegAppTableRecord
  2
GENIUS_GENSCALE_13
 70
     0
  0
APPID
  5
378
330
9
100
AcDbSymbolTableRecord
100
AcDbRegAppTableRecord
  2
GENIUS_GENDIMSH_14
 70
     0
  0
APPID
  5
C82
330
9
100
AcDbSymbolTableRecord
100
AcDbRegAppTableRecord
  2
GENIUS_GENOBJ-N-CRS_13
 70
     0
  0
APPID
  5
C83
330
9
100
AcDbSymbolTableRecord
100
AcDbRegAppTableRecord
  2
GENIUS_GENOENT_13
 70
     0
  0
APPID
  5
C84
330
9
100
AcDbSymbolTableRecord
100
AcDbRegAppTableRecord
  2
GENIUS_GENOREF_13
 70
     0
  0
APPID
  5
C85
330
9
100
AcDbSymbolTableRecord
100
AcDbRegAppTableRecord
  2
GENIUS_GENOLIS_13
 70
     0
  0
APPID
  5
CA0
330
9
100
AcDbSymbolTableRecord
100
AcDbRegAppTableRecord
  2
GENIUS_GENOBJ-N-CEN_13
 70
     0
  0
APPID
  5
1B5D
330
9
100
AcDbSymbolTableRecord
100
AcDbRegAppTableRecord
  2
GENIUS_GENFIL_13
 70
     0
  0
APPID
  5
1B5E
330
9
100
AcDbSymbolTableRecord
100
AcDbRegAppTableRecord
  2
GENIUS_GENOBJ-N-CHA_13
 70
     0
  0
APPID
  5
1FBC
330
9
100
AcDbSymbolTableRecord
100
AcDbRegAppTableRecord
  2
GENIUS_GENREC_14
 70
     0
  0
APPID
  5
1FBD
330
9
100
AcDbSymbolTableRecord
100
AcDbRegAppTableRecord
  2
GENIUS_GENOBJ-N-REC_13
 70
     0
  0
ENDTAB
  0
TABLE
  2
DIMSTYLE
  5
A
330
0
100
AcDbSymbolTable
 70
     9
  0
DIMSTYLE
105
58
330
A
100
AcDbSymbolTableRecord
100
AcDbDimStyleTableRecord
  2
AM_JIS
 70
     0
  3

  4
"
  5
OPEN30
  6

  7

 40
1.0
 41
2.5
 42
1.0
 43
12.0
 44
1.0
 45
0.0
 46
0.0
 47
0.1
 48
0.1
140
3.2
141
0.0
142
0.0
143
0.0393701
144
1.0
145
0.0
146
0.71
147
1.5
 71
     0
 72
     0
 73
     0
 74
     0
 75
     0
 76
     0
 77
     3
 78
     8
170
     0
171
     2
172
     1
173
     0
174
     0
175
     0
176
   256
177
   256
178
     2
270
     2
271
     3
272
     3
273
     2
274
     2
340
6B
275
     0
280
     0
281
     0
282
     0
283
     0
284
     0
285
     0
286
     0
287
     3
288
     0
  0
DIMSTYLE
105
5F
330
A
100
AcDbSymbolTableRecord
100
AcDbDimStyleTableRecord
  2
AM_JIS$3
 70
     0
  3

  4
"
  5
OPEN30
  6

  7

 40
1.0
 41
2.5
 42
1.0
 43
10.0
 44
1.0
 45
0.0
 46
0.0
 47
0.1
 48
0.1
140
3.2
141
0.0
142
0.0
143
0.0393701
144
1.0
145
0.0
146
0.71
147
1.5
 71
     0
 72
     0
 73
     0
 74
     1
 75
     0
 76
     0
 77
     3
 78
     8
170
     0
171
     2
172
     0
173
     0
174
     0
175
     0
176
   256
177
   256
178
     2
270
     2
271
     2
272
     3
273
     2
274
     2
340
6B
275
     0
280
     0
281
     0
282
     0
283
     0
284
     0
285
     0
286
     0
287
     0
288
     1
  0
DIMSTYLE
105
60
330
A
100
AcDbSymbolTableRecord
100
AcDbDimStyleTableRecord
  2
AM_JIS$4
 70
     0
  3

  4
"
  5
OPEN30
  6

  7

 40
1.0
 41
2.5
 42
1.0
 43
10.0
 44
1.0
 45
0.0
 46
0.0
 47
0.1
 48
0.1
140
3.2
141
0.0
142
0.0
143
0.0393701
144
1.0
145
0.0
146
0.71
147
1.5
 71
     0
 72
     0
 73
     0
 74
     1
 75
     0
 76
     0
 77
     3
 78
     8
170
     0
171
     2
172
     0
173
     0
174
     0
175
     0
176
   256
177
   256
178
     2
270
     2
271
     2
272
     3
273
     2
274
     2
340
6B
275
     0
280
     0
281
     0
282
     0
283
     0
284
     0
285
     0
286
     0
287
     0
288
     1
  0
DIMSTYLE
105
61
330
A
100
AcDbSymbolTableRecord
100
AcDbDimStyleTableRecord
  2
AM_JIS$6
 70
     0
  3

  4
"
  5
OPEN30
  6

  7

 40
1.0
 41
2.5
 42
1.0
 43
10.0
 44
1.0
 45
0.0
 46
0.0
 47
0.1
 48
0.1
140
3.2
141
0.0
142
0.0
143
0.0393701
144
1.0
145
0.0
146
0.71
147
1.5
 71
     0
 72
     0
 73
     0
 74
     0
 75
     0
 76
     0
 77
     0
 78
     8
170
     0
171
     2
172
     1
173
     0
174
     0
175
     0
176
   256
177
   256
178
     2
270
     2
271
     2
272
     2
273
     2
274
     2
340
6B
275
     0
280
     0
281
     0
282
     0
283
     0
284
     0
285
     0
286
     0
287
     3
288
     0
  0
DIMSTYLE
105
62
330
A
100
AcDbSymbolTableRecord
100
AcDbDimStyleTableRecord
  2
AM_JIS$7
 70
     0
  3

  4
"
  5
OPEN30
  6

  7

 40
1.0
 41
2.5
 42
1.0
 43
10.0
 44
1.0
 45
0.0
 46
0.0
 47
0.1
 48
0.1
140
3.2
141
0.0
142
0.0
143
0.0393701
144
1.0
145
0.0
146
0.71
147
1.5
 71
     0
 72
     0
 73
     0
 74
     0
 75
     0
 76
     0
 77
     3
 78
     8
170
     0
171
     2
172
     1
173
     0
174
     0
175
     0
176
   256
177
   256
178
     2
270
     2
271
     2
272
     3
273
     2
274
     2
340
6B
275
     0
280
     0
281
     0
282
     0
283
     0
284
     0
285
     0
286
     0
287
     3
288
     0
  0
DIMSTYLE
105
63
330
A
100
AcDbSymbolTableRecord
100
AcDbDimStyleTableRecord
  2
AM_JIS$SF
 70
     0
  3

  4
"
  5
OPEN30
  6

  7

 40
1.0
 41
2.5
 42
1.0
 43
10.0
 44
1.0
 45
0.0
 46
0.0
 47
0.1
 48
0.1
140
3.2
141
0.0
142
0.0
143
0.0393701
144
1.0
145
0.0
146
0.71
147
1.5
 71
     0
 72
     0
 73
     0
 74
     0
 75
     1
 76
     1
 77
     3
 78
     8
170
     0
171
     2
172
     1
173
     0
174
     0
175
     0
176
   256
177
   256
178
     2
270
     2
271
     2
272
     2
273
     2
274
     2
340
6B
275
     0
280
     0
281
     0
282
     0
283
     0
284
     0
285
     0
286
     0
287
     3
288
     0
  0
DIMSTYLE
105
68
330
A
100
AcDbSymbolTableRecord
100
AcDbDimStyleTableRecord
  2
AM_JIS$SH
 70
     0
  3

  4
"
  5

  6
GENAXEH
  7
OPEN30
 40
1.0
 41
2.5
 42
1.0
 43
10.0
 44
1.0
 45
0.0
 46
0.0
 47
0.1
 48
0.1
140
3.2
141
0.0
142
0.0
143
0.0393701
144
2.0
145
0.0
146
0.71
147
1.5
 71
     0
 72
     0
 73
     0
 74
     0
 75
     1
 76
     1
 77
     3
 78
     8
170
     0
171
     2
172
     1
173
     1
174
     0
175
     0
176
   256
177
   256
178
     2
270
     2
271
     2
272
     2
273
     2
274
     2
340
6B
275
     0
280
     0
281
     0
282
     0
283
     0
284
     0
285
     0
286
     0
287
     3
288
     0
  0
DIMSTYLE
105
B34
102
{ACAD_REACTORS
330
5A74
102
}
330
A
100
AcDbSymbolTableRecord
100
AcDbDimStyleTableRecord
  2
AM_JIS$2
 70
     0
  3

  4
"
  5
OPEN30
  6

  7

 40
1.0
 41
2.5
 42
1.0
 43
12.0
 44
1.0
 45
0.0
 46
0.0
 47
0.1
 48
0.1
140
3.2
141
0.0
142
0.0
143
0.0393701
144
1.0
145
0.0
146
0.71
147
1.5
 71
     0
 72
     0
 73
     0
 74
     0
 75
     0
 76
     0
 77
     3
 78
     8
170
     0
171
     2
172
     1
173
     0
174
     0
175
     0
176
   256
177
   256
178
     2
270
     2
271
     3
272
     3
273
     2
274
     2
340
6B
275
     0
280
     0
281
     0
282
     0
283
     0
284
     0
285
     0
286
     0
287
     3
288
     0
  0
DIMSTYLE
105
BA5
102
{ACAD_REACTORS
330
CC6
330
46D1
330
5686
330
5980
102
}
330
A
100
AcDbSymbolTableRecord
100
AcDbDimStyleTableRecord
  2
AM_JIS$0
 70
     0
  3

  4
"
  5
OPEN30
  6

  7

 40
1.0
 41
2.5
 42
0.0
 43
10.0
 44
1.0
 45
0.0
 46
0.0
 47
0.1
 48
0.1000000001
140
3.799999999999999
141
0.0
142
0.0
143
0.0393701
144
1.0
145
0.0
146
0.71
147
1.5
 71
     0
 72
     0
 73
     0
 74
     0
 75
     0
 76
     0
 77
     3
 78
     1
170
     0
171
     2
172
     1
173
     0
174
     0
175
     0
176
     3
177
     3
178
     2
270
     2
271
     2
272
     2
273
     2
274
     2
340
11
275
     1
280
     0
281
     0
282
     0
283
     0
284
     8
285
     0
286
     0
287
     0
288
     0
  0
ENDTAB
  0
TABLE
  2
BLOCK_RECORD
  5
1
330
0
100
AcDbSymbolTable
 70
    10
  0
BLOCK_RECORD
  5
1F
102
{ACAD_XDICTIONARY
360
74
102
}
330
1
100
AcDbSymbolTableRecord
100
AcDbBlockTableRecord
  2
*MODEL_SPACE
  0
BLOCK_RECORD
  5
101
102
{ACAD_XDICTIONARY
360
5D84
102
}
330
1
100
AcDbSymbolTableRecord
100
AcDbBlockTableRecord
  2
*PAPER_SPACE
  0
BLOCK_RECORD
  5
59
330
1
100
AcDbSymbolTableRecord
100
AcDbBlockTableRecord
  2
_OPEN30
  0
BLOCK_RECORD
  5
64
330
1
100
AcDbSymbolTableRecord
100
AcDbBlockTableRecord
  2
GENAXEH
  0
BLOCK_RECORD
  5
CC8
330
1
100
AcDbSymbolTableRecord
100
AcDbBlockTableRecord
  2
*D5
  0
BLOCK_RECORD
  5
46D2
330
1
100
AcDbSymbolTableRecord
100
AcDbBlockTableRecord
  2
*D6
  0
BLOCK_RECORD
  5
5687
330
1
100
AcDbSymbolTableRecord
100
AcDbBlockTableRecord
  2
*D7
  0
BLOCK_RECORD
  5
5981
330
1
100
AcDbSymbolTableRecord
100
AcDbBlockTableRecord
  2
*D8
  0
BLOCK_RECORD
  5
5A75
330
1
100
AcDbSymbolTableRecord
100
AcDbBlockTableRecord
  2
*D9
  0
ENDTAB
  0
ENDSEC
  0
SECTION
  2
BLOCKS
  0
BLOCK
  5
20
330
1F
100
AcDbEntity
  8
0
100
AcDbBlockBegin
  2
*MODEL_SPACE
 70
     0
 10
0.0
 20
0.0
 30
0.0
  3
*MODEL_SPACE
  1

  0
ENDBLK
  5
21
330
1F
100
AcDbEntity
  8
0
100
AcDbBlockEnd
  0
BLOCK
  5
103
330
101
100
AcDbEntity
 67
     1
  8
0
100
AcDbBlockBegin
  2
*PAPER_SPACE
 70
     0
 10
0.0
 20
0.0
 30
0.0
  3
*PAPER_SPACE
  1

  0
ENDBLK
  5
104
330
101
100
AcDbEntity
 67
     1
  8
0
100
AcDbBlockEnd
  0
BLOCK
  5
5D
330
59
100
AcDbEntity
  8
0
100
AcDbBlockBegin
  2
_OPEN30
 70
     0
 10
0.0
 20
0.0
 30
0.0
  3
_OPEN30
  1

  0
LINE
  5
5A
330
59
100
AcDbEntity
  8
0
 62
     0
100
AcDbLine
 10
-1.0
 20
0.26794919
 30
0.0
 11
0.0
 21
0.0
 31
0.0
  0
LINE
  5
5B
330
59
100
AcDbEntity
  8
0
 62
     0
100
AcDbLine
 10
0.0
 20
0.0
 30
0.0
 11
-1.0
 21
-0.26794919
 31
0.0
  0
LINE
  5
5C
330
59
100
AcDbEntity
  8
0
 62
     0
100
AcDbLine
 10
0.0
 20
0.0
 30
0.0
 11
-1.0
 21
0.0
 31
0.0
  0
ENDBLK
  5
5E
330
59
100
AcDbEntity
  8
0
100
AcDbBlockEnd
  0
BLOCK
  5
66
330
64
100
AcDbEntity
  8
0
100
AcDbBlockBegin
  2
GENAXEH
 70
     0
 10
0.0
 20
0.0
 30
0.0
  3
GENAXEH
  1

  0
LINE
  5
65
330
64
100
AcDbEntity
  8
0
100
AcDbLine
 10
-1.0
 20
0.0
 30
0.0
 11
1.0
 21
0.0
 31
0.0
  0
ENDBLK
  5
67
330
64
100
AcDbEntity
  8
0
100
AcDbBlockEnd
  0
BLOCK
  5
CD2
330
CC8
100
AcDbEntity
  8
0
100
AcDbBlockBegin
  2
*D5
 70
     1
 10
0.0
 20
0.0
 30
0.0
  3
*D5
  1

  0
LINE
  5
5D0F
330
CC8
100
AcDbEntity
  8
AM_5
 62
     3
100
AcDbLine
 10
-183.9999999999952
 20
-4.750000532345468
 30
0.0
 11
-183.9999999999952
 21
-30.50000153234513
 31
0.0
  0
LINE
  5
5D10
330
CC8
100
AcDbEntity
  8
AM_5
 62
     3
100
AcDbLine
 10
-1.999999999994737
 20
-5.250000000000407
 30
0.0
 11
-1.999999999994739
 21
-30.50000153234513
 31
0.0
  0
LINE
  5
5D11
330
CC8
100
AcDbEntity
  8
AM_5
 62
     3
100
AcDbLine
 10
-181.4999999999952
 20
-29.50000153234514
 30
0.0
 11
-4.499999999994739
 21
-29.50000153234514
 31
0.0
  0
INSERT
  5
5D12
330
CC8
100
AcDbEntity
  8
AM_5
 62
     3
100
AcDbBlockReference
  2
_OPEN30
 10
-183.9999999999952
 20
-29.50000153234514
 30
0.0
 41
2.5
 42
2.5
 43
2.5
 50
180.0
  0
INSERT
  5
5D13
330
CC8
100
AcDbEntity
  8
AM_5
 62
     3
100
AcDbBlockReference
  2
_OPEN30
 10
-1.999999999994739
 20
-29.50000153234514
 30
0.0
 41
2.5
 42
2.5
 43
2.5
  0
MTEXT
  5
5D14
330
CC8
100
AcDbEntity
  8
AM_5
 62
     2
100
AcDbMText
 10
-92.99999999999498
 20
-26.10000153234514
 30
0.0
 40
3.799999999999999
 41
0.0
 71
     5
 72
     1
  1
182
1001
ACAD
1000
MTEXTBEGIN
1070
    73
1070
     1
1070
    44
1040
1.0
1070
    74
1070
     0
1000
MTEXTEND
  0
POINT
  5
5D15
330
CC8
100
AcDbEntity
  8
DEFPOINTS
 62
     0
100
AcDbPoint
 10
-183.9999999999952
 20
-4.750000532345468
 30
0.0
  0
POINT
  5
5D16
330
CC8
100
AcDbEntity
  8
DEFPOINTS
 62
     0
100
AcDbPoint
 10
-1.999999999994737
 20
-5.250000000000407
 30
0.0
  0
POINT
  5
5D17
330
CC8
100
AcDbEntity
  8
DEFPOINTS
 62
     0
100
AcDbPoint
 10
-1.999999999994739
 20
-29.50000153234514
 30
0.0
  0
ENDBLK
  5
CD3
330
CC8
100
AcDbEntity
  8
0
100
AcDbBlockEnd
  0
BLOCK
  5
46DE
330
46D2
100
AcDbEntity
  8
0
100
AcDbBlockBegin
  2
*D6
 70
     1
 10
0.0
 20
0.0
 30
0.0
  3
*D6
  1

  0
LINE
  5
5D2C
330
46D2
100
AcDbEntity
  8
AM_5
 62
     3
100
AcDbLine
 10
-1.999999999994851
 20
-5.250000000000408
 30
0.0
 11
16.89166150849117
 21
-5.250000000000413
 31
0.0
  0
LINE
  5
5D2D
330
46D2
100
AcDbEntity
  8
AM_5
 62
     3
100
AcDbLine
 10
-1.999999999995084
 20
5.249999999999597
 30
0.0
 11
16.89166150849117
 21
5.249999999999593
 31
0.0
  0
LINE
  5
5D2E
330
46D2
100
AcDbEntity
  8
AM_5
 62
     3
100
AcDbLine
 10
15.89166150849117
 20
-7.750000000000413
 30
0.0
 11
15.89166150849117
 21
-10.25000000000041
 31
0.0
  0
LINE
  5
5D2F
330
46D2
100
AcDbEntity
  8
AM_5
 62
     3
100
AcDbLine
 10
15.89166150849117
 20
7.749999999999593
 30
0.0
 11
15.89166150849117
 21
27.54523809523769
 31
0.0
  0
LINE
  5
5D30
330
46D2
100
AcDbEntity
  8
AM_5
 62
     3
100
AcDbLine
 10
15.89166150849117
 20
-5.250000000000413
 30
0.0
 11
15.89166150849117
 21
5.249999999999593
 31
0.0
  0
INSERT
  5
5D31
330
46D2
100
AcDbEntity
  8
AM_5
 62
     3
100
AcDbBlockReference
  2
_OPEN30
 10
15.89166150849117
 20
-5.250000000000413
 30
0.0
 41
2.5
 42
2.5
 43
2.5
 50
90.0
  0
INSERT
  5
5D32
330
46D2
100
AcDbEntity
  8
AM_5
 62
     3
100
AcDbBlockReference
  2
_OPEN30
 10
15.89166150849117
 20
5.249999999999593
 30
0.0
 41
2.5
 42
2.5
 43
2.5
 50
270.0
  0
MTEXT
  5
5D33
330
46D2
100
AcDbEntity
  8
AM_5
 62
     2
100
AcDbMText
 10
12.49166150849117
 20
18.89761904761864
 30
0.0
 40
3.799999999999999
 41
0.0
 71
     5
 72
     1
  1
%%c10.5
 11
0.0000000000000001
 21
1.0
 31
0.0
1001
ACAD
1000
MTEXTBEGIN
1070
    73
1070
     1
1070
    44
1040
1.0
1070
    74
1070
     0
1000
MTEXTEND
  0
POINT
  5
5D34
330
46D2
100
AcDbEntity
  8
DEFPOINTS
 62
     0
100
AcDbPoint
 10
-1.999999999994851
 20
-5.250000000000408
 30
0.0
  0
POINT
  5
5D35
330
46D2
100
AcDbEntity
  8
DEFPOINTS
 62
     0
100
AcDbPoint
 10
-1.999999999995084
 20
5.249999999999597
 30
0.0
  0
POINT
  5
5D36
330
46D2
100
AcDbEntity
  8
DEFPOINTS
 62
     0
100
AcDbPoint
 10
15.89166150849117
 20
5.249999999999593
 30
0.0
  0
ENDBLK
  5
46DF
330
46D2
100
AcDbEntity
  8
0
100
AcDbBlockEnd
  0
BLOCK
  5
5691
330
5687
100
AcDbEntity
  8
0
100
AcDbBlockBegin
  2
*D7
 70
     1
 10
0.0
 20
0.0
 30
0.0
  3
*D7
  1

  0
LINE
  5
5D06
330
5687
100
AcDbEntity
  8
AM_5
 62
     3
100
AcDbLine
 10
-122.9999999999949
 20
-5.500000532345437
 30
0.0
 11
-122.9999999999949
 21
-20.50000153234536
 31
0.0
  0
LINE
  5
5D07
330
5687
100
AcDbEntity
  8
AM_5
 62
     3
100
AcDbLine
 10
-1.999999999994619
 20
-5.250000000000412
 30
0.0
 11
-1.99999999999462
 21
-20.50000153234536
 31
0.0
  0
LINE
  5
5D08
330
5687
100
AcDbEntity
  8
AM_5
 62
     3
100
AcDbLine
 10
-120.4999999999949
 20
-19.50000153234537
 30
0.0
 11
-4.49999999999462
 21
-19.50000153234537
 31
0.0
  0
INSERT
  5
5D09
330
5687
100
AcDbEntity
  8
AM_5
 62
     3
100
AcDbBlockReference
  2
_OPEN30
 10
-122.9999999999949
 20
-19.50000153234537
 30
0.0
 41
2.5
 42
2.5
 43
2.5
 50
180.0
  0
INSERT
  5
5D0A
330
5687
100
AcDbEntity
  8
AM_5
 62
     3
100
AcDbBlockReference
  2
_OPEN30
 10
-1.99999999999462
 20
-19.50000153234537
 30
0.0
 41
2.5
 42
2.5
 43
2.5
  0
MTEXT
  5
5D0B
330
5687
100
AcDbEntity
  8
AM_5
 62
     2
100
AcDbMText
 10
-62.4999999999948
 20
-16.10000153234537
 30
0.0
 40
3.799999999999999
 41
0.0
 71
     5
 72
     1
  1
121
1001
ACAD
1000
MTEXTBEGIN
1070
    73
1070
     1
1070
    44
1040
1.0
1070
    74
1070
     0
1000
MTEXTEND
  0
POINT
  5
5D0C
330
5687
100
AcDbEntity
  8
DEFPOINTS
 62
     0
100
AcDbPoint
 10
-122.9999999999949
 20
-5.500000532345437
 30
0.0
  0
POINT
  5
5D0D
330
5687
100
AcDbEntity
  8
DEFPOINTS
 62
     0
100
AcDbPoint
 10
-1.999999999994619
 20
-5.250000000000412
 30
0.0
  0
POINT
  5
5D0E
330
5687
100
AcDbEntity
  8
DEFPOINTS
 62
     0
100
AcDbPoint
 10
-1.99999999999462
 20
-19.50000153234537
 30
0.0
  0
ENDBLK
  5
5692
330
5687
100
AcDbEntity
  8
0
100
AcDbBlockEnd
  0
BLOCK
  5
598B
330
5981
100
AcDbEntity
  8
0
100
AcDbBlockBegin
  2
*D8
 70
     1
 10
0.0
 20
0.0
 30
0.0
  3
*D8
  1

  0
LINE
  5
5D18
330
5981
100
AcDbEntity
  8
AM_5
 62
     3
100
AcDbLine
 10
-183.2499999999948
 20
5.499999467654097
 30
0.0
 11
-199.7500009999949
 21
5.499999467654065
 31
0.0
  0
LINE
  5
5D19
330
5981
100
AcDbEntity
  8
AM_5
 62
     3
100
AcDbLine
 10
-183.2499999999961
 20
-5.500000532345903
 30
0.0
 11
-199.7500009999949
 21
-5.500000532345935
 31
0.0
  0
LINE
  5
5D1A
330
5981
100
AcDbEntity
  8
AM_5
 62
     3
100
AcDbLine
 10
-198.7500009999949
 20
2.999999467654067
 30
0.0
 11
-198.7500009999949
 21
-3.000000532345933
 31
0.0
  0
INSERT
  5
5D1B
330
5981
100
AcDbEntity
  8
AM_5
 62
     3
100
AcDbBlockReference
  2
_OPEN30
 10
-198.7500009999949
 20
5.499999467654067
 30
0.0
 41
2.5
 42
2.5
 43
2.5
 50
90.0000000000001
  0
INSERT
  5
5D1C
330
5981
100
AcDbEntity
  8
AM_5
 62
     3
100
AcDbBlockReference
  2
_OPEN30
 10
-198.7500009999949
 20
-5.500000532345933
 30
0.0
 41
2.5
 42
2.5
 43
2.5
 50
270.0000000000001
  0
MTEXT
  5
5D1D
330
5981
100
AcDbEntity
  8
AM_5
 62
     2
100
AcDbMText
 10
-202.1500009999949
 20
-0.0000005323459321
 30
0.0
 40
3.799999999999999
 41
0.0
 71
     5
 72
     1
  1
%%c11
 11
-0.000000000000002
 21
1.0
 31
0.0
1001
ACAD
1000
MTEXTBEGIN
1070
    73
1070
     1
1070
    44
1040
1.0
1070
    74
1070
     0
1000
MTEXTEND
  0
POINT
  5
5D1E
330
5981
100
AcDbEntity
  8
DEFPOINTS
 62
     0
100
AcDbPoint
 10
-183.2499999999948
 20
5.499999467654504
 30
0.0
  0
POINT
  5
5D1F
330
5981
100
AcDbEntity
  8
DEFPOINTS
 62
     0
100
AcDbPoint
 10
-183.2499999999961
 20
-5.500000532345496
 30
0.0
  0
POINT
  5
5D20
330
5981
100
AcDbEntity
  8
DEFPOINTS
 62
     0
100
AcDbPoint
 10
-198.7500009999949
 20
-5.500000532345492
 30
0.0
  0
ENDBLK
  5
598C
330
5981
100
AcDbEntity
  8
0
100
AcDbBlockEnd
  0
BLOCK
  5
5A83
330
5A75
100
AcDbEntity
  8
0
100
AcDbBlockBegin
  2
*D9
 70
     1
 10
0.0
 20
0.0
 30
0.0
  3
*D9
  1

  0
LINE
  5
5D86
330
5A75
100
AcDbEntity
  8
AM_5
100
AcDbLine
 10
0.3420201433318135
 20
-0.9396926207863106
 30
0.0
 11
11.90622974435153
 21
-32.71209737342794
 31
0.0
  0
LINE
  5
5D87
330
5A75
100
AcDbEntity
  8
AM_5
100
AcDbLine
 10
0.3420201433318059
 20
0.9396926207855111
 30
0.0
 11
11.90622974435127
 21
32.71209737342723
 31
0.0
  0
ARC
  5
5D88
330
5A75
100
AcDbEntity
  8
AM_5
100
AcDbCircle
 10
0.0000000000061399
 20
-0.0000000000004013
 30
0.0
 40
33.81148691586931
100
AcDbArc
 50
294.2373793899399
 51
65.76262061006058
  0
INSERT
  5
5D89
330
5A75
100
AcDbEntity
  8
AM_5
100
AcDbBlockReference
  2
_OPEN30
 10
11.56420960102586
 20
-31.77240475264203
 30
0.0
 41
2.5
 42
2.5
 43
2.5
 50
202.11868969497
  0
INSERT
  5
5D8A
330
5A75
100
AcDbEntity
  8
AM_5
100
AcDbBlockReference
  2
_OPEN30
 10
11.5642096010256
 20
31.77240475264133
 30
0.0
 41
2.5
 42
2.5
 43
2.5
 50
157.8813103050303
  0
MTEXT
  5
5D8B
330
5A75
100
AcDbEntity
  8
AM_5
 62
     2
100
AcDbMText
 10
30.71148691587544
 20
-0.000000000000287
 30
0.0
 40
3.2
 41
0.0
 71
     5
 72
     1
  1
140°
  7
ASAMI
 11
-0.000000000000002
 21
1.0
 31
0.0
  0
POINT
  5
5D8C
330
5A75
100
AcDbEntity
  8
DEFPOINTS
 62
     0
100
AcDbPoint
 10
31.04625188372899
 20
-13.39204582707388
 30
0.0
  0
POINT
  5
5D8D
330
5A75
100
AcDbEntity
  8
DEFPOINTS
 62
     0
100
AcDbPoint
 10
0.0000000000061409
 20
-0.0000000000003987
 30
0.0
  0
POINT
  5
5D8E
330
5A75
100
AcDbEntity
  8
DEFPOINTS
 62
     0
100
AcDbPoint
 10
0.0000000000061409
 20
-0.0000000000004038
 30
0.0
  0
POINT
  5
5D8F
330
5A75
100
AcDbEntity
  8
DEFPOINTS
 62
     0
100
AcDbPoint
 10
-0.3927721313996728
 20
1.079132562028126
 30
0.0
  0
POINT
  5
5D90
330
5A75
100
AcDbEntity
  8
DEFPOINTS
 62
     0
100
AcDbPoint
 10
-0.3927721313996684
 20
-1.07913256202893
 30
0.0
  0
ENDBLK
  5
5A84
330
5A75
100
AcDbEntity
  8
0
100
AcDbBlockEnd
  0
ENDSEC
  0
SECTION
  2
ENTITIES
  0
LINE
  5
C1D
330
1F
100
AcDbEntity
  8
AM_0
 48
0.5
100
AcDbLine
 10
0.0000000000061409
 20
-0.0000000000004038
 30
0.0
 11
-0.3927721313996728
 21
1.079132562028126
 31
0.0
  0
LINE
  5
C9F
330
1F
100
AcDbEntity
  8
AM_7
100
AcDbLine
 10
-184.7499999999949
 20
-0.0000000000003849
 30
0.0
 11
0.8916604923159638
 21
0.0000000000000019
 31
0.0
1001
GENIUS_GENODEF_13
1002
{
1000
HIER
1070
     0
1002
}
1002
{
1000
MANEDIT
1070
     0
1002
}
1002
{
1000
NOSEL
1070
     0
1002
}
1002
{
1000
BEHIND
1070
     0
1002
}
1002
{
1000
REACTOR
1002
}
1001
GENIUS_GENOBJ-N-CEN_13
1002
{
1000
OWNER
1000
GEN
1002
}
  0
DIMENSION
  5
CC6
330
1F
100
AcDbEntity
  8
AM_5
100
AcDbDimension
  2
*D5
 10
-1.999999999994739
 20
-29.50000153234514
 30
0.0
 11
-92.99999999999498
 21
-26.10000153234514
 31
0.0
 70
    32
  1
<>
  3
AM_JIS$0
100
AcDbAlignedDimension
 13
-183.9999999999952
 23
-4.750000532345468
 33
0.0
 14
-1.999999999994737
 24
-5.250000000000407
 34
0.0
 50
0.0000000000001132
100
AcDbRotatedDimension
1001
GENIUS_GENDTOL_13
1000

1000
h7
1000

1040
0.0
1001
ACAD
1000
DSTYLE
1002
{
1070
   271
1070
     0
1002
}
  0
TEXT
  5
19BD
330
1F
100
AcDbEntity
  8
AM_6
100
AcDbText
 10
-114.6666666666616
 20
-52.00000153234519
 30
0.0
 40
5.0
  1
MDW105DHK
 50
0.0000000000001527
 72
     4
 11
-92.99999999999492
 21
-49.50000153234514
 31
0.0
100
AcDbText
  0
LINE
  5
4347
330
1F
100
AcDbEntity
  8
AM_0
100
AcDbLine
 10
-122.9999999999949
 20
5.499999467654576
 30
0.0
 11
-122.9999999999949
 21
-5.500000532345422
 31
0.0
  0
LINE
  5
44BC
330
1F
100
AcDbEntity
  8
AM_0
100
AcDbLine
 10
-122.9999999999949
 20
5.499999467654576
 30
0.0
 11
-122.5669881873523
 21
5.249999981063084
 31
0.0
  0
LINE
  5
44BD
330
1F
100
AcDbEntity
  8
AM_0
100
AcDbLine
 10
-122.5669889641017
 20
5.250000429519552
 30
0.0
 11
-122.5669857017663
 21
-5.249961950742498
 31
0.0
  0
LINE
  5
44BE
330
1F
100
AcDbEntity
  8
AM_0
100
AcDbLine
 10
-122.5669864785039
 20
-5.250000059149804
 30
0.0
 11
-122.9999999999949
 21
-5.500000532345437
 31
0.0
  0
LINE
  5
4658
330
1F
100
AcDbEntity
  8
AM_0
 48
0.5
100
AcDbLine
 10
0.0000000000061409
 20
-0.0000000000003987
 30
0.0
 11
-0.3927721313996684
 21
-1.07913256202893
 31
0.0
  0
DIMENSION
  5
46D1
330
1F
100
AcDbEntity
  8
AM_5
100
AcDbDimension
  2
*D6
 10
15.89166150849117
 20
5.249999999999593
 30
0.0
 11
15.89166150849117
 21
18.89761904761864
 31
0.0
 70
   160
  1
%%c<>
  3
AM_JIS$0
100
AcDbAlignedDimension
 13
-1.999999999994851
 23
-5.250000000000408
 33
0.0
 14
-1.999999999995084
 24
5.249999999999597
 34
0.0
 50
89.99999999999982
100
AcDbRotatedDimension
1001
GENIUS_GENDTOL_13
1000

1000
h7
1000

1040
0.0
1001
ACAD
1000
DSTYLE
1002
{
1070
   271
1070
     1
1002
}
  0
ELLIPSE
  5
46F0
330
1F
100
AcDbEntity
  8
AM_0
 48
0.5
100
AcDbEllipse
 10
-2.719405052536058
 20
-0.7580025319323096
 30
0.0
 11
-0.4167134865066705
 21
0.809269167229292
 31
0.0
210
0.0
220
0.0
230
1.0
 40
0.733355463254151
 41
1.532727865088391
 42
4.668069754800364
  0
ELLIPSE
  5
46F1
330
1F
100
AcDbEntity
  8
AM_0
 48
0.5
100
AcDbEllipse
 10
-2.719405052536058
 20
-0.7580025319323096
 30
0.0
 11
-1.244992520405377
 21
0.3645341213840689
 31
0.0
210
0.0
220
0.0
230
1.0
 40
0.3610699180828819
 41
4.30813249169542
 42
7.451572833024931
  0
ELLIPSE
  5
46F2
330
1F
100
AcDbEntity
  8
AM_0
 48
0.5
100
AcDbEllipse
 10
-18.89749467766211
 20
76.74723732746525
 30
0.0
 11
-55.8894164511074
 21
55.8894164511074
 31
0.0
210
0.0
220
0.0
230
0.9999999999999998
 40
0.9999999999999738
 41
2.570243563871287
 42
2.597622058225526
  0
ELLIPSE
  5
4BB1
330
1F
100
AcDbEntity
  8
AM_0
 48
0.5
100
AcDbEllipse
 10
5.62954053246631
 20
-5.677841882439071
 30
0.0
 11
-0.1573504765661612
 21
8.074015670584783
 31
0.0
210
0.0
220
0.0
230
-1.0
 40
0.9047490307790948
 41
-1.406239060368307
 42
-0.9472922019461924
  0
LINE
  5
4BB2
330
1F
100
AcDbEntity
  8
AM_0
 48
0.5
100
AcDbLine
 10
-1.602510950538203
 20
-4.495631716836793
 30
0.0
 11
-1.999999999994851
 21
-5.250000000000408
 31
0.0
  0
LINE
  5
546A
330
1F
100
AcDbEntity
  8
AM_0
 48
0.5
100
AcDbLine
 10
-122.9999999999949
 20
-5.500000532345422
 30
0.0
 11
-183.2499999999952
 21
-5.500000532345496
 31
0.0
  0
LINE
  5
546B
330
1F
100
AcDbEntity
  8
AM_0
 48
0.5
100
AcDbLine
 10
-183.9999999999951
 20
-4.750000532345501
 30
0.0
 11
-183.9999999999949
 21
4.749999467654502
 31
0.0
  0
LINE
  5
546D
330
1F
100
AcDbEntity
  8
AM_0
 48
0.5
100
AcDbLine
 10
-183.2499999999961
 20
-5.500000532344602
 30
0.0
 11
-183.2499999999948
 21
5.499999467654606
 31
0.0
  0
LINE
  5
546E
330
1F
100
AcDbEntity
  8
AM_0
 48
0.5
100
AcDbLine
 10
-122.9999999999949
 20
5.499999467654577
 30
0.0
 11
-183.2499999999949
 21
5.499999467654504
 31
0.0
  0
LINE
  5
548B
330
1F
100
AcDbEntity
  8
AM_0
 48
0.5
100
AcDbLine
 10
-183.2499999999949
 20
5.499999467654504
 30
0.0
 11
-183.9999999999949
 21
4.749999467654502
 31
0.0
1001
GENIUS_GENFIL_13
1070
     0
1040
0.75
1040
0.75
1040
20.0
1040
0.0
1002
{
1002
}
1001
GENIUS_GENODEF_13
1002
{
1000
HIER
1070
     0
1002
}
1002
{
1000
MANEDIT
1070
     0
1002
}
1002
{
1000
NOSEL
1070
     0
1002
}
1002
{
1000
BEHIND
1070
     0
1002
}
1002
{
1000
REACTOR
1002
}
1001
GENIUS_GENOBJ-N-CHA_13
1002
{
1000
OWNER
1000
GEN
1002
}
  0
LINE
  5
548E
330
1F
100
AcDbEntity
  8
AM_0
 48
0.5
100
AcDbLine
 10
-183.9999999999951
 20
-4.750000532345496
 30
0.0
 11
-183.2499999999952
 21
-5.500000532345496
 31
0.0
1001
GENIUS_GENFIL_13
1070
     0
1040
0.75
1040
0.75
1040
20.0
1040
0.0
1002
{
1002
}
1001
GENIUS_GENODEF_13
1002
{
1000
HIER
1070
     0
1002
}
1002
{
1000
MANEDIT
1070
     0
1002
}
1002
{
1000
NOSEL
1070
     0
1002
}
1002
{
1000
BEHIND
1070
     0
1002
}
1002
{
1000
REACTOR
1002
}
1001
GENIUS_GENOBJ-N-CHA_13
1002
{
1000
OWNER
1000
GEN
1002
}
  0
DIMENSION
  5
5686
330
1F
100
AcDbEntity
  8
AM_5
100
AcDbDimension
  2
*D7
 10
-1.99999999999462
 20
-19.50000153234537
 30
0.0
 11
-62.4999999999948
 21
-16.10000153234537
 31
0.0
 70
    32
  1
<>
  3
AM_JIS$0
100
AcDbAlignedDimension
 13
-122.9999999999949
 23
-5.500000532345437
 33
0.0
 14
-1.999999999994619
 24
-5.250000000000412
 34
0.0
 50
0.0000000000000396
100
AcDbRotatedDimension
1001
GENIUS_GENDTOL_13
1000

1000
h7
1000

1040
0.0
1001
ACAD
1000
DSTYLE
1002
{
1070
   271
1070
     0
1002
}
  0
LINE
  5
58BB
330
1F
100
AcDbEntity
  8
AM_0
100
AcDbLine
 10
-117.9999999999965
 20
-5.249925265606949
 30
0.0
 11
-122.5669857017663
 21
-5.249961950742497
 31
0.0
  0
LINE
  5
58DD
330
1F
100
AcDbEntity
  8
AM_0
100
AcDbLine
 10
-117.9999999999949
 20
5.250000366491405
 30
0.0
 11
-122.5669889641016
 21
5.250000155240302
 31
0.0
  0
DIMENSION
  5
5980
330
1F
100
AcDbEntity
  8
AM_5
100
AcDbDimension
  2
*D8
 10
-198.7500009999949
 20
-5.500000532345492
 30
0.0
 11
-202.1500009999949
 21
-0.0000005323455235
 31
0.0
 70
    32
  1
%%c<>
 51
359.9999999999998
  3
AM_JIS$0
100
AcDbAlignedDimension
 13
-183.2499999999948
 23
5.499999467654504
 33
0.0
 14
-183.2499999999961
 24
-5.500000532345496
 34
0.0
 50
270.0000000000001
100
AcDbRotatedDimension
1001
ACAD
1000
DSTYLE
1002
{
1070
   271
1070
     0
1002
}
1001
GENIUS_GENDTOL_13
1000

1000
h7
1000

1040
0.0
  0
ELLIPSE
  5
5A65
330
1F
100
AcDbEntity
  8
AM_0
 48
0.5
100
AcDbEllipse
 10
5.629540532466286
 20
5.677841882439095
 30
0.0
 11
-0.1573504765661275
 21
-8.074015670584785
 31
0.0
210
0.0
220
0.0
230
1.0
 40
0.9047490307790948
 41
-1.406239060368307
 42
-0.9472922019461924
  0
LINE
  5
5A66
330
1F
100
AcDbEntity
  8
AM_0
 48
0.5
100
AcDbLine
 10
-1.602510950538222
 20
4.495631716836786
 30
0.0
 11
-1.999999999994873
 21
5.250000000000399
 31
0.0
  0
DIMENSION
  5
5A74
330
1F
100
AcDbEntity
  8
AM_5
100
AcDbDimension
  2
*D9
 10
-0.3927721313996684
 20
-1.07913256202893
 30
0.0
 11
30.71148691587544
 21
-0.0000000000003541
 31
0.0
 70
    34
  1
<>
 51
359.9999999999998
  3
AM_JIS$2
100
AcDb2LineAngularDimension
 13
0.0000000000061409
 23
-0.0000000000004038
 33
0.0
 14
-0.3927721313996728
 24
1.079132562028126
 34
0.0
 15
0.0000000000061409
 25
-0.0000000000003987
 35
0.0
 16
31.04625188372899
 26
-13.39204582707388
 36
0.0
1001
GENIUS_GENDTOL_13
1000

1000
h7
1000

1040
0.0
1001
ACAD
1000
DSTYLE
1002
{
1070
   271
1070
     0
1002
}
  0
ELLIPSE
  5
5B41
330
1F
100
AcDbEntity
  8
AM_11
 48
0.5
100
AcDbEllipse
 10
-45.092726026256
 20
-23.18906759625523
 30
0.0
 11
-26.3716129302975
 21
-0.0000000000000616
 31
0.0
210
0.0
220
0.0
230
1.0
 40
0.9722222222222219
 41
4.271664206181687
 42
5.153113667164993
  0
ELLIPSE
  5
5B42
330
1F
100
AcDbEntity
  8
AM_11
 48
0.5
100
AcDbEllipse
 10
-45.09272602625609
 20
23.18907666796577
 30
0.0
 11
26.37161293029748
 21
0.0000000000003049
 31
0.0
210
0.0
220
0.0
230
1.0
 40
0.9722222222222224
 41
4.271663339930089
 42
5.153112800913382
  0
ELLIPSE
  5
5B43
330
1F
100
AcDbEntity
  8
AM_11
 48
0.5
100
AcDbEllipse
 10
-67.59272602624969
 20
-23.18906759625527
 30
0.0
 11
-26.37161293029748
 21
-0.0000000000000909
 31
0.0
210
0.0
220
0.0
230
1.0
 40
0.9722222222222226
 41
4.271664206181685
 42
5.153113667164992
  0
ELLIPSE
  5
5B44
330
1F
100
AcDbEntity
  8
AM_11
 48
0.5
100
AcDbEllipse
 10
-67.59272602624978
 20
23.18907666796572
 30
0.0
 11
-26.37161293029748
 21
-0.0000000000001026
 31
0.0
210
0.0
220
0.0
230
1.0
 40
0.9722222222222224
 41
1.130070686340304
 42
2.011520147323597
  0
ELLIPSE
  5
5B45
330
1F
100
AcDbEntity
  8
AM_11
 48
0.5
100
AcDbEllipse
 10
-22.59272602625601
 20
-23.18906759625518
 30
0.0
 11
26.37161293029748
 21
0.0000000000001702
 31
0.0
210
0.0
220
0.0
230
1.0
 40
0.9722222222222226
 41
1.130071552591889
 42
2.011521013575197
  0
ELLIPSE
  5
5B46
330
1F
100
AcDbEntity
  8
AM_11
 48
0.5
100
AcDbEllipse
 10
-22.59272602625611
 20
23.18907666796581
 30
0.0
 11
-26.3716129302975
 21
-0.0000000000000382
 31
0.0
210
0.0
220
0.0
230
1.0
 40
0.9722222222222219
 41
1.130070686340307
 42
2.011520147323599
  0
ELLIPSE
  5
5B47
330
1F
100
AcDbEntity
  8
AM_11
 48
0.5
100
AcDbEllipse
 10
-0.0927260262560665
 20
23.18907666796586
 30
0.0
 11
-26.37161293029825
 21
0.0000000000106133
 31
0.0
210
0.0
220
0.0
230
1.0
 40
0.9722222222221985
 41
1.130070686340713
 42
1.291800737381399
  0
ELLIPSE
  5
5B49
330
1F
100
AcDbEntity
  8
AM_11
 48
0.5
100
AcDbEllipse
 10
-135.0927260262433
 20
-23.18906759625546
 30
0.0
 11
-26.37161293029748
 21
-0.0000000000000909
 31
0.0
210
0.0
220
0.0
230
1.0
 40
0.9722222222222226
 41
4.271664206181685
 42
5.153113667164992
  0
ELLIPSE
  5
5B4A
330
1F
100
AcDbEntity
  8
AM_11
 48
0.5
100
AcDbEllipse
 10
-135.0927260262433
 20
23.18907666796553
 30
0.0
 11
-26.37161293029748
 21
-0.0000000000001026
 31
0.0
210
0.0
220
0.0
230
1.0
 40
0.9722222222222224
 41
1.130070686340304
 42
2.011520147323597
  0
ELLIPSE
  5
5B4B
330
1F
100
AcDbEntity
  8
AM_11
 48
0.5
100
AcDbEllipse
 10
-112.5927260262496
 20
-23.18906759625541
 30
0.0
 11
-26.3716129302975
 21
-0.0000000000000616
 31
0.0
210
0.0
220
0.0
230
1.0
 40
0.9722222222222219
 41
4.271664206181687
 42
5.153113667164993
  0
ELLIPSE
  5
5B4C
330
1F
100
AcDbEntity
  8
AM_11
 48
0.5
100
AcDbEllipse
 10
-112.5927260262497
 20
23.18907666796559
 30
0.0
 11
26.37161293029748
 21
0.0000000000003049
 31
0.0
210
0.0
220
0.0
230
1.0
 40
0.9722222222222224
 41
4.271663339930089
 42
5.153112800913382
  0
ELLIPSE
  5
5B4D
330
1F
100
AcDbEntity
  8
AM_11
 48
0.5
100
AcDbEllipse
 10
-90.09272602624964
 20
-23.18906759625537
 30
0.0
 11
26.37161293029748
 21
0.0000000000001702
 31
0.0
210
0.0
220
0.0
230
1.0
 40
0.9722222222222226
 41
1.130071552591889
 42
2.011521013575197
  0
ELLIPSE
  5
5B4E
330
1F
100
AcDbEntity
  8
AM_11
 48
0.5
100
AcDbEllipse
 10
-90.09272602624973
 20
23.18907666796563
 30
0.0
 11
-26.3716129302975
 21
-0.0000000000000382
 31
0.0
210
0.0
220
0.0
230
1.0
 40
0.9722222222222219
 41
1.130070686340307
 42
2.011520147323599
  0
ELLIPSE
  5
5B51
330
1F
100
AcDbEntity
  8
AM_11
 48
0.5
100
AcDbEllipse
 10
-180.0927419625516
 20
-23.18906583236044
 30
0.0
 11
-26.3716129302975
 21
-0.0000000000000616
 31
0.0
210
0.0
220
0.0
230
1.0
 40
0.9722222222222219
 41
4.271664206181687
 42
4.861097987316966
  0
ELLIPSE
  5
5B52
330
1F
100
AcDbEntity
  8
AM_11
 48
0.5
100
AcDbEllipse
 10
-180.0927419625516
 20
23.18907843186056
 30
0.0
 11
26.37161293029748
 21
0.0000000000003049
 31
0.0
210
0.0
220
0.0
230
1.0
 40
0.9722222222222224
 41
4.5636799734524
 42
5.153112800913382
  0
ELLIPSE
  5
5B53
330
1F
100
AcDbEntity
  8
AM_11
 48
0.5
100
AcDbEllipse
 10
-157.5927419625515
 20
-23.1890658323604
 30
0.0
 11
26.37161293029748
 21
0.0000000000001702
 31
0.0
210
0.0
220
0.0
230
1.0
 40
0.9722222222222226
 41
1.130071552591889
 42
2.011521013575197
  0
ELLIPSE
  5
5B54
330
1F
100
AcDbEntity
  8
AM_11
 48
0.5
100
AcDbEllipse
 10
-157.5927419625517
 20
23.18907843186059
 30
0.0
 11
-26.3716129302975
 21
-0.0000000000000382
 31
0.0
210
0.0
220
0.0
230
1.0
 40
0.9722222222222219
 41
1.130070686340307
 42
2.011520147323599
  0
SPLINE
  5
5B9E
330
1F
100
AcDbEntity
  8
AM_0
100
AcDbSpline
210
0.0
220
0.0
230
1.0
 70
     8
 71
     3
 72
    11
 73
     7
 74
     0
 42
0.0000000001
 43
0.0000000001
 40
11.27226913003534
 40
11.27226913003534
 40
11.27226913003534
 40
11.2722691300354
 40
12.28301561507924
 40
13.29510212255852
 40
14.30984805882082
 40
15.18258238371378
 40
15.18258238371378
 40
15.18258238371378
 40
15.18258238371378
 10
-59.09297574643316
 20
-5.249995866564396
 30
0.0
 10
-59.40281221353682
 20
-5.224300840924342
 30
0.0
 10
-60.02190073724964
 20
-5.162094302142954
 30
0.0
 10
-60.94733666509717
 20
-5.036608326670023
 30
0.0
 10
-61.82559167860089
 20
-4.886729087968221
 30
0.0
 10
-62.3935954688001
 20
-4.771512456485858
 30
0.0
 10
-62.65534778921699
 20
-4.714598622931609
 30
0.0
  0
ELLIPSE
  5
5B9F
330
1F
100
AcDbEntity
  8
AM_0
100
AcDbEllipse
 10
-116.0511981733027
 20
-5.813536802468808
 30
0.0
 11
0.0000000000036044
 21
3.103686462843884
 31
0.0
210
0.0
220
0.0
230
1.0
 40
0.9823057743152572
 41
-0.2681948460320109
 42
-0.0735832027597738
  0
ELLIPSE
  5
5BA0
330
1F
100
AcDbEntity
  8
AM_0
100
AcDbEllipse
 10
-116.1338402688396
 20
-9.865014398244648
 30
0.0
 11
-0.0000000000011645
 21
7.153585784807741
 31
0.0
210
0.0
220
0.0
230
1.0
 40
0.9823057743153576
 41
-0.0436708493383471
 42
0.1276600234896463
  0
ELLIPSE
  5
5BA1
330
1F
100
AcDbEntity
  8
AM_0
100
AcDbEllipse
 10
-116.8752213643263
 20
-4.324388345004242
 30
0.0
 11
-0.0000000000032168
 21
1.562555607240138
 31
0.0
210
0.0
220
0.0
230
1.0
 40
0.9823057743152352
 41
0.1000113452940412
 42
0.4663880400683125
  0
ELLIPSE
  5
5BA2
330
1F
100
AcDbEntity
  8
AM_0
100
AcDbEllipse
 10
-116.2494570146559
 20
-2.038792269489173
 30
0.0
 11
0.0000000000148681
 21
2.37410209907332
 31
0.0
210
0.0
220
0.0
230
1.0
 40
0.9823057743152274
 41
2.542031073040684
 42
2.823851770175092
  0
ELLIPSE
  5
5BA3
330
1F
100
AcDbEntity
  8
AM_0
100
AcDbEllipse
 10
-117.0948845613301
 20
-3.939269320095414
 30
0.0
 11
-0.0000000000110149
 21
1.118329837209525
 31
0.0
210
0.0
220
0.0
230
1.0
 40
0.9823057743152908
 41
0.4426332494697061
 42
0.8332770159508298
  0
ELLIPSE
  5
5BA4
330
1F
100
AcDbEntity
  8
AM_0
100
AcDbEllipse
 10
-116.7408063067393
 20
-2.742871535306642
 30
0.0
 11
-0.0000000000305348
 21
1.510654208183362
 31
0.0
210
0.0
220
0.0
230
1.0
 40
0.982305774315413
 41
2.222165445273741
 42
2.552396541795072
  0
ELLIPSE
  5
5BA5
330
1F
100
AcDbEntity
  8
AM_0
100
AcDbEllipse
 10
-117.6273125722481
 20
-3.437964752216678
 30
0.0
 11
-0.0000000000045234
 21
0.3801129893690252
 31
0.0
210
0.0
220
0.0
230
1.0
 40
0.9823057743160145
 41
0.8505161907332414
 42
1.509564580572027
  0
ELLIPSE
  5
5BA6
330
1F
100
AcDbEntity
  8
AM_0
100
AcDbEllipse
 10
-117.5830367476138
 20
-3.4099533983276
 30
0.0
 11
0.0000000000054795
 21
0.4245005773748157
 31
0.0
210
0.0
220
0.0
230
1.0
 40
0.9823057743160781
 41
1.581988331617366
 42
2.197008321703035
  0
SPLINE
  5
5BA7
330
1F
100
AcDbEntity
  8
AM_0
100
AcDbSpline
210
0.0
220
0.0
230
1.0
 70
     8
 71
     3
 72
    15
 73
    11
 74
     0
 42
0.0000000001
 43
0.0000000001
 40
10.33298210044364
 40
10.33298210044364
 40
10.33298210044364
 40
10.33298210044364
 40
10.37139106676736
 40
11.27458944007584
 40
12.18373345430765
 40
13.09824173870457
 40
14.01741343450111
 40
14.9404441545541
 40
15.86644439743314
 40
16.55140071192301
 40
16.55140071192301
 40
16.55140071192301
 40
16.55140071192301
 10
-111.317716354135
 20
2.397932048918489
 30
0.0
 10
-111.5591981826557
 20
2.326659727439523
 30
0.0
 10
-111.8995857218477
 20
2.210456856040829
 30
0.0
 10
-112.5661325230263
 20
1.976084685860191
 30
0.0
 10
-113.5417630633857
 20
1.616119261464819
 30
0.0
 10
-114.5173361293485
 20
1.24148584272358
 30
0.0
 10
-115.4928602708864
 20
0.8544882199240646
 30
0.0
 10
-116.4683449823107
 20
0.4575066321621938
 30
0.0
 10
-117.3584243612129
 20
0.0883898776312357
 30
0.0
 10
-117.6963523014311
 20
-0.0776543891562526
 30
0.0
 10
-117.9999999999949
 20
-0.2474807966600668
 30
0.0
  0
LINE
  5
5BA8
330
1F
100
AcDbEntity
  8
AM_11
 48
0.5
100
AcDbLine
 10
-88.17355106655844
 20
-5.250478717820377
 30
0.0
 11
-74.7669656567281
 21
-5.249724704320597
 31
0.0
  0
LINE
  5
5BA9
330
1F
100
AcDbEntity
  8
AM_11
100
AcDbLine
 10
-104.0343698527135
 20
-5.249999999999395
 30
0.0
 11
-117.9999999999949
 21
-5.24992558751957
 31
0.0
  0
LINE
  5
5BAA
330
1F
100
AcDbEntity
  8
AM_0
100
AcDbLine
 10
-88.17355106655844
 20
-5.250478717820377
 30
0.0
 11
-104.0343698527135
 21
-5.249999999999395
 31
0.0
  0
ELLIPSE
  5
5BAB
330
1F
100
AcDbEntity
  8
AM_0
100
AcDbEllipse
 10
-115.1555936073785
 20
0.6445392992722651
 30
0.0
 11
-0.0000000000011439
 21
5.304327340007858
 31
0.0
210
0.0
220
0.0
230
1.0
 40
0.9823057743152322
 41
3.119508111767719
 42
3.205549794955974
  0
ELLIPSE
  5
5BAC
330
1F
100
AcDbEntity
  8
AM_0
100
AcDbEllipse
 10
-114.486040150408
 20
2.981739743576163
 30
0.0
 11
0.0000000000034596
 21
7.705391886467428
 31
0.0
210
0.0
220
0.0
230
1.0
 40
0.9823057743153274
 41
2.806097075228863
 42
2.963480633382672
  0
ELLIPSE
  5
5BAD
330
1F
100
AcDbEntity
  8
AM_0
100
AcDbEllipse
 10
-115.2598748142942
 20
-1.693371623347989
 30
0.0
 11
0.0000000000027649
 21
2.965143247471342
 31
0.0
210
0.0
220
0.0
230
1.0
 40
0.982305774315235
 41
2.945609816912614
 42
3.137891475664034
  0
SPLINE
  5
5BAE
330
1F
100
AcDbEntity
  8
AM_0
100
AcDbSpline
210
0.0
220
0.0
230
1.0
 70
     8
 71
     3
 72
    25
 73
    21
 74
     0
 42
0.0000000001
 43
0.0000000001
 40
1.163660092745933
 40
1.163660092745933
 40
1.163660092745933
 40
1.163660092745933
 40
1.685415058684573
 40
2.531036209541122
 40
3.379897699130124
 40
4.232934581347659
 40
5.09097061220244
 40
5.954688180526682
 40
6.824620803463244
 40
7.701151815239697
 40
8.58445704656667
 40
9.47458238407075
 40
10.37139106676736
 40
11.27458944007584
 40
12.18373345430765
 40
13.09824173870457
 40
14.01741343450111
 40
14.9404441545541
 40
15.86644439743314
 40
16.55140071192301
 40
16.55140071192301
 40
16.55140071192301
 40
16.55140071192301
 10
-100.6995907950155
 20
-5.249999999999425
 30
0.0
 10
-100.9009290271763
 20
-5.242054245703634
 30
0.0
 10
-101.428263639591
 20
-5.216244436183326
 30
0.0
 10
-102.2810123292198
 20
-5.1437360551839
 30
0.0
 10
-103.2575135863329
 20
-5.032242292769337
 30
0.0
 10
-104.2339313758346
 20
-4.889103240815475
 30
0.0
 10
-105.2102631255061
 20
-4.716222271142408
 30
0.0
 10
-106.1865038197397
 20
-4.514425902066017
 30
0.0
 10
-107.1626518234788
 20
-4.285028708831278
 30
0.0
 10
-108.1387027925202
 20
-4.029439224162714
 30
0.0
 10
-109.1146586777556
 20
-3.749242708827923
 30
0.0
 10
-110.0905168541603
 20
-3.446166952925686
 30
0.0
 10
-111.0662929994183
 20
-3.122094616110802
 30
0.0
 10
-112.0419918559965
 20
-2.779017943843087
 30
0.0
 10
-113.017622396356
 20
-2.4190525194477
 30
0.0
 10
-113.9931954623188
 20
-2.044419100706436
 30
0.0
 10
-114.9687196038567
 20
-1.657421477906888
 30
0.0
 10
-115.9442043152808
 20
-1.260439890145002
 30
0.0
 10
-116.8342836941832
 20
-0.8913231356140244
 30
0.0
 10
-117.3114419324472
 20
-0.6545591331244923
 30
0.0
 10
-117.9999999999954
 20
-0.247480796659767
 30
0.0
  0
SPLINE
  5
5BAF
330
1F
100
AcDbEntity
  8
AM_0
100
AcDbSpline
210
0.0
220
0.0
230
1.0
 70
     8
 71
     3
 72
    14
 73
    10
 74
     0
 42
0.0000000001
 43
0.0000000001
 40
1.580019955310467
 40
1.580019955310467
 40
1.580019955310467
 40
1.580019955310467
 40
2.030549285115227
 40
3.082371838836284
 40
4.126290986361125
 40
5.162752068350215
 40
6.192395305374981
 40
7.216039564037012
 40
8.092146932806128
 40
8.092146932806128
 40
8.092146932806128
 40
8.092146932806128
 10
-111.8039393682841
 20
-3.909636656774443
 30
0.0
 10
-111.9421109616473
 20
-3.949542380276409
 30
0.0
 10
-112.403650503912
 20
-4.080338719225392
 30
0.0
 10
-113.1916129595746
 20
-4.285497456841061
 30
0.0
 10
-114.1676210277328
 20
-4.515248026802388
 30
0.0
 10
-115.1438977899984
 20
-4.716938522867264
 30
0.0
 10
-116.1202192849245
 20
-4.889891623019314
 30
0.0
 10
-117.0513397172265
 20
-5.026215851285375
 30
0.0
 10
-117.7081745315213
 20
-5.184770773320471
 30
0.0
 10
-117.9999999999955
 20
-5.249925265606727
 30
0.0
  0
SPLINE
  5
5BB0
330
1F
100
AcDbEntity
  8
AM_0
100
AcDbSpline
210
0.0
220
0.0
230
1.0
 70
     8
 71
     3
 72
    19
 73
    15
 74
     0
 42
0.0000000001
 43
0.0000000001
 40
1.479671614733745
 40
1.479671614733745
 40
1.479671614733745
 40
1.479671614733745
 40
2.022833576467832
 40
3.037578957496688
 40
4.056212745003489
 40
5.079857003664532
 40
6.109500240690281
 40
7.145961322679372
 40
8.189895241603872
 40
9.241717795325891
 40
10.30168407291828
 40
11.36983447792315
 40
12.44600489715814
 40
13.01371853178965
 40
13.01371853178965
 40
13.01371853178965
 40
13.01371853178965
 10
-104.0343698527117
 20
-5.249999999999383
 30
0.0
 10
-104.2089828614476
 20
-5.241479927619946
 30
0.0
 10
-104.709550688974
 20
-5.212132491609245
 30
0.0
 10
-105.5357368345706
 20
-5.144355562829233
 30
0.0
 10
-106.5122276003036
 20
-5.03207517990318
 30
0.0
 10
-107.4886481832639
 20
-4.889148291105589
 30
0.0
 10
-108.4649793208565
 20
-4.716210469533965
 30
0.0
 10
-109.4412242788657
 20
-4.514426685994703
 30
0.0
 10
-110.4173743999717
 20
-4.285032567832038
 30
0.0
 10
-111.393423034813
 20
-4.029436581015553
 30
0.0
 10
-112.3693750484528
 20
-3.749243075133187
 30
0.0
 10
-113.3452330546849
 20
-3.446166853649761
 30
0.0
 10
-114.1650002222717
 20
-3.173907947829612
 30
0.0
 10
-114.6340663442209
 20
-2.987668082646608
 30
0.0
 10
-115.2433010349975
 20
-2.820804594484417
 30
0.0
  0
SPLINE
  5
5BB1
330
1F
100
AcDbEntity
  8
AM_0
100
AcDbSpline
210
0.0
220
0.0
230
1.0
 70
     8
 71
     3
 72
    11
 73
     7
 74
     0
 42
0.0000000001
 43
0.0000000001
 40
11.27226913003534
 40
11.27226913003534
 40
11.27226913003534
 40
11.2722691300354
 40
12.28301561507924
 40
13.29510212255852
 40
14.30984805882082
 40
15.18258238371378
 40
15.18258238371378
 40
15.18258238371378
 40
15.18258238371378
 10
-87.95154718390719
 20
-5.250466231872655
 30
0.0
 10
-88.29481852964113
 20
-5.258476420047673
 30
0.0
 10
-88.942519021949
 20
-5.196269881266311
 30
0.0
 10
-89.91072515581725
 20
-5.070783905793417
 30
0.0
 10
-90.82956984899086
 20
-4.920904667091654
 30
0.0
 10
-91.42382466143414
 20
-4.805688035609315
 30
0.0
 10
-91.69767420039827
 20
-4.748774202055072
 30
0.0
  0
SPLINE
  5
5BB2
330
1F
100
AcDbEntity
  8
AM_0
100
AcDbSpline
210
0.0
220
0.0
230
1.0
 70
     8
 71
     3
 72
    22
 73
    18
 74
     0
 42
0.0000000001
 43
0.0000000001
 40
17.17441611292
 40
17.17441611292
 40
17.17441611292
 40
17.17441611292
 40
17.38177636558528
 40
18.41823744757437
 40
19.46215659509824
 40
20.51397914882054
 40
21.57394542641293
 40
22.64209583141747
 40
23.71826625065247
 40
24.80210429862395
 40
25.8930771157021
 40
26.99048705697709
 40
28.09349309193389
 40
29.20112995599786
 40
30.31233024745139
 40
31.42594771747373
 40
32.5407895042663
 40
32.54078950426994
 40
32.54078950426994
 40
32.54078950426994
 10
-91.69767420039827
 20
-4.748774202055072
 30
0.0
 10
-91.76306825126697
 20
-4.736620966984363
 30
0.0
 10
-92.15506987245365
 20
-4.66259428378733
 30
0.0
 10
-92.87319475326427
 20
-4.514161149189972
 30
0.0
 10
-93.84933869842626
 20
-4.284763367476936
 30
0.0
 10
-94.82538317656928
 20
-4.029169816523078
 30
0.0
 10
-95.80133507851265
 20
-3.748975974648653
 30
0.0
 10
-96.77719311509168
 20
-3.445899844376146
 30
0.0
 10
-97.75296929798736
 20
-3.121827608514082
 30
0.0
 10
-98.72866814531761
 20
-2.778750910753614
 30
0.0
 10
-99.70429868461696
 20
-2.418785486291396
 30
0.0
 10
-100.6798717642784
 20
-2.044152093790448
 30
0.0
 10
-101.6553958516877
 20
-1.657154365310467
 30
0.0
 10
-102.630880767072
 20
-1.260173176271814
 30
0.0
 10
-103.606335157256
 20
-0.8556495116302206
 30
0.0
 10
-104.5817734727482
 20
-0.4460795010447826
 30
0.0
 10
-105.231938038503
 20
-0.1713895827960873
 30
0.0
 10
-105.5571989262676
 20
-0.0339691755880573
 30
0.0
  0
SPLINE
  5
5BB3
330
1F
100
AcDbEntity
  8
AM_0
100
AcDbSpline
210
0.0
220
0.0
230
1.0
 70
     8
 71
     3
 72
    15
 73
    11
 74
     0
 42
0.0000000001
 43
0.0000000001
 40
4.116313036328508
 40
4.116313036328508
 40
4.116313036328508
 40
4.116313036328508
 40
4.126290986361125
 40
5.162752068350215
 40
6.192395305374981
 40
7.216039564037012
 40
8.234688489606833
 40
9.249433870634691
 40
10.26152376260694
 40
11.27226744710342
 40
11.27226744710342
 40
11.27226744710342
 40
11.27226744710352
 10
-81.12955036849818
 20
-4.508463007881301
 30
0.0
 10
-81.13267087937051
 20
-4.509153159453313
 30
0.0
 10
-81.45994651154259
 20
-4.581490316914686
 30
0.0
 10
-82.11165570204508
 20
-4.716127906380046
 30
0.0
 10
-83.08797719697112
 20
-4.889081006532102
 30
0.0
 10
-84.06440506037428
 20
-5.032038641568441
 30
0.0
 10
-85.04090038237661
 20
-5.144185015301497
 30
0.0
 10
-86.01745650879445
 20
-5.224793381704852
 30
0.0
 10
-86.94957243792721
 20
-5.228066752505593
 30
0.0
 10
-87.51288700933502
 20
-5.233135551028679
 30
0.0
 10
-87.95154718390717
 20
-5.250466231872655
 30
0.0
  0
SPLINE
  5
5BB4
330
1F
100
AcDbEntity
  8
AM_0
100
AcDbSpline
210
0.0
220
0.0
230
1.0
 70
     8
 71
     3
 72
    22
 73
    18
 74
     0
 42
0.0000000001
 43
0.0000000001
 40
17.17441611292
 40
17.17441611292
 40
17.17441611292
 40
17.17441611292
 40
17.38177636558528
 40
18.41823744757437
 40
19.46215659509824
 40
20.51397914882054
 40
21.57394542641293
 40
22.64209583141747
 40
23.71826625065247
 40
24.80210429862395
 40
25.8930771157021
 40
26.99048705697709
 40
28.09349309193389
 40
29.20112995599786
 40
30.31233024745139
 40
31.42594771747373
 40
32.5407895042663
 40
32.54078950426994
 40
32.54078950426994
 40
32.54078950426994
 10
-62.65575602003934
 20
-4.714533864221753
 30
0.0
 10
-62.71826130896947
 20
-4.702380629151039
 30
0.0
 10
-63.09294637997934
 20
-4.628353945954001
 30
0.0
 10
-63.77934831664974
 20
-4.4799208113566
 30
0.0
 10
-64.71237140543614
 20
-4.250523029643535
 30
0.0
 10
-65.64529942112827
 20
-3.99492947868963
 30
0.0
 10
-66.57813895014566
 20
-3.714735636815167
 30
0.0
 10
-67.51088876027222
 20
-3.411659506542618
 30
0.0
 10
-68.44356033257641
 20
-3.08758727068052
 30
0.0
 10
-69.3761579855899
 20
-2.744510572920012
 30
0.0
 10
-70.30869034805852
 20
-2.384545148457756
 30
0.0
 10
-71.24116778915103
 20
-2.009911755956771
 30
0.0
 10
-72.17359840220898
 20
-1.622914027476749
 30
0.0
 10
-73.10599157365392
 20
-1.225932838438055
 30
0.0
 10
-74.03835556833985
 20
-0.8214091737964137
 30
0.0
 10
-74.97070419842852
 20
-0.4118391632109349
 30
0.0
 10
-75.59214794590712
 20
-0.1371492449622196
 30
0.0
 10
-75.90304053471796
 20
0.000271162245824
 30
0.0
  0
LINE
  5
5BB5
330
1F
100
AcDbEntity
  8
AM_0
 48
0.5
100
AcDbLine
 10
-74.7669656567281
 20
-5.249724704320597
 30
0.0
 11
-59.09297574643449
 21
-5.249995866564291
 31
0.0
  0
LINE
  5
5BB6
330
1F
100
AcDbEntity
  8
AM_0
 48
0.5
100
AcDbLine
 10
-10.71811703003021
 20
-5.250000000000359
 30
0.0
 11
-1.999999999994619
 21
-5.249999999999968
 31
0.0
  0
LINE
  5
5BB7
330
1F
100
AcDbEntity
  8
AM_11
 48
0.5
100
AcDbLine
 10
-25.86225879859714
 20
-5.249995866566163
 30
0.0
 11
-10.71811703003021
 21
-5.250000000000359
 31
0.0
  0
LINE
  5
5BB8
330
1F
100
AcDbEntity
  8
AM_11
 48
0.5
100
AcDbLine
 10
-59.09297574643096
 20
-5.249995866564394
 30
0.0
 11
-41.50913992435017
 21
-5.250741724343003
 31
0.0
  0
LINE
  5
5BB9
330
1F
100
AcDbEntity
  8
AM_0
 48
0.5
100
AcDbLine
 10
-41.50913992435017
 20
-5.249995866565397
 30
0.0
 11
-25.86226138927532
 21
-5.249995866566179
 31
0.0
  0
SPLINE
  5
5BBA
330
1F
100
AcDbEntity
  8
AM_0
100
AcDbSpline
210
0.0
220
0.0
230
1.0
 70
     8
 71
     3
 72
    17
 73
    13
 74
     0
 42
0.0000000001
 43
0.0000000001
 40
1.580019955310467
 40
1.580019955310467
 40
1.580019955310467
 40
1.580019955310467
 40
2.030549285115227
 40
3.082371838836284
 40
4.126290986361125
 40
5.162752068350215
 40
6.192395305374981
 40
7.216039564037012
 40
8.234688489606833
 40
9.249433870634691
 40
10.26152376260694
 40
11.27226744710342
 40
11.27226744710342
 40
11.27226744710342
 40
11.27226744710352
 10
-50.30037189522458
 20
-3.874650461164285
 30
0.0
 10
-50.43243980125538
 20
-3.914556184666245
 30
0.0
 10
-50.87359097722202
 20
-4.045352523615203
 30
0.0
 10
-51.62674543551044
 20
-4.250511261230845
 30
0.0
 10
-52.55963864961763
 20
-4.480261831192129
 30
0.0
 10
-53.49278868835322
 20
-4.681952327256969
 30
0.0
 10
-54.42598148369788
 20
-4.854905427408986
 30
0.0
 10
-55.35927594872508
 20
-4.997863062445279
 30
0.0
 10
-56.29263489238873
 20
-5.110009436178301
 30
0.0
 10
-57.2260519544517
 20
-5.190617802581614
 30
0.0
 10
-58.15950413793477
 20
-5.239169276239486
 30
0.0
 10
-58.78195663153652
 20
-5.24999589660519
 30
0.0
 10
-59.09297574643311
 20
-5.249995866564396
 30
0.0
  0
SPLINE
  5
5BBB
330
1F
100
AcDbEntity
  8
AM_0
100
AcDbSpline
210
0.0
220
0.0
230
1.0
 70
     8
 71
     3
 72
    11
 73
     7
 74
     0
 42
0.0000000001
 43
0.0000000001
 40
11.27226913003534
 40
11.27226913003534
 40
11.27226913003534
 40
11.2722691300354
 40
12.28301561507924
 40
13.29510212255852
 40
14.30984805882082
 40
15.18258238371378
 40
15.18258238371378
 40
15.18258238371378
 40
15.18258238371378
 10
-25.8622613892753
 20
-5.24999586656618
 30
0.0
 10
-26.17209785637893
 20
-5.224300840926122
 30
0.0
 10
-26.79118638009176
 20
-5.162094302144737
 30
0.0
 10
-27.71662230793929
 20
-5.036608326671805
 30
0.0
 10
-28.594877321443
 20
-4.886729087970003
 30
0.0
 10
-29.16288111164217
 20
-4.771512456487643
 30
0.0
 10
-29.42463343205906
 20
-4.714598622933389
 30
0.0
  0
SPLINE
  5
5BBC
330
1F
100
AcDbEntity
  8
AM_0
100
AcDbSpline
210
0.0
220
0.0
230
1.0
 70
     8
 71
     3
 72
    17
 73
    13
 74
     0
 42
0.0000000001
 43
0.0000000001
 40
1.580019955310467
 40
1.580019955310467
 40
1.580019955310467
 40
1.580019955310467
 40
2.030549285115227
 40
3.082371838836284
 40
4.126290986361125
 40
5.162752068350215
 40
6.192395305374981
 40
7.216039564037012
 40
8.234688489606833
 40
9.249433870634691
 40
10.26152376260694
 40
11.27226744710342
 40
11.27226744710342
 40
11.27226744710342
 40
11.27226744710352
 10
-17.06965753806665
 20
-3.87465046116607
 30
0.0
 10
-17.20172544409748
 20
-3.914556184668027
 30
0.0
 10
-17.64287662006412
 20
-4.045352523616984
 30
0.0
 10
-18.39603107835255
 20
-4.250511261232627
 30
0.0
 10
-19.32892429245974
 20
-4.480261831193911
 30
0.0
 10
-20.26207433119535
 20
-4.681952327258748
 30
0.0
 10
-21.19526712653999
 20
-4.854905427410767
 30
0.0
 10
-22.12856159156718
 20
-4.997863062447065
 30
0.0
 10
-23.06192053523087
 20
-5.110009436180083
 30
0.0
 10
-23.99533759729384
 20
-5.190617802583394
 30
0.0
 10
-24.92878978077694
 20
-5.239169276241269
 30
0.0
 10
-25.55124227437868
 20
-5.249995896606971
 30
0.0
 10
-25.86226138927524
 20
-5.24999586656618
 30
0.0
  0
SPLINE
  5
5BBD
330
1F
100
AcDbEntity
  8
AM_0
100
AcDbSpline
210
0.0
220
0.0
230
1.0
 70
     8
 71
     3
 72
    22
 73
    18
 74
     0
 42
0.0000000001
 43
0.0000000001
 40
17.17441611292
 40
17.17441611292
 40
17.17441611292
 40
17.17441611292
 40
17.38177636558528
 40
18.41823744757437
 40
19.46215659509824
 40
20.51397914882054
 40
21.57394542641293
 40
22.64209583141747
 40
23.71826625065247
 40
24.80210429862395
 40
25.8930771157021
 40
26.99048705697709
 40
28.09349309193389
 40
29.20112995599786
 40
30.31233024745139
 40
31.42594771747373
 40
32.5407895042663
 40
32.54078950426994
 40
32.54078950426994
 40
32.54078950426994
 10
-29.4250416628814
 20
-4.714533864223533
 30
0.0
 10
-29.48754695181155
 20
-4.702380629152819
 30
0.0
 10
-29.86223202282143
 20
-4.628353945955783
 30
0.0
 10
-30.54863395949181
 20
-4.479920811358382
 30
0.0
 10
-31.48165704827819
 20
-4.250523029645314
 30
0.0
 10
-32.41458506397037
 20
-3.994929478691416
 30
0.0
 10
-33.34742459298781
 20
-3.714735636816948
 30
0.0
 10
-34.28017440311437
 20
-3.4116595065444
 30
0.0
 10
-35.21284597541863
 20
-3.087587270682302
 30
0.0
 10
-36.14544362843214
 20
-2.744510572921794
 30
0.0
 10
-37.07797599090081
 20
-2.384545148459535
 30
0.0
 10
-38.0104534319933
 20
-2.009911755958553
 30
0.0
 10
-38.94288404505116
 20
-1.622914027478531
 30
0.0
 10
-39.87527721649605
 20
-1.225932838439837
 30
0.0
 10
-40.807641211182
 20
-0.8214091737981938
 30
0.0
 10
-41.73998984127067
 20
-0.4118391632127158
 30
0.0
 10
-42.36143358874925
 20
-0.1371492449640007
 30
0.0
 10
-42.67232617756012
 20
0.0002711622440427
 30
0.0
  0
LINE
  5
5BBE
330
1F
100
AcDbEntity
  8
AM_0
 48
0.5
100
AcDbLine
 10
0.0000000000060825
 20
-0.0000000000004038
 30
0.0
 11
-5.592133491348074
 21
1.370072086786679
 31
0.0
  0
ELLIPSE
  5
5BBF
330
1F
100
AcDbEntity
  8
AM_0
 48
0.5
100
AcDbEllipse
 10
-2.786239876622466
 20
-1.686064376110871
 30
0.0
 11
-4.768833227921748
 21
3.518144952942817
 31
0.0
210
0.0
220
0.0
230
1.0
 40
0.4573467302433837
 41
1.074241500131246
 42
2.053064514350218
  0
ELLIPSE
  5
5BC0
330
1F
100
AcDbEntity
  8
AM_0
 48
0.5
100
AcDbEllipse
 10
-21.21186102580341
 20
57.91260106553413
 30
0.0
 11
0.0000000003600132
 21
61.66919740713844
 31
0.0
210
0.0
220
0.0
230
1.0
 40
0.9886943239289752
 41
3.385746125799296
 42
3.439922993934594
  0
ELLIPSE
  5
5BC1
330
1F
100
AcDbEntity
  8
AM_0
 48
0.5
100
AcDbEllipse
 10
0.939290648862887
 20
6.302952131479195
 30
0.0
 11
12.36926196414983
 21
4.199180267104266
 31
0.0
210
0.0
220
0.0
230
1.0
 40
0.6157239447985968
 41
3.13131960606038
 42
3.879525320200577
  0
SPLINE
  5
5BC2
330
1F
100
AcDbEntity
  8
AM_0
 48
0.5
100
AcDbSpline
210
0.0
220
0.0
230
1.0
 70
     8
 71
     3
 72
    10
 73
     6
 74
     0
 42
0.0000000001
 43
0.0000000001
 40
0.0
 40
0.0
 40
0.0
 40
0.0
 40
2.69986029516136
 40
4.147722969032201
 40
6.201687855798567
 40
6.201687855798567
 40
6.201687855798567
 40
6.201687855798567
 10
-11.45587948824125
 20
2.182232119110715
 30
0.0
 10
-9.29570650747866
 20
-0.1222053821858029
 30
0.0
 10
-7.903259599512908
 20
-0.8715399549779782
 30
0.0
 10
-4.654347806164268
 20
-0.5136253931180664
 30
0.0
 10
-5.202765032959725
 20
0.6563415402504133
 30
0.0
 10
-5.592133491348072
 20
1.370072086786679
 30
0.0
  0
LINE
  5
5BC3
330
1F
100
AcDbEntity
  8
AM_0
100
AcDbLine
 10
-1.999999999995084
 20
5.249999999999597
 30
0.0
 11
-8.278837429953505
 21
5.249999999999635
 31
0.0
  0
SPLINE
  5
5BC4
330
1F
100
AcDbEntity
  8
AM_0
 48
0.5
100
AcDbSpline
210
0.0
220
0.0
230
1.0
 70
     8
 71
     3
 72
    17
 73
    13
 74
     0
 42
0.0000000001
 43
0.0000000001
 40
0.0
 40
0.0
 40
0.0
 40
0.0
 40
1.010743614677189
 40
2.022833924044153
 40
3.037578959561199
 40
4.056212747067873
 40
5.079857613375832
 40
6.109500119648989
 40
7.14596120163808
 40
8.18989512056258
 40
9.241717674284874
 40
9.693948937866434
 40
9.693948937866434
 40
9.693948937866434
 40
9.693948937866434
 10
-8.278425567191858
 20
5.250004133432823
 30
0.0
 10
-8.589444742793471
 20
5.246882761656351
 30
0.0
 10
-9.211897489760525
 20
5.240635859249776
 30
0.0
 10
-10.14534890665206
 20
5.19022871939845
 30
0.0
 10
-11.07876189389061
 20
5.110124936065147
 30
0.0
 10
-12.01211683078497
 20
4.997844332782979
 30
0.0
 10
-12.94540260134824
 20
4.854909692256772
 30
0.0
 10
-13.87860780641733
 20
4.681983710634225
 30
0.0
 10
-14.81171992080999
 20
4.480179569647674
 30
0.0
 10
-15.74477515302186
 20
4.250855866746898
 30
0.0
 10
-16.49796166707038
 20
4.0442698753582
 30
0.0
 10
-16.94027694825822
 20
3.915123922374797
 30
0.0
 10
-17.07303626516262
 20
3.87559321070753
 30
0.0
  0
LINE
  5
5BC5
330
1F
100
AcDbEntity
  8
AM_11
 48
0.5
100
AcDbLine
 10
-25.86226138925436
 20
5.250004133433649
 30
0.0
 11
-8.278425567196508
 21
5.250004133432777
 31
0.0
  0
LINE
  5
5BC6
330
1F
100
AcDbEntity
  8
AM_11
 48
0.5
100
AcDbLine
 10
-56.81374448385754
 20
5.250749991213203
 30
0.0
 11
-45.5924145989981
 21
5.250004133434945
 31
0.0
  0
LINE
  5
5BC7
330
1F
100
AcDbEntity
  8
AM_0
 48
0.5
100
AcDbLine
 10
-45.59242974385248
 20
5.250004133434945
 30
0.0
 11
-25.86226138927486
 21
5.25000413343382
 31
0.0
  0
SPLINE
  5
5BC8
330
1F
100
AcDbEntity
  8
AM_0
 48
0.5
100
AcDbSpline
210
0.0
220
0.0
230
1.0
 70
     8
 71
     3
 72
    20
 73
    16
 74
     0
 42
0.0000000001
 43
0.0000000001
 40
12.04260318190555
 40
12.04260318190555
 40
12.04260318190555
 40
12.04260318190555
 40
13.08720139956839
 40
14.16337181880432
 40
15.23152222380919
 40
16.29148850140128
 40
17.34331105512262
 40
18.38723020264746
 40
19.42369128463655
 40
20.45333379090873
 40
21.47697865721768
 40
22.49561244472435
 40
23.5103574802404
 40
24.52244778960836
 40
25.53320666051913
 40
25.53320666051913
 40
25.53320666051913
 40
25.53320666051913
 10
-11.45587948824124
 20
2.182232119110668
 30
0.0
 10
-12.66459988663449
 20
2.548464712784011
 30
0.0
 10
-13.54481701349962
 20
2.834125958031453
 30
0.0
 10
-15.59741107563662
 20
3.411934803851864
 30
0.0
 10
-16.53016088441724
 20
3.715010926861869
 30
0.0
 10
-17.46300041862927
 20
3.995204795042659
 30
0.0
 10
-18.39592841509668
 20
4.25079824906726
 30
0.0
 10
-19.32895157484547
 20
4.480196388458688
 30
0.0
 10
-20.262066605194
 20
4.681979503898121
 30
0.0
 10
-21.19526986092337
 20
4.854910809256991
 30
0.0
 10
-22.12855614919609
 20
4.997844035631382
 30
0.0
 10
-23.06191094845226
 20
5.110125015856633
 30
0.0
 10
-23.99532397217473
 20
5.190228695646633
 30
0.0
 10
-24.92878006825744
 20
5.240636127950669
 30
0.0
 10
-25.5512375160102
 20
5.24688283546618
 30
0.0
 10
-25.86226138927486
 20
5.250004133433817
 30
0.0
  0
SPLINE
  5
5BC9
330
1F
100
AcDbEntity
  8
AM_0
100
AcDbSpline
210
0.0
220
0.0
230
1.0
 70
     8
 71
     3
 72
    42
 73
    38
 74
     0
 42
0.0000000001
 43
0.0000000001
 40
1.278384351700087
 40
1.278384351700087
 40
1.278384351700087
 40
1.278384351700087
 40
1.527291183660732
 40
1.786406454158005
 40
2.047386241038974
 40
2.310345544571907
 40
2.575337113970003
 40
2.842374715221223
 40
3.111417320030211
 40
3.382376832022752
 40
3.655120036292296
 40
3.929472521611371
 40
4.205224030350333
 40
4.482133246366229
 40
4.759933319229942
 40
5.038338087391601
 40
5.317048131389549
 40
5.595758175387723
 40
5.874162943549383
 40
6.151963016412869
 40
6.428872232428759
 40
6.704623741167955
 40
6.978976226486705
 40
7.251719430756336
 40
7.522680721168327
 40
7.791723325977311
 40
8.058760927228529
 40
8.32375249662655
 40
8.586708135057122
 40
8.84768792193809
 40
9.106803192435362
 40
9.364213819003406
 40
9.620125035580644
 40
9.87478726697307
 40
10.12847352585208
 40
10.38149610319407
 40
10.63418200686337
 40
10.63418200686337
 40
10.63418200686337
 40
10.63418200686337
 10
-7.902156401359441
 20
-5.249995866567298
 30
0.0
 10
-10.42897337561256
 20
-4.950122264484135
 30
0.0
 10
-11.04517026625319
 20
-4.834439598016905
 30
0.0
 10
-12.19868954730127
 20
-4.480185564235566
 30
0.0
 10
-13.13171651537844
 20
-4.250788371000784
 30
0.0
 10
-14.06465073523553
 20
-3.995198886332176
 30
0.0
 10
-14.99749407158433
 20
-3.71500237099736
 30
0.0
 10
-15.93024401535985
 20
-3.411926615095066
 30
0.0
 10
-16.86291555168902
 20
-3.087854278280161
 30
0.0
 10
-17.79551321354194
 20
-2.744777606012385
 30
0.0
 10
-18.72804557702387
 20
-2.384812181616974
 30
0.0
 10
-19.66052300502283
 20
-2.010178762875657
 30
0.0
 10
-20.59295366981821
 20
-1.623181140076085
 30
0.0
 10
-21.52534664631296
 20
-1.226199552314151
 30
0.0
 10
-22.4577118205306
 20
-0.8216771886474244
 30
0.0
 10
-23.39005770968796
 20
-0.4121015772581489
 30
0.0
 10
-24.32239576138117
 20
0.0000041333503503
 30
0.0
 10
-25.25473381286952
 20
0.412109844459639
 30
0.0
 10
-26.18707970264125
 20
0.8216854543472733
 30
0.0
 10
-27.11944487461329
 20
1.226207823501839
 30
0.0
 10
-28.05183785943481
 20
1.623189390911387
 30
0.0
 10
-28.9842684933552
 20
2.010187089175533
 30
0.0
 10
-29.91674603569485
 20
2.38482022844497
 30
0.0
 10
-30.84928000351785
 20
2.74478746915893
 30
0.0
 10
-31.78188128899536
 20
3.087861024401224
 30
0.0
 10
-32.7145544890676
 20
3.411935022948089
 30
0.0
 10
-33.64730441112607
 20
3.715010869031551
 30
0.0
 10
-34.58014391546043
 20
3.995204809599841
 30
0.0
 10
-35.51307191936866
 20
4.250798248021272
 30
0.0
 10
-36.44609507889233
 20
4.480196378368689
 30
0.0
 10
-37.37921010285175
 20
4.681979544867233
 30
0.0
 10
-38.31241338410863
 20
4.85491065683412
 30
0.0
 10
-39.24570417654168
 20
4.997845304386394
 30
0.0
 10
-40.17906398374324
 20
5.110123962118048
 30
0.0
 10
-41.11248153746188
 20
5.190228872251123
 30
0.0
 10
-42.04593297354335
 20
5.240635821139852
 30
0.0
 10
-42.66838571795691
 20
5.246882748960015
 30
0.0
 10
-42.97940489228248
 20
5.250004133434797
 30
0.0
  0
SPLINE
  5
5BCA
330
1F
100
AcDbEntity
  8
AM_0
100
AcDbSpline
210
0.0
220
0.0
230
1.0
 70
     8
 71
     3
 72
    23
 73
    19
 74
     0
 42
0.0000000001
 43
0.0000000001
 40
16.03460024169435
 40
16.03460024169435
 40
16.03460024169435
 40
16.03460024169435
 40
16.35212704903564
 40
17.38177054169784
 40
18.41822485651776
 40
19.46214173629503
 40
20.51396345435107
 40
21.57393551351153
 40
22.64208202342361
 40
23.7182574881101
 40
24.80209208578934
 40
25.89306333925047
 40
26.99048218457928
 40
28.09348763352352
 40
29.20111863782268
 40
30.31232390128032
 40
31.42594612798585
 40
32.5407912310448
 40
32.5407912310486
 40
32.5407912310486
 40
32.5407912310486
 10
-56.8137444838575
 20
5.250749991213202
 30
0.0
 10
-56.71784374164661
 20
5.233026915736178
 30
0.0
 10
-56.31137425585361
 20
5.155847910302547
 30
0.0
 10
-55.5953738792528
 20
5.0046274281565
 30
0.0
 10
-54.66815151717497
 20
4.779764224936426
 30
0.0
 10
-53.74179040284062
 20
4.527280328621624
 30
0.0
 10
-52.8162357968327
 20
4.248636987223757
 30
0.0
 10
-51.8914548495781
 20
3.945387643609118
 30
0.0
 10
-50.96739411095434
 20
3.61926579891005
 30
0.0
 10
-50.04398923288388
 20
3.272169400459662
 30
0.0
 10
-49.12118774418498
 20
2.90606403492539
 30
0.0
 10
-48.19891566051619
 20
2.523079984124802
 30
0.0
 10
-47.27709824203847
 20
2.125443316828782
 30
0.0
 10
-46.35567407068651
 20
1.715440277174312
 30
0.0
 10
-45.43456605201885
 20
1.295454976689346
 30
0.0
 10
-44.51368887192529
 20
0.8679398214035217
 30
0.0
 10
-43.59296754500827
 20
0.4353721458746995
 30
0.0
 10
-42.97931819734843
 20
0.1453591719886616
 30
0.0
 10
-42.67232617755598
 20
0.0002711622421565
 30
0.0
  0
SPLINE
  5
5BCB
330
1F
100
AcDbEntity
  8
AM_0
100
AcDbSpline
210
0.0
220
0.0
230
1.0
 70
     8
 71
     3
 72
    52
 73
    48
 74
     0
 42
0.0000000001
 43
0.0000000001
 40
3.537595802313026
 40
3.537595802313026
 40
3.537595802313026
 40
3.537595802313026
 40
4.056212745003489
 40
5.079857003664532
 40
6.109500240690281
 40
7.145961322679372
 40
8.189895241603872
 40
9.241717795325891
 40
10.30168407291828
 40
11.36983447792315
 40
12.44600489715814
 40
13.52984294512926
 40
14.62081576220742
 40
15.7182257034828
 40
16.82123173843959
 40
17.92886860250316
 40
19.0400688939571
 40
20.15368796660465
 40
21.26852814259644
 40
22.38336992938901
 40
23.49698739941135
 40
24.6081876908653
 40
25.71582455492886
 40
26.81883757994213
 40
27.91624752121713
 40
29.00722033829659
 40
30.09105838626677
 40
31.16722880550176
 40
32.23537921050758
 40
33.29534548809967
 40
34.347168041821
 40
35.39108718934584
 40
36.42754827133493
 40
37.45720575381954
 40
38.48085062012849
 40
39.49948440763516
 40
40.51422944315121
 40
41.52631975251916
 40
42.53706336719636
 40
43.54780698187354
 40
44.55989729124051
 40
45.57464232675757
 40
46.59327611426424
 40
47.6169209805722
 40
48.64656348684535
 40
49.68302456883444
 40
50.58557219878025
 40
50.58557219878025
 40
50.58557219878025
 40
50.58557219878025
 10
-10.71811703003022
 20
-5.250000000000359
 30
0.0
 10
-11.69371972165227
 20
-5.111701047978768
 30
0.0
 10
-12.16402759308263
 20
-4.974570622261187
 30
0.0
 10
-12.94540382580016
 20
-4.854907953275106
 30
0.0
 10
-13.87860583784946
 20
-4.681970131703447
 30
0.0
 10
-14.81172547727181
 20
-4.480186348164137
 30
0.0
 10
-15.74475446918179
 20
-4.250792230001438
 30
0.0
 10
-16.6776864579515
 20
-3.995196243184909
 30
0.0
 10
-17.61052609373117
 20
-3.715002737302514
 30
0.0
 10
-18.54327587485138
 20
-3.411926515819041
 30
0.0
 10
-19.47594745527348
 20
-3.087854305199849
 30
0.0
 10
-20.40854510511539
 20
-2.744777598613705
 30
0.0
 10
-21.3410774721107
 20
-2.384812184041076
 30
0.0
 10
-22.27355489816952
 20
-2.010178760626812
 30
0.0
 10
-23.20598556721163
 20
-1.623181146672818
 30
0.0
 10
-24.13837852858289
 20
-1.226199528050696
 30
0.0
 10
-25.07074375928414
 20
-0.8216772794592975
 30
0.0
 10
-26.0030894370461
 20
-0.4121012374388795
 30
0.0
 10
-26.93542872803387
 20
0.0000030622431733
 30
0.0
 10
-27.86776383359833
 20
0.4121147800594459
 30
0.0
 10
-28.80011263637978
 20
0.8216844438975375
 30
0.0
 10
-29.73247671606369
 20
1.226207916954755
 30
0.0
 10
-30.66487133988122
 20
1.6231910478999
 30
0.0
 10
-31.59730587709301
 20
2.0101853591483
 30
0.0
 10
-32.5297847748476
 20
2.384820682475274
 30
0.0
 10
-33.46231727646954
 20
2.74478580515307
 30
0.0
 10
-34.39491489237723
 20
3.087862583886955
 30
0.0
 10
-35.32758647518754
 20
3.411934794980204
 30
0.0
 10
-36.26033628006561
 20
3.715010943993572
 30
0.0
 10
-37.19317581956607
 20
3.995204735979319
 30
0.0
 10
-38.12610379893677
 20
4.250798465886561
 30
0.0
 10
-39.05912702114011
 20
4.480195588539876
 30
0.0
 10
-39.99224631442349
 20
4.681983429697227
 30
0.0
 10
-40.92545498984794
 20
4.854901499369027
 30
0.0
 10
-41.85874557936175
 20
4.997872627060176
 30
0.0
 10
-42.79210044471597
 20
5.110019916084626
 30
0.0
 10
-43.72551345100635
 20
5.190618671267135
 30
0.0
 10
-44.6589648628323
 20
5.239185379194829
 30
0.0
 10
-45.59243678668686
 20
5.25540990928721
 30
0.0
 10
-46.52590870916797
 20
5.239185379169492
 30
0.0
 10
-47.45936012512231
 20
5.190618671369386
 30
0.0
 10
-48.39277311621302
 20
5.110019915700325
 30
0.0
 10
-49.32612803855445
 20
4.997872628505784
 30
0.0
 10
-50.25941386386222
 20
4.854902190942381
 30
0.0
 10
-51.19261886279971
 20
4.681985197691624
 30
0.0
 10
-52.08331124684711
 20
4.489355479002485
 30
0.0
 10
-52.66120260911026
 20
4.348483544666639
 30
0.0
 10
-52.92931051925571
 20
4.279829778917978
 30
0.0
  0
LINE
  5
5BCC
330
1F
100
AcDbEntity
  8
AM_11
 48
0.5
100
AcDbLine
 10
-90.90458425462296
 20
5.250004133437021
 30
0.0
 11
-78.82327227514378
 21
5.250004133436725
 31
0.0
  0
LINE
  5
5BCD
330
1F
100
AcDbEntity
  8
AM_0
100
AcDbLine
 10
-117.9999999999949
 20
5.250000366491405
 30
0.0
 11
-117.8165492111679
 21
5.035254918916211
 31
0.0
  0
LINE
  5
5BCE
330
1F
100
AcDbEntity
  8
AM_11
100
AcDbLine
 10
-112.0539936745427
 20
5.25000413343697
 30
0.0
 11
-117.9999999999949
 21
5.250000366491405
 31
0.0
  0
LINE
  5
5BCF
330
1F
100
AcDbEntity
  8
AM_0
100
AcDbLine
 10
-90.90458425462296
 20
5.250004133437021
 30
0.0
 11
-112.0539936745427
 21
5.25000413343697
 31
0.0
  0
SPLINE
  5
5BD0
330
1F
100
AcDbEntity
  8
AM_0
100
AcDbSpline
210
0.0
220
0.0
230
1.0
 70
     8
 71
     3
 72
    53
 73
    49
 74
     0
 42
0.0000000001
 43
0.0000000001
 40
0.0
 40
0.0
 40
0.0
 40
0.0
 40
1.010743684496582
 40
2.022833576467832
 40
3.037578957496688
 40
4.056212745003489
 40
5.079857003664532
 40
6.109500240690281
 40
7.145961322679372
 40
8.189895241603872
 40
9.241717795325891
 40
10.30168407291828
 40
11.36983447792315
 40
12.44600489715814
 40
13.52984294512926
 40
14.62081576220742
 40
15.7182257034828
 40
16.82123173843959
 40
17.92886860250316
 40
19.0400688939571
 40
20.15368796660465
 40
21.26852814259644
 40
22.38336992938901
 40
23.49698739941135
 40
24.6081876908653
 40
25.71582455492886
 40
26.81883757994213
 40
27.91624752121713
 40
29.00722033829659
 40
30.09105838626677
 40
31.16722880550176
 40
32.23537921050758
 40
33.29534548809967
 40
34.347168041821
 40
35.39108718934584
 40
36.42754827133493
 40
37.45720575381954
 40
38.48085062012849
 40
39.49948440763516
 40
40.51422944315121
 40
41.52631975251916
 40
42.53706336719636
 40
43.54780698187354
 40
44.55989729124051
 40
45.57464232675757
 40
46.59327611426424
 40
47.6169209805722
 40
48.03779390694803
 40
48.03779390694803
 40
48.03779390694803
 40
48.03779390694803
 10
-74.73998245564158
 20
-5.249995866565027
 30
0.0
 10
-75.05100157464141
 20
-5.246872243754032
 30
0.0
 10
-75.67345405837837
 20
-5.240620837785144
 30
0.0
 10
-76.60690626166053
 20
-5.190227487591998
 30
0.0
 10
-77.54031861938766
 20
-5.110115224996683
 30
0.0
 10
-78.47367320805381
 20
-4.997834842070594
 30
0.0
 10
-79.40696071424945
 20
-4.854907953272955
 30
0.0
 10
-80.34016272629875
 20
-4.681970131701294
 30
0.0
 10
-81.27328236572109
 20
-4.480186348161983
 30
0.0
 10
-82.20631135763104
 20
-4.250792229999286
 30
0.0
 10
-83.13924334640075
 20
-3.995196243182758
 30
0.0
 10
-84.07208298218044
 20
-3.715002737300361
 30
0.0
 10
-85.00483276330063
 20
-3.411926515816889
 30
0.0
 10
-85.93750434372278
 20
-3.087854305197697
 30
0.0
 10
-86.87010199356469
 20
-2.744777598611553
 30
0.0
 10
-87.80263436055996
 20
-2.384812184038926
 30
0.0
 10
-88.73511178661875
 20
-2.010178760624659
 30
0.0
 10
-89.66754245566082
 20
-1.623181146670667
 30
0.0
 10
-90.59993541703208
 20
-1.226199528048546
 30
0.0
 10
-91.53230064773337
 20
-0.8216772794571454
 30
0.0
 10
-92.46464632549535
 20
-0.4121012374367278
 30
0.0
 10
-93.3969856164831
 20
0.0000030622453251
 30
0.0
 10
-94.32932072204756
 20
0.4121147800615977
 30
0.0
 10
-95.26166952482906
 20
0.8216844438996899
 30
0.0
 10
-96.19403360451299
 20
1.226207916956908
 30
0.0
 10
-97.12642822833053
 20
1.62319104790205
 30
0.0
 10
-98.05886276554232
 20
2.010185359150453
 30
0.0
 10
-98.99134166329693
 20
2.384820682477429
 30
0.0
 10
-99.92387416491888
 20
2.744785805155222
 30
0.0
 10
-100.8564717808265
 20
3.087862583889104
 30
0.0
 10
-101.7891433636368
 20
3.411934794982354
 30
0.0
 10
-102.7218931685148
 20
3.715010943995729
 30
0.0
 10
-103.6547327080152
 20
3.995204735981475
 30
0.0
 10
-104.5876606873859
 20
4.250798465888713
 30
0.0
 10
-105.5206839095893
 20
4.48019558854203
 30
0.0
 10
-106.4538032028726
 20
4.681983429699381
 30
0.0
 10
-107.3870118782971
 20
4.854901499371183
 30
0.0
 10
-108.3203024678109
 20
4.997872627062327
 30
0.0
 10
-109.2536573331651
 20
5.11001991608678
 30
0.0
 10
-110.1870703394555
 20
5.190618671269292
 30
0.0
 10
-111.1205217512815
 20
5.239185379196976
 30
0.0
 10
-112.053993675136
 20
5.255409909289363
 30
0.0
 10
-112.9874655976171
 20
5.239185379171644
 30
0.0
 10
-113.9209170135714
 20
5.190618671371544
 30
0.0
 10
-114.8543300046622
 20
5.110019915702477
 30
0.0
 10
-115.7876849270036
 20
4.99787262850794
 30
0.0
 10
-116.5360193846856
 20
4.883234966649861
 30
0.0
 10
-116.9730729110445
 20
4.8064288580099
 30
0.0
 10
-117.444205567301
 20
4.708045493646676
 30
0.0
  0
SPLINE
  5
5BD1
330
1F
100
AcDbEntity
  8
AM_0
100
AcDbSpline
210
0.0
220
0.0
230
1.0
 70
     8
 71
     3
 72
    46
 73
    42
 74
     0
 42
0.0000000001
 43
0.0000000001
 40
0.0
 40
0.0
 40
0.0
 40
0.0
 40
0.5056245176053715
 40
0.759310862862336
 40
1.013969309739036
 40
1.269880374404297
 40
1.527291183660732
 40
1.786406454158005
 40
2.047386241038974
 40
2.310345544571907
 40
2.575337113970003
 40
2.842374715221223
 40
3.111417320030211
 40
3.382376832022752
 40
3.655120036292296
 40
3.929472521611371
 40
4.205224030350333
 40
4.482133246366229
 40
4.759933319229942
 40
5.038338087391601
 40
5.317048131389549
 40
5.595758175387723
 40
5.874162943549382
 40
6.151963016412868
 40
6.428872232428759
 40
6.704623741167953
 40
6.978976226486702
 40
7.251719430756334
 40
7.522680721168324
 40
7.791723325977308
 40
8.058760927228528
 40
8.323752496626548
 40
8.586708135057122
 40
8.84768792193809
 40
9.106803192435362
 40
9.364213819003406
 40
9.620125035580642
 40
9.874787266973068
 40
10.12847352585207
 40
10.38149610319407
 40
10.63418200686337
 40
10.63418200686337
 40
10.63418200686337
 40
10.63418200686337
 10
-72.12695056146596
 20
-5.249995866565174
 30
0.0
 10
-72.7494334572393
 20
-5.238035960735338
 30
0.0
 10
-73.6842339035175
 20
-5.220075426585583
 30
0.0
 10
-74.927278821933
 20
-5.109495717351445
 30
0.0
 10
-75.86064343852578
 20
-4.998001954936847
 30
0.0
 10
-76.79392827466303
 20
-4.854862902982953
 30
0.0
 10
-77.72713087175285
 20
-4.681981933309837
 30
0.0
 10
-78.66024643575055
 20
-4.480185564233414
 30
0.0
 10
-79.59327340382775
 20
-4.250788370998637
 30
0.0
 10
-80.52620762368482
 20
-3.995198886330025
 30
0.0
 10
-81.45905096003358
 20
-3.715002370995205
 30
0.0
 10
-82.39180090380914
 20
-3.411926615092912
 30
0.0
 10
-83.32447244013826
 20
-3.087854278278005
 30
0.0
 10
-84.2570701019912
 20
-2.744777606010234
 30
0.0
 10
-85.18960246547313
 20
-2.38481218161482
 30
0.0
 10
-86.12207989347206
 20
-2.010178762873505
 30
0.0
 10
-87.05451055826742
 20
-1.623181140073933
 30
0.0
 10
-87.98690353476215
 20
-1.226199552311999
 30
0.0
 10
-88.91926870897981
 20
-0.8216771886452725
 30
0.0
 10
-89.85161459813719
 20
-0.4121015772559971
 30
0.0
 10
-90.78395264983045
 20
0.0000041333525012
 30
0.0
 10
-91.71629070131876
 20
0.4121098444617925
 30
0.0
 10
-92.64863659109057
 20
0.8216854543494239
 30
0.0
 10
-93.58100176306262
 20
1.226207823503992
 30
0.0
 10
-94.5133947478842
 20
1.623189390913537
 30
0.0
 10
-95.44582538180453
 20
2.010187089177688
 30
0.0
 10
-96.3783029241442
 20
2.384820228447124
 30
0.0
 10
-97.31083689196719
 20
2.74478746916108
 30
0.0
 10
-98.2434381774447
 20
3.087861024403378
 30
0.0
 10
-99.17611137751686
 20
3.411935022950243
 30
0.0
 10
-100.1088612995753
 20
3.7150108690337
 30
0.0
 10
-101.0417008039095
 20
3.995204809601995
 30
0.0
 10
-101.9746288078178
 20
4.250798248023421
 30
0.0
 10
-102.9076519673414
 20
4.480196378370839
 30
0.0
 10
-103.8407669913009
 20
4.681979544869386
 30
0.0
 10
-104.7739702725578
 20
4.854910656836267
 30
0.0
 10
-105.7072610649908
 20
4.997845304388545
 30
0.0
 10
-106.6406208721924
 20
5.110123962120198
 30
0.0
 10
-107.574038425911
 20
5.190228872253279
 30
0.0
 10
-108.5074898619925
 20
5.240635821142007
 30
0.0
 10
-109.129942606406
 20
5.246882748962161
 30
0.0
 10
-109.4409617807317
 20
5.250004133436946
 30
0.0
  0
SPLINE
  5
5BD2
330
1F
100
AcDbEntity
  8
AM_0
100
AcDbSpline
210
0.0
220
0.0
230
1.0
 70
     8
 71
     3
 72
    20
 73
    16
 74
     0
 42
0.0000000001
 43
0.0000000001
 40
19.06958205160103
 40
19.06958205160103
 40
19.06958205160103
 40
19.06958205160103
 40
19.46214173629503
 40
20.51396345435107
 40
21.57393551351153
 40
22.64208202342361
 40
23.7182574881101
 40
24.80209208578934
 40
25.89306333925047
 40
26.99048218457928
 40
28.09348763352352
 40
29.20111863782268
 40
30.31232390128032
 40
31.42594612798585
 40
32.5407912310448
 40
32.5407912310486
 40
32.5407912310486
 40
32.5407912310486
 10
-117.8165492111678
 20
5.035254918916212
 30
0.0
 10
-117.4558290943652
 20
4.733089976411067
 30
0.0
 10
-117.2560275359678
 20
4.469495545831497
 30
0.0
 10
-116.4825685091305
 20
4.248365824980373
 30
0.0
 10
-115.5087552324186
 20
3.945116481365782
 30
0.0
 10
-114.5357003501448
 20
3.618994636666749
 30
0.0
 10
-113.5633361024653
 20
3.271898238216411
 30
0.0
 10
-112.5916072361514
 20
2.905792872682178
 30
0.0
 10
-111.6204358441762
 20
2.522808821881636
 30
0.0
 10
-110.6497432239586
 20
2.125172154585662
 30
0.0
 10
-109.679464701018
 20
1.715169114931231
 30
0.0
 10
-108.7095190933287
 20
1.295183814446304
 30
0.0
 10
-107.7398165633855
 20
0.8676686591605268
 30
0.0
 10
-106.770278150029
 20
0.4351009836317516
 30
0.0
 10
-106.1240928195777
 20
0.1450880097457387
 30
0.0
 10
-105.8008239356264
 20
-0.0000000000007494
 30
0.0
  0
SPLINE
  5
5BD3
330
1F
100
AcDbEntity
  8
AM_0
100
AcDbSpline
210
0.0
220
0.0
230
1.0
 70
     8
 71
     3
 72
    23
 73
    19
 74
     0
 42
0.0000000001
 43
0.0000000001
 40
16.03460024169435
 40
16.03460024169435
 40
16.03460024169435
 40
16.03460024169435
 40
16.35212704903564
 40
17.38177054169784
 40
18.41822485651776
 40
19.46214173629503
 40
20.51396345435107
 40
21.57393551351153
 40
22.64208202342361
 40
23.7182574881101
 40
24.80209208578934
 40
25.89306333925047
 40
26.99048218457928
 40
28.09348763352352
 40
29.20111863782268
 40
30.31232390128032
 40
31.42594612798585
 40
32.5407912310448
 40
32.5407912310486
 40
32.5407912310486
 40
32.5407912310486
 10
-90.90458425462294
 20
5.250004133437021
 30
0.0
 10
-89.95459992446866
 20
5.174958143415488
 30
0.0
 10
-89.5024022024884
 20
5.106449824373416
 30
0.0
 10
-88.82621641054411
 20
5.004627428158279
 30
0.0
 10
-87.89899404846629
 20
4.779764224938201
 30
0.0
 10
-86.97263293413191
 20
4.527280328623398
 30
0.0
 10
-86.04707832812406
 20
4.248636987225535
 30
0.0
 10
-85.12229738086945
 20
3.945387643610895
 30
0.0
 10
-84.19823664224582
 20
3.619265798911826
 30
0.0
 10
-83.27483176417537
 20
3.272169400461441
 30
0.0
 10
-82.35203027547653
 20
2.906064034927169
 30
0.0
 10
-81.42975819180767
 20
2.523079984126581
 30
0.0
 10
-80.50794077332998
 20
2.125443316830561
 30
0.0
 10
-79.58651660197791
 20
1.715440277176091
 30
0.0
 10
-78.66540858331025
 20
1.295454976691125
 30
0.0
 10
-77.74453140321667
 20
0.8679398214053003
 30
0.0
 10
-76.82381007629963
 20
0.435372145876478
 30
0.0
 10
-76.21016072863977
 20
0.1453591719904396
 30
0.0
 10
-75.90316870884736
 20
0.0002711622439344
 30
0.0
  0
LINE
  5
5BD4
330
1F
100
AcDbEntity
  8
AM_0
100
AcDbLine
 10
-78.82327227514378
 20
5.250004133436725
 30
0.0
 11
-56.81374448385754
 21
5.250749991213203
 31
0.0
  0
SPLINE
  5
5BD5
330
1F
100
AcDbEntity
  8
AM_0
100
AcDbSpline
210
0.0
220
0.0
230
1.0
 70
     8
 71
     3
 72
    46
 73
    42
 74
     0
 42
0.0000000001
 43
0.0000000001
 40
0.0
 40
0.0
 40
0.0
 40
0.0
 40
0.5056245176053715
 40
0.759310862862336
 40
1.013969309739036
 40
1.269880374404297
 40
1.527291183660732
 40
1.786406454158005
 40
2.047386241038974
 40
2.310345544571907
 40
2.575337113970003
 40
2.842374715221223
 40
3.111417320030211
 40
3.382376832022752
 40
3.655120036292296
 40
3.929472521611371
 40
4.205224030350333
 40
4.482133246366229
 40
4.759933319229942
 40
5.038338087391601
 40
5.317048131389549
 40
5.595758175387723
 40
5.874162943549382
 40
6.151963016412868
 40
6.428872232428759
 40
6.704623741167953
 40
6.978976226486702
 40
7.251719430756334
 40
7.522680721168324
 40
7.791723325977308
 40
8.058760927228528
 40
8.323752496626548
 40
8.586708135057122
 40
8.84768792193809
 40
9.106803192435362
 40
9.364213819003406
 40
9.620125035580642
 40
9.874787266973068
 40
10.12847352585207
 40
10.38149610319407
 40
10.63418200686337
 40
10.63418200686337
 40
10.63418200686337
 40
10.63418200686337
 10
-38.89610803017455
 20
-5.249995866565544
 30
0.0
 10
-39.5185909259479
 20
-5.23803596073571
 30
0.0
 10
-40.4533913722261
 20
-5.220075426585951
 30
0.0
 10
-41.69643629064159
 20
-5.109495717351816
 30
0.0
 10
-42.62980090723439
 20
-4.998001954937217
 30
0.0
 10
-43.56308574337163
 20
-4.854862902983321
 30
0.0
 10
-44.49628834046147
 20
-4.681981933310208
 30
0.0
 10
-45.42940390445916
 20
-4.480185564233782
 30
0.0
 10
-46.36243087253633
 20
-4.250788370999005
 30
0.0
 10
-47.29536509239342
 20
-3.995198886330395
 30
0.0
 10
-48.22820842874224
 20
-3.715002370995576
 30
0.0
 10
-49.16095837251778
 20
-3.411926615093282
 30
0.0
 10
-50.09362990884692
 20
-3.087854278278375
 30
0.0
 10
-51.02622757069987
 20
-2.744777606010603
 30
0.0
 10
-51.95875993418181
 20
-2.38481218161519
 30
0.0
 10
-52.89123736218068
 20
-2.010178762873875
 30
0.0
 10
-53.82366802697605
 20
-1.623181140074304
 30
0.0
 10
-54.75606100347077
 20
-1.22619955231237
 30
0.0
 10
-55.68842617768848
 20
-0.8216771886456431
 30
0.0
 10
-56.62077206684582
 20
-0.4121015772563675
 30
0.0
 10
-57.55311011853906
 20
0.0000041333521306
 30
0.0
 10
-58.48544817002739
 20
0.4121098444614217
 30
0.0
 10
-59.41779405979916
 20
0.821685454349053
 30
0.0
 10
-60.35015923177123
 20
1.226207823503622
 30
0.0
 10
-61.28255221659282
 20
1.623189390913166
 30
0.0
 10
-62.2149828505131
 20
2.010187089177318
 30
0.0
 10
-63.14746039285278
 20
2.384820228446754
 30
0.0
 10
-64.07999436067576
 20
2.74478746916071
 30
0.0
 10
-65.01259564615324
 20
3.087861024403007
 30
0.0
 10
-65.94526884622545
 20
3.411935022949871
 30
0.0
 10
-66.87801876828395
 20
3.715010869033331
 30
0.0
 10
-67.81085827261819
 20
3.995204809601625
 30
0.0
 10
-68.74378627652643
 20
4.250798248023051
 30
0.0
 10
-69.67680943605014
 20
4.480196378370469
 30
0.0
 10
-70.60992446000952
 20
4.681979544869015
 30
0.0
 10
-71.54312774126643
 20
4.854910656835897
 30
0.0
 10
-72.47641853369946
 20
4.997845304388175
 30
0.0
 10
-73.409778340901
 20
5.110123962119828
 30
0.0
 10
-74.34319589461963
 20
5.190228872252909
 30
0.0
 10
-75.27664733070112
 20
5.240635821141633
 30
0.0
 10
-75.89910007511466
 20
5.24688274896179
 30
0.0
 10
-76.2101192494403
 20
5.250004133436574
 30
0.0
  0
SPLINE
  5
5BD6
330
1F
100
AcDbEntity
  8
AM_0
100
AcDbSpline
210
0.0
220
0.0
230
1.0
 70
     8
 71
     3
 72
    55
 73
    51
 74
     0
 42
0.0000000001
 43
0.0000000001
 40
0.0
 40
0.0
 40
0.0
 40
0.0
 40
1.010743684496582
 40
2.022833576467832
 40
3.037578957496688
 40
4.056212745003489
 40
5.079857003664532
 40
6.109500240690281
 40
7.145961322679372
 40
8.189895241603872
 40
9.241717795325891
 40
10.30168407291828
 40
11.36983447792315
 40
12.44600489715814
 40
13.52984294512926
 40
14.62081576220742
 40
15.7182257034828
 40
16.82123173843959
 40
17.92886860250316
 40
19.0400688939571
 40
20.15368796660465
 40
21.26852814259644
 40
22.38336992938901
 40
23.49698739941135
 40
24.6081876908653
 40
25.71582455492886
 40
26.81883757994213
 40
27.91624752121713
 40
29.00722033829659
 40
30.09105838626677
 40
31.16722880550176
 40
32.23537921050758
 40
33.29534548809967
 40
34.347168041821
 40
35.39108718934584
 40
36.42754827133493
 40
37.45720575381954
 40
38.48085062012849
 40
39.49948440763516
 40
40.51422944315121
 40
41.52631975251916
 40
42.53706336719636
 40
43.54780698187354
 40
44.55989729124051
 40
45.57464232675757
 40
46.59327611426424
 40
47.6169209805722
 40
48.64656348684535
 40
49.68302456883444
 40
50.58557219878025
 40
50.58557219878025
 40
50.58557219878025
 40
50.58557219878025
 10
-41.50913992435017
 20
-5.249995866565397
 30
0.0
 10
-41.82015904335004
 20
-5.246872243754402
 30
0.0
 10
-42.44261152708697
 20
-5.240620837785517
 30
0.0
 10
-43.37606373036915
 20
-5.19022748759237
 30
0.0
 10
-44.30947608809625
 20
-5.110115224997055
 30
0.0
 10
-45.24283067676239
 20
-4.997834842070965
 30
0.0
 10
-46.17611818295806
 20
-4.854907953273326
 30
0.0
 10
-47.10932019500734
 20
-4.681970131701664
 30
0.0
 10
-48.04243983442971
 20
-4.480186348162352
 30
0.0
 10
-48.97546882633966
 20
-4.250792229999656
 30
0.0
 10
-49.90840081510938
 20
-3.995196243183129
 30
0.0
 10
-50.84124045088909
 20
-3.715002737300731
 30
0.0
 10
-51.77399023200928
 20
-3.41192651581726
 30
0.0
 10
-52.70666181243139
 20
-3.087854305198068
 30
0.0
 10
-53.63925946227334
 20
-2.744777598611924
 30
0.0
 10
-54.57179182926862
 20
-2.384812184039295
 30
0.0
 10
-55.50426925532738
 20
-2.01017876062503
 30
0.0
 10
-56.43669992436944
 20
-1.623181146671038
 30
0.0
 10
-57.36909288574068
 20
-1.226199528048916
 30
0.0
 10
-58.30145811644199
 20
-0.821677279457516
 30
0.0
 10
-59.23380379420398
 20
-0.4121012374370985
 30
0.0
 10
-60.16614308519175
 20
0.0000030622449546
 30
0.0
 10
-61.0984781907562
 20
0.412114780061227
 30
0.0
 10
-62.03082699353768
 20
0.8216844438993195
 30
0.0
 10
-62.9631910732216
 20
1.226207916956537
 30
0.0
 10
-63.89558569703917
 20
1.62319104790168
 30
0.0
 10
-64.82802023425094
 20
2.010185359150084
 30
0.0
 10
-65.76049913200549
 20
2.384820682477058
 30
0.0
 10
-66.69303163362745
 20
2.744785805154851
 30
0.0
 10
-67.62562924953515
 20
3.087862583888733
 30
0.0
 10
-68.55830083234542
 20
3.411934794981984
 30
0.0
 10
-69.49105063722348
 20
3.715010943995359
 30
0.0
 10
-70.42389017672383
 20
3.995204735981104
 30
0.0
 10
-71.35681815609455
 20
4.250798465888343
 30
0.0
 10
-72.28984137829789
 20
4.48019558854166
 30
0.0
 10
-73.22296067158126
 20
4.681983429699009
 30
0.0
 10
-74.1561693470057
 20
4.854901499370813
 30
0.0
 10
-75.08945993651956
 20
4.997872627061957
 30
0.0
 10
-76.02281480187375
 20
5.110019916086411
 30
0.0
 10
-76.95622780816418
 20
5.190618671268922
 30
0.0
 10
-77.88967921999011
 20
5.239185379196606
 30
0.0
 10
-78.82315114384464
 20
5.255409909288991
 30
0.0
 10
-79.75662306632576
 20
5.239185379171273
 30
0.0
 10
-80.69007448228006
 20
5.190618671371173
 30
0.0
 10
-81.62348747337082
 20
5.110019915702107
 30
0.0
 10
-82.55684239571225
 20
4.997872628507569
 30
0.0
 10
-83.49012822102002
 20
4.854902190944166
 30
0.0
 10
-84.42333321995752
 20
4.681985197693406
 30
0.0
 10
-85.31402560400493
 20
4.489355479004265
 30
0.0
 10
-85.89191696626812
 20
4.348483544668423
 30
0.0
 10
-86.16002487641361
 20
4.279829778919756
 30
0.0
  0
VIEWPORT
  5
110
330
101
100
AcDbEntity
 67
     1
  8
0
100
AcDbViewport
 10
420.5
 20
297.0
 30
0.0
 40
948.9782706766916
 41
628.452
 68
     1
 69
     1
1001
ACAD
1000
MVIEW
1002
{
1070
    16
1010
0.0
1020
0.0
1030
0.0
1010
0.0
1020
0.0
1030
1.0
1040
0.0
1040
628.452
1040
420.5
1040
297.0
1040
50.0
1040
0.0
1040
0.0
1070
     0
1070
   100
1070
     1
1070
     1
1070
     0
1070
     0
1070
     0
1070
     0
1040
0.0
1040
0.0
1040
0.0
1040
10.0
1040
10.0
1040
10.0
1040
10.0
1070
     0
1002
{
1002
}
1002
}
  0
ENDSEC
  0
SECTION
  2
OBJECTS
  0
DICTIONARY
  5
C
330
0
100
AcDbDictionary
  3
ACAD_GROUP
350
D
  3
ACAD_LAYOUT
350
1A
  3
ACAD_MLINESTYLE
350
17
  3
ACAD_PLOTSETTINGS
350
19
  3
ACAD_PLOTSTYLENAME
350
E
  3
ACDBVARIABLEDICTIONARY
350
34
  3
ACMDICTIONARY
350
43
  3
AMG
350
2B
  3
AMGSNAPSETTINGS
350
6E
  3
DWGPROPS
350
5D50
  3
ACDBHEADERROUNDTRIPXREC
350
5D5C
  0
DICTIONARY
  5
74
330
1F
100
AcDbDictionary
280
     1
  3
ACAD_INDEX
360
5D52
  3
ACAD_LAYOUTSELFREF
360
5D7F
  0
DICTIONARY
  5
5D84
330
101
100
AcDbDictionary
280
     1
  3
ACAD_LAYOUTSELFREF
360
5D85
  0
DICTIONARY
  5
D
102
{ACAD_REACTORS
330
C
102
}
330
C
100
AcDbDictionary
  0
DICTIONARY
  5
1A
102
{ACAD_REACTORS
330
C
102
}
330
C
100
AcDbDictionary
  0
DICTIONARY
  5
17
102
{ACAD_REACTORS
330
C
102
}
330
C
100
AcDbDictionary
  3
STANDARD
350
18
  0
DICTIONARY
  5
19
102
{ACAD_REACTORS
330
C
102
}
330
C
100
AcDbDictionary
  0
ACDBDICTIONARYWDFLT
  5
E
102
{ACAD_REACTORS
330
C
102
}
330
C
100
AcDbDictionary
281
     1
  3
Normal
350
F
100
AcDbDictionaryWithDefault
340
F
  0
DICTIONARY
  5
34
102
{ACAD_REACTORS
330
C
102
}
330
C
100
AcDbDictionary
  3
INDEXCTL
350
35
  3
SORTENTS
350
B5E
  0
DICTIONARY
  5
43
102
{ACAD_REACTORS
330
C
102
}
330
C
100
AcDbDictionary
  3
ACMSTDDICTIONARY
350
260
  0
DICTIONARY
  5
2B
102
{ACAD_REACTORS
330
C
102
}
330
C
100
AcDbDictionary
  3
ACMGSETTINGS
350
2C
  0
DICTIONARY
  5
6E
102
{ACAD_REACTORS
330
C
102
}
330
C
100
AcDbDictionary
  0
XRECORD
  5
5D50
102
{ACAD_REACTORS
330
C
102
}
330
C
100
AcDbXrecord
  1
DWGPROPS COOKIE
  2

  3

  4

  6

  7

  8

  9

300
AmdtFileType=82
301
=
302
=
303
=
304
=
305
=
306
=
307
=
308
=
309
=
 40
0.1708040277777778
 41
2452800.443498622
 42
2452946.585507083
  1

 90
        1
  0
DICTIONARY
  5
5D5C
102
{ACAD_REACTORS
330
C
102
}
330
C
100
AcDbDictionary
  3
TSTACKALIGN
350
5D5D
  3
TSTACKSIZE
350
5D5E
  3
HYPERLINKBASE
350
5D5F
  3
STYLESHEET
350
5D60
  3
LAYOUTDICT
350
5D61
  3
PLOTSETDICT
350
5D62
  3
PLOTSTYLNAMDICT
350
5D63
  3
LWETCUNION
350
5D64
  3
INSUNITS
350
5D65
  3
CEPSNTYPE
350
5D66
  3
FINGERPRINTGUID
350
5D67
  3
VERSIONGUID
350
5D68
  3
PSVPSCALE
350
5D69
  3
DIMSTYLEDATA
350
5D6A
  3
PUCSORTHOREF
350
5D6B
  3
PUCSORTHOVIEW
350
5D6C
  3
PUCSBASE
350
5D6D
  3
PUCSORGTOP
350
5D6E
  3
PUCSORGBOTTOM
350
5D6F
  3
PUCSORGLEFT
350
5D70
  3
PUCSORGRIGHT
350
5D71
  3
PUCSORGFRONT
350
5D72
  3
PUCSORGBACK
350
5D73
  3
UCSORTHOREF
350
5D74
  3
UCSORTHOVIEW
350
5D75
  3
UCSBASE
350
5D76
  3
UCSORGTOP
350
5D77
  3
UCSORGBOTTOM
350
5D78
  3
UCSORGLEFT
350
5D79
  3
UCSORGRIGHT
350
5D7A
  3
UCSORGFRONT
350
5D7B
  3
UCSORGBACK
350
5D7C
  0
DICTIONARY
  5
5D52
102
{ACAD_REACTORS
330
74
102
}
330
74
100
AcDbDictionary
  3
*A1
350
5D53
  0
XRECORD
  5
5D7F
102
{ACAD_REACTORS
330
74
102
}
330
74
100
AcDbXrecord
340
1F
  0
XRECORD
  5
5D85
102
{ACAD_REACTORS
330
5D84
102
}
330
5D84
100
AcDbXrecord
340
101
  0
MLINESTYLE
  5
18
102
{ACAD_REACTORS
330
17
102
}
330
17
100
AcDbMlineStyle
  2
STANDARD
 70
     0
  3

 62
   256
 51
90.0
 52
90.0
 71
     2
 49
0.5
 62
   256
  6
BYLAYER
 49
-0.5
 62
   256
  6
BYLAYER
  0
ACDBPLACEHOLDER
  5
F
102
{ACAD_REACTORS
330
E
102
}
330
E
100
AcDbPlaceHolder
280
     0
  0
DICTIONARYVAR
  5
35
102
{ACAD_REACTORS
330
34
102
}
330
34
100
DictionaryVariables
280
     0
  1
1
  0
DICTIONARYVAR
  5
B5E
102
{ACAD_REACTORS
330
34
102
}
330
34
100
DictionaryVariables
280
     0
  1
96
  0
DICTIONARY
  5
260
102
{ACAD_REACTORS
330
43
102
}
330
43
100
AcDbDictionary
  0
DICTIONARY
  5
2C
102
{ACAD_REACTORS
330
2B
102
}
330
2B
100
AcDbDictionary
  3
DWGSETTINGS
350
2D
  0
XRECORD
  5
5D5D
102
{ACAD_REACTORS
330
5D5C
102
}
330
5D5C
100
AcDbXrecord
 90
        1
  0
XRECORD
  5
5D5E
102
{ACAD_REACTORS
330
5D5C
102
}
330
5D5C
100
AcDbXrecord
 90
       70
  0
XRECORD
  5
5D5F
102
{ACAD_REACTORS
330
5D5C
102
}
330
5D5C
100
AcDbXrecord
  1

  0
XRECORD
  5
5D60
102
{ACAD_REACTORS
330
5D5C
102
}
330
5D5C
100
AcDbXrecord
  1
ASAMI.ctb
  0
XRECORD
  5
5D61
102
{ACAD_REACTORS
330
5D5C
102
}
330
5D5C
100
AcDbXrecord
340
1A
  0
XRECORD
  5
5D62
102
{ACAD_REACTORS
330
5D5C
102
}
330
5D5C
100
AcDbXrecord
340
19
  0
XRECORD
  5
5D63
102
{ACAD_REACTORS
330
5D5C
102
}
330
5D5C
100
AcDbXrecord
340
E
  0
XRECORD
  5
5D64
102
{ACAD_REACTORS
330
5D5C
102
}
330
5D5C
100
AcDbXrecord
 90
    10781
  0
XRECORD
  5
5D65
102
{ACAD_REACTORS
330
5D5C
102
}
330
5D5C
100
AcDbXrecord
 90
        4
  0
XRECORD
  5
5D66
102
{ACAD_REACTORS
330
5D5C
102
}
330
5D5C
100
AcDbXrecord
 90
        0
  0
XRECORD
  5
5D67
102
{ACAD_REACTORS
330
5D5C
102
}
330
5D5C
100
AcDbXrecord
  1
{AFB28963-8C59-40AE-9337-C84526B81ACE}
  0
XRECORD
  5
5D68
102
{ACAD_REACTORS
330
5D5C
102
}
330
5D5C
100
AcDbXrecord
  1
{F1D20368-678D-46D4-B4F6-DCE6871C6FCD}
  0
XRECORD
  5
5D69
102
{ACAD_REACTORS
330
5D5C
102
}
330
5D5C
100
AcDbXrecord
 40
0.0
  0
XRECORD
  5
5D6A
102
{ACAD_REACTORS
330
5D5C
102
}
330
5D5C
100
AcDbXrecord
1000
DSTYLE
1002
{
1070
    79
 70
     2
1070
   341
340
59
1070
   342
340
59
1070
   371
 70
    -1
1070
   372
 70
    -1
1002
}
  0
XRECORD
  5
5D6B
102
{ACAD_REACTORS
330
5D5C
102
}
330
5D5C
100
AcDbXrecord
340
0
  0
XRECORD
  5
5D6C
102
{ACAD_REACTORS
330
5D5C
102
}
330
5D5C
100
AcDbXrecord
 70
     0
  0
XRECORD
  5
5D6D
102
{ACAD_REACTORS
330
5D5C
102
}
330
5D5C
100
AcDbXrecord
340
0
  0
XRECORD
  5
5D6E
102
{ACAD_REACTORS
330
5D5C
102
}
330
5D5C
100
AcDbXrecord
 10
0.0
 20
0.0
 30
0.0
  0
XRECORD
  5
5D6F
102
{ACAD_REACTORS
330
5D5C
102
}
330
5D5C
100
AcDbXrecord
 10
0.0
 20
0.0
 30
0.0
  0
XRECORD
  5
5D70
102
{ACAD_REACTORS
330
5D5C
102
}
330
5D5C
100
AcDbXrecord
 10
0.0
 20
0.0
 30
0.0
  0
XRECORD
  5
5D71
102
{ACAD_REACTORS
330
5D5C
102
}
330
5D5C
100
AcDbXrecord
 10
0.0
 20
0.0
 30
0.0
  0
XRECORD
  5
5D72
102
{ACAD_REACTORS
330
5D5C
102
}
330
5D5C
100
AcDbXrecord
 10
0.0
 20
0.0
 30
0.0
  0
XRECORD
  5
5D73
102
{ACAD_REACTORS
330
5D5C
102
}
330
5D5C
100
AcDbXrecord
 10
0.0
 20
0.0
 30
0.0
  0
XRECORD
  5
5D74
102
{ACAD_REACTORS
330
5D5C
102
}
330
5D5C
100
AcDbXrecord
340
0
  0
XRECORD
  5
5D75
102
{ACAD_REACTORS
330
5D5C
102
}
330
5D5C
100
AcDbXrecord
 70
     0
  0
XRECORD
  5
5D76
102
{ACAD_REACTORS
330
5D5C
102
}
330
5D5C
100
AcDbXrecord
340
0
  0
XRECORD
  5
5D77
102
{ACAD_REACTORS
330
5D5C
102
}
330
5D5C
100
AcDbXrecord
 10
0.0
 20
0.0
 30
0.0
  0
XRECORD
  5
5D78
102
{ACAD_REACTORS
330
5D5C
102
}
330
5D5C
100
AcDbXrecord
 10
0.0
 20
0.0
 30
0.0
  0
XRECORD
  5
5D79
102
{ACAD_REACTORS
330
5D5C
102
}
330
5D5C
100
AcDbXrecord
 10
0.0
 20
0.0
 30
0.0
  0
XRECORD
  5
5D7A
102
{ACAD_REACTORS
330
5D5C
102
}
330
5D5C
100
AcDbXrecord
 10
0.0
 20
0.0
 30
0.0
  0
XRECORD
  5
5D7B
102
{ACAD_REACTORS
330
5D5C
102
}
330
5D5C
100
AcDbXrecord
 10
0.0
 20
0.0
 30
0.0
  0
XRECORD
  5
5D7C
102
{ACAD_REACTORS
330
5D5C
102
}
330
5D5C
100
AcDbXrecord
 10
0.0
 20
0.0
 30
0.0
  0
LAYER_INDEX
  5
5D53
102
{ACAD_REACTORS
330
5D52
102
}
330
5D52
100
AcDbIndex
 40
2453151.724675728
100
AcDbLayerIndex
  8
0
360
5D54
 90
        0
  8
AM_0
360
5D55
 90
       70
  8
AM_7
360
5D56
 90
        1
  8
AM_11
360
5D57
 90
       25
  8
AM_5
360
5D58
 90
        5
  8
Defpoints
360
5D59
 90
        0
  8
AM_6
360
5D5A
 90
        1
  0
XRECORD
  5
2D
102
{ACAD_REACTORS
330
2C
102
}
330
2C
100
AcDbXrecord
  1
VERSION
140
15.0
  1
PRODUCT
  2
AutoCAD Mechanical 2000
  0
IDBUFFER
  5
5D54
330
0
100
AcDbIdBuffer
  0
IDBUFFER
  5
5D55
330
0
100
AcDbIdBuffer
330
5BBD
330
5BBE
330
5BBF
330
5BC0
330
5BC1
330
5BC2
330
5BC3
330
5BC4
330
5BC7
330
5BC8
330
5BC9
330
5BCA
330
5BCB
330
5BCD
330
5BCF
330
5BD0
330
5BD1
330
5BD2
330
5BD3
330
5BD4
330
5BD5
330
5BD6
330
C1D
330
4347
330
44BC
330
44BD
330
44BE
330
4658
330
46F0
330
46F1
330
46F2
330
4BB1
330
4BB2
330
546A
330
546B
330
546D
330
546E
330
548B
330
548E
330
58BB
330
58DD
330
5A65
330
5A66
330
5B9E
330
5B9F
330
5BA0
330
5BA1
330
5BA2
330
5BA3
330
5BA4
330
5BA5
330
5BA6
330
5BA7
330
5BAA
330
5BAB
330
5BAC
330
5BAD
330
5BAE
330
5BAF
330
5BB0
330
5BB1
330
5BB2
330
5BB3
330
5BB4
330
5BB5
330
5BB6
330
5BB9
330
5BBA
330
5BBB
330
5BBC
  0
IDBUFFER
  5
5D56
330
0
100
AcDbIdBuffer
330
C9F
  0
IDBUFFER
  5
5D57
330
0
100
AcDbIdBuffer
330
5B54
330
5BA8
330
5BA9
330
5BB7
330
5BB8
330
5BC5
330
5BC6
330
5BCC
330
5BCE
330
5B41
330
5B42
330
5B43
330
5B44
330
5B45
330
5B46
330
5B47
330
5B49
330
5B4A
330
5B4B
330
5B4C
330
5B4D
330
5B4E
330
5B51
330
5B52
330
5B53
  0
IDBUFFER
  5
5D58
330
0
100
AcDbIdBuffer
330
CC6
330
46D1
330
5686
330
5980
330
5A74
  0
IDBUFFER
  5
5D59
330
0
100
AcDbIdBuffer
  0
IDBUFFER
  5
5D5A
330
0
100
AcDbIdBuffer
330
19BD
  0
ENDSEC
  0
EOF
