  0
SECTION
  2
HEADER
  9
$ACADVER
  1
AC1014
  9
$ACADMAINTVER
 70
     9
  9
$DWGCODEPAGE
  3
ANSI_932
  9
$INSBASE
 10
0.0
 20
0.0
 30
0.0
  9
$EXTMIN
 10
-172.8003443227474
 20
-51.99998879310997
 30
-0.00000001
  9
$EXTMAX
 10
36.45800146381623
 20
35.26221550822284
 30
0.00000001
  9
$LIMMIN
 10
-191.4072313576307
 20
-77.91927616997907
  9
$LIMMAX
 10
57.84446034901896
 20
63.25711247402466
  9
$ORTHOMODE
 70
     0
  9
$REGENMODE
 70
     1
  9
$FILLMODE
 70
     1
  9
$QTEXTMODE
 70
     0
  9
$MIRRTEXT
 70
     0
  9
$DRAGMODE
 70
     2
  9
$LTSCALE
 40
1.0
  9
$OSMODE
 70
    55
  9
$ATTMODE
 70
     1
  9
$TEXTSIZE
 40
2.5
  9
$TRACEWID
 40
1.0
  9
$TEXTSTYLE
  7
STANDARD
  9
$CLAYER
  8
AM_0
  9
$CELTYPE
  6
BYLAYER
  9
$CECOLOR
 62
   256
  9
$CELTSCALE
 40
1.0
  9
$DELOBJ
 70
     1
  9
$DISPSILH
 70
     0
  9
$DIMSCALE
 40
1.0
  9
$DIMASZ
 40
2.5
  9
$DIMEXO
 40
1.0
  9
$DIMDLI
 40
12.0
  9
$DIMRND
 40
0.0
  9
$DIMDLE
 40
0.0
  9
$DIMEXE
 40
1.0
  9
$DIMTP
 40
0.1
  9
$DIMTM
 40
0.1
  9
$DIMTXT
 40
3.2
  9
$DIMCEN
 40
0.0
  9
$DIMTSZ
 40
0.0
  9
$DIMTOL
 70
     0
  9
$DIMLIM
 70
     0
  9
$DIMTIH
 70
     0
  9
$DIMTOH
 70
     0
  9
$DIMSE1
 70
     0
  9
$DIMSE2
 70
     0
  9
$DIMTAD
 70
     3
  9
$DIMZIN
 70
     8
  9
$DIMBLK
  1
OPEN30
  9
$DIMASO
 70
     1
  9
$DIMSHO
 70
     1
  9
$DIMPOST
  1

  9
$DIMAPOST
  1
"
  9
$DIMALT
 70
     0
  9
$DIMALTD
 70
     2
  9
$DIMALTF
 40
0.0393701
  9
$DIMLFAC
 40
1.0
  9
$DIMTOFL
 70
     1
  9
$DIMTVP
 40
0.0
  9
$DIMTIX
 70
     0
  9
$DIMSOXD
 70
     0
  9
$DIMSAH
 70
     0
  9
$DIMBLK1
  1

  9
$DIMBLK2
  1

  9
$DIMSTYLE
  2
AM_JIS
  9
$DIMCLRD
 70
   256
  9
$DIMCLRE
 70
   256
  9
$DIMCLRT
 70
     2
  9
$DIMTFAC
 40
0.71
  9
$DIMGAP
 40
1.5
  9
$DIMJUST
 70
     0
  9
$DIMSD1
 70
     0
  9
$DIMSD2
 70
     0
  9
$DIMTOLJ
 70
     0
  9
$DIMTZIN
 70
     0
  9
$DIMALTZ
 70
     0
  9
$DIMALTTZ
 70
     0
  9
$DIMFIT
 70
     3
  9
$DIMUPT
 70
     0
  9
$DIMUNIT
 70
     2
  9
$DIMDEC
 70
     3
  9
$DIMTDEC
 70
     3
  9
$DIMALTU
 70
     2
  9
$DIMALTTD
 70
     2
  9
$DIMTXSTY
  7
ASAMI
  9
$DIMAUNIT
 70
     0
  9
$LUNITS
 70
     2
  9
$LUPREC
 70
     2
  9
$SKETCHINC
 40
1.0
  9
$FILLETRAD
 40
2.5
  9
$AUNITS
 70
     0
  9
$AUPREC
 70
     0
  9
$MENU
  1
.
  9
$ELEVATION
 40
0.0
  9
$PELEVATION
 40
0.0
  9
$THICKNESS
 40
0.0
  9
$LIMCHECK
 70
     0
  9
$BLIPMODE
 70
     0
  9
$CHAMFERA
 40
2.5
  9
$CHAMFERB
 40
2.5
  9
$CHAMFERC
 40
20.0
  9
$CHAMFERD
 40
0.0
  9
$SKPOLY
 70
     0
  9
$TDCREATE
 40
2452800.443498622
  9
$TDUPDATE
 40
2453151.684048923
  9
$TDINDWG
 40
0.0708266551
  9
$TDUSRTIMER
 40
0.0708266551
  9
$USRTIMER
 70
     1
  9
$ANGBASE
 50
0.0
  9
$ANGDIR
 70
     0
  9
$PDMODE
 70
     0
  9
$PDSIZE
 40
0.0
  9
$PLINEWID
 40
0.0
  9
$COORDS
 70
     1
  9
$SPLFRAME
 70
     0
  9
$SPLINETYPE
 70
     6
  9
$SPLINESEGS
 70
     8
  9
$ATTDIA
 70
     1
  9
$ATTREQ
 70
     1
  9
$HANDLING
 70
 12289
  9
$HANDSEED
  5
2C13
  9
$SURFTAB1
 70
     6
  9
$SURFTAB2
 70
     6
  9
$SURFTYPE
 70
     6
  9
$SURFU
 70
     6
  9
$SURFV
 70
     6
  9
$UCSNAME
  2

  9
$UCSORG
 10
0.0
 20
0.0
 30
0.0
  9
$UCSXDIR
 10
1.0
 20
0.0000000000000027
 30
0.0
  9
$UCSYDIR
 10
-0.0000000000000027
 20
1.0
 30
0.0
  9
$PUCSNAME
  2

  9
$PUCSORG
 10
0.0
 20
0.0
 30
0.0
  9
$PUCSXDIR
 10
1.0
 20
0.0
 30
0.0
  9
$PUCSYDIR
 10
0.0
 20
1.0
 30
0.0
  9
$USERI1
 70
     0
  9
$USERI2
 70
     0
  9
$USERI3
 70
     0
  9
$USERI4
 70
     0
  9
$USERI5
 70
     0
  9
$USERR1
 40
0.0
  9
$USERR2
 40
0.0
  9
$USERR3
 40
0.0
  9
$USERR4
 40
0.0
  9
$USERR5
 40
0.0
  9
$WORLDVIEW
 70
     1
  9
$SHADEDGE
 70
     3
  9
$SHADEDIF
 70
    70
  9
$TILEMODE
 70
     1
  9
$MAXACTVP
 70
    64
  9
$PINSBASE
 10
0.0
 20
0.0
 30
0.0
  9
$PLIMCHECK
 70
     0
  9
$PEXTMIN
 10
1.000000000000000E+20
 20
1.000000000000000E+20
 30
1.000000000000000E+20
  9
$PEXTMAX
 10
-1.000000000000000E+20
 20
-1.000000000000000E+20
 30
-1.000000000000000E+20
  9
$PLIMMIN
 10
0.0
 20
0.0
  9
$PLIMMAX
 10
841.0
 20
594.0
  9
$UNITMODE
 70
     0
  9
$VISRETAIN
 70
     1
  9
$PLINEGEN
 70
     0
  9
$PSLTSCALE
 70
     0
  9
$TREEDEPTH
 70
  3020
  9
$PICKSTYLE
 70
     0
  9
$CMLSTYLE
  2
STANDARD
  9
$CMLJUST
 70
     0
  9
$CMLSCALE
 40
20.0
  9
$PROXYGRAPHICS
 70
     1
  9
$MEASUREMENT
 70
     1
  0
ENDSEC
  0
SECTION
  2
CLASSES
  0
CLASS
  1
ACDBDICTIONARYWDFLT
  2
AcDbDictionaryWithDefault
  3
AutoCAD 2000
 90
        0
280
     0
281
     0
  0
CLASS
  1
ACDBPLACEHOLDER
  2
AcDbPlaceHolder
  3
AutoCAD 2000
 90
        0
280
     0
281
     0
  0
CLASS
  1
LAYOUT
  2
AcDbLayout
  3
AutoCAD 2000
 90
        0
280
     0
281
     0
  0
CLASS
  1
AMGSETTINGSOBJ
  2
AmgSettingsObj
  3
"AcadM|Product Description: AutoCAD Mechanical 2000|Company: Autodesk"
 90
        0
280
     0
281
     0
  0
CLASS
  1
ACME_DOCUMENT
  2
AcMeDbDoc
  3
AcMeServices
 90
        0
280
     0
281
     0
  0
CLASS
  1
ACMESCOPE
  2
AcMeScope
  3
AcMeServices
 90
        0
280
     0
281
     0
  0
CLASS
  1
ACMECOMMANDHISTORY
  2
AcMeCommandHistory
  3
AcMeServices
 90
        0
280
     0
281
     0
  0
CLASS
  1
DICTIONARYVAR
  2
AcDbDictionaryVar
  3
AutoCAD 2000
 90
        0
280
     0
281
     0
  0
CLASS
  1
ACIMSYSVARMAN
  2
AcImSysVarManager
  3
AcMeServices
 90
        0
280
     0
281
     0
  0
CLASS
  1
ACIMREALSYSVAR
  2
AcImRealSysVar
  3
AcMeServices
 90
        0
280
     0
281
     0
  0
CLASS
  1
ACIMINTSYSVAR
  2
AcImIntSysVar
  3
AcMeServices
 90
        0
280
     0
281
     0
  0
CLASS
  1
ACMEDRAWINGMAN
  2
AcMeDrawingMan
  3
AcMeServices
 90
        0
280
     0
281
     0
  0
CLASS
  1
ACMEVIEW
  2
AcMeView
  3
AcMeServices
 90
        0
280
     0
281
     0
  0
CLASS
  1
ACDBENTITYCACHE
  2
AcMeEntityCache
  3
AcMeServices
 90
        0
280
     0
281
     0
  0
CLASS
  1
GSMANAGER
  2
AcMeGSManager
  3
AcMeServices
 90
        0
280
     0
281
     0
  0
CLASS
  1
AmdtInternalReactor
  2
AmdtInternalReactor
  3
AcMeServices
 90
        0
280
     0
281
     0
  0
CLASS
  1
ACMESTATEMGR
  2
AcMeStateMgr
  3
AcMeServices
 90
        0
280
     0
281
     0
  0
CLASS
  1
ACME_DATABASE
  2
AcMeDbDatabase
  3
AcMeServices
 90
        0
280
     0
281
     0
  0
CLASS
  1
ACRFINSADJUSTERMGR
  2
AcRfInsAdjusterMgr
  3
AcMeServices
 90
        0
280
     0
281
     0
  0
CLASS
  1
ACMDATADICTIONARY
  2
AcmDataDictionary
  3
"AcmSymBB|Product Description: AutoCAD Mechanical 2000|Company: Autodesk"
 90
        0
280
     0
281
     0
  0
CLASS
  1
ACMDATAENTRYBLOCK
  2
AcmDataEntryBlock
  3
"AcmSymBB|Product Description: AutoCAD Mechanical 2000|Company: Autodesk"
 90
        0
280
     0
281
     0
  0
CLASS
  1
AMGOBJPROPCFG
  2
AmgObjPropCfg
  3
"AmgLay|Product Description: AutoCAD Mechanical 2000|Company: Autodesk"
 90
        1
280
     0
281
     0
  0
CLASS
  1
ACAMGFILTERDAT
  2
AcAmgFilterDat
  3
"AcadM|Product Description: AutoCAD Mechanical 2000|Company: Autodesk"
 90
        0
280
     0
281
     0
  0
CLASS
  1
LAYER_INDEX
  2
AcDbLayerIndex
  3
AutoCAD 2000
 90
        0
280
     0
281
     0
  0
CLASS
  1
IDBUFFER
  2
AcDbIdBuffer
  3
AutoCAD 2000
 90
        0
280
     0
281
     0
  0
CLASS
  1
ACIMSTRSYSVAR
  2
AcImStrSysVar
  3
AcMeServices
 90
        0
280
     0
281
     0
  0
CLASS
  1
ACMSTANDARDJIS
  2
AcmStandardJIS
  3
"AcmSymBB|Product Description: AutoCAD Mechanical 2000|Company: Autodesk"
 90
        0
280
     0
281
     0
  0
CLASS
  1
ACMSURFSTANDARDJIS
  2
AcmSurfTextStdJIS
  3
"AcmSymBB|Product Description: AutoCAD Mechanical 2000|Company: Autodesk"
 90
        0
280
     0
281
     0
  0
CLASS
  1
ACMFCFSTANDARDJIS
  2
AcmFCFStdJIS
  3
"AcmSymBB|Product Description: AutoCAD Mechanical 2000|Company: Autodesk"
 90
        0
280
     0
281
     0
  0
CLASS
  1
ACMWELDSTANDARDJIS
  2
AcmWeldingStdJIS
  3
"AcmSymBB|Product Description: AutoCAD Mechanical 2000|Company: Autodesk"
 90
        0
280
     0
281
     0
  0
CLASS
  1
ACMIDSTANDARDJIS
  2
AcmIdStdJIS
  3
"AcmSymBB|Product Description: AutoCAD Mechanical 2000|Company: Autodesk"
 90
        0
280
     0
281
     0
  0
CLASS
  1
ACMDATUMSTANDARDJIS
  2
AcmDatumStdJIS
  3
"AcmSymBB|Product Description: AutoCAD Mechanical 2000|Company: Autodesk"
 90
        0
280
     0
281
     0
  0
CLASS
  1
ACMBOMSTANDARDJIS
  2
AcmBOMStdJIS
  3
"AcmSymBB|Product Description: AutoCAD Mechanical 2000|Company: Autodesk"
 90
        0
280
     0
281
     0
  0
CLASS
  1
ACMSTANDARDANSI
  2
AcmStandardANSI
  3
"AcmSymBB|Product Description: AutoCAD Mechanical 2000|Company: Autodesk"
 90
        0
280
     0
281
     0
  0
CLASS
  1
ACMSURFSTANDARDANSI
  2
AcmSurfTextStdANSI
  3
"AcmSymBB|Product Description: AutoCAD Mechanical 2000|Company: Autodesk"
 90
        0
280
     0
281
     0
  0
CLASS
  1
ACMFCFSTANDARDANSI
  2
AcmFCFStdANSI
  3
"AcmSymBB|Product Description: AutoCAD Mechanical 2000|Company: Autodesk"
 90
        0
280
     0
281
     0
  0
CLASS
  1
ACMWELDSTANDARDANSI
  2
AcmWeldingStdANSI
  3
"AcmSymBB|Product Description: AutoCAD Mechanical 2000|Company: Autodesk"
 90
        0
280
     0
281
     0
  0
CLASS
  1
ACMIDSTANDARDANSI
  2
AcmIdStdANSI
  3
"AcmSymBB|Product Description: AutoCAD Mechanical 2000|Company: Autodesk"
 90
        0
280
     0
281
     0
  0
CLASS
  1
ACMDATUMSTANDARDANSI
  2
AcmDatumStdANSI
  3
"AcmSymBB|Product Description: AutoCAD Mechanical 2000|Company: Autodesk"
 90
        0
280
     0
281
     0
  0
CLASS
  1
ACMBOMSTANDARDANSI
  2
AcmBOMStdANSI
  3
"AcmSymBB|Product Description: AutoCAD Mechanical 2000|Company: Autodesk"
 90
        0
280
     0
281
     0
  0
CLASS
  1
ACMSTANDARDBSI
  2
AcmStandardBSI
  3
"AcmSymBB|Product Description: AutoCAD Mechanical 2000|Company: Autodesk"
 90
        0
280
     0
281
     0
  0
CLASS
  1
ACMSURFSTANDARDBSI
  2
AcmSurfTextStdBSI
  3
"AcmSymBB|Product Description: AutoCAD Mechanical 2000|Company: Autodesk"
 90
        0
280
     0
281
     0
  0
CLASS
  1
ACMFCFSTANDARDBSI
  2
AcmFCFStdBSI
  3
"AcmSymBB|Product Description: AutoCAD Mechanical 2000|Company: Autodesk"
 90
        0
280
     0
281
     0
  0
CLASS
  1
ACMWELDSTANDARDBSI
  2
AcmWeldingStdBSI
  3
"AcmSymBB|Product Description: AutoCAD Mechanical 2000|Company: Autodesk"
 90
        0
280
     0
281
     0
  0
CLASS
  1
ACMIDSTANDARDBSI
  2
AcmIdStdBSI
  3
"AcmSymBB|Product Description: AutoCAD Mechanical 2000|Company: Autodesk"
 90
        0
280
     0
281
     0
  0
CLASS
  1
ACMDATUMSTANDARDBSI
  2
AcmDatumStdBSI
  3
"AcmSymBB|Product Description: AutoCAD Mechanical 2000|Company: Autodesk"
 90
        0
280
     0
281
     0
  0
CLASS
  1
ACMBOMSTANDARDBSI
  2
AcmBOMStdBSI
  3
"AcmSymBB|Product Description: AutoCAD Mechanical 2000|Company: Autodesk"
 90
        0
280
     0
281
     0
  0
CLASS
  1
LONG_TRANSACTION
  2
AcDbLongTransaction
  3
AutoCAD 2000
 90
        0
280
     0
281
     0
  0
CLASS
  1
LWPOLYLINE
  2
AcDbPolyline
  3
AutoCAD 2000
 90
        0
280
     0
281
     1
  0
CLASS
  1
HATCH
  2
AcDbHatch
  3
AutoCAD 2000
 90
        0
280
     0
281
     1
  0
CLASS
  1
XRECORD
  2
AcDbXrecord
  3
AutoCAD 2000
 90
        0
280
     0
281
     0
  0
ENDSEC
  0
SECTION
  2
TABLES
  0
TABLE
  2
VPORT
  5
8
330
0
100
AcDbSymbolTable
 70
     3
  0
VPORT
  5
2BDD
330
8
100
AcDbSymbolTableRecord
100
AcDbViewportTableRecord
  2
*ACTIVE
 70
     0
 10
0.0
 20
0.0
 11
1.0
 21
1.0
 12
-64.26160403478099
 22
-6.211183191331159
 13
0.0
 23
0.0
 14
2.5
 24
2.5
 15
10.0
 25
10.0
 16
0.0
 26
0.0
 36
1.0
 17
0.0
 27
0.0
 37
0.0
 40
139.3397737150086
 41
1.56570841889117
 42
50.0
 43
0.0
 44
0.0
 50
0.0
 51
0.0
 71
     0
 72
   100
 73
     1
 74
     1
 75
     0
 76
     0
 77
     0
 78
     0
  0
ENDTAB
  0
TABLE
  2
LTYPE
  5
5
330
0
100
AcDbSymbolTable
 70
    10
  0
LTYPE
  5
14
330
5
100
AcDbSymbolTableRecord
100
AcDbLinetypeTableRecord
  2
BYBLOCK
 70
     0
  3

 72
    65
 73
     0
 40
0.0
  0
LTYPE
  5
15
330
5
100
AcDbSymbolTableRecord
100
AcDbLinetypeTableRecord
  2
BYLAYER
 70
     0
  3

 72
    65
 73
     0
 40
0.0
  0
LTYPE
  5
16
330
5
100
AcDbSymbolTableRecord
100
AcDbLinetypeTableRecord
  2
CONTINUOUS
 70
     0
  3
Solid line
 72
    65
 73
     0
 40
0.0
  0
LTYPE
  5
4B
330
5
100
AcDbSymbolTableRecord
100
AcDbLinetypeTableRecord
  2
AM_ISO02W050
 70
     0
  3
__ __ __ __ __ __ __ __ __ __ __ __ __ __ __
 72
    65
 73
     2
 40
7.5
 49
6.0
 74
     0
 49
-1.5
 74
     0
  0
LTYPE
  5
4C
330
5
100
AcDbSymbolTableRecord
100
AcDbLinetypeTableRecord
  2
AM_ISO08W050
 70
     0
  3
____ . ____ . ____ . ____ . ____ . ____ . ____
 72
    65
 73
     4
 40
18.0
 49
12.0
 74
     0
 49
-1.5
 74
     0
 49
3.0
 74
     0
 49
-1.5
 74
     0
  0
LTYPE
  5
4D
330
5
100
AcDbSymbolTableRecord
100
AcDbLinetypeTableRecord
  2
AM_ISO09W050
 70
     0
  3
_____ . . _____ . . _____ . . ____ .. ____
 72
    65
 73
     6
 40
22.5
 49
12.0
 74
     0
 49
-1.5
 74
     0
 49
3.0
 74
     0
 49
-1.5
 74
     0
 49
3.0
 74
     0
 49
-1.5
 74
     0
  0
LTYPE
  5
4E
330
5
100
AcDbSymbolTableRecord
100
AcDbLinetypeTableRecord
  2
AMCONSTR
 70
     0
  3
_______________________
 72
    65
 73
     2
 40
9999.0
 49
9999.0
 74
     0
 49
0.0
 74
     0
  0
LTYPE
  5
4F
330
5
100
AcDbSymbolTableRecord
100
AcDbLinetypeTableRecord
  2
AM_ISO02W050X2
 70
     0
  3
 _ _ _ _ _ _ _ _ _ _ _ _
 72
    65
 73
     2
 40
3.75
 49
3.0
 74
     0
 49
-0.75
 74
     0
  0
LTYPE
  5
50
330
5
100
AcDbSymbolTableRecord
100
AcDbLinetypeTableRecord
  2
AM_ISO08W050X2
 70
     0
  3
__ . __ . __ . __ . __ . __
 72
    65
 73
     4
 40
9.0
 49
6.0
 74
     0
 49
-0.75
 74
     0
 49
1.5
 74
     0
 49
-0.75
 74
     0
  0
LTYPE
  5
53
330
5
100
AcDbSymbolTableRecord
100
AcDbLinetypeTableRecord
  2
AMZIGZAG
 70
     0
  3
/\/-/\/-/\/-/\/-/\/-/\/
 72
    65
 73
     2
 40
11.00009999999999
 49
0.0001
 74
     4
 75
   135
340
52
 46
0.04
 50
0.0
 44
0.0
 45
0.0
 49
-11.0
 74
     0
  0
LTYPE
  5
166
330
5
100
AcDbSymbolTableRecord
100
AcDbLinetypeTableRecord
  2
ACJISTGL
 70
     0
  3
_ _ _ _ _
 72
    65
 73
     2
 40
3.0
 49
2.0
 74
     0
 49
-1.0
 74
     0
  0
LTYPE
  5
26A
330
5
100
AcDbSymbolTableRecord
100
AcDbLinetypeTableRecord
  2
ACJISTGB
 70
     0
  3
__ . . __ . .
 72
    65
 73
     6
 40
9.0
 49
4.0
 74
     0
 49
-1.0
 74
     0
 49
1.0
 74
     0
 49
-1.0
 74
     0
 49
1.0
 74
     0
 49
-1.0
 74
     0
  0
ENDTAB
  0
TABLE
  2
LAYER
  5
2
330
0
100
AcDbSymbolTable
 70
     7
  0
LAYER
  5
10
330
2
100
AcDbSymbolTableRecord
100
AcDbLayerTableRecord
  2
0
 70
     0
 62
     7
  6
CONTINUOUS
  0
LAYER
  5
3F9
330
2
100
AcDbSymbolTableRecord
100
AcDbLayerTableRecord
  2
AM_0
 70
     0
 62
     7
  6
CONTINUOUS
  0
LAYER
  5
C7C
330
2
100
AcDbSymbolTableRecord
100
AcDbLayerTableRecord
  2
AM_7
 70
     0
 62
     4
  6
AM_ISO08W050
  0
LAYER
  5
C97
330
2
100
AcDbSymbolTableRecord
100
AcDbLayerTableRecord
  2
AM_11
 70
     0
 62
     3
  6
AM_ISO09W050
  0
LAYER
  5
CC5
330
2
100
AcDbSymbolTableRecord
100
AcDbLayerTableRecord
  2
AM_5
 70
     0
 62
     3
  6
CONTINUOUS
  0
LAYER
  5
CC7
330
2
100
AcDbSymbolTableRecord
100
AcDbLayerTableRecord
  2
DEFPOINTS
 70
     0
 62
     7
  6
CONTINUOUS
  0
LAYER
  5
19BC
330
2
100
AcDbSymbolTableRecord
100
AcDbLayerTableRecord
  2
AM_6
 70
     0
 62
     2
  6
CONTINUOUS
  0
ENDTAB
  0
TABLE
  2
STYLE
  5
3
330
0
100
AcDbSymbolTable
 70
     5
  0
STYLE
  5
11
330
3
100
AcDbSymbolTableRecord
100
AcDbTextStyleTableRecord
  2
STANDARD
 70
     0
 40
0.0
 41
1.0
 50
0.0
 71
     0
 42
2.5
  3
simplex.shx
  4
EXTFONT.SHX
  0
STYLE
  5
52
330
3
100
AcDbSymbolTableRecord
100
AcDbTextStyleTableRecord
  2

 70
     1
 40
0.0
 41
1.0
 50
0.0
 71
     0
 42
2.5
  3
ltypeshp.shx
  4

  0
STYLE
  5
6B
330
3
100
AcDbSymbolTableRecord
100
AcDbTextStyleTableRecord
  2
ASAMI
 70
     0
 40
0.0
 41
1.0
 50
0.0
 71
     0
 42
2.5
  3
simplex.shx
  4
EXTFONT.SHX
  0
STYLE
  5
262
330
3
100
AcDbSymbolTableRecord
100
AcDbTextStyleTableRecord
  2
ACJISTS
 70
     0
 40
1.0
 41
1.0
 50
0.0
 71
     0
 42
2.5
  3
simplex.shx
  4
bigfont.shx
  0
STYLE
  5
269
330
3
100
AcDbSymbolTableRecord
100
AcDbTextStyleTableRecord
  2
ACJISGDT
 70
     0
 40
0.0
 41
1.0
 50
0.0
 71
     0
 42
2.5
  3
amgdtans.shx
  4

  0
ENDTAB
  0
TABLE
  2
VIEW
  5
6
330
0
100
AcDbSymbolTable
 70
     0
  0
ENDTAB
  0
TABLE
  2
UCS
  5
7
330
0
100
AcDbSymbolTable
 70
     0
  0
ENDTAB
  0
TABLE
  2
APPID
  5
9
330
0
100
AcDbSymbolTable
 70
    14
  0
APPID
  5
12
330
9
100
AcDbSymbolTableRecord
100
AcDbRegAppTableRecord
  2
ACAD
 70
     0
  0
APPID
  5
30
330
9
100
AcDbSymbolTableRecord
100
AcDbRegAppTableRecord
  2
MCAD_NO_VIS
 70
     0
  0
APPID
  5
31
330
9
100
AcDbSymbolTableRecord
100
AcDbRegAppTableRecord
  2
ACAD_TEMP_GRAPHIC
 70
     0
  0
APPID
  5
2C2
330
9
100
AcDbSymbolTableRecord
100
AcDbRegAppTableRecord
  2
GENIUS_GENDTOL_13
 70
     0
  0
APPID
  5
339
330
9
100
AcDbSymbolTableRecord
100
AcDbRegAppTableRecord
  2
GENIUS_GENODEF_13
 70
     0
  0
APPID
  5
33A
330
9
100
AcDbSymbolTableRecord
100
AcDbRegAppTableRecord
  2
GENIUS_GENOBJ-N-RSBK_13
 70
     0
  0
APPID
  5
33B
330
9
100
AcDbSymbolTableRecord
100
AcDbRegAppTableRecord
  2
GENIUS_GENOBJ-N-LIB_13
 70
     0
  0
APPID
  5
33C
330
9
100
AcDbSymbolTableRecord
100
AcDbRegAppTableRecord
  2
GENIUS_GENSCALE_13
 70
     0
  0
APPID
  5
378
330
9
100
AcDbSymbolTableRecord
100
AcDbRegAppTableRecord
  2
GENIUS_GENDIMSH_14
 70
     0
  0
APPID
  5
C82
330
9
100
AcDbSymbolTableRecord
100
AcDbRegAppTableRecord
  2
GENIUS_GENOBJ-N-CRS_13
 70
     0
  0
APPID
  5
C83
330
9
100
AcDbSymbolTableRecord
100
AcDbRegAppTableRecord
  2
GENIUS_GENOENT_13
 70
     0
  0
APPID
  5
C84
330
9
100
AcDbSymbolTableRecord
100
AcDbRegAppTableRecord
  2
GENIUS_GENOREF_13
 70
     0
  0
APPID
  5
C85
330
9
100
AcDbSymbolTableRecord
100
AcDbRegAppTableRecord
  2
GENIUS_GENOLIS_13
 70
     0
  0
APPID
  5
CA0
330
9
100
AcDbSymbolTableRecord
100
AcDbRegAppTableRecord
  2
GENIUS_GENOBJ-N-CEN_13
 70
     0
  0
ENDTAB
  0
TABLE
  2
DIMSTYLE
  5
A
330
0
100
AcDbSymbolTable
 70
     9
  0
DIMSTYLE
105
58
330
A
100
AcDbSymbolTableRecord
100
AcDbDimStyleTableRecord
  2
AM_JIS
 70
     0
  3

  4
"
  5
OPEN30
  6

  7

 40
1.0
 41
2.5
 42
1.0
 43
12.0
 44
1.0
 45
0.0
 46
0.0
 47
0.1
 48
0.1
140
3.2
141
0.0
142
0.0
143
0.0393701
144
1.0
145
0.0
146
0.71
147
1.5
 71
     0
 72
     0
 73
     0
 74
     0
 75
     0
 76
     0
 77
     3
 78
     8
170
     0
171
     2
172
     1
173
     0
174
     0
175
     0
176
   256
177
   256
178
     2
270
     2
271
     3
272
     3
273
     2
274
     2
340
6B
275
     0
280
     0
281
     0
282
     0
283
     0
284
     0
285
     0
286
     0
287
     3
288
     0
  0
DIMSTYLE
105
5F
330
A
100
AcDbSymbolTableRecord
100
AcDbDimStyleTableRecord
  2
AM_JIS$3
 70
     0
  3

  4
"
  5
OPEN30
  6

  7

 40
1.0
 41
2.5
 42
1.0
 43
10.0
 44
1.0
 45
0.0
 46
0.0
 47
0.1
 48
0.1
140
3.2
141
0.0
142
0.0
143
0.0393701
144
1.0
145
0.0
146
0.71
147
1.5
 71
     0
 72
     0
 73
     0
 74
     1
 75
     0
 76
     0
 77
     3
 78
     8
170
     0
171
     2
172
     0
173
     0
174
     0
175
     0
176
   256
177
   256
178
     2
270
     2
271
     2
272
     3
273
     2
274
     2
340
6B
275
     0
280
     0
281
     0
282
     0
283
     0
284
     0
285
     0
286
     0
287
     0
288
     1
  0
DIMSTYLE
105
60
330
A
100
AcDbSymbolTableRecord
100
AcDbDimStyleTableRecord
  2
AM_JIS$4
 70
     0
  3

  4
"
  5
OPEN30
  6

  7

 40
1.0
 41
2.5
 42
1.0
 43
10.0
 44
1.0
 45
0.0
 46
0.0
 47
0.1
 48
0.1
140
3.2
141
0.0
142
0.0
143
0.0393701
144
1.0
145
0.0
146
0.71
147
1.5
 71
     0
 72
     0
 73
     0
 74
     1
 75
     0
 76
     0
 77
     3
 78
     8
170
     0
171
     2
172
     0
173
     0
174
     0
175
     0
176
   256
177
   256
178
     2
270
     2
271
     2
272
     3
273
     2
274
     2
340
6B
275
     0
280
     0
281
     0
282
     0
283
     0
284
     0
285
     0
286
     0
287
     0
288
     1
  0
DIMSTYLE
105
61
330
A
100
AcDbSymbolTableRecord
100
AcDbDimStyleTableRecord
  2
AM_JIS$6
 70
     0
  3

  4
"
  5
OPEN30
  6

  7

 40
1.0
 41
2.5
 42
1.0
 43
10.0
 44
1.0
 45
0.0
 46
0.0
 47
0.1
 48
0.1
140
3.2
141
0.0
142
0.0
143
0.0393701
144
1.0
145
0.0
146
0.71
147
1.5
 71
     0
 72
     0
 73
     0
 74
     0
 75
     0
 76
     0
 77
     0
 78
     8
170
     0
171
     2
172
     1
173
     0
174
     0
175
     0
176
   256
177
   256
178
     2
270
     2
271
     2
272
     2
273
     2
274
     2
340
6B
275
     0
280
     0
281
     0
282
     0
283
     0
284
     0
285
     0
286
     0
287
     3
288
     0
  0
DIMSTYLE
105
62
330
A
100
AcDbSymbolTableRecord
100
AcDbDimStyleTableRecord
  2
AM_JIS$7
 70
     0
  3

  4
"
  5
OPEN30
  6

  7

 40
1.0
 41
2.5
 42
1.0
 43
10.0
 44
1.0
 45
0.0
 46
0.0
 47
0.1
 48
0.1
140
3.2
141
0.0
142
0.0
143
0.0393701
144
1.0
145
0.0
146
0.71
147
1.5
 71
     0
 72
     0
 73
     0
 74
     0
 75
     0
 76
     0
 77
     3
 78
     8
170
     0
171
     2
172
     1
173
     0
174
     0
175
     0
176
   256
177
   256
178
     2
270
     2
271
     2
272
     3
273
     2
274
     2
340
6B
275
     0
280
     0
281
     0
282
     0
283
     0
284
     0
285
     0
286
     0
287
     3
288
     0
  0
DIMSTYLE
105
63
330
A
100
AcDbSymbolTableRecord
100
AcDbDimStyleTableRecord
  2
AM_JIS$SF
 70
     0
  3

  4
"
  5
OPEN30
  6

  7

 40
1.0
 41
2.5
 42
1.0
 43
10.0
 44
1.0
 45
0.0
 46
0.0
 47
0.1
 48
0.1
140
3.2
141
0.0
142
0.0
143
0.0393701
144
1.0
145
0.0
146
0.71
147
1.5
 71
     0
 72
     0
 73
     0
 74
     0
 75
     1
 76
     1
 77
     3
 78
     8
170
     0
171
     2
172
     1
173
     0
174
     0
175
     0
176
   256
177
   256
178
     2
270
     2
271
     2
272
     2
273
     2
274
     2
340
6B
275
     0
280
     0
281
     0
282
     0
283
     0
284
     0
285
     0
286
     0
287
     3
288
     0
  0
DIMSTYLE
105
68
330
A
100
AcDbSymbolTableRecord
100
AcDbDimStyleTableRecord
  2
AM_JIS$SH
 70
     0
  3

  4
"
  5

  6
GENAXEH
  7
OPEN30
 40
1.0
 41
2.5
 42
1.0
 43
10.0
 44
1.0
 45
0.0
 46
0.0
 47
0.1
 48
0.1
140
3.2
141
0.0
142
0.0
143
0.0393701
144
2.0
145
0.0
146
0.71
147
1.5
 71
     0
 72
     0
 73
     0
 74
     0
 75
     1
 76
     1
 77
     3
 78
     8
170
     0
171
     2
172
     1
173
     1
174
     0
175
     0
176
   256
177
   256
178
     2
270
     2
271
     2
272
     2
273
     2
274
     2
340
6B
275
     0
280
     0
281
     0
282
     0
283
     0
284
     0
285
     0
286
     0
287
     3
288
     0
  0
DIMSTYLE
105
B34
102
{ACAD_REACTORS
330
29A5
102
}
330
A
100
AcDbSymbolTableRecord
100
AcDbDimStyleTableRecord
  2
AM_JIS$2
 70
     0
  3

  4
"
  5
OPEN30
  6

  7

 40
1.0
 41
2.5
 42
1.0
 43
12.0
 44
1.0
 45
0.0
 46
0.0
 47
0.1
 48
0.1
140
3.2
141
0.0
142
0.0
143
0.0393701
144
1.0
145
0.0
146
0.71
147
1.5
 71
     0
 72
     0
 73
     0
 74
     0
 75
     0
 76
     0
 77
     3
 78
     8
170
     0
171
     2
172
     1
173
     0
174
     0
175
     0
176
   256
177
   256
178
     2
270
     2
271
     3
272
     3
273
     2
274
     2
340
6B
275
     0
280
     0
281
     0
282
     0
283
     0
284
     0
285
     0
286
     0
287
     3
288
     0
  0
DIMSTYLE
105
BA5
102
{ACAD_REACTORS
330
CC6
330
DF5
330
10FC
330
28D7
102
}
330
A
100
AcDbSymbolTableRecord
100
AcDbDimStyleTableRecord
  2
AM_JIS$0
 70
     0
  3

  4
"
  5
OPEN30
  6

  7

 40
1.0
 41
2.5
 42
0.0
 43
10.0
 44
1.0
 45
0.0
 46
0.0
 47
0.1
 48
0.1000000001
140
3.799999999999999
141
0.0
142
0.0
143
0.0393701
144
1.0
145
0.0
146
0.71
147
1.5
 71
     0
 72
     0
 73
     0
 74
     0
 75
     0
 76
     0
 77
     3
 78
     1
170
     0
171
     2
172
     1
173
     0
174
     0
175
     0
176
     3
177
     3
178
     2
270
     2
271
     2
272
     2
273
     2
274
     2
340
11
275
     1
280
     0
281
     0
282
     0
283
     0
284
     8
285
     0
286
     0
287
     0
288
     0
  0
ENDTAB
  0
TABLE
  2
BLOCK_RECORD
  5
1
330
0
100
AcDbSymbolTable
 70
    10
  0
BLOCK_RECORD
  5
1F
102
{ACAD_XDICTIONARY
360
74
102
}
330
1
100
AcDbSymbolTableRecord
100
AcDbBlockTableRecord
  2
*MODEL_SPACE
  0
BLOCK_RECORD
  5
101
102
{ACAD_XDICTIONARY
360
2C06
102
}
330
1
100
AcDbSymbolTableRecord
100
AcDbBlockTableRecord
  2
*PAPER_SPACE
  0
BLOCK_RECORD
  5
59
330
1
100
AcDbSymbolTableRecord
100
AcDbBlockTableRecord
  2
_OPEN30
  0
BLOCK_RECORD
  5
64
330
1
100
AcDbSymbolTableRecord
100
AcDbBlockTableRecord
  2
GENAXEH
  0
BLOCK_RECORD
  5
CC8
330
1
100
AcDbSymbolTableRecord
100
AcDbBlockTableRecord
  2
*D5
  0
BLOCK_RECORD
  5
DF6
330
1
100
AcDbSymbolTableRecord
100
AcDbBlockTableRecord
  2
*D6
  0
BLOCK_RECORD
  5
10FD
330
1
100
AcDbSymbolTableRecord
100
AcDbBlockTableRecord
  2
*D7
  0
BLOCK_RECORD
  5
28DE
330
1
100
AcDbSymbolTableRecord
100
AcDbBlockTableRecord
  2
*D8
  0
BLOCK_RECORD
  5
29A6
330
1
100
AcDbSymbolTableRecord
100
AcDbBlockTableRecord
  2
*D9
  0
ENDTAB
  0
ENDSEC
  0
SECTION
  2
BLOCKS
  0
BLOCK
  5
20
330
1F
100
AcDbEntity
  8
0
100
AcDbBlockBegin
  2
*MODEL_SPACE
 70
     0
 10
0.0
 20
0.0
 30
0.0
  3
*MODEL_SPACE
  1

  0
ENDBLK
  5
21
330
1F
100
AcDbEntity
  8
0
100
AcDbBlockEnd
  0
BLOCK
  5
103
330
101
100
AcDbEntity
 67
     1
  8
0
100
AcDbBlockBegin
  2
*PAPER_SPACE
 70
     0
 10
0.0
 20
0.0
 30
0.0
  3
*PAPER_SPACE
  1

  0
ENDBLK
  5
104
330
101
100
AcDbEntity
 67
     1
  8
0
100
AcDbBlockEnd
  0
BLOCK
  5
5D
330
59
100
AcDbEntity
  8
0
100
AcDbBlockBegin
  2
_OPEN30
 70
     0
 10
0.0
 20
0.0
 30
0.0
  3
_OPEN30
  1

  0
LINE
  5
5A
330
59
100
AcDbEntity
  8
0
 62
     0
100
AcDbLine
 10
-1.0
 20
0.26794919
 30
0.0
 11
0.0
 21
0.0
 31
0.0
  0
LINE
  5
5B
330
59
100
AcDbEntity
  8
0
 62
     0
100
AcDbLine
 10
0.0
 20
0.0
 30
0.0
 11
-1.0
 21
-0.26794919
 31
0.0
  0
LINE
  5
5C
330
59
100
AcDbEntity
  8
0
 62
     0
100
AcDbLine
 10
0.0
 20
0.0
 30
0.0
 11
-1.0
 21
0.0
 31
0.0
  0
ENDBLK
  5
5E
330
59
100
AcDbEntity
  8
0
100
AcDbBlockEnd
  0
BLOCK
  5
66
330
64
100
AcDbEntity
  8
0
100
AcDbBlockBegin
  2
GENAXEH
 70
     0
 10
0.0
 20
0.0
 30
0.0
  3
GENAXEH
  1

  0
LINE
  5
65
330
64
100
AcDbEntity
  8
0
100
AcDbLine
 10
-1.0
 20
0.0
 30
0.0
 11
1.0
 21
0.0
 31
0.0
  0
ENDBLK
  5
67
330
64
100
AcDbEntity
  8
0
100
AcDbBlockEnd
  0
BLOCK
  5
CD2
330
CC8
100
AcDbEntity
  8
0
100
AcDbBlockBegin
  2
*D5
 70
     1
 10
0.0
 20
0.0
 30
0.0
  3
*D5
  1

  0
LINE
  5
2B95
330
CC8
100
AcDbEntity
  8
AM_5
 62
     3
100
AcDbLine
 10
-150.9999999999998
 20
-5.217144775531812
 30
0.0
 11
-150.9999999999998
 21
-30.49998879310991
 31
0.0
  0
LINE
  5
2B96
330
CC8
100
AcDbEntity
  8
AM_5
 62
     3
100
AcDbLine
 10
-2.000000128441008
 20
-5.349987323927638
 30
0.0
 11
-2.000000128441009
 21
-30.49998879310991
 31
0.0
  0
LINE
  5
2B97
330
CC8
100
AcDbEntity
  8
AM_5
 62
     3
100
AcDbLine
 10
-148.4999999999998
 20
-29.49998879310991
 30
0.0
 11
-4.500000128441008
 21
-29.49998879310991
 31
0.0
  0
INSERT
  5
2B98
330
CC8
100
AcDbEntity
  8
AM_5
 62
     3
100
AcDbBlockReference
  2
_OPEN30
 10
-150.9999999999998
 20
-29.49998879310991
 30
0.0
 41
2.5
 42
2.5
 43
2.5
 50
180.0
  0
INSERT
  5
2B99
330
CC8
100
AcDbEntity
  8
AM_5
 62
     3
100
AcDbBlockReference
  2
_OPEN30
 10
-2.000000128441009
 20
-29.49998879310991
 30
0.0
 41
2.5
 42
2.5
 43
2.5
  0
MTEXT
  5
2B9A
330
CC8
100
AcDbEntity
  8
AM_5
 62
     2
100
AcDbMText
 10
-76.50000006422044
 20
-26.09998879310991
 30
0.0
 40
3.799999999999999
 41
0.0
 71
     5
 72
     1
  1
149
1001
ACAD
1000
MTEXTBEGIN
1070
    73
1070
     1
1070
    44
1040
1.0
1070
    74
1070
     0
1000
MTEXTEND
  0
POINT
  5
2B9B
330
CC8
100
AcDbEntity
  8
DEFPOINTS
 62
     0
100
AcDbPoint
 10
-150.9999999999998
 20
-5.217144775531812
 30
0.0
  0
POINT
  5
2B9C
330
CC8
100
AcDbEntity
  8
DEFPOINTS
 62
     0
100
AcDbPoint
 10
-2.000000128441008
 20
-5.349987323927638
 30
0.0
  0
POINT
  5
2B9D
330
CC8
100
AcDbEntity
  8
DEFPOINTS
 62
     0
100
AcDbPoint
 10
-2.000000128441009
 20
-29.49998879310991
 30
0.0
  0
ENDBLK
  5
CD3
330
CC8
100
AcDbEntity
  8
0
100
AcDbBlockEnd
  0
BLOCK
  5
E00
330
DF6
100
AcDbEntity
  8
0
100
AcDbBlockBegin
  2
*D6
 70
     1
 10
0.0
 20
0.0
 30
0.0
  3
*D6
  1

  0
LINE
  5
2B8C
330
DF6
100
AcDbEntity
  8
AM_5
 62
     3
100
AcDbLine
 10
-89.99999999999991
 20
-5.499987793109914
 30
0.0
 11
-89.99999999999991
 21
-20.49998879310981
 31
0.0
  0
LINE
  5
2B8D
330
DF6
100
AcDbEntity
  8
AM_5
 62
     3
100
AcDbLine
 10
-2.000000128441008
 20
-5.349987323927638
 30
0.0
 11
-2.000000128441008
 21
-20.49998879310981
 31
0.0
  0
LINE
  5
2B8E
330
DF6
100
AcDbEntity
  8
AM_5
 62
     3
100
AcDbLine
 10
-87.49999999999991
 20
-19.49998879310981
 30
0.0
 11
-4.500000128441008
 21
-19.49998879310981
 31
0.0
  0
INSERT
  5
2B8F
330
DF6
100
AcDbEntity
  8
AM_5
 62
     3
100
AcDbBlockReference
  2
_OPEN30
 10
-89.99999999999991
 20
-19.49998879310981
 30
0.0
 41
2.5
 42
2.5
 43
2.5
 50
180.0
  0
INSERT
  5
2B90
330
DF6
100
AcDbEntity
  8
AM_5
 62
     3
100
AcDbBlockReference
  2
_OPEN30
 10
-2.000000128441008
 20
-19.49998879310981
 30
0.0
 41
2.5
 42
2.5
 43
2.5
  0
MTEXT
  5
2B91
330
DF6
100
AcDbEntity
  8
AM_5
 62
     2
100
AcDbMText
 10
-46.00000006422045
 20
-16.09998879310981
 30
0.0
 40
3.799999999999999
 41
0.0
 71
     5
 72
     1
  1
88
1001
ACAD
1000
MTEXTBEGIN
1070
    73
1070
     1
1070
    44
1040
1.0
1070
    74
1070
     0
1000
MTEXTEND
  0
POINT
  5
2B92
330
DF6
100
AcDbEntity
  8
DEFPOINTS
 62
     0
100
AcDbPoint
 10
-89.99999999999991
 20
-5.499987793109914
 30
0.0
  0
POINT
  5
2B93
330
DF6
100
AcDbEntity
  8
DEFPOINTS
 62
     0
100
AcDbPoint
 10
-2.000000128441008
 20
-5.349987323927638
 30
0.0
  0
POINT
  5
2B94
330
DF6
100
AcDbEntity
  8
DEFPOINTS
 62
     0
100
AcDbPoint
 10
-2.000000128441008
 20
-19.49998879310981
 30
0.0
  0
ENDBLK
  5
E01
330
DF6
100
AcDbEntity
  8
0
100
AcDbBlockEnd
  0
BLOCK
  5
1107
330
10FD
100
AcDbEntity
  8
0
100
AcDbBlockBegin
  2
*D7
 70
     1
 10
0.0
 20
0.0
 30
0.0
  3
*D7
  1

  0
LINE
  5
2B9E
330
10FD
100
AcDbEntity
  8
AM_5
 62
     3
100
AcDbLine
 10
-2.000000128441008
 20
-5.349987323927638
 30
0.0
 11
17.31955770832509
 21
-5.349987323927644
 31
0.0
  0
LINE
  5
2B9F
330
10FD
100
AcDbEntity
  8
AM_5
 62
     3
100
AcDbLine
 10
-1.999987284342411
 20
5.350000125989211
 30
0.0
 11
17.31955770832509
 21
5.350000125989207
 31
0.0
  0
LINE
  5
2BA0
330
10FD
100
AcDbEntity
  8
AM_5
 62
     3
100
AcDbLine
 10
16.31955770832509
 20
-7.849987323927644
 30
0.0
 11
16.31955770832508
 21
-10.34998732392764
 31
0.0
  0
LINE
  5
2BA1
330
10FD
100
AcDbEntity
  8
AM_5
 62
     3
100
AcDbLine
 10
16.31955770832509
 20
7.850000125989207
 30
0.0
 11
16.3195577083251
 21
27.64523822122729
 31
0.0
  0
LINE
  5
2BA2
330
10FD
100
AcDbEntity
  8
AM_5
 62
     3
100
AcDbLine
 10
16.31955770832509
 20
-5.349987323927644
 30
0.0
 11
16.31955770832509
 21
5.350000125989207
 31
0.0
  0
INSERT
  5
2BA3
330
10FD
100
AcDbEntity
  8
AM_5
 62
     3
100
AcDbBlockReference
  2
_OPEN30
 10
16.31955770832509
 20
-5.349987323927644
 30
0.0
 41
2.5
 42
2.5
 43
2.5
 50
90.0
  0
INSERT
  5
2BA4
330
10FD
100
AcDbEntity
  8
AM_5
 62
     3
100
AcDbBlockReference
  2
_OPEN30
 10
16.31955770832509
 20
5.350000125989207
 30
0.0
 41
2.5
 42
2.5
 43
2.5
 50
270.0
  0
MTEXT
  5
2BA5
330
10FD
100
AcDbEntity
  8
AM_5
 62
     2
100
AcDbMText
 10
12.91955770832509
 20
18.99761917360825
 30
0.0
 40
3.799999999999999
 41
0.0
 71
     5
 72
     1
  1
%%c10.7
 11
0.0000000000000001
 21
1.0
 31
0.0
1001
ACAD
1000
MTEXTBEGIN
1070
    73
1070
     1
1070
    44
1040
1.0
1070
    74
1070
     0
1000
MTEXTEND
  0
POINT
  5
2BA6
330
10FD
100
AcDbEntity
  8
DEFPOINTS
 62
     0
100
AcDbPoint
 10
-2.000000128441008
 20
-5.349987323927638
 30
0.0
  0
POINT
  5
2BA7
330
10FD
100
AcDbEntity
  8
DEFPOINTS
 62
     0
100
AcDbPoint
 10
-1.999987284342411
 20
5.350000125989211
 30
0.0
  0
POINT
  5
2BA8
330
10FD
100
AcDbEntity
  8
DEFPOINTS
 62
     0
100
AcDbPoint
 10
16.31955770832509
 20
5.350000125989207
 30
0.0
  0
ENDBLK
  5
1108
330
10FD
100
AcDbEntity
  8
0
100
AcDbBlockEnd
  0
BLOCK
  5
28E8
330
28DE
100
AcDbEntity
  8
0
100
AcDbBlockBegin
  2
*D8
 70
     1
 10
0.0
 20
0.0
 30
0.0
  3
*D8
  1

  0
LINE
  5
2A96
330
28DE
100
AcDbEntity
  8
AM_5
 62
     3
100
AcDbLine
 10
-150.7053654988582
 20
5.499935913225394
 30
0.0
 11
-168.5003443227474
 21
5.499935913225399
 31
0.0
  0
LINE
  5
2A97
330
28DE
100
AcDbEntity
  8
AM_5
 62
     3
100
AcDbLine
 10
-150.7053654988582
 20
-5.49998779311061
 30
0.0
 11
-168.5003443227474
 21
-5.499987793110606
 31
0.0
  0
LINE
  5
2A98
330
28DE
100
AcDbEntity
  8
AM_5
 62
     3
100
AcDbLine
 10
-167.5003443227474
 20
2.999935913225399
 30
0.0
 11
-167.5003443227474
 21
-2.999987793110606
 31
0.0
  0
INSERT
  5
2A99
330
28DE
100
AcDbEntity
  8
AM_5
 62
     3
100
AcDbBlockReference
  2
_OPEN30
 10
-167.5003443227474
 20
5.499935913225399
 30
0.0
 41
2.5
 42
2.5
 43
2.5
 50
90.0
  0
INSERT
  5
2A9A
330
28DE
100
AcDbEntity
  8
AM_5
 62
     3
100
AcDbBlockReference
  2
_OPEN30
 10
-167.5003443227474
 20
-5.499987793110606
 30
0.0
 41
2.5
 42
2.5
 43
2.5
 50
270.0
  0
MTEXT
  5
2A9B
330
28DE
100
AcDbEntity
  8
AM_5
 62
     2
100
AcDbMText
 10
-170.9003443227474
 20
-0.0000259399426303
 30
0.0
 40
3.799999999999999
 41
0.0
 71
     5
 72
     1
  1
%%c11
 11
0.0000000000000001
 21
1.0
 31
0.0
1001
ACAD
1000
MTEXTBEGIN
1070
    73
1070
     1
1070
    44
1040
1.0
1070
    74
1070
     0
1000
MTEXTEND
  0
POINT
  5
2A9C
330
28DE
100
AcDbEntity
  8
DEFPOINTS
 62
     0
100
AcDbPoint
 10
-150.7053654988582
 20
5.499935913225394
 30
0.0
  0
POINT
  5
2A9D
330
28DE
100
AcDbEntity
  8
DEFPOINTS
 62
     0
100
AcDbPoint
 10
-150.7053654988582
 20
-5.49998779311061
 30
0.0
  0
POINT
  5
2A9E
330
28DE
100
AcDbEntity
  8
DEFPOINTS
 62
     0
100
AcDbPoint
 10
-167.5003443227474
 20
-5.499987793110606
 30
0.0
  0
ENDBLK
  5
28E9
330
28DE
100
AcDbEntity
  8
0
100
AcDbBlockEnd
  0
BLOCK
  5
29B4
330
29A6
100
AcDbEntity
  8
0
100
AcDbBlockBegin
  2
*D9
 70
     1
 10
0.0
 20
0.0
 30
0.0
  3
*D9
  1

  0
LINE
  5
2C08
330
29A6
100
AcDbEntity
  8
AM_5
100
AcDbLine
 10
0.3420201433256751
 20
-0.9396926207859056
 30
0.0
 11
12.83439683927339
 21
-35.26221550822267
 31
0.0
  0
LINE
  5
2C09
330
29A6
100
AcDbEntity
  8
AM_5
100
AcDbLine
 10
0.3420201433256625
 20
0.939692620785911
 30
0.0
 11
12.83439683927292
 21
35.26221550822284
 31
0.0
  0
ARC
  5
2C0A
330
29A6
100
AcDbEntity
  8
AM_5
100
AcDbCircle
 10
0.0
 20
0.0000000000000004
 30
0.0
 40
36.52526595210606
100
AcDbArc
 50
293.9224197353835
 51
66.07758026461716
  0
INSERT
  5
2C0B
330
29A6
100
AcDbEntity
  8
AM_5
100
AcDbBlockReference
  2
_OPEN30
 10
12.49237669594771
 20
-34.32252288743677
 30
0.0
 41
2.5
 42
2.5
 43
2.5
 50
201.9612098676919
  0
INSERT
  5
2C0C
330
29A6
100
AcDbEntity
  8
AM_5
100
AcDbBlockReference
  2
_OPEN30
 10
12.49237669594725
 20
34.32252288743693
 30
0.0
 41
2.5
 42
2.5
 43
2.5
 50
158.0387901323087
  0
MTEXT
  5
2C0D
330
29A6
100
AcDbEntity
  8
AM_5
 62
     2
100
AcDbMText
 10
33.42526595210606
 20
0.0000000000002189
 30
0.0
 40
3.2
 41
0.0
 71
     5
 72
     1
  1
140°
  7
ASAMI
 11
-0.0000000000000028
 21
1.0
 31
0.0
  0
POINT
  5
2C0E
330
29A6
100
AcDbEntity
  8
DEFPOINTS
 62
     0
100
AcDbPoint
 10
33.5380875053095
 20
-14.46691879282803
 30
0.0
  0
POINT
  5
2C0F
330
29A6
100
AcDbEntity
  8
DEFPOINTS
 62
     0
100
AcDbPoint
 10
0.0
 20
0.0000000000000004
 30
0.0
  0
POINT
  5
2C10
330
29A6
100
AcDbEntity
  8
DEFPOINTS
 62
     0
100
AcDbPoint
 10
0.0
 20
0.0000000000000004
 30
0.0
  0
POINT
  5
2C11
330
29A6
100
AcDbEntity
  8
DEFPOINTS
 62
     0
100
AcDbPoint
 10
-0.6556852918174095
 20
1.801480533536825
 30
0.0
  0
POINT
  5
2C12
330
29A6
100
AcDbEntity
  8
DEFPOINTS
 62
     0
100
AcDbPoint
 10
-0.6556852918173952
 20
-1.801480533536828
 30
0.0
  0
ENDBLK
  5
29B5
330
29A6
100
AcDbEntity
  8
0
100
AcDbBlockEnd
  0
ENDSEC
  0
SECTION
  2
ENTITIES
  0
LINE
  5
C9F
330
1F
100
AcDbEntity
  8
AM_7
100
AcDbLine
 10
-153.5003433227474
 20
-0.000000000000131
 30
0.0
 11
2.319556708325104
 21
0.000000000000002
 31
0.0
1001
GENIUS_GENODEF_13
1002
{
1000
HIER
1070
     0
1002
}
1002
{
1000
MANEDIT
1070
     0
1002
}
1002
{
1000
NOSEL
1070
     0
1002
}
1002
{
1000
BEHIND
1070
     0
1002
}
1002
{
1000
REACTOR
1002
}
1001
GENIUS_GENOBJ-N-CEN_13
1002
{
1000
OWNER
1000
GEN
1002
}
  0
DIMENSION
  5
CC6
330
1F
100
AcDbEntity
  8
AM_5
100
AcDbDimension
  2
*D5
 10
-2.000000128441009
 20
-29.49998879310991
 30
0.0
 11
-76.50000006422044
 21
-26.09998879310991
 31
0.0
 70
    32
  1
<>
  3
AM_JIS$0
100
AcDbAlignedDimension
 13
-150.9999999999998
 23
-5.217144775531812
 33
0.0
 14
-2.000000128441008
 24
-5.349987323927638
 34
0.0
 50
0.0000000000001132
100
AcDbRotatedDimension
1001
GENIUS_GENDTOL_13
1000

1000
h7
1000

1040
0.0
1001
ACAD
1000
DSTYLE
1002
{
1070
   271
1070
     0
1002
}
  0
DIMENSION
  5
DF5
330
1F
100
AcDbEntity
  8
AM_5
100
AcDbDimension
  2
*D6
 10
-2.000000128441008
 20
-19.49998879310981
 30
0.0
 11
-46.00000006422045
 21
-16.09998879310981
 31
0.0
 70
    32
  1
<>
  3
AM_JIS$0
100
AcDbAlignedDimension
 13
-89.99999999999991
 23
-5.499987793109914
 33
0.0
 14
-2.000000128441008
 24
-5.349987323927638
 34
0.0
 50
0.0000000000001527
100
AcDbRotatedDimension
1001
ACAD
1000
DSTYLE
1002
{
1070
   271
1070
     0
1002
}
1001
GENIUS_GENDTOL_13
1000

1000
h7
1000

1040
0.0
  0
DIMENSION
  5
10FC
330
1F
100
AcDbEntity
  8
AM_5
100
AcDbDimension
  2
*D7
 10
16.31955770832509
 20
5.350000125989207
 30
0.0
 11
16.31955770832509
 21
18.99761917360825
 31
0.0
 70
   160
  1
%%c<>
  3
AM_JIS$0
100
AcDbAlignedDimension
 13
-2.000000128441008
 23
-5.349987323927638
 33
0.0
 14
-1.999987284342411
 24
5.350000125989211
 34
0.0
 50
90.00000000000003
100
AcDbRotatedDimension
1001
GENIUS_GENDTOL_13
1000

1000
h7
1000

1040
0.0
1001
ACAD
1000
DSTYLE
1002
{
1070
   271
1070
     1
1002
}
  0
TEXT
  5
19BD
330
1F
100
AcDbEntity
  8
AM_6
100
AcDbText
 10
-97.69064791607034
 20
-51.99998879310997
 30
0.0
 40
5.0
  1
MDW107LHK
 50
0.0000000000001527
 72
     4
 11
-76.50017172559414
 21
-49.49998879310991
 31
0.0
100
AcDbText
  0
ELLIPSE
  5
1B15
330
1F
100
AcDbEntity
  8
AM_11
 48
0.5
100
AcDbEllipse
 10
-101.5659128824804
 20
21.86398975156631
 30
0.0
 11
24.41816012064585
 21
0.0000000000003431
 31
0.0
210
0.0
220
0.0
230
1.0
 40
0.9899999999999996
 41
4.271663339930083
 42
5.153112800913374
  0
ELLIPSE
  5
1B16
330
1F
100
AcDbEntity
  8
AM_11
 48
0.5
100
AcDbEllipse
 10
-101.5659128824805
 20
-21.8639748404135
 30
0.0
 11
24.41816012064584
 21
0.0000000000001533
 31
0.0
210
0.0
220
0.0
230
1.0
 40
0.99
 41
1.130071552591885
 42
2.011521013575192
  0
ELLIPSE
  5
1B2D
330
1F
100
AcDbEntity
  8
AM_11
 48
0.5
100
AcDbEllipse
 10
-122.3992887731485
 20
21.86400962369078
 30
0.0
 11
24.41816012064581
 21
0.0000000000000394
 31
0.0
210
0.0
220
0.0
230
1.0
 40
0.9900000000000005
 41
4.271663339930094
 42
5.153112800913387
  0
ELLIPSE
  5
1B2E
330
1F
100
AcDbEntity
  8
AM_11
 48
0.5
100
AcDbEllipse
 10
-122.3992887731486
 20
-21.86395496828902
 30
0.0
 11
24.41816012064581
 21
0.0000000000004569
 31
0.0
210
0.0
220
0.0
230
1.0
 40
0.9900000000000005
 41
1.130071552591872
 42
2.011521013575179
  0
LINE
  5
1C54
330
1F
100
AcDbEntity
  8
AM_0
 48
0.5
100
AcDbLine
 10
-150.7054163614916
 20
-5.499938966035764
 30
0.0
 11
-150.7054163614916
 21
5.49988708615138
 31
0.0
  0
LINE
  5
1C55
330
1F
100
AcDbEntity
  8
AM_0
 48
0.5
100
AcDbLine
 10
-150.9999999999998
 20
-5.217144775531812
 30
0.0
 11
-150.9999999999999
 21
5.217092895648193
 31
0.0
  0
LINE
  5
1C56
330
1F
100
AcDbEntity
  8
AM_0
 48
0.5
100
AcDbLine
 10
-150.9999999999998
 20
-5.217144775531812
 30
0.0
 11
-150.7053654988582
 21
-5.499987793110209
 31
0.0
  0
LINE
  5
1C57
330
1F
100
AcDbEntity
  8
AM_0
 48
0.5
100
AcDbLine
 10
-150.9999999999999
 20
5.217092895648193
 30
0.0
 11
-150.7053654988582
 21
5.499935913225796
 31
0.0
  0
LINE
  5
1C58
330
1F
100
AcDbEntity
  8
AM_0
100
AcDbLine
 10
-150.7053654988582
 20
-5.499987793110209
 30
0.0
 11
-89.99999999999991
 21
-5.499987793109914
 31
0.0
  0
LINE
  5
1C59
330
1F
100
AcDbEntity
  8
AM_0
100
AcDbLine
 10
-150.7054163614915
 20
5.499987793108995
 30
0.0
 11
-89.99998728434247
 21
5.499987793109296
 31
0.0
  0
LINE
  5
1C5A
330
1F
100
AcDbEntity
  8
AM_0
100
AcDbLine
 10
-89.99998728434247
 20
5.499987793109311
 30
0.0
 11
-89.74129504973554
 21
5.350631761821744
 31
0.0
  0
LINE
  5
1C5B
330
1F
100
AcDbEntity
  8
AM_0
100
AcDbLine
 10
-89.99999999999991
 20
-5.499987793109914
 30
0.0
 11
-89.99998728434247
 21
5.499987793109296
 31
0.0
  0
LINE
  5
1C5C
330
1F
100
AcDbEntity
  8
AM_0
100
AcDbLine
 10
-89.99999999999991
 20
-5.499987793109914
 30
0.0
 11
-89.74020158684465
 21
-5.349998615253866
 31
0.0
  0
ELLIPSE
  5
1D45
330
1F
100
AcDbEntity
  8
AM_11
 48
0.5
100
AcDbEllipse
 10
-143.2325795489337
 20
-21.86397484041364
 30
0.0
 11
24.41816012064584
 21
0.0000000000001533
 31
0.0
210
0.0
220
0.0
230
1.0
 40
0.99
 41
1.130071552591885
 42
1.894522848304442
  0
ELLIPSE
  5
1D46
330
1F
100
AcDbEntity
  8
AM_11
 48
0.5
100
AcDbEllipse
 10
-143.2325795489336
 20
21.86398975156616
 30
0.0
 11
24.41816012064585
 21
0.0000000000003431
 31
0.0
210
0.0
220
0.0
230
1.0
 40
0.9899999999999996
 41
4.388662458875117
 42
5.153112800913374
  0
DIMENSION
  5
28D7
330
1F
100
AcDbEntity
  8
AM_5
100
AcDbDimension
  2
*D8
 10
-167.5003443227474
 20
-5.499987793110606
 30
0.0
 11
-170.9003443227474
 21
-0.0000259399426303
 31
0.0
 70
    32
  1
%%c<>
  3
AM_JIS$0
100
AcDbAlignedDimension
 13
-150.7053654988582
 23
5.499935913225394
 33
0.0
 14
-150.7053654988582
 24
-5.49998779311061
 34
0.0
 50
270.0
100
AcDbRotatedDimension
1001
ACAD
1000
DSTYLE
1002
{
1070
   271
1070
     0
1002
}
1001
GENIUS_GENDTOL_13
1000

1000
h7
1000

1040
0.0
  0
ELLIPSE
  5
28D8
330
1F
100
AcDbEntity
  8
AM_0
 48
0.5
100
AcDbEllipse
 10
7.071694139679266
 20
6.181507039249242
 30
0.0
 11
8.904298280833744
 21
0.0029979849108188
 31
0.0
210
0.0
220
0.0
230
0.9999999999999996
 40
0.9899886394734453
 41
3.323558732910523
 42
3.661246186324964
  0
LINE
  5
28D9
330
1F
100
AcDbEntity
  8
AM_0
 48
0.5
100
AcDbLine
 10
-1.685062241473872
 20
4.58335233547339
 30
0.0
 11
-1.999987284342411
 21
5.350000125989211
 31
0.0
  0
ELLIPSE
  5
28DB
330
1F
100
AcDbEntity
  8
AM_0
 48
0.5
100
AcDbEllipse
 10
7.071694139679351
 20
-6.18151671868494
 30
0.0
 11
8.904306206839113
 21
0.0000132740434056
 31
0.0
210
0.0
220
0.0
230
1.0
 40
0.9900000502331385
 41
2.621603331136148
 42
2.959286417867058
  0
LINE
  5
28DC
330
1F
100
AcDbEntity
  8
AM_0
 48
0.5
100
AcDbLine
 10
-1.685055819425087
 20
-4.583330225765764
 30
0.0
 11
-2.000000128441008
 21
-5.349987323927638
 31
0.0
  0
LINE
  5
297B
330
1F
100
AcDbEntity
  8
AM_0
 48
0.5
100
AcDbLine
 10
0.0
 20
0.0000000000000004
 30
0.0
 11
-0.6556852918174095
 21
1.801480533536825
 31
0.0
  0
LINE
  5
297C
330
1F
100
AcDbEntity
  8
AM_0
 48
0.5
100
AcDbLine
 10
0.0
 20
0.0000000000000004
 30
0.0
 11
-0.6556852918173952
 21
-1.801480533536828
 31
0.0
  0
DIMENSION
  5
29A5
330
1F
100
AcDbEntity
  8
AM_5
100
AcDbDimension
  2
*D9
 10
-0.6556852918173952
 20
-1.801480533536828
 30
0.0
 11
33.42526595210606
 21
0.0000000000001163
 31
0.0
 70
    34
  1
<>
 51
359.9999999999998
  3
AM_JIS$2
100
AcDb2LineAngularDimension
 13
0.0
 23
0.0000000000000004
 33
0.0
 14
-0.6556852918174095
 24
1.801480533536825
 34
0.0
 15
0.0
 25
0.0000000000000004
 35
0.0
 16
33.5380875053095
 26
-14.46691879282803
 36
0.0
1001
GENIUS_GENDTOL_13
1000

1000
h7
1000

1040
0.0
1001
ACAD
1000
DSTYLE
1002
{
1070
   271
1070
     1
1070
   179
1070
     1
1002
}
  0
LINE
  5
2B29
330
1F
100
AcDbEntity
  8
AM_0
 48
0.5
100
AcDbLine
 10
-4.744269441394994
 20
5.350000125989275
 30
0.0
 11
-1.999987284342411
 21
5.350000125989211
 31
0.0
  0
LINE
  5
2B2A
330
1F
100
AcDbEntity
  8
AM_0
 48
0.5
100
AcDbLine
 10
0.0
 20
0.0000000000000004
 30
0.0
 11
-2.662552537862227
 21
2.054237618868085
 31
0.0
  0
LINE
  5
2B2B
330
1F
100
AcDbEntity
  8
AM_0
 48
0.5
100
AcDbLine
 10
-4.744269441395186
 20
-5.349999874010728
 30
0.0
 11
-2.000000128441078
 21
-5.349987323927638
 31
0.0
  0
LINE
  5
2B2C
330
1F
100
AcDbEntity
  8
AM_11
 48
0.5
100
AcDbLine
 10
-20.77871361457174
 20
5.350000125989585
 30
0.0
 11
-4.744269441394994
 21
5.350000125989275
 31
0.0
  0
LINE
  5
2B2D
330
1F
100
AcDbEntity
  8
AM_11
 48
0.5
100
AcDbLine
 10
-20.77871361457194
 20
-5.349999874010417
 30
0.0
 11
-4.744269441395186
 21
-5.349999874010728
 31
0.0
  0
LINE
  5
2B2E
330
1F
100
AcDbEntity
  8
AM_11
 48
0.5
100
AcDbLine
 10
-51.08131877910736
 20
-5.349999874009941
 30
0.0
 11
-35.04687460593265
 21
-5.350759938602667
 31
0.0
  0
LINE
  5
2B2F
330
1F
100
AcDbEntity
  8
AM_11
 48
0.5
100
AcDbLine
 10
-49.00292093649373
 20
5.350760190582562
 30
0.0
 11
-38.7703534007111
 21
5.350000125989934
 31
0.0
  0
LINE
  5
2B30
330
1F
100
AcDbEntity
  8
AM_0
 48
0.5
100
AcDbLine
 10
-38.77036721108353
 20
5.350000125989934
 30
0.0
 11
-20.77871361457174
 21
5.350000125989585
 31
0.0
  0
LINE
  5
2B31
330
1F
100
AcDbEntity
  8
AM_0
 48
0.5
100
AcDbLine
 10
-35.04687460593264
 20
-5.349999874010251
 30
0.0
 11
-20.77871361457194
 21
-5.349999874010417
 31
0.0
  0
ELLIPSE
  5
2B32
330
1F
100
AcDbEntity
  8
AM_0
 48
0.5
100
AcDbEllipse
 10
6.756249656480505
 20
-9.567373761418696
 30
0.0
 11
-0.0222693225092066
 21
11.74913203290785
 31
0.0
210
0.0
220
0.0
230
1.0
 40
0.9906502834846833
 41
0.617390777076214
 42
0.7663046775778364
  0
ELLIPSE
  5
2B33
330
1F
100
AcDbEntity
  8
AM_0
 48
0.5
100
AcDbEllipse
 10
5.043293278907096
 20
-1.189231174364591
 30
0.0
 11
1.466865735523893
 21
8.217388212155892
 31
0.0
210
0.0
220
0.0
230
1.0
 40
0.9659823098305363
 41
1.872129720472074
 42
2.263964116146659
  0
ELLIPSE
  5
2B34
330
1F
100
AcDbEntity
  8
AM_0
 48
0.5
100
AcDbEllipse
 10
-8.923122588753493
 20
8.979239653373392
 30
0.0
 11
0.0000000000020706
 21
12.89941683610241
 31
0.0
210
0.0
220
0.0
230
1.0
 40
0.9440196356084269
 41
3.652175978818338
 42
3.740670756497834
  0
ELLIPSE
  5
2B35
330
1F
100
AcDbEntity
  8
AM_0
 48
0.5
100
AcDbEllipse
 10
3.043634109906404
 20
6.423004276379723
 30
0.0
 11
0.0000000000000091
 21
10.78262944221479
 31
0.0
210
0.0
220
0.0
230
1.0
 40
0.9440196356084214
 41
2.101163880028974
 42
2.509284810223866
  0
ELLIPSE
  5
2B36
330
1F
100
AcDbEntity
  8
AM_0
 48
0.5
100
AcDbEllipse
 10
-1.685203336826919
 20
-1.39428688801871
 30
0.0
 11
-0.1411676655275624
 21
0.8789867504986855
 31
0.0
210
0.0
220
0.0
230
0.9999999999999998
 40
0.4735088069672257
 41
1.817895950694804
 42
4.953237840406781
  0
ELLIPSE
  5
2B37
330
1F
100
AcDbEntity
  8
AM_0
 48
0.5
100
AcDbEllipse
 10
-1.685203336826919
 20
-1.39428688801871
 30
0.0
 11
-0.7212070704873787
 21
0.4590120480699955
 31
0.0
210
0.0
220
0.0
230
0.9999999999999998
 40
0.5135001598381143
 41
4.518676862468678
 42
7.662117203798191
  0
SPLINE
  5
2B38
330
1F
100
AcDbEntity
  8
AM_0
100
AcDbSpline
210
0.0
220
0.0
230
1.0
 70
     8
 71
     3
 72
    11
 73
     7
 74
     0
 42
0.0000000001
 43
0.0000000001
 40
11.27226913003534
 40
11.27226913003534
 40
11.27226913003534
 40
11.2722691300354
 40
12.28301561507924
 40
13.29510212255852
 40
14.30984805882082
 40
15.18258238371378
 40
15.18258238371378
 40
15.18258238371378
 40
15.18258238371378
 10
-51.08131877910938
 20
-5.349999874009942
 30
0.0
 10
-51.36385414766351
 20
-5.323815419310089
 30
0.0
 10
-51.92839196934071
 20
-5.260423994075747
 30
0.0
 10
-52.77228353379032
 20
-5.132547809546226
 30
0.0
 10
-53.57315150857843
 20
-4.979813728202521
 30
0.0
 10
-54.09110590466437
 20
-4.862402494215753
 30
0.0
 10
-54.32979403911871
 20
-4.804404587641434
 30
0.0
  0
SPLINE
  5
2B39
330
1F
100
AcDbEntity
  8
AM_0
100
AcDbSpline
210
0.0
220
0.0
230
1.0
 70
     8
 71
     3
 72
    17
 73
    13
 74
     0
 42
0.0000000001
 43
0.0000000001
 40
1.580019955310467
 40
1.580019955310467
 40
1.580019955310467
 40
1.580019955310467
 40
2.030549285115227
 40
3.082371838836284
 40
4.126290986361125
 40
5.162752068350215
 40
6.192395305374981
 40
7.216039564037012
 40
8.234688489606833
 40
9.249433870634691
 40
10.26152376260694
 40
11.27226744710342
 40
11.27226744710342
 40
11.27226744710342
 40
11.27226744710352
 10
-43.06347119365789
 20
-3.948457413268524
 30
0.0
 10
-43.18390199656952
 20
-3.989123245789573
 30
0.0
 10
-43.58618133849133
 20
-4.122410943575669
 30
0.0
 10
-44.27297193625379
 20
-4.331477466669738
 30
0.0
 10
-45.12366369159598
 20
-4.565604237963656
 30
0.0
 10
-45.97458964158199
 20
-4.771136457763099
 30
0.0
 10
-46.82555458069797
 20
-4.947383902679954
 30
0.0
 10
-47.67661223091894
 20
-5.09306454028841
 30
0.0
 10
-48.52772867827082
 20
-5.207347035425902
 30
0.0
 10
-49.37889812294586
 20
-5.289490799284553
 30
0.0
 10
-50.23009959433315
 20
-5.3389670629169
 30
0.0
 10
-50.79770497123149
 20
-5.34999990462293
 30
0.0
 10
-51.08131877910933
 20
-5.349999874009942
 30
0.0
  0
SPLINE
  5
2B3A
330
1F
100
AcDbEntity
  8
AM_0
100
AcDbSpline
210
0.0
220
0.0
230
1.0
 70
     8
 71
     3
 72
    22
 73
    18
 74
     0
 42
0.0000000001
 43
0.0000000001
 40
17.17441611292
 40
17.17441611292
 40
17.17441611292
 40
17.17441611292
 40
17.38177636558528
 40
18.41823744757437
 40
19.46215659509824
 40
20.51397914882054
 40
21.57394542641293
 40
22.64209583141747
 40
23.71826625065247
 40
24.80210429862395
 40
25.8930771157021
 40
26.99048705697709
 40
28.09349309193389
 40
29.20112995599786
 40
30.31233024745139
 40
31.42594771747373
 40
32.5407895042663
 40
32.54078950426994
 40
32.54078950426994
 40
32.54078950426994
 10
-54.3301662988689
 20
-4.804338595432345
 30
0.0
 10
-54.387163962861
 20
-4.791953870169809
 30
0.0
 10
-54.72883383025621
 20
-4.716517154911888
 30
0.0
 10
-55.35475377430389
 20
-4.565256722512662
 30
0.0
 10
-56.20556396047737
 20
-4.331489459243194
 30
0.0
 10
-57.05628745087881
 20
-4.071027459699735
 30
0.0
 10
-57.90693025156839
 20
-3.78549659226579
 30
0.0
 10
-58.75749123890614
 20
-3.476647583321422
 30
0.0
 10
-59.60798088231149
 20
-3.146402542966749
 30
0.0
 10
-60.45840311979057
 20
-2.796791050963221
 30
0.0
 10
-61.30876581977132
 20
-2.429969142225528
 30
0.0
 10
-62.15907843774783
 20
-2.048199875581707
 30
0.0
 10
-63.00934835392059
 20
-1.653830761797342
 30
0.0
 10
-63.85958412763096
 20
-1.249288026300805
 30
0.0
 10
-64.70979329547912
 20
-0.8370591489993579
 30
0.0
 10
-65.55998845257445
 20
-0.4196878048789544
 30
0.0
 10
-66.12667396855278
 20
-0.1397656977112416
 30
0.0
 10
-66.41017239913306
 20
0.0002722410626573
 30
0.0
  0
SPLINE
  5
2B3B
330
1F
100
AcDbEntity
  8
AM_0
100
AcDbSpline
210
0.0
220
0.0
230
1.0
 70
     8
 71
     3
 72
    23
 73
    19
 74
     0
 42
0.0000000001
 43
0.0000000001
 40
16.03460024169435
 40
16.03460024169435
 40
16.03460024169435
 40
16.03460024169435
 40
16.35212704903564
 40
17.38177054169784
 40
18.41822485651776
 40
19.46214173629503
 40
20.51396345435107
 40
21.57393551351153
 40
22.64208202342361
 40
23.7182574881101
 40
24.80209208578934
 40
25.89306333925047
 40
26.99048218457928
 40
28.09348763352352
 40
29.20111863782268
 40
30.31232390128032
 40
31.42594612798585
 40
32.5407912310448
 40
32.5407912310486
 40
32.5407912310486
 40
32.5407912310486
 10
-49.00292093649373
 20
5.350760190582563
 30
0.0
 10
-48.91547044430843
 20
5.332699532715505
 30
0.0
 10
-48.5448168312974
 20
5.254050450987919
 30
0.0
 10
-47.89190650031256
 20
5.099949578705786
 30
0.0
 10
-47.04638591246754
 20
4.870803266852984
 30
0.0
 10
-46.20165068391506
 20
4.613510153465553
 30
0.0
 10
-45.35765089857684
 20
4.329559319850627
 30
0.0
 10
-44.51435660140485
 20
4.020533798262413
 30
0.0
 10
-43.67171905200971
 20
3.688200108902443
 30
0.0
 10
-42.82967957231521
 20
3.334492350481613
 30
0.0
 10
-41.98819031461389
 20
2.961413549413389
 30
0.0
 10
-41.14718381366057
 20
2.571134564311876
 30
0.0
 10
-40.30659191528306
 20
2.165923865257875
 30
0.0
 10
-39.46635861324069
 20
1.748111243895735
 30
0.0
 10
-38.6264136062336
 20
1.320126223401568
 30
0.0
 10
-37.78667909756517
 20
0.8844679223008144
 30
0.0
 10
-36.94708670914196
 20
0.4436608624762419
 30
0.0
 10
-36.38750879300826
 20
0.1481238319447792
 30
0.0
 10
-36.10756723459183
 20
0.0002722410602579
 30
0.0
  0
SPLINE
  5
2B3C
330
1F
100
AcDbEntity
  8
AM_0
100
AcDbSpline
210
0.0
220
0.0
230
1.0
 70
     8
 71
     3
 72
    22
 73
    18
 74
     0
 42
0.0000000001
 43
0.0000000001
 40
17.17441611292
 40
17.17441611292
 40
17.17441611292
 40
17.17441611292
 40
17.38177636558528
 40
18.41823744757437
 40
19.46215659509824
 40
20.51397914882054
 40
21.57394542641293
 40
22.64209583141747
 40
23.71826625065247
 40
24.80210429862395
 40
25.8930771157021
 40
26.99048705697709
 40
28.09349309193389
 40
29.20112995599786
 40
30.31233024745139
 40
31.42594771747373
 40
32.5407895042663
 40
32.54078950426994
 40
32.54078950426994
 40
32.54078950426994
 10
-24.02756113433142
 20
-4.804338595432818
 30
0.0
 10
-24.0845587983235
 20
-4.791953870170284
 30
0.0
 10
-24.42622866571872
 20
-4.716517154912364
 30
0.0
 10
-25.05214860976639
 20
-4.565256722513138
 30
0.0
 10
-25.90295879593989
 20
-4.331489459243674
 30
0.0
 10
-26.75368228634134
 20
-4.071027459700212
 30
0.0
 10
-27.60432508703094
 20
-3.785496592266265
 30
0.0
 10
-28.45488607436868
 20
-3.476647583321897
 30
0.0
 10
-29.30537571777401
 20
-3.146402542967226
 30
0.0
 10
-30.1557979552531
 20
-2.796791050963698
 30
0.0
 10
-31.00616065523385
 20
-2.429969142226005
 30
0.0
 10
-31.85647327321035
 20
-2.048199875582185
 30
0.0
 10
-32.70674318938312
 20
-1.653830761797819
 30
0.0
 10
-33.55697896309348
 20
-1.249288026301282
 30
0.0
 10
-34.40718813094164
 20
-0.8370591489998352
 30
0.0
 10
-35.25738328803697
 20
-0.4196878048794314
 30
0.0
 10
-35.82406880401531
 20
-0.1397656977117186
 30
0.0
 10
-36.10756723459559
 20
0.0002722410621801
 30
0.0
  0
SPLINE
  5
2B3D
330
1F
100
AcDbEntity
  8
AM_0
 48
0.5
100
AcDbSpline
210
0.0
220
0.0
230
1.0
 70
     8
 71
     3
 72
    17
 73
    13
 74
     0
 42
0.0000000001
 43
0.0000000001
 40
0.0
 40
0.0
 40
0.0
 40
0.0
 40
1.010743614677189
 40
2.022833924044153
 40
3.037578959561199
 40
4.056212747067873
 40
5.079857613375832
 40
6.109500119648989
 40
7.14596120163808
 40
8.18989512056258
 40
9.241717674284874
 40
9.693948937866434
 40
9.693948937866434
 40
9.693948937866434
 40
9.693948937866434
 10
-4.744269441394994
 20
5.350000125989277
 30
0.0
 10
-5.027883304628886
 20
5.346819299512286
 30
0.0
 10
-5.595488912567361
 20
5.34045340848842
 30
0.0
 10
-6.446689684910968
 20
5.289086132639886
 30
0.0
 10
-7.297855413812861
 20
5.207456562957339
 30
0.0
 10
-8.148968207450085
 20
5.093037281517379
 30
0.0
 10
-9.000017929315861
 20
4.947380076409684
 30
0.0
 10
-9.850994184679105
 20
4.771160266565717
 30
0.0
 10
-10.70188555200827
 20
4.565512237179385
 30
0.0
 10
-11.552725049304
 20
4.33182046374713
 30
0.0
 10
-12.23954487824789
 20
4.121299501093853
 30
0.0
 10
-12.64288575079189
 20
3.989693625196463
 30
0.0
 10
-12.76394704122427
 20
3.949409947592675
 30
0.0
  0
SPLINE
  5
2B3E
330
1F
100
AcDbEntity
  8
AM_0
 48
0.5
100
AcDbSpline
210
0.0
220
0.0
230
1.0
 70
     8
 71
     3
 72
    16
 73
    12
 74
     0
 42
0.0000000001
 43
0.0000000001
 40
0.0
 40
0.0
 40
0.0
 40
0.0
 40
1.010743614677189
 40
2.022833924044153
 40
3.037578959561199
 40
4.056212747067873
 40
5.079857613375832
 40
6.109500119648989
 40
7.14596120163808
 40
8.18989512056258
 40
8.545190612624931
 40
8.545190612624931
 40
8.545190612624931
 40
8.545190612624931
 10
-4.744269441394994
 20
5.350000125989277
 30
0.0
 10
-5.027867537544572
 20
5.349967977040714
 30
0.0
 10
-5.595496241579816
 20
5.33899024518327
 30
0.0
 10
-6.446687707567642
 20
5.289479476345197
 30
0.0
 10
-7.297855972536204
 20
5.207350696860814
 30
0.0
 10
-8.148967958537301
 20
5.093065550760237
 30
0.0
 10
-9.000018365825205
 20
4.947373540071756
 30
0.0
 10
-9.850992675869308
 20
4.771157885120959
 30
0.0
 10
-10.70189120399231
 20
4.565528527439157
 30
0.0
 10
-11.36350424750063
 20
4.38374197007881
 30
0.0
 10
-11.74166873586586
 20
4.271938736285267
 30
0.0
 10
-11.83756913810691
 20
4.243087100336688
 30
0.0
  0
SPLINE
  5
2B3F
330
1F
100
AcDbEntity
  8
AM_0
 48
0.5
100
AcDbSpline
210
0.0
220
0.0
230
1.0
 70
     8
 71
     3
 72
    25
 73
    21
 74
     0
 42
0.0000000001
 43
0.0000000001
 40
6.846175049578289
 40
6.846175049578289
 40
6.846175049578289
 40
6.846175049578289
 40
7.604337694224321
 40
8.711974558287883
 40
9.814980593243754
 40
10.91239053451967
 40
12.0033633515982
 40
13.08720139956839
 40
14.16337181880432
 40
15.23152222380919
 40
16.29148850140128
 40
17.34331105512262
 40
18.38723020264746
 40
19.42369128463655
 40
20.45333379090873
 40
21.47697865721768
 40
22.49561244472435
 40
23.5103574802404
 40
24.52244778960836
 40
25.53320666051913
 40
25.53320666051913
 40
25.53320666051913
 40
25.53320666051913
 10
-5.7369846206496
 20
0.9683851516412783
 30
0.0
 10
-5.930348461477624
 20
1.062321636701311
 30
0.0
 10
-6.406613931430072
 20
1.292554525520007
 30
0.0
 10
-7.166488811642883
 20
1.654103040832795
 30
0.0
 10
-8.016758681347624
 20
2.048472266054852
 30
0.0
 10
-8.867071311676332
 20
2.430241503024637
 30
0.0
 10
-9.717434008399211
 20
2.797063419779795
 30
0.0
 10
-10.56785624665523
 20
3.14667490916109
 30
0.0
 10
-11.41834589017888
 20
3.476919952035052
 30
0.0
 10
-12.26890687628927
 20
3.785768953578545
 30
0.0
 10
-13.11954968171574
 20
4.071299847819884
 30
0.0
 10
-13.97027315458642
 20
4.331761748587773
 30
0.0
 10
-14.82108340546947
 20
4.56552937634852
 30
0.0
 10
-15.6719774318164
 20
4.77115597970105
 30
0.0
 10
-16.52295190960512
 20
4.947381214685766
 30
0.0
 10
-17.37400210356261
 20
5.09303697870535
 30
0.0
 10
-18.22511477168959
 20
5.207456644268185
 30
0.0
 10
-19.07628053386064
 20
5.289086108435098
 30
0.0
 10
-19.92748557309063
 20
5.340453682306793
 30
0.0
 10
-20.49509546760723
 20
5.346819374727333
 30
0.0
 10
-20.77871361457174
 20
5.350000125989586
 30
0.0
  0
SPLINE
  5
2B40
330
1F
100
AcDbEntity
  8
AM_0
100
AcDbSpline
210
0.0
220
0.0
230
1.0
 70
     8
 71
     3
 72
    11
 73
     7
 74
     0
 42
0.0000000001
 43
0.0000000001
 40
11.27226913003534
 40
11.27226913003534
 40
11.27226913003534
 40
11.2722691300354
 40
12.28301561507924
 40
13.29510212255852
 40
14.30984805882082
 40
15.18258238371378
 40
15.18258238371378
 40
15.18258238371378
 40
15.18258238371378
 10
-20.77871361457192
 20
-5.349999874010419
 30
0.0
 10
-21.06124898312605
 20
-5.323815419310567
 30
0.0
 10
-21.62578680480323
 20
-5.260423994076224
 30
0.0
 10
-22.46967836925286
 20
-5.132547809546703
 30
0.0
 10
-23.27054634404095
 20
-4.979813728203
 30
0.0
 10
-23.78850074012689
 20
-4.86240249421623
 30
0.0
 10
-24.02718887458124
 20
-4.804404587641908
 30
0.0
  0
SPLINE
  5
2B41
330
1F
100
AcDbEntity
  8
AM_0
100
AcDbSpline
210
0.0
220
0.0
230
1.0
 70
     8
 71
     3
 72
    17
 73
    13
 74
     0
 42
0.0000000001
 43
0.0000000001
 40
1.580019955310467
 40
1.580019955310467
 40
1.580019955310467
 40
1.580019955310467
 40
2.030549285115227
 40
3.082371838836284
 40
4.126290986361125
 40
5.162752068350215
 40
6.192395305374981
 40
7.216039564037012
 40
8.234688489606833
 40
9.249433870634691
 40
10.26152376260694
 40
11.27226744710342
 40
11.27226744710342
 40
11.27226744710342
 40
11.27226744710352
 10
-12.76086602912045
 20
-3.948457413269001
 30
0.0
 10
-12.88129683203208
 20
-3.98912324579005
 30
0.0
 10
-13.28357617395386
 20
-4.122410943576146
 30
0.0
 10
-13.97036677171629
 20
-4.331477466670214
 30
0.0
 10
-14.82105852705851
 20
-4.565604237964137
 30
0.0
 10
-15.67198447704451
 20
-4.771136457763577
 30
0.0
 10
-16.52294941616048
 20
-4.947383902680431
 30
0.0
 10
-17.37400706638146
 20
-5.093064540288884
 30
0.0
 10
-18.22512351373336
 20
-5.207347035426379
 30
0.0
 10
-19.0762929584084
 20
-5.289490799285033
 30
0.0
 10
-19.92749442979569
 20
-5.338967062917379
 30
0.0
 10
-20.49509980669401
 20
-5.349999904623408
 30
0.0
 10
-20.77871361457187
 20
-5.349999874010419
 30
0.0
  0
SPLINE
  5
2B42
330
1F
100
AcDbEntity
  8
AM_0
100
AcDbSpline
210
0.0
220
0.0
230
1.0
 70
     8
 71
     3
 72
    46
 73
    42
 74
     0
 42
0.0000000001
 43
0.0000000001
 40
0.0
 40
0.0
 40
0.0
 40
0.0
 40
1.685415058684571
 40
2.531036209541119
 40
3.379897699130121
 40
4.232934581347655
 40
5.090970612202441
 40
5.954688180526682
 40
6.824620803463246
 40
7.701151815239689
 40
8.584457046566678
 40
9.474582384070741
 40
10.37139106676737
 40
11.27458944007583
 40
12.18373345430765
 40
13.09824173870457
 40
14.01741343450111
 40
14.9404441545541
 40
15.86644439743314
 40
16.79446029130534
 40
17.7234937712985
 40
18.65252725129241
 40
19.58054314516461
 40
20.50654338804289
 40
21.42957410809586
 40
22.34874580389317
 40
23.26325408828901
 40
24.17239810252111
 40
25.07560240389441
 40
25.97241108659103
 40
26.8625364240951
 40
27.74584165542183
 40
28.62236045019041
 40
29.49229307312697
 40
30.35601064145121
 40
31.21404606334468
 40
32.06708345193547
 40
32.91595755657689
 40
33.76157841950693
 40
34.60498701064689
 40
35.44727335621125
 40
35.44727335621125
 40
35.44727335621125
 40
35.44727335621125
 10
-2.361483657119928
 20
-5.349999874010775
 30
0.0
 10
-2.929116757316415
 20
-5.337812160450873
 30
0.0
 10
-3.781547689939444
 20
-5.319509520888777
 30
0.0
 10
-4.915062274058382
 20
-5.206823531478809
 30
0.0
 10
-5.766183894471859
 20
-5.093206078351585
 30
0.0
 10
-6.617232764248113
 20
-4.947340568265269
 30
0.0
 10
-7.46820664143301
 20
-4.771166627741281
 30
0.0
 10
-8.31910115440686
 20
-4.565526518301534
 30
0.0
 10
-9.169914878049189
 20
-4.331759854719457
 30
0.0
 10
-10.02064402593844
 20
-4.071301998914345
 30
0.0
 10
-10.87129029847811
 20
-3.785768407096993
 30
0.0
 10
-11.72185140768841
 20
-3.476919779653741
 30
0.0
 10
-12.5723410182886
 20
-3.146674636423354
 30
0.0
 10
-13.42276326382823
 20
-2.797063170398133
 30
0.0
 10
-14.27312596473295
 20
-2.430241261728557
 30
0.0
 10
-15.12343857076965
 20
-2.048471968344589
 30
0.0
 10
-15.97370853412104
 20
-1.654102962253634
 30
0.0
 10
-16.8239441300592
 20
-1.249559820439131
 30
0.0
 10
-17.6741543735052
 20
-0.8373322688930713
 30
0.0
 10
-18.52434703118513
 20
-0.4199552172868967
 30
0.0
 10
-19.37453254199549
 20
0.0000001259045843
 30
0.0
 10
-20.22471805261905
 20
0.4199554696063962
 30
0.0
 10
-21.07491071085922
 20
0.8373325196823248
 30
0.0
 10
-21.92512095225749
 20
1.249560076820751
 30
0.0
 10
-22.77535655578873
 20
1.654103197895205
 30
0.0
 10
-23.62562649098565
 20
2.048472280888157
 30
0.0
 10
-24.47593920128796
 20
2.430241289476976
 30
0.0
 10
-25.32630336516796
 20
2.797065049061636
 30
0.0
 10
-26.17672891503817
 20
3.146673338689459
 30
0.0
 10
-27.02722004278148
 20
3.47692017530385
 30
0.0
 10
-27.87778113218829
 20
3.785768894646003
 30
0.0
 10
-28.72842391036973
 20
4.071299862653654
 30
0.0
 10
-29.5791473900256
 20
4.331761747521168
 30
0.0
 10
-30.42995764070338
 20
4.565529366065644
 30
0.0
 10
-31.28085166122418
 20
4.771156021449838
 30
0.0
 10
-32.13182616229103
 20
4.947381059358913
 30
0.0
 10
-32.98288046352684
 20
5.093038271626428
 30
0.0
 10
-33.83399769832638
 20
5.2074555704577
 30
0.0
 10
-34.68516759133505
 20
5.289086288402799
 30
0.0
 10
-35.53636838117769
 20
5.340453369651276
 30
0.0
 10
-36.10397398678767
 20
5.346819286572745
 30
0.0
 10
-36.38758784885796
 20
5.350000125989892
 30
0.0
  0
SPLINE
  5
2B43
330
1F
100
AcDbEntity
  8
AM_0
 48
0.5
100
AcDbSpline
210
0.0
220
0.0
230
1.0
 70
     8
 71
     3
 72
    10
 73
     6
 74
     0
 42
0.0000000001
 43
0.0000000001
 40
0.0
 40
0.0
 40
0.0
 40
0.0
 40
2.69986029516136
 40
4.147722969032201
 40
6.285750005020438
 40
6.285750005020438
 40
6.285750005020438
 40
6.285750005020438
 10
-5.736848532271329
 20
0.9683216083296864
 30
0.0
 10
-5.13103124691336
 20
0.4712696381634374
 30
0.0
 10
-4.200330397680811
 20
-0.2923379741104618
 30
0.0
 10
-1.999347912541102
 20
0.0773378482681052
 30
0.0
 10
-2.413856934015533
 20
1.322454933431354
 30
0.0
 10
-2.68773801133915
 20
2.081392145412405
 30
0.0
  0
ELLIPSE
  5
2B44
330
1F
100
AcDbEntity
  8
AM_11
 48
0.5
100
AcDbEllipse
 10
-39.06591288248663
 20
-22.0702387540023
 30
0.0
 11
-24.41816012064585
 21
0.0000000000000015
 31
0.0
210
0.0
220
0.0
230
1.0
 40
0.9993396226415086
 41
4.271664206181681
 42
5.153113667164988
  0
ELLIPSE
  5
2B45
330
1F
100
AcDbEntity
  8
AM_11
 48
0.5
100
AcDbEllipse
 10
-39.06591288248641
 20
22.07025380582637
 30
0.0
 11
24.41816012064585
 21
0.0000000000023058
 31
0.0
210
0.0
220
0.0
230
1.0
 40
0.9993396226415091
 41
4.271663339929999
 42
5.153112800913291
  0
ELLIPSE
  5
2B46
330
1F
100
AcDbEntity
  8
AM_11
 48
0.5
100
AcDbEllipse
 10
-18.23257954915307
 20
22.07025380582626
 30
0.0
 11
-24.41816012064585
 21
0.0000000000000015
 31
0.0
210
0.0
220
0.0
230
1.0
 40
0.9993396226415088
 41
1.130070686340302
 42
2.011520147323592
  0
ELLIPSE
  5
2B47
330
1F
100
AcDbEntity
  8
AM_11
 48
0.5
100
AcDbEllipse
 10
-18.2325795491533
 20
-22.07023875400241
 30
0.0
 11
-24.41816012064585
 21
0.0000000000028805
 31
0.0
210
0.0
220
0.0
230
1.0
 40
0.9993396226415088
 41
4.271664206181799
 42
5.153113667165107
  0
ELLIPSE
  5
2B48
330
1F
100
AcDbEntity
  8
AM_11
 48
0.5
100
AcDbEllipse
 10
2.600753784180284
 20
22.07025380582615
 30
0.0
 11
24.41816012064512
 21
0.0000000004088794
 31
0.0
210
0.0
220
0.0
230
1.0
 40
0.9993396226415351
 41
4.271663339913346
 42
4.433393390954043
  0
SPLINE
  5
2B49
330
1F
100
AcDbEntity
  8
AM_0
100
AcDbSpline
210
0.0
220
0.0
230
1.0
 70
     8
 71
     3
 72
    55
 73
    51
 74
     0
 42
0.0000000001
 43
0.0000000001
 40
0.0
 40
0.0
 40
0.0
 40
0.0
 40
1.010743684496582
 40
2.022833576467832
 40
3.037578957496688
 40
4.056212745003489
 40
5.079857003664532
 40
6.109500240690281
 40
7.145961322679372
 40
8.189895241603872
 40
9.241717795325891
 40
10.30168407291828
 40
11.36983447792315
 40
12.44600489715814
 40
13.52984294512926
 40
14.62081576220742
 40
15.7182257034828
 40
16.82123173843959
 40
17.92886860250316
 40
19.0400688939571
 40
20.15368796660465
 40
21.26852814259644
 40
22.38336992938901
 40
23.49698739941135
 40
24.6081876908653
 40
25.71582455492886
 40
26.81883757994213
 40
27.91624752121713
 40
29.00722033829659
 40
30.09105838626677
 40
31.16722880550176
 40
32.23537921050758
 40
33.29534548809967
 40
34.347168041821
 40
35.39108718934584
 40
36.42754827133493
 40
37.45720575381954
 40
38.48085062012849
 40
39.49948440763516
 40
40.51422944315121
 40
41.52631975251916
 40
42.53706336719636
 40
43.54780698187354
 40
44.55989729124051
 40
45.57464232675757
 40
46.59327611426424
 40
47.6169209805722
 40
48.64656348684535
 40
49.68302456883444
 40
50.58557219878025
 40
50.58557219878025
 40
50.58557219878025
 40
50.58557219878025
 10
-4.744269441395186
 20
-5.349999874010729
 30
0.0
 10
-5.027883253014755
 20
-5.346816753622396
 30
0.0
 10
-5.595488620917535
 20
-5.340446273254125
 30
0.0
 10
-6.446690110359288
 20
-5.289093049724009
 30
0.0
 10
-7.297855265218874
 20
-5.207454839269767
 30
0.0
 10
-8.148967741311867
 20
-5.09303578238322
 30
0.0
 10
-9.000019045875545
 20
-4.947386476656142
 30
0.0
 10
-9.850992389570496
 20
-4.771154601340296
 30
0.0
 10
-10.70189061886481
 20
-4.565527317162177
 30
0.0
 10
-11.55270618801084
 20
-4.331763787224991
 30
0.0
 10
-12.40343330140394
 20
-4.07129930542152
 30
0.0
 10
-13.25407619944847
 20
-3.785768780379494
 30
0.0
 10
-14.10463716033572
 20
-3.476919678486852
 30
0.0
 10
-14.95512681114363
 20
-3.1466746638559
 30
0.0
 10
-15.8055490457306
 20
-2.797063162858631
 30
0.0
 10
-16.65591174983912
 20
-2.430241264198939
 30
0.0
 10
-17.50622435410663
 20
-2.048471966053015
 30
0.0
 10
-18.35649432133056
 20
-1.654102968976125
 30
0.0
 10
-19.20672990347781
 20
-1.249559795713621
 30
0.0
 10
-20.05694019843041
 20
-0.8373323614348013
 30
0.0
 10
-20.90713266334195
 20
-0.4199548709949834
 30
0.0
 10
-21.75731930424699
 20
-0.0000009656047389
 30
0.0
 10
-22.60750212852539
 20
0.4199604992175212
 30
0.0
 10
-23.45769744309675
 20
0.8373314899858245
 30
0.0
 10
-24.30790668845336
 20
1.249560172053618
 30
0.0
 10
-25.15814378656124
 20
1.654104886445299
 30
0.0
 10
-26.00841728111285
 20
2.048470517907918
 30
0.0
 10
-26.8587312273983
 20
2.43024175215537
 30
0.0
 10
-27.70909405427092
 20
2.797063353360322
 30
0.0
 10
-28.55951625791375
 20
3.146674927879576
 30
0.0
 10
-29.4100059108994
 20
3.476919942993609
 30
0.0
 10
-30.26056689345112
 20
3.785768971035773
 30
0.0
 10
-31.11120970370001
 20
4.071299787630733
 30
0.0
 10
-31.9619331609805
 20
4.331761969536167
 30
0.0
 10
-32.81274346881492
 20
4.56552856119237
 30
0.0
 10
-33.66364138247016
 20
4.771159980276487
 30
0.0
 10
-34.51462080239999
 20
4.94737172746581
 30
0.0
 10
-35.36567491859669
 20
5.093066114731992
 30
0.0
 10
-36.2167876469975
 20
5.207349542594966
 30
0.0
 10
-37.06795339327251
 20
5.289483512161869
 30
0.0
 10
-37.91915416099684
 20
5.338975300240519
 30
0.0
 10
-38.77037363334184
 20
5.355508869001296
 30
0.0
 10
-39.62159310443435
 20
5.338975300214626
 30
0.0
 10
-40.47279387592332
 20
5.289483512265913
 30
0.0
 10
-41.32395960833797
 20
5.207349542203114
 30
0.0
 10
-42.17507238870459
 20
5.093066116204838
 30
0.0
 10
-43.02612216049104
 20
4.947372432211618
 30
0.0
 10
-43.87709822788586
 20
4.771161781946517
 30
0.0
 10
-44.68930766000225
 20
4.574862925758502
 30
0.0
 10
-45.2162783892633
 20
4.431307716482902
 30
0.0
 10
-45.46076209356491
 20
4.361346259958064
 30
0.0
  0
LINE
  5
2B4A
330
1F
100
AcDbEntity
  8
AM_11
 48
0.5
100
AcDbLine
 10
-79.30564298115955
 20
5.350760190583036
 30
0.0
 11
-69.07308925574937
 21
5.350000125990413
 31
0.0
  0
LINE
  5
2B4B
330
1F
100
AcDbEntity
  8
AM_0
100
AcDbLine
 10
-89.74129504973557
 20
5.350631761821745
 30
0.0
 11
-89.74119175941245
 21
4.336604941645296
 31
0.0
  0
POLYLINE
  5
2B4C
330
1F
100
AcDbEntity
  8
AM_0
100
AcDb2dPolyline
 66
     1
 10
0.0
 20
0.0
 30
0.0
 70
     2
  0
VERTEX
  5
2B4D
330
2B4C
100
AcDbEntity
  8
AM_0
100
AcDbVertex
100
AcDb2dVertex
 10
-88.965840942879
 20
-3.950986866617177
 30
0.0
 42
0.0351157762658453
  0
VERTEX
  5
2B4E
330
2B4C
100
AcDbEntity
  8
AM_0
100
AcDbVertex
100
AcDb2dVertex
 10
-89.18126620092314
 20
-3.908225395118265
 30
0.0
 42
0.044786481860755
 70
     1
  0
VERTEX
  5
2B4F
330
2B4C
100
AcDbEntity
  8
AM_0
100
AcDbVertex
100
AcDb2dVertex
 10
-89.35364582092779
 20
-3.901219979131374
 30
0.0
 42
0.0378244354854128
  0
VERTEX
  5
2B50
330
2B4C
100
AcDbEntity
  8
AM_0
100
AcDbVertex
100
AcDb2dVertex
 10
-89.70850697772513
 20
-3.943959484906331
 30
0.0
 42
0.0785304530199817
 70
     1
  0
VERTEX
  5
2B51
330
2B4C
100
AcDbEntity
  8
AM_0
100
AcDbVertex
100
AcDb2dVertex
 10
-89.8707189916595
 20
-4.002508979000478
 30
0.0
 42
0.0914341172496281
  0
VERTEX
  5
2B52
330
2B4C
100
AcDbEntity
  8
AM_0
100
AcDbVertex
100
AcDb2dVertex
 10
-89.97493289316718
 20
-4.086898592014059
 30
0.0
 42
0.1734786634335468
 70
     1
  0
VERTEX
  5
2B53
330
2B4C
100
AcDbEntity
  8
AM_0
100
AcDbVertex
100
AcDb2dVertex
 10
-89.9999872843424
 20
-4.153564866355384
 30
0.0
 42
0.1707159826348874
  0
VERTEX
  5
2B54
330
2B4C
100
AcDbEntity
  8
AM_0
100
AcDbVertex
100
AcDb2dVertex
 10
-89.97591685388046
 20
-4.221493422592684
 30
0.0
 42
0.0878858945849485
 70
     1
  0
VERTEX
  5
2B55
330
2B4C
100
AcDbEntity
  8
AM_0
100
AcDbVertex
100
AcDb2dVertex
 10
-89.8707189916595
 20
-4.312181591590042
 30
0.0
 42
0.0737173247185441
  0
VERTEX
  5
2B56
330
2B4C
100
AcDbEntity
  8
AM_0
100
AcDbVertex
100
AcDb2dVertex
 10
-89.70488450377857
 20
-4.380920455237012
 30
0.0
 42
0.037064748993984
 70
     1
  0
VERTEX
  5
2B57
330
2B4C
100
AcDbEntity
  8
AM_0
100
AcDbVertex
100
AcDb2dVertex
 10
-89.35364582092779
 20
-4.44371394297813
 30
0.0
 42
0.0449345368811406
  0
VERTEX
  5
2B58
330
2B4C
100
AcDbEntity
  8
AM_0
100
AcDbVertex
100
AcDb2dVertex
 10
-89.18429644548217
 20
-4.446685040871053
 30
0.0
 42
0.0344667769950814
 70
     1
  0
VERTEX
  5
2B59
330
2B4C
100
AcDbEntity
  8
AM_0
100
AcDbVertex
100
AcDb2dVertex
 10
-88.965840942879
 20
-4.416629569131569
 30
0.0
  0
SEQEND
  5
2B5A
330
2B4C
100
AcDbEntity
  8
AM_0
  0
LINE
  5
2B5B
330
1F
100
AcDbEntity
  8
AM_0
100
AcDbLine
 10
-89.74046698520826
 20
-2.778683877485005
 30
0.0
 11
-89.74034756596111
 21
-3.951052360126852
 31
0.0
  0
LINE
  5
2B5C
330
1F
100
AcDbEntity
  8
AM_0
100
AcDbLine
 10
-89.74030480024103
 20
-4.370894082310716
 30
0.0
 11
-89.74020506695081
 21
-5.350000624420336
 31
0.0
  0
LINE
  5
2B5D
330
1F
100
AcDbEntity
  8
AM_0
100
AcDbLine
 10
-89.74110512799727
 20
3.486122769830054
 30
0.0
 11
-89.74048545059975
 21
-2.597404531407513
 31
0.0
  0
POLYLINE
  5
2B5E
330
1F
100
AcDbEntity
  8
AM_0
100
AcDb2dPolyline
 66
     1
 10
0.0
 20
0.0
 30
0.0
 70
     2
  0
VERTEX
  5
2B5F
330
2B5E
100
AcDbEntity
  8
AM_0
100
AcDbVertex
100
AcDb2dVertex
 10
-88.06096289409838
 20
5.086538874834967
 30
0.0
 42
0.0276737331564208
  0
VERTEX
  5
2B60
330
2B5E
100
AcDbEntity
  8
AM_0
100
AcDbVertex
100
AcDb2dVertex
 10
-88.50357098510121
 20
4.993925941727583
 30
0.0
 42
0.0414024687830266
 70
     1
  0
VERTEX
  5
2B61
330
2B5E
100
AcDbEntity
  8
AM_0
100
AcDbVertex
100
AcDb2dVertex
 10
-88.78809704043984
 20
4.892947425793402
 30
0.0
 42
0.0280074108471844
  0
VERTEX
  5
2B62
330
2B5E
100
AcDbEntity
  8
AM_0
100
AcDbVertex
100
AcDb2dVertex
 10
-89.43682693512792
 20
4.557575281138469
 30
0.0
 42
0.0512701366748525
 70
     1
  0
VERTEX
  5
2B63
330
2B5E
100
AcDbEntity
  8
AM_0
100
AcDbVertex
100
AcDb2dVertex
 10
-89.75760923556183
 20
4.321900318047815
 30
0.0
 42
0.0658714570033076
  0
VERTEX
  5
2B64
330
2B5E
100
AcDbEntity
  8
AM_0
100
AcDbVertex
100
AcDb2dVertex
 10
-89.95893586834569
 20
4.084585163711344
 30
0.0
 42
0.1411961588081283
 70
     1
  0
VERTEX
  5
2B65
330
2B5E
100
AcDbEntity
  8
AM_0
100
AcDbVertex
100
AcDb2dVertex
 10
-89.99998728434235
 20
3.944444659343808
 30
0.0
 42
0.1226739033459629
  0
VERTEX
  5
2B66
330
2B5E
100
AcDbEntity
  8
AM_0
100
AcDbVertex
100
AcDb2dVertex
 10
-89.95993897832157
 20
3.790361658019659
 30
0.0
 42
0.0555312784770531
 70
     1
  0
VERTEX
  5
2B67
330
2B5E
100
AcDbEntity
  8
AM_0
100
AcDbVertex
100
AcDb2dVertex
 10
-89.75760923556185
 20
3.504506463125494
 30
0.0
 42
0.0351528005485752
  0
VERTEX
  5
2B68
330
2B5E
100
AcDbEntity
  8
AM_0
100
AcDbVertex
100
AcDb2dVertex
 10
-89.43061584962606
 20
3.185686290599805
 30
0.0
 42
0.0197318127063559
 70
     1
  0
VERTEX
  5
2B69
330
2B5E
100
AcDbEntity
  8
AM_0
100
AcDbVertex
100
AcDb2dVertex
 10
-88.78809704043993
 20
2.683529205322767
 30
0.0
 42
0.0358460074876439
  0
VERTEX
  5
2B6A
330
2B5E
100
AcDbEntity
  8
AM_0
100
AcDbVertex
100
AcDb2dVertex
 10
-88.52456815087451
 20
2.520749681081404
 30
0.0
 42
0.021710998496176
 70
     1
  0
VERTEX
  5
2B6B
330
2B5E
100
AcDbEntity
  8
AM_0
100
AcDbVertex
100
AcDb2dVertex
 10
-88.06096289409845
 20
2.302490143738337
 30
0.0
  0
SEQEND
  5
2B6C
330
2B5E
100
AcDbEntity
  8
AM_0
  0
LINE
  5
2B6D
330
1F
100
AcDbEntity
  8
AM_11
 48
0.5
100
AcDbLine
 10
-89.95827290967687
 20
-5.349998571312213
 30
0.0
 11
-81.42662500084734
 21
-5.350000290450251
 31
0.0
  0
LINE
  5
2B6E
330
1F
100
AcDbEntity
  8
AM_0
100
AcDbLine
 10
-79.30564158449339
 20
5.350759902139113
 30
0.0
 11
-89.74129504973557
 21
5.350631761821745
 31
0.0
  0
ELLIPSE
  5
2B6F
330
1F
100
AcDbEntity
  8
AM_0
100
AcDbEllipse
 10
-88.57275452027685
 20
-5.758616225075482
 30
0.0
 11
1.413917030802118
 21
0.3748259339726502
 31
0.0
210
0.0
220
0.0
230
1.0
 40
0.9559570884788056
 41
1.595466434353371
 42
2.685632822555723
  0
SPLINE
  5
2B70
330
1F
100
AcDbEntity
  8
AM_0
100
AcDbSpline
210
0.0
220
0.0
230
1.0
 70
     8
 71
     3
 72
    22
 73
    18
 74
     0
 42
0.0000000001
 43
0.0000000001
 40
30.51371389116273
 40
30.51371389116273
 40
30.51371389116273
 40
30.51371389116273
 40
31.16722880550176
 40
32.23537921050758
 40
33.29534548809967
 40
34.347168041821
 40
35.39108718934584
 40
36.42754827133493
 40
37.45720575381954
 40
38.48085062012849
 40
39.49948440763516
 40
40.51422944315121
 40
41.52631975251916
 40
42.53706336719636
 40
43.54780698187354
 40
44.55989729124051
 40
45.14939243453665
 40
45.14939243453665
 40
45.14939243453665
 40
45.14939243453665
 10
-72.61662180969172
 20
3.098992474508643
 30
0.0
 10
-72.83410499726525
 20
3.171582702322164
 30
0.0
 10
-73.41545081646775
 20
3.347362391226526
 30
0.0
 10
-74.3603834622691
 20
3.618026702016545
 30
0.0
 10
-75.44899878553152
 20
3.906276859721931
 30
0.0
 10
-76.53771731732435
 20
4.169219633835997
 30
0.0
 10
-77.62654699664324
 20
4.405212573984163
 30
0.0
 10
-78.71548879004544
 20
4.612802387535761
 30
0.0
 10
-79.80453489159955
 20
4.790692341841173
 30
0.0
 10
-80.89367658615666
 20
4.937774294700377
 30
0.0
 10
-81.98289329003936
 20
5.053146136162053
 30
0.0
 10
-83.07217784386976
 20
5.136062334010536
 30
0.0
 10
-84.16150721661354
 20
5.186025472451848
 30
0.0
 10
-85.25086052670969
 20
5.202716503772261
 30
0.0
 10
-86.34021383520297
 20
5.186025472425713
 30
0.0
 10
-87.27704110283818
 20
5.143056989880681
 30
0.0
 10
-87.85020342021475
 20
5.103073716113952
 30
0.0
 10
-88.0609628940984
 20
5.086538874834967
 30
0.0
  0
ELLIPSE
  5
2B71
330
1F
100
AcDbEntity
  8
AM_0
100
AcDbEllipse
 10
-87.61552365169364
 20
19.42642375302016
 30
0.0
 11
0.2128445941027735
 21
14.30134348257832
 31
0.0
210
0.0
220
0.0
230
0.9999999999999998
 40
0.681364899870257
 41
2.973608846700079
 42
3.195873044497072
  0
SPLINE
  5
2B72
330
1F
100
AcDbEntity
  8
AM_0
100
AcDbSpline
210
0.0
220
0.0
230
1.0
 70
     8
 71
     3
 72
    13
 73
     9
 74
     0
 42
0.0000000001
 43
0.0000000001
 40
26.13201924531566
 40
26.13201924531566
 40
26.13201924531566
 40
26.13201924531566
 40
26.99048218457928
 40
28.09348763352352
 40
29.20111863782268
 40
30.31232390128032
 40
31.42594612798585
 40
32.5407912310448
 40
32.5407912310486
 40
32.5407912310486
 40
32.5407912310486
 10
-88.06096289531025
 20
2.302490144194173
 30
0.0
 10
-87.77987380981164
 20
2.196752758080295
 30
0.0
 10
-87.13917187770826
 20
1.952286557332447
 30
0.0
 10
-86.14155154854614
 20
1.560962710808552
 30
0.0
 10
-85.06662680421284
 20
1.128901642500147
 30
0.0
 10
-83.99197144641208
 20
0.6890942147222413
 30
0.0
 10
-82.91749796786168
 20
0.2440889924231468
 30
0.0
 10
-82.20137471762914
 20
-0.0542626764943301
 30
0.0
 10
-81.84311780128496
 20
-0.2035223777682377
 30
0.0
  0
SPLINE
  5
2B73
330
1F
100
AcDbEntity
  8
AM_0
100
AcDbSpline
210
0.0
220
0.0
230
1.0
 70
     8
 71
     3
 72
    15
 73
    11
 74
     0
 42
0.0000000001
 43
0.0000000001
 40
3.980857627225244
 40
3.980857627225244
 40
3.980857627225244
 40
3.980857627225244
 40
4.056212745003489
 40
5.079857003664532
 40
6.109500240690281
 40
7.145961322679372
 40
8.189895241603872
 40
9.241717795325891
 40
10.30168407291828
 40
10.55450228288433
 40
10.55450228288433
 40
10.55450228288433
 40
10.55450228288433
 10
-81.42662500084734
 20
-5.350000290450251
 30
0.0
 10
-82.1088642930623
 20
-5.32351141142493
 30
0.0
 10
-82.51275889822673
 20
-5.300188391781476
 30
0.0
 10
-83.26746110252095
 20
-5.198301654700529
 30
0.0
 10
-84.35649942797644
 20
-5.020391380572151
 30
0.0
 10
-85.44544162531963
 20
-4.812805741306618
 30
0.0
 10
-86.53427803783401
 20
-4.576815892036695
 30
0.0
 10
-87.62300124855924
 20
-4.313870796120808
 30
0.0
 10
-88.43249713291827
 20
-4.099527814719875
 30
0.0
 10
-88.87978065102931
 20
-3.975137017413496
 30
0.0
 10
-88.96584094287861
 20
-3.950986866615866
 30
0.0
  0
SPLINE
  5
2B74
330
1F
100
AcDbEntity
  8
AM_0
100
AcDbSpline
210
0.0
220
0.0
230
1.0
 70
     8
 71
     3
 72
     9
 73
     5
 74
     0
 42
0.0000000001
 43
0.0000000001
 40
1.580019955310467
 40
1.580019955310467
 40
1.580019955310467
 40
1.580019955310467
 40
2.030549285115227
 40
2.43907978603305
 40
2.43907978603305
 40
2.43907978603305
 40
2.43907978603305
 10
-88.08090738630447
 20
-4.190626284488814
 30
0.0
 10
-88.23502944066477
 20
-4.231679410652922
 30
0.0
 10
-88.52940834514823
 20
-4.308620508556244
 30
0.0
 10
-88.82501792888708
 20
-4.382282525381747
 30
0.0
 10
-88.96584094287899
 20
-4.416629569131532
 30
0.0
  0
SPLINE
  5
2B75
330
1F
100
AcDbEntity
  8
AM_0
100
AcDbSpline
210
0.0
220
0.0
230
1.0
 70
     8
 71
     3
 72
    17
 73
    13
 74
     0
 42
0.0000000001
 43
0.0000000001
 40
3.680640182805057
 40
3.680640182805057
 40
3.680640182805057
 40
3.680640182805057
 40
4.232934581347659
 40
5.09097061220244
 40
5.954688180526682
 40
6.824620803463244
 40
7.701151815239697
 40
8.58445704656667
 40
9.47458238407075
 40
10.37139106676736
 40
11.27458944007584
 40
12.17321262433756
 40
12.17321262433756
 40
12.17321262433756
 40
12.17321262433756
 10
-79.51072963860557
 20
-5.349999874009391
 30
0.0
 10
-79.74586518934478
 20
-5.318936346301058
 30
0.0
 10
-80.3452785274718
 20
-5.233992296172565
 30
0.0
 10
-81.30711483761599
 20
-5.075129098073507
 30
0.0
 10
-82.39605227897547
 20
-4.865171436552438
 30
0.0
 10
-83.48488632969527
 20
-4.62649668501204
 30
0.0
 10
-84.57361214407935
 20
-4.360570341758209
 30
0.0
 10
-85.66223189822954
 20
-4.069041780588835
 30
0.0
 10
-86.75074266408961
 20
-3.753708668976333
 30
0.0
 10
-87.83916192916747
 20
-3.416529807370743
 30
0.0
 10
-88.92326850553958
 20
-3.060964215472443
 30
0.0
 10
-89.64238372713143
 20
-2.813548665808765
 30
0.0
 10
-89.99998728434233
 20
-2.688040995589107
 30
0.0
  0
SPLINE
  5
2B76
330
1F
100
AcDbEntity
  8
AM_0
100
AcDbSpline
210
0.0
220
0.0
230
1.0
 70
     8
 71
     3
 72
    15
 73
    11
 74
     0
 42
0.0000000001
 43
0.0000000001
 40
5.241236682593577
 40
5.241236682593577
 40
5.241236682593577
 40
5.241236682593577
 40
5.954688180526682
 40
6.824620803463244
 40
7.701151815239697
 40
8.58445704656667
 40
9.47458238407075
 40
10.37139106676736
 40
11.27458944007584
 40
12.17321262433756
 40
12.17321262433756
 40
12.17321262433756
 40
12.17321262433756
 10
-81.49344779408783
 20
-0.3397598503712015
 30
0.0
 10
-81.79386605662783
 20
-0.3949466259973599
 30
0.0
 10
-82.45873559533649
 20
-0.5246508715899275
 30
0.0
 10
-83.48488632969525
 20
-0.7495853061845718
 30
0.0
 10
-84.57361214407935
 20
-1.015511649438382
 30
0.0
 10
-85.66223189822954
 20
-1.307040210607738
 30
0.0
 10
-86.75074266408961
 20
-1.62237332222022
 30
0.0
 10
-87.83916192916745
 20
-1.959552183825792
 30
0.0
 10
-88.92326850553954
 20
-2.315117775724073
 30
0.0
 10
-89.6423837271314
 20
-2.562533325387742
 30
0.0
 10
-89.99998728434233
 20
-2.688040995607397
 30
0.0
  0
ELLIPSE
  5
2B77
330
1F
100
AcDbEntity
  8
AM_11
 48
0.5
100
AcDbEllipse
 10
-80.73257954914721
 20
22.07025380582659
 30
0.0
 11
24.41816012064582
 21
0.0000000000034607
 31
0.0
210
0.0
220
0.0
230
1.0
 40
0.99933962264151
 41
4.271663339929952
 42
5.153112800913245
  0
ELLIPSE
  5
2B78
330
1F
100
AcDbEntity
  8
AM_11
 48
0.5
100
AcDbEllipse
 10
-80.73257954914748
 20
-22.07023875400207
 30
0.0
 11
24.41816012064581
 21
0.0000000000074946
 31
0.0
210
0.0
220
0.0
230
1.0
 40
0.9993396226415102
 41
1.130071552591581
 42
2.011521013574888
  0
SPLINE
  5
2B79
330
1F
100
AcDbEntity
  8
AM_0
100
AcDbSpline
210
0.0
220
0.0
230
1.0
 70
     8
 71
     3
 72
    21
 73
    17
 74
     0
 42
0.0000000001
 43
0.0000000001
 40
17.41669323526205
 40
17.41669323526205
 40
17.41669323526205
 40
17.41669323526205
 40
18.41823744757437
 40
19.46215659509824
 40
20.51397914882054
 40
21.57394542641293
 40
22.64209583141747
 40
23.71826625065247
 40
24.80210429862395
 40
25.8930771157021
 40
26.99048705697709
 40
28.09349309193389
 40
29.20112995599786
 40
30.31233024745139
 40
31.42594771747373
 40
32.5407895042663
 40
32.54078950426994
 40
32.54078950426994
 40
32.54078950426994
 10
-65.7490062431871
 20
-5.349999536442456
 30
0.0
 10
-66.18915424276761
 20
-5.253617688483286
 30
0.0
 10
-67.70701635437436
 20
-4.809901782551444
 30
0.0
 10
-68.78370792869802
 20
-4.576538951408458
 30
0.0
 10
-69.87242650287765
 20
-4.313596361393146
 30
0.0
 10
-70.96104181390652
 20
-4.02534615236459
 30
0.0
 10
-72.04955242379948
 20
-3.71355572428742
 30
0.0
 10
-73.13797173085993
 20
-3.380165493072215
 30
0.0
 10
-74.22630477477522
 20
-3.027224367811513
 30
0.0
 10
-75.31456162521398
 20
-2.656908917085832
 30
0.0
 10
-76.40275438290237
 20
-2.271503752664451
 30
0.0
 10
-77.49089249269715
 20
-1.873378742558325
 30
0.0
 10
-78.57898690846751
 20
-1.464983219104668
 30
0.0
 10
-79.66704727522344
 20
-1.048828352495586
 30
0.0
 10
-80.755089711633
 20
-0.6274820431930825
 30
0.0
 10
-81.48030895610576
 20
-0.3448940111951966
 30
0.0
 10
-81.84311780128984
 20
-0.2035223777663081
 30
0.0
  0
SPLINE
  5
2B7A
330
1F
100
AcDbEntity
  8
AM_0
100
AcDbSpline
210
0.0
220
0.0
230
1.0
 70
     8
 71
     3
 72
    55
 73
    51
 74
     0
 42
0.0000000001
 43
0.0000000001
 40
0.0
 40
0.0
 40
0.0
 40
0.0
 40
1.010743684496582
 40
2.022833576467832
 40
3.037578957496688
 40
4.056212745003489
 40
5.079857003664532
 40
6.109500240690281
 40
7.145961322679372
 40
8.189895241603872
 40
9.241717795325891
 40
10.30168407291828
 40
11.36983447792315
 40
12.44600489715814
 40
13.52984294512926
 40
14.62081576220742
 40
15.7182257034828
 40
16.82123173843959
 40
17.92886860250316
 40
19.0400688939571
 40
20.15368796660465
 40
21.26852814259644
 40
22.38336992938901
 40
23.49698739941135
 40
24.6081876908653
 40
25.71582455492886
 40
26.81883757994213
 40
27.91624752121713
 40
29.00722033829659
 40
30.09105838626677
 40
31.16722880550176
 40
32.23537921050758
 40
33.29534548809967
 40
34.347168041821
 40
35.39108718934584
 40
36.42754827133493
 40
37.45720575381954
 40
38.48085062012849
 40
39.49948440763516
 40
40.51422944315121
 40
41.52631975251916
 40
42.53706336719636
 40
43.54780698187354
 40
44.55989729124051
 40
45.57464232675757
 40
46.59327611426424
 40
47.6169209805722
 40
48.64656348684535
 40
49.68302456883444
 40
50.58557219878025
 40
50.58557219878025
 40
50.58557219878025
 40
50.58557219878025
 10
-35.04687460593265
 20
-5.349999874010253
 30
0.0
 10
-35.33048841755222
 20
-5.346816753621924
 30
0.0
 10
-35.898093785455
 20
-5.340446273253646
 30
0.0
 10
-36.74929527489676
 20
-5.289093049723531
 30
0.0
 10
-37.60046042975635
 20
-5.207454839269291
 30
0.0
 10
-38.45157290584934
 20
-5.093035782382741
 30
0.0
 10
-39.30262421041303
 20
-4.947386476655664
 30
0.0
 10
-40.15359755410798
 20
-4.77115460133982
 30
0.0
 10
-41.00449578340231
 20
-4.565527317161705
 30
0.0
 10
-41.85531135254835
 20
-4.331763787224513
 30
0.0
 10
-42.7060384659414
 20
-4.071299305421042
 30
0.0
 10
-43.55668136398591
 20
-3.785768780379017
 30
0.0
 10
-44.40724232487318
 20
-3.476919678486377
 30
0.0
 10
-45.2577319756811
 20
-3.146674663855425
 30
0.0
 10
-46.10815421026808
 20
-2.797063162858153
 30
0.0
 10
-46.95851691437659
 20
-2.430241264198462
 30
0.0
 10
-47.80882951864412
 20
-2.048471966052537
 30
0.0
 10
-48.65909948586804
 20
-1.654102968975647
 30
0.0
 10
-49.50933506801525
 20
-1.249559795713143
 30
0.0
 10
-50.35954536296785
 20
-0.8373323614343243
 30
0.0
 10
-51.20973782787942
 20
-0.4199548709945066
 30
0.0
 10
-52.05992446878447
 20
-0.0000009656042618
 30
0.0
 10
-52.91010729306286
 20
0.4199604992179985
 30
0.0
 10
-53.76030260763425
 20
0.8373314899863014
 30
0.0
 10
-54.61051185299085
 20
1.249560172054094
 30
0.0
 10
-55.46074895109868
 20
1.654104886445776
 30
0.0
 10
-56.31102244565031
 20
2.048470517908395
 30
0.0
 10
-57.16133639193578
 20
2.430241752155848
 30
0.0
 10
-58.01169921880838
 20
2.797063353360799
 30
0.0
 10
-58.86212142245121
 20
3.146674927880053
 30
0.0
 10
-59.71261107543689
 20
3.476919942994088
 30
0.0
 10
-60.56317205798862
 20
3.785768971036251
 30
0.0
 10
-61.41381486823751
 20
4.071299787631209
 30
0.0
 10
-62.26453832551794
 20
4.331761969536643
 30
0.0
 10
-63.11534863335239
 20
4.565528561192849
 30
0.0
 10
-63.96624654700763
 20
4.771159980276961
 30
0.0
 10
-64.81722596693747
 20
4.947371727466287
 30
0.0
 10
-65.66828008313419
 20
5.093066114732464
 30
0.0
 10
-66.51939281153499
 20
5.207349542595444
 30
0.0
 10
-67.37055855780997
 20
5.289483512162345
 30
0.0
 10
-68.22175932553431
 20
5.338975300240996
 30
0.0
 10
-69.07297879787929
 20
5.355508869001775
 30
0.0
 10
-69.92419826897183
 20
5.338975300215103
 30
0.0
 10
-70.7753990404608
 20
5.28948351226639
 30
0.0
 10
-71.62656477287545
 20
5.207349542203592
 30
0.0
 10
-72.47767755324209
 20
5.093066116205313
 30
0.0
 10
-73.32872732502853
 20
4.947372432212091
 30
0.0
 10
-74.17970339242335
 20
4.771161781946994
 30
0.0
 10
-74.99191282453975
 20
4.574862925758975
 30
0.0
 10
-75.51888355380078
 20
4.431307716483381
 30
0.0
 10
-76.50234795150428
 20
4.156605849363344
 30
0.0
  0
LINE
  5
2B7B
330
1F
100
AcDbEntity
  8
AM_0
 48
0.5
100
AcDbLine
 10
-81.42665472728932
 20
-5.349999136279917
 30
0.0
 11
-52.52372517220578
 21
-5.349999874009805
 31
0.0
  0
SPLINE
  5
2B7C
330
1F
100
AcDbEntity
  8
AM_0
100
AcDbSpline
210
0.0
220
0.0
230
1.0
 70
     8
 71
     3
 72
    15
 73
    11
 74
     0
 42
0.0000000001
 43
0.0000000001
 40
24.38888150196294
 40
24.38888150196294
 40
24.38888150196294
 40
24.38888150196294
 40
24.80209208578934
 40
25.89306333925047
 40
26.99048218457928
 40
28.09348763352352
 40
29.20111863782268
 40
30.31232390128032
 40
31.42594612798585
 40
32.5407912310448
 40
32.5407912310486
 40
32.5407912310486
 40
32.5407912310486
 10
-72.61662180969172
 20
3.098992474508643
 30
0.0
 10
-72.50704982006931
 20
3.056138736898556
 30
0.0
 10
-72.11855281564742
 20
2.88142807048462
 30
0.0
 10
-71.44990585832644
 20
2.57113456431235
 30
0.0
 10
-70.60931395994896
 20
2.16592386525835
 30
0.0
 10
-69.76908065790659
 20
1.748111243896209
 30
0.0
 10
-68.92913565089944
 20
1.320126223402042
 30
0.0
 10
-68.08940114223101
 20
0.884467922301288
 30
0.0
 10
-67.24980875380781
 20
0.4436608624767155
 30
0.0
 10
-66.69023083767412
 20
0.148123831945253
 30
0.0
 10
-66.41028927925766
 20
0.0002722410607317
 30
0.0
  0
SPLINE
  5
2B7D
330
1F
100
AcDbEntity
  8
AM_0
100
AcDbSpline
210
0.0
220
0.0
230
1.0
 70
     8
 71
     3
 72
    46
 73
    42
 74
     0
 42
0.0000000001
 43
0.0000000001
 40
0.0
 40
0.0
 40
0.0
 40
0.0
 40
1.685415058684573
 40
2.531036209541122
 40
3.379897699130124
 40
4.232934581347651
 40
5.090970612202446
 40
5.954688180526682
 40
6.824620803463244
 40
7.701151815239691
 40
8.584457046566678
 40
9.474582384070743
 40
10.37139106676737
 40
11.27458944007583
 40
12.18373345430765
 40
13.09824173870457
 40
14.0174134345011
 40
14.94044415455409
 40
15.86644439743313
 40
16.79446029130533
 40
17.72349377129849
 40
18.65252725129241
 40
19.5805431451646
 40
20.5065433880429
 40
21.42957410809586
 40
22.34874580389317
 40
23.26325408828901
 40
24.17239810252111
 40
25.07560240389441
 40
25.97241108659103
 40
26.8625364240951
 40
27.74584165542183
 40
28.62236045019041
 40
29.49229307312697
 40
30.35601064145121
 40
31.21404606334469
 40
32.06708345193547
 40
32.91595755657689
 40
33.76157841950692
 40
34.60498701064691
 40
35.44727335621125
 40
35.44727335621125
 40
35.44727335621125
 40
35.44727335621125
 10
-32.6640888216574
 20
-5.349999874010301
 30
0.0
 10
-33.23172192185388
 20
-5.337812160450397
 30
0.0
 10
-34.08415285447691
 20
-5.319509520888302
 30
0.0
 10
-35.21766743859584
 20
-5.206823531478328
 30
0.0
 10
-36.06878905900934
 20
-5.093206078351106
 30
0.0
 10
-36.91983792878559
 20
-4.947340568264792
 30
0.0
 10
-37.77081180597049
 20
-4.771166627740801
 30
0.0
 10
-38.62170631894434
 20
-4.565526518301051
 30
0.0
 10
-39.47252004258668
 20
-4.331759854718983
 30
0.0
 10
-40.3232491904759
 20
-4.071301998913868
 30
0.0
 10
-41.17389546301557
 20
-3.785768407096514
 30
0.0
 10
-42.02445657222588
 20
-3.476919779653265
 30
0.0
 10
-42.87494618282607
 20
-3.146674636422877
 30
0.0
 10
-43.72536842836567
 20
-2.797063170397652
 30
0.0
 10
-44.57573112927043
 20
-2.430241261728086
 30
0.0
 10
-45.42604373530712
 20
-2.04847196834411
 30
0.0
 10
-46.27631369865854
 20
-1.654102962253159
 30
0.0
 10
-47.12654929459665
 20
-1.249559820438653
 30
0.0
 10
-47.97675953804263
 20
-0.8373322688925957
 30
0.0
 10
-48.82695219572261
 20
-0.4199552172864192
 30
0.0
 10
-49.67713770653295
 20
0.0000001259050614
 30
0.0
 10
-50.52732321715653
 20
0.419955469606873
 30
0.0
 10
-51.37751587539671
 20
0.8373325196828048
 30
0.0
 10
-52.22772611679499
 20
1.249560076821227
 30
0.0
 10
-53.07796172032617
 20
1.654103197895681
 30
0.0
 10
-53.92823165552312
 20
2.048472280888636
 30
0.0
 10
-54.77854436582543
 20
2.430241289477454
 30
0.0
 10
-55.62890852970542
 20
2.797065049062112
 30
0.0
 10
-56.47933407957564
 20
3.14667333868994
 30
0.0
 10
-57.32982520731896
 20
3.476920175304327
 30
0.0
 10
-58.18038629672576
 20
3.78576889464648
 30
0.0
 10
-59.03102907490723
 20
4.071299862654132
 30
0.0
 10
-59.88175255456305
 20
4.331761747521643
 30
0.0
 10
-60.73256280524083
 20
4.565529366066124
 30
0.0
 10
-61.58345682576164
 20
4.771156021450318
 30
0.0
 10
-62.43443132682847
 20
4.947381059359388
 30
0.0
 10
-63.28548562806432
 20
5.093038271626908
 30
0.0
 10
-64.13660286286384
 20
5.207455570458175
 30
0.0
 10
-64.98777275587254
 20
5.289086288403273
 30
0.0
 10
-65.83897354571519
 20
5.340453369651751
 30
0.0
 10
-66.40657915132514
 20
5.346819286573221
 30
0.0
 10
-66.69019301339544
 20
5.350000125990367
 30
0.0
  0
LINE
  5
2B7E
330
1F
100
AcDbEntity
  8
AM_0
100
AcDbLine
 10
-69.07308925574937
 20
5.350000125990413
 30
0.0
 11
-49.00292093649373
 21
5.350760190582562
 31
0.0
  0
ELLIPSE
  5
2B7F
330
1F
100
AcDbEntity
  8
AM_11
 48
0.5
100
AcDbEllipse
 10
-59.8992462158139
 20
22.07025380582649
 30
0.0
 11
-24.41816012064584
 21
0.0000000000074946
 31
0.0
210
0.0
220
0.0
230
1.0
 40
0.9993396226415093
 41
1.130070686340609
 42
2.011520147323899
  0
ELLIPSE
  5
2B80
330
1F
100
AcDbEntity
  8
AM_11
 48
0.5
100
AcDbEllipse
 10
-59.89924621581412
 20
-22.07023875400218
 30
0.0
 11
-24.41816012064583
 21
0.0000000000051903
 31
0.0
210
0.0
220
0.0
230
1.0
 40
0.9993396226415091
 41
4.271664206181895
 42
5.153113667165201
  0
VIEWPORT
  5
110
330
101
100
AcDbEntity
 67
     1
  8
0
100
AcDbViewport
 10
420.5
 20
297.0
 30
0.0
 40
948.9782706766916
 41
628.452
 68
     1
 69
     1
1001
ACAD
1000
MVIEW
1002
{
1070
    16
1010
0.0
1020
0.0
1030
0.0
1010
0.0
1020
0.0
1030
1.0
1040
0.0
1040
628.452
1040
420.5
1040
297.0
1040
50.0
1040
0.0
1040
0.0
1070
     0
1070
   100
1070
     1
1070
     1
1070
     0
1070
     0
1070
     0
1070
     0
1040
0.0
1040
0.0
1040
0.0
1040
10.0
1040
10.0
1040
10.0
1040
10.0
1070
     0
1002
{
1002
}
1002
}
  0
ENDSEC
  0
SECTION
  2
OBJECTS
  0
DICTIONARY
  5
C
330
0
100
AcDbDictionary
  3
ACAD_GROUP
350
D
  3
ACAD_LAYOUT
350
1A
  3
ACAD_MLINESTYLE
350
17
  3
ACAD_PLOTSETTINGS
350
19
  3
ACAD_PLOTSTYLENAME
350
E
  3
ACDBVARIABLEDICTIONARY
350
34
  3
ACMDICTIONARY
350
43
  3
AMG
350
2B
  3
AMGSNAPSETTINGS
350
6E
  3
DWGPROPS
350
2BD2
  3
ACDBHEADERROUNDTRIPXREC
350
2BDE
  0
DICTIONARY
  5
74
330
1F
100
AcDbDictionary
280
     1
  3
ACAD_INDEX
360
2BD4
  3
ACAD_LAYOUTSELFREF
360
2C01
  0
DICTIONARY
  5
2C06
330
101
100
AcDbDictionary
280
     1
  3
ACAD_LAYOUTSELFREF
360
2C07
  0
DICTIONARY
  5
D
102
{ACAD_REACTORS
330
C
102
}
330
C
100
AcDbDictionary
  0
DICTIONARY
  5
1A
102
{ACAD_REACTORS
330
C
102
}
330
C
100
AcDbDictionary
  0
DICTIONARY
  5
17
102
{ACAD_REACTORS
330
C
102
}
330
C
100
AcDbDictionary
  3
STANDARD
350
18
  0
DICTIONARY
  5
19
102
{ACAD_REACTORS
330
C
102
}
330
C
100
AcDbDictionary
  0
ACDBDICTIONARYWDFLT
  5
E
102
{ACAD_REACTORS
330
C
102
}
330
C
100
AcDbDictionary
281
     1
  3
Normal
350
F
100
AcDbDictionaryWithDefault
340
F
  0
DICTIONARY
  5
34
102
{ACAD_REACTORS
330
C
102
}
330
C
100
AcDbDictionary
  3
INDEXCTL
350
35
  3
SORTENTS
350
B5E
  0
DICTIONARY
  5
43
102
{ACAD_REACTORS
330
C
102
}
330
C
100
AcDbDictionary
  3
ACMSTDDICTIONARY
350
260
  0
DICTIONARY
  5
2B
102
{ACAD_REACTORS
330
C
102
}
330
C
100
AcDbDictionary
  3
ACMGSETTINGS
350
2C
  0
DICTIONARY
  5
6E
102
{ACAD_REACTORS
330
C
102
}
330
C
100
AcDbDictionary
  0
XRECORD
  5
2BD2
102
{ACAD_REACTORS
330
C
102
}
330
C
100
AcDbXrecord
  1
DWGPROPS COOKIE
  2

  3

  4

  6

  7

  8

  9

300
AmdtFileType=82
301
=
302
=
303
=
304
=
305
=
306
=
307
=
308
=
309
=
 40
0.0706678703703704
 41
2452800.443498622
 42
2452948.69361147
  1

 90
        1
  0
DICTIONARY
  5
2BDE
102
{ACAD_REACTORS
330
C
102
}
330
C
100
AcDbDictionary
  3
TSTACKALIGN
350
2BDF
  3
TSTACKSIZE
350
2BE0
  3
HYPERLINKBASE
350
2BE1
  3
STYLESHEET
350
2BE2
  3
LAYOUTDICT
350
2BE3
  3
PLOTSETDICT
350
2BE4
  3
PLOTSTYLNAMDICT
350
2BE5
  3
LWETCUNION
350
2BE6
  3
INSUNITS
350
2BE7
  3
CEPSNTYPE
350
2BE8
  3
FINGERPRINTGUID
350
2BE9
  3
VERSIONGUID
350
2BEA
  3
PSVPSCALE
350
2BEB
  3
DIMSTYLEDATA
350
2BEC
  3
PUCSORTHOREF
350
2BED
  3
PUCSORTHOVIEW
350
2BEE
  3
PUCSBASE
350
2BEF
  3
PUCSORGTOP
350
2BF0
  3
PUCSORGBOTTOM
350
2BF1
  3
PUCSORGLEFT
350
2BF2
  3
PUCSORGRIGHT
350
2BF3
  3
PUCSORGFRONT
350
2BF4
  3
PUCSORGBACK
350
2BF5
  3
UCSORTHOREF
350
2BF6
  3
UCSORTHOVIEW
350
2BF7
  3
UCSBASE
350
2BF8
  3
UCSORGTOP
350
2BF9
  3
UCSORGBOTTOM
350
2BFA
  3
UCSORGLEFT
350
2BFB
  3
UCSORGRIGHT
350
2BFC
  3
UCSORGFRONT
350
2BFD
  3
UCSORGBACK
350
2BFE
  0
DICTIONARY
  5
2BD4
102
{ACAD_REACTORS
330
74
102
}
330
74
100
AcDbDictionary
  3
*A1
350
2BD5
  0
XRECORD
  5
2C01
102
{ACAD_REACTORS
330
74
102
}
330
74
100
AcDbXrecord
340
1F
  0
XRECORD
  5
2C07
102
{ACAD_REACTORS
330
2C06
102
}
330
2C06
100
AcDbXrecord
340
101
  0
MLINESTYLE
  5
18
102
{ACAD_REACTORS
330
17
102
}
330
17
100
AcDbMlineStyle
  2
STANDARD
 70
     0
  3

 62
   256
 51
90.0
 52
90.0
 71
     2
 49
0.5
 62
   256
  6
BYLAYER
 49
-0.5
 62
   256
  6
BYLAYER
  0
ACDBPLACEHOLDER
  5
F
102
{ACAD_REACTORS
330
E
102
}
330
E
100
AcDbPlaceHolder
280
     0
  0
DICTIONARYVAR
  5
35
102
{ACAD_REACTORS
330
34
102
}
330
34
100
DictionaryVariables
280
     0
  1
1
  0
DICTIONARYVAR
  5
B5E
102
{ACAD_REACTORS
330
34
102
}
330
34
100
DictionaryVariables
280
     0
  1
96
  0
DICTIONARY
  5
260
102
{ACAD_REACTORS
330
43
102
}
330
43
100
AcDbDictionary
  0
DICTIONARY
  5
2C
102
{ACAD_REACTORS
330
2B
102
}
330
2B
100
AcDbDictionary
  3
DWGSETTINGS
350
2D
  0
XRECORD
  5
2BDF
102
{ACAD_REACTORS
330
2BDE
102
}
330
2BDE
100
AcDbXrecord
 90
        1
  0
XRECORD
  5
2BE0
102
{ACAD_REACTORS
330
2BDE
102
}
330
2BDE
100
AcDbXrecord
 90
       70
  0
XRECORD
  5
2BE1
102
{ACAD_REACTORS
330
2BDE
102
}
330
2BDE
100
AcDbXrecord
  1

  0
XRECORD
  5
2BE2
102
{ACAD_REACTORS
330
2BDE
102
}
330
2BDE
100
AcDbXrecord
  1
ASAMI.ctb
  0
XRECORD
  5
2BE3
102
{ACAD_REACTORS
330
2BDE
102
}
330
2BDE
100
AcDbXrecord
340
1A
  0
XRECORD
  5
2BE4
102
{ACAD_REACTORS
330
2BDE
102
}
330
2BDE
100
AcDbXrecord
340
19
  0
XRECORD
  5
2BE5
102
{ACAD_REACTORS
330
2BDE
102
}
330
2BDE
100
AcDbXrecord
340
E
  0
XRECORD
  5
2BE6
102
{ACAD_REACTORS
330
2BDE
102
}
330
2BDE
100
AcDbXrecord
 90
    10781
  0
XRECORD
  5
2BE7
102
{ACAD_REACTORS
330
2BDE
102
}
330
2BDE
100
AcDbXrecord
 90
        4
  0
XRECORD
  5
2BE8
102
{ACAD_REACTORS
330
2BDE
102
}
330
2BDE
100
AcDbXrecord
 90
        0
  0
XRECORD
  5
2BE9
102
{ACAD_REACTORS
330
2BDE
102
}
330
2BDE
100
AcDbXrecord
  1
{AFB28963-8C59-40AE-9337-C84526B81ACE}
  0
XRECORD
  5
2BEA
102
{ACAD_REACTORS
330
2BDE
102
}
330
2BDE
100
AcDbXrecord
  1
{B615C4E9-9F5E-4B59-A45E-14A366CCF444}
  0
XRECORD
  5
2BEB
102
{ACAD_REACTORS
330
2BDE
102
}
330
2BDE
100
AcDbXrecord
 40
0.0
  0
XRECORD
  5
2BEC
102
{ACAD_REACTORS
330
2BDE
102
}
330
2BDE
100
AcDbXrecord
1000
DSTYLE
1002
{
1070
    79
 70
     2
1070
   341
340
59
1070
   342
340
59
1070
   371
 70
    -1
1070
   372
 70
    -1
1002
}
  0
XRECORD
  5
2BED
102
{ACAD_REACTORS
330
2BDE
102
}
330
2BDE
100
AcDbXrecord
340
0
  0
XRECORD
  5
2BEE
102
{ACAD_REACTORS
330
2BDE
102
}
330
2BDE
100
AcDbXrecord
 70
     0
  0
XRECORD
  5
2BEF
102
{ACAD_REACTORS
330
2BDE
102
}
330
2BDE
100
AcDbXrecord
340
0
  0
XRECORD
  5
2BF0
102
{ACAD_REACTORS
330
2BDE
102
}
330
2BDE
100
AcDbXrecord
 10
0.0
 20
0.0
 30
0.0
  0
XRECORD
  5
2BF1
102
{ACAD_REACTORS
330
2BDE
102
}
330
2BDE
100
AcDbXrecord
 10
0.0
 20
0.0
 30
0.0
  0
XRECORD
  5
2BF2
102
{ACAD_REACTORS
330
2BDE
102
}
330
2BDE
100
AcDbXrecord
 10
0.0
 20
0.0
 30
0.0
  0
XRECORD
  5
2BF3
102
{ACAD_REACTORS
330
2BDE
102
}
330
2BDE
100
AcDbXrecord
 10
0.0
 20
0.0
 30
0.0
  0
XRECORD
  5
2BF4
102
{ACAD_REACTORS
330
2BDE
102
}
330
2BDE
100
AcDbXrecord
 10
0.0
 20
0.0
 30
0.0
  0
XRECORD
  5
2BF5
102
{ACAD_REACTORS
330
2BDE
102
}
330
2BDE
100
AcDbXrecord
 10
0.0
 20
0.0
 30
0.0
  0
XRECORD
  5
2BF6
102
{ACAD_REACTORS
330
2BDE
102
}
330
2BDE
100
AcDbXrecord
340
0
  0
XRECORD
  5
2BF7
102
{ACAD_REACTORS
330
2BDE
102
}
330
2BDE
100
AcDbXrecord
 70
     0
  0
XRECORD
  5
2BF8
102
{ACAD_REACTORS
330
2BDE
102
}
330
2BDE
100
AcDbXrecord
340
0
  0
XRECORD
  5
2BF9
102
{ACAD_REACTORS
330
2BDE
102
}
330
2BDE
100
AcDbXrecord
 10
0.0
 20
0.0
 30
0.0
  0
XRECORD
  5
2BFA
102
{ACAD_REACTORS
330
2BDE
102
}
330
2BDE
100
AcDbXrecord
 10
0.0
 20
0.0
 30
0.0
  0
XRECORD
  5
2BFB
102
{ACAD_REACTORS
330
2BDE
102
}
330
2BDE
100
AcDbXrecord
 10
0.0
 20
0.0
 30
0.0
  0
XRECORD
  5
2BFC
102
{ACAD_REACTORS
330
2BDE
102
}
330
2BDE
100
AcDbXrecord
 10
0.0
 20
0.0
 30
0.0
  0
XRECORD
  5
2BFD
102
{ACAD_REACTORS
330
2BDE
102
}
330
2BDE
100
AcDbXrecord
 10
0.0
 20
0.0
 30
0.0
  0
XRECORD
  5
2BFE
102
{ACAD_REACTORS
330
2BDE
102
}
330
2BDE
100
AcDbXrecord
 10
0.0
 20
0.0
 30
0.0
  0
LAYER_INDEX
  5
2BD5
102
{ACAD_REACTORS
330
2BD4
102
}
330
2BD4
100
AcDbIndex
 40
2453151.684048923
100
AcDbLayerIndex
  8
0
360
2BD6
 90
        0
  8
AM_0
360
2BD7
 90
       60
  8
AM_7
360
2BD8
 90
        1
  8
AM_11
360
2BD9
 90
       21
  8
AM_5
360
2BDA
 90
        5
  8
Defpoints
360
2BDB
 90
        0
  8
AM_6
360
2BDC
 90
        1
  0
XRECORD
  5
2D
102
{ACAD_REACTORS
330
2C
102
}
330
2C
100
AcDbXrecord
  1
VERSION
140
15.0
  1
PRODUCT
  2
AutoCAD Mechanical 2000
  0
IDBUFFER
  5
2BD6
330
0
100
AcDbIdBuffer
  0
IDBUFFER
  5
2BD7
330
0
100
AcDbIdBuffer
330
2B71
330
2B72
330
2B73
330
2B74
330
2B75
330
2B76
330
2B79
330
2B7A
330
2B7B
330
2B7C
330
2B7D
330
2B7E
330
1C54
330
1C55
330
1C56
330
1C57
330
1C58
330
1C59
330
1C5A
330
1C5B
330
1C5C
330
28D8
330
28D9
330
28DB
330
28DC
330
297B
330
297C
330
2B29
330
2B2A
330
2B2B
330
2B30
330
2B31
330
2B32
330
2B33
330
2B34
330
2B35
330
2B36
330
2B37
330
2B38
330
2B39
330
2B3A
330
2B3B
330
2B3C
330
2B3D
330
2B3E
330
2B3F
330
2B40
330
2B41
330
2B42
330
2B43
330
2B49
330
2B4B
330
2B4C
330
2B5B
330
2B5C
330
2B5D
330
2B5E
330
2B6E
330
2B6F
330
2B70
  0
IDBUFFER
  5
2BD8
330
0
100
AcDbIdBuffer
330
C9F
  0
IDBUFFER
  5
2BD9
330
0
100
AcDbIdBuffer
330
2B6D
330
2B77
330
2B78
330
2B7F
330
2B80
330
1B15
330
1B16
330
1B2D
330
1B2E
330
1D45
330
1D46
330
2B2C
330
2B2D
330
2B2E
330
2B2F
330
2B44
330
2B45
330
2B46
330
2B47
330
2B48
330
2B4A
  0
IDBUFFER
  5
2BDA
330
0
100
AcDbIdBuffer
330
CC6
330
DF5
330
10FC
330
28D7
330
29A5
  0
IDBUFFER
  5
2BDB
330
0
100
AcDbIdBuffer
  0
IDBUFFER
  5
2BDC
330
0
100
AcDbIdBuffer
330
19BD
  0
ENDSEC
  0
EOF
