  0
SECTION
  2
HEADER
  9
$ACADVER
  1
AC1014
  9
$ACADMAINTVER
 70
     9
  9
$DWGCODEPAGE
  3
ANSI_932
  9
$INSBASE
 10
0.0
 20
0.0
 30
0.0
  9
$EXTMIN
 10
-130.150001
 20
-28.75056505856446
 30
-0.00000001
  9
$EXTMAX
 10
14.19739567786174
 20
13.81102314157885
 30
0.00000001
  9
$LIMMIN
 10
-156.1444050923396
 20
-44.51020785580943
  9
$LIMMAX
 10
20.31336096277607
 20
28.16015358894219
  9
$ORTHOMODE
 70
     0
  9
$REGENMODE
 70
     1
  9
$FILLMODE
 70
     1
  9
$QTEXTMODE
 70
     0
  9
$MIRRTEXT
 70
     0
  9
$DRAGMODE
 70
     2
  9
$LTSCALE
 40
1.0
  9
$OSMODE
 70
    55
  9
$ATTMODE
 70
     1
  9
$TEXTSIZE
 40
2.5
  9
$TRACEWID
 40
1.0
  9
$TEXTSTYLE
  7
STANDARD
  9
$CLAYER
  8
AM_0
  9
$CELTYPE
  6
BYLAYER
  9
$CECOLOR
 62
   256
  9
$CELTSCALE
 40
1.0
  9
$DELOBJ
 70
     1
  9
$DISPSILH
 70
     0
  9
$DIMSCALE
 40
0.5
  9
$DIMASZ
 40
2.5
  9
$DIMEXO
 40
1.0
  9
$DIMDLI
 40
12.0
  9
$DIMRND
 40
0.0
  9
$DIMDLE
 40
0.0
  9
$DIMEXE
 40
1.0
  9
$DIMTP
 40
0.1
  9
$DIMTM
 40
0.1
  9
$DIMTXT
 40
3.2
  9
$DIMCEN
 40
0.0
  9
$DIMTSZ
 40
0.0
  9
$DIMTOL
 70
     0
  9
$DIMLIM
 70
     0
  9
$DIMTIH
 70
     0
  9
$DIMTOH
 70
     0
  9
$DIMSE1
 70
     0
  9
$DIMSE2
 70
     0
  9
$DIMTAD
 70
     3
  9
$DIMZIN
 70
     8
  9
$DIMBLK
  1
OPEN30
  9
$DIMASO
 70
     1
  9
$DIMSHO
 70
     1
  9
$DIMPOST
  1

  9
$DIMAPOST
  1
"
  9
$DIMALT
 70
     0
  9
$DIMALTD
 70
     2
  9
$DIMALTF
 40
0.0393701
  9
$DIMLFAC
 40
1.0
  9
$DIMTOFL
 70
     1
  9
$DIMTVP
 40
0.0
  9
$DIMTIX
 70
     0
  9
$DIMSOXD
 70
     0
  9
$DIMSAH
 70
     0
  9
$DIMBLK1
  1

  9
$DIMBLK2
  1

  9
$DIMSTYLE
  2
AM_JIS
  9
$DIMCLRD
 70
   256
  9
$DIMCLRE
 70
   256
  9
$DIMCLRT
 70
     2
  9
$DIMTFAC
 40
0.71
  9
$DIMGAP
 40
1.5
  9
$DIMJUST
 70
     0
  9
$DIMSD1
 70
     0
  9
$DIMSD2
 70
     0
  9
$DIMTOLJ
 70
     0
  9
$DIMTZIN
 70
     0
  9
$DIMALTZ
 70
     0
  9
$DIMALTTZ
 70
     0
  9
$DIMFIT
 70
     3
  9
$DIMUPT
 70
     0
  9
$DIMUNIT
 70
     2
  9
$DIMDEC
 70
     3
  9
$DIMTDEC
 70
     3
  9
$DIMALTU
 70
     2
  9
$DIMALTTD
 70
     2
  9
$DIMTXSTY
  7
ASAMI
  9
$DIMAUNIT
 70
     0
  9
$LUNITS
 70
     2
  9
$LUPREC
 70
     2
  9
$SKETCHINC
 40
1.0
  9
$FILLETRAD
 40
2.5
  9
$AUNITS
 70
     0
  9
$AUPREC
 70
     0
  9
$MENU
  1
.
  9
$ELEVATION
 40
0.0
  9
$PELEVATION
 40
0.0
  9
$THICKNESS
 40
0.0
  9
$LIMCHECK
 70
     0
  9
$BLIPMODE
 70
     0
  9
$CHAMFERA
 40
0.5
  9
$CHAMFERB
 40
0.5
  9
$CHAMFERC
 40
20.0
  9
$CHAMFERD
 40
0.0
  9
$SKPOLY
 70
     0
  9
$TDCREATE
 40
2452800.443498622
  9
$TDUPDATE
 40
2453151.573991771
  9
$TDINDWG
 40
0.0705177431
  9
$TDUSRTIMER
 40
0.0705177431
  9
$USRTIMER
 70
     1
  9
$ANGBASE
 50
0.0
  9
$ANGDIR
 70
     0
  9
$PDMODE
 70
     0
  9
$PDSIZE
 40
0.0
  9
$PLINEWID
 40
0.0
  9
$COORDS
 70
     1
  9
$SPLFRAME
 70
     0
  9
$SPLINETYPE
 70
     6
  9
$SPLINESEGS
 70
     8
  9
$ATTDIA
 70
     1
  9
$ATTREQ
 70
     1
  9
$HANDLING
 70
 12289
  9
$HANDSEED
  5
37BF
  9
$SURFTAB1
 70
     6
  9
$SURFTAB2
 70
     6
  9
$SURFTYPE
 70
     6
  9
$SURFU
 70
     6
  9
$SURFV
 70
     6
  9
$UCSNAME
  2

  9
$UCSORG
 10
0.0
 20
0.0
 30
0.0
  9
$UCSXDIR
 10
1.0
 20
0.0000000000000027
 30
0.0
  9
$UCSYDIR
 10
-0.0000000000000027
 20
1.0
 30
0.0
  9
$PUCSNAME
  2

  9
$PUCSORG
 10
0.0
 20
0.0
 30
0.0
  9
$PUCSXDIR
 10
1.0
 20
0.0
 30
0.0
  9
$PUCSYDIR
 10
0.0
 20
1.0
 30
0.0
  9
$USERI1
 70
     0
  9
$USERI2
 70
     0
  9
$USERI3
 70
     0
  9
$USERI4
 70
     0
  9
$USERI5
 70
     0
  9
$USERR1
 40
0.0
  9
$USERR2
 40
0.0
  9
$USERR3
 40
0.0
  9
$USERR4
 40
0.0
  9
$USERR5
 40
0.0
  9
$WORLDVIEW
 70
     1
  9
$SHADEDGE
 70
     3
  9
$SHADEDIF
 70
    70
  9
$TILEMODE
 70
     1
  9
$MAXACTVP
 70
    64
  9
$PINSBASE
 10
0.0
 20
0.0
 30
0.0
  9
$PLIMCHECK
 70
     0
  9
$PEXTMIN
 10
1.000000000000000E+20
 20
1.000000000000000E+20
 30
1.000000000000000E+20
  9
$PEXTMAX
 10
-1.000000000000000E+20
 20
-1.000000000000000E+20
 30
-1.000000000000000E+20
  9
$PLIMMIN
 10
0.0
 20
0.0
  9
$PLIMMAX
 10
841.0
 20
594.0
  9
$UNITMODE
 70
     0
  9
$VISRETAIN
 70
     1
  9
$PLINEGEN
 70
     0
  9
$PSLTSCALE
 70
     0
  9
$TREEDEPTH
 70
  3020
  9
$PICKSTYLE
 70
     0
  9
$CMLSTYLE
  2
STANDARD
  9
$CMLJUST
 70
     0
  9
$CMLSCALE
 40
20.0
  9
$PROXYGRAPHICS
 70
     1
  9
$MEASUREMENT
 70
     1
  0
ENDSEC
  0
SECTION
  2
CLASSES
  0
CLASS
  1
ACDBDICTIONARYWDFLT
  2
AcDbDictionaryWithDefault
  3
AutoCAD 2000
 90
        0
280
     0
281
     0
  0
CLASS
  1
ACDBPLACEHOLDER
  2
AcDbPlaceHolder
  3
AutoCAD 2000
 90
        0
280
     0
281
     0
  0
CLASS
  1
LAYOUT
  2
AcDbLayout
  3
AutoCAD 2000
 90
        0
280
     0
281
     0
  0
CLASS
  1
AMGSETTINGSOBJ
  2
AmgSettingsObj
  3
"AcadM|Product Description: AutoCAD Mechanical 2000|Company: Autodesk"
 90
        0
280
     0
281
     0
  0
CLASS
  1
ACME_DOCUMENT
  2
AcMeDbDoc
  3
AcMeServices
 90
        0
280
     0
281
     0
  0
CLASS
  1
ACMESCOPE
  2
AcMeScope
  3
AcMeServices
 90
        0
280
     0
281
     0
  0
CLASS
  1
ACMECOMMANDHISTORY
  2
AcMeCommandHistory
  3
AcMeServices
 90
        0
280
     0
281
     0
  0
CLASS
  1
DICTIONARYVAR
  2
AcDbDictionaryVar
  3
AutoCAD 2000
 90
        0
280
     0
281
     0
  0
CLASS
  1
ACIMSYSVARMAN
  2
AcImSysVarManager
  3
AcMeServices
 90
        0
280
     0
281
     0
  0
CLASS
  1
ACIMREALSYSVAR
  2
AcImRealSysVar
  3
AcMeServices
 90
        0
280
     0
281
     0
  0
CLASS
  1
ACIMINTSYSVAR
  2
AcImIntSysVar
  3
AcMeServices
 90
        0
280
     0
281
     0
  0
CLASS
  1
ACMEDRAWINGMAN
  2
AcMeDrawingMan
  3
AcMeServices
 90
        0
280
     0
281
     0
  0
CLASS
  1
ACMEVIEW
  2
AcMeView
  3
AcMeServices
 90
        0
280
     0
281
     0
  0
CLASS
  1
ACDBENTITYCACHE
  2
AcMeEntityCache
  3
AcMeServices
 90
        0
280
     0
281
     0
  0
CLASS
  1
GSMANAGER
  2
AcMeGSManager
  3
AcMeServices
 90
        0
280
     0
281
     0
  0
CLASS
  1
AmdtInternalReactor
  2
AmdtInternalReactor
  3
AcMeServices
 90
        0
280
     0
281
     0
  0
CLASS
  1
ACMESTATEMGR
  2
AcMeStateMgr
  3
AcMeServices
 90
        0
280
     0
281
     0
  0
CLASS
  1
ACME_DATABASE
  2
AcMeDbDatabase
  3
AcMeServices
 90
        0
280
     0
281
     0
  0
CLASS
  1
ACRFINSADJUSTERMGR
  2
AcRfInsAdjusterMgr
  3
AcMeServices
 90
        0
280
     0
281
     0
  0
CLASS
  1
ACMDATADICTIONARY
  2
AcmDataDictionary
  3
"AcmSymBB|Product Description: AutoCAD Mechanical 2000|Company: Autodesk"
 90
        0
280
     0
281
     0
  0
CLASS
  1
ACMDATAENTRYBLOCK
  2
AcmDataEntryBlock
  3
"AcmSymBB|Product Description: AutoCAD Mechanical 2000|Company: Autodesk"
 90
        0
280
     0
281
     0
  0
CLASS
  1
AMGOBJPROPCFG
  2
AmgObjPropCfg
  3
"AmgLay|Product Description: AutoCAD Mechanical 2000|Company: Autodesk"
 90
        1
280
     0
281
     0
  0
CLASS
  1
ACAMGFILTERDAT
  2
AcAmgFilterDat
  3
"AcadM|Product Description: AutoCAD Mechanical 2000|Company: Autodesk"
 90
        0
280
     0
281
     0
  0
CLASS
  1
LAYER_INDEX
  2
AcDbLayerIndex
  3
AutoCAD 2000
 90
        0
280
     0
281
     0
  0
CLASS
  1
IDBUFFER
  2
AcDbIdBuffer
  3
AutoCAD 2000
 90
        0
280
     0
281
     0
  0
CLASS
  1
ACIMSTRSYSVAR
  2
AcImStrSysVar
  3
AcMeServices
 90
        0
280
     0
281
     0
  0
CLASS
  1
ACMSTANDARDJIS
  2
AcmStandardJIS
  3
"AcmSymBB|Product Description: AutoCAD Mechanical 2000|Company: Autodesk"
 90
        0
280
     0
281
     0
  0
CLASS
  1
ACMSURFSTANDARDJIS
  2
AcmSurfTextStdJIS
  3
"AcmSymBB|Product Description: AutoCAD Mechanical 2000|Company: Autodesk"
 90
        0
280
     0
281
     0
  0
CLASS
  1
ACMFCFSTANDARDJIS
  2
AcmFCFStdJIS
  3
"AcmSymBB|Product Description: AutoCAD Mechanical 2000|Company: Autodesk"
 90
        0
280
     0
281
     0
  0
CLASS
  1
ACMWELDSTANDARDJIS
  2
AcmWeldingStdJIS
  3
"AcmSymBB|Product Description: AutoCAD Mechanical 2000|Company: Autodesk"
 90
        0
280
     0
281
     0
  0
CLASS
  1
ACMIDSTANDARDJIS
  2
AcmIdStdJIS
  3
"AcmSymBB|Product Description: AutoCAD Mechanical 2000|Company: Autodesk"
 90
        0
280
     0
281
     0
  0
CLASS
  1
ACMDATUMSTANDARDJIS
  2
AcmDatumStdJIS
  3
"AcmSymBB|Product Description: AutoCAD Mechanical 2000|Company: Autodesk"
 90
        0
280
     0
281
     0
  0
CLASS
  1
ACMBOMSTANDARDJIS
  2
AcmBOMStdJIS
  3
"AcmSymBB|Product Description: AutoCAD Mechanical 2000|Company: Autodesk"
 90
        0
280
     0
281
     0
  0
CLASS
  1
ACMSTANDARDANSI
  2
AcmStandardANSI
  3
"AcmSymBB|Product Description: AutoCAD Mechanical 2000|Company: Autodesk"
 90
        0
280
     0
281
     0
  0
CLASS
  1
ACMSURFSTANDARDANSI
  2
AcmSurfTextStdANSI
  3
"AcmSymBB|Product Description: AutoCAD Mechanical 2000|Company: Autodesk"
 90
        0
280
     0
281
     0
  0
CLASS
  1
ACMFCFSTANDARDANSI
  2
AcmFCFStdANSI
  3
"AcmSymBB|Product Description: AutoCAD Mechanical 2000|Company: Autodesk"
 90
        0
280
     0
281
     0
  0
CLASS
  1
ACMWELDSTANDARDANSI
  2
AcmWeldingStdANSI
  3
"AcmSymBB|Product Description: AutoCAD Mechanical 2000|Company: Autodesk"
 90
        0
280
     0
281
     0
  0
CLASS
  1
ACMIDSTANDARDANSI
  2
AcmIdStdANSI
  3
"AcmSymBB|Product Description: AutoCAD Mechanical 2000|Company: Autodesk"
 90
        0
280
     0
281
     0
  0
CLASS
  1
ACMDATUMSTANDARDANSI
  2
AcmDatumStdANSI
  3
"AcmSymBB|Product Description: AutoCAD Mechanical 2000|Company: Autodesk"
 90
        0
280
     0
281
     0
  0
CLASS
  1
ACMBOMSTANDARDANSI
  2
AcmBOMStdANSI
  3
"AcmSymBB|Product Description: AutoCAD Mechanical 2000|Company: Autodesk"
 90
        0
280
     0
281
     0
  0
CLASS
  1
ACMSTANDARDBSI
  2
AcmStandardBSI
  3
"AcmSymBB|Product Description: AutoCAD Mechanical 2000|Company: Autodesk"
 90
        0
280
     0
281
     0
  0
CLASS
  1
ACMSURFSTANDARDBSI
  2
AcmSurfTextStdBSI
  3
"AcmSymBB|Product Description: AutoCAD Mechanical 2000|Company: Autodesk"
 90
        0
280
     0
281
     0
  0
CLASS
  1
ACMFCFSTANDARDBSI
  2
AcmFCFStdBSI
  3
"AcmSymBB|Product Description: AutoCAD Mechanical 2000|Company: Autodesk"
 90
        0
280
     0
281
     0
  0
CLASS
  1
ACMWELDSTANDARDBSI
  2
AcmWeldingStdBSI
  3
"AcmSymBB|Product Description: AutoCAD Mechanical 2000|Company: Autodesk"
 90
        0
280
     0
281
     0
  0
CLASS
  1
ACMIDSTANDARDBSI
  2
AcmIdStdBSI
  3
"AcmSymBB|Product Description: AutoCAD Mechanical 2000|Company: Autodesk"
 90
        0
280
     0
281
     0
  0
CLASS
  1
ACMDATUMSTANDARDBSI
  2
AcmDatumStdBSI
  3
"AcmSymBB|Product Description: AutoCAD Mechanical 2000|Company: Autodesk"
 90
        0
280
     0
281
     0
  0
CLASS
  1
ACMBOMSTANDARDBSI
  2
AcmBOMStdBSI
  3
"AcmSymBB|Product Description: AutoCAD Mechanical 2000|Company: Autodesk"
 90
        0
280
     0
281
     0
  0
CLASS
  1
LONG_TRANSACTION
  2
AcDbLongTransaction
  3
AutoCAD 2000
 90
        0
280
     0
281
     0
  0
CLASS
  1
LWPOLYLINE
  2
AcDbPolyline
  3
AutoCAD 2000
 90
        0
280
     0
281
     1
  0
CLASS
  1
HATCH
  2
AcDbHatch
  3
AutoCAD 2000
 90
        0
280
     0
281
     1
  0
CLASS
  1
XRECORD
  2
AcDbXrecord
  3
AutoCAD 2000
 90
        0
280
     0
281
     0
  0
ENDSEC
  0
SECTION
  2
TABLES
  0
TABLE
  2
VPORT
  5
8
330
0
100
AcDbSymbolTable
 70
     3
  0
VPORT
  5
3794
330
8
100
AcDbSymbolTableRecord
100
AcDbViewportTableRecord
  2
*ACTIVE
 70
     0
 10
0.0
 20
0.0
 11
1.0
 21
1.0
 12
-55.29841545119626
 22
-7.470899773513039
 13
0.0
 23
0.0
 14
2.5
 24
2.5
 15
10.0
 25
10.0
 16
0.0
 26
0.0
 36
1.0
 17
0.0
 27
0.0
 37
0.0
 40
96.07655095823762
 41
1.56570841889117
 42
50.0
 43
0.0
 44
0.0
 50
0.0
 51
0.0
 71
     0
 72
   100
 73
     1
 74
     1
 75
     0
 76
     0
 77
     0
 78
     0
  0
ENDTAB
  0
TABLE
  2
LTYPE
  5
5
330
0
100
AcDbSymbolTable
 70
    10
  0
LTYPE
  5
14
330
5
100
AcDbSymbolTableRecord
100
AcDbLinetypeTableRecord
  2
BYBLOCK
 70
     0
  3

 72
    65
 73
     0
 40
0.0
  0
LTYPE
  5
15
330
5
100
AcDbSymbolTableRecord
100
AcDbLinetypeTableRecord
  2
BYLAYER
 70
     0
  3

 72
    65
 73
     0
 40
0.0
  0
LTYPE
  5
16
330
5
100
AcDbSymbolTableRecord
100
AcDbLinetypeTableRecord
  2
CONTINUOUS
 70
     0
  3
Solid line
 72
    65
 73
     0
 40
0.0
  0
LTYPE
  5
4B
330
5
100
AcDbSymbolTableRecord
100
AcDbLinetypeTableRecord
  2
AM_ISO02W050
 70
     0
  3
__ __ __ __ __ __ __ __ __ __ __ __ __ __ __
 72
    65
 73
     2
 40
7.5
 49
6.0
 74
     0
 49
-1.5
 74
     0
  0
LTYPE
  5
4C
330
5
100
AcDbSymbolTableRecord
100
AcDbLinetypeTableRecord
  2
AM_ISO08W050
 70
     0
  3
____ . ____ . ____ . ____ . ____ . ____ . ____
 72
    65
 73
     4
 40
18.0
 49
12.0
 74
     0
 49
-1.5
 74
     0
 49
3.0
 74
     0
 49
-1.5
 74
     0
  0
LTYPE
  5
4D
330
5
100
AcDbSymbolTableRecord
100
AcDbLinetypeTableRecord
  2
AM_ISO09W050
 70
     0
  3
_____ . . _____ . . _____ . . ____ .. ____
 72
    65
 73
     6
 40
22.5
 49
12.0
 74
     0
 49
-1.5
 74
     0
 49
3.0
 74
     0
 49
-1.5
 74
     0
 49
3.0
 74
     0
 49
-1.5
 74
     0
  0
LTYPE
  5
4E
330
5
100
AcDbSymbolTableRecord
100
AcDbLinetypeTableRecord
  2
AMCONSTR
 70
     0
  3
_______________________
 72
    65
 73
     2
 40
9999.0
 49
9999.0
 74
     0
 49
0.0
 74
     0
  0
LTYPE
  5
4F
330
5
100
AcDbSymbolTableRecord
100
AcDbLinetypeTableRecord
  2
AM_ISO02W050X2
 70
     0
  3
 _ _ _ _ _ _ _ _ _ _ _ _
 72
    65
 73
     2
 40
3.75
 49
3.0
 74
     0
 49
-0.75
 74
     0
  0
LTYPE
  5
50
330
5
100
AcDbSymbolTableRecord
100
AcDbLinetypeTableRecord
  2
AM_ISO08W050X2
 70
     0
  3
__ . __ . __ . __ . __ . __
 72
    65
 73
     4
 40
9.0
 49
6.0
 74
     0
 49
-0.75
 74
     0
 49
1.5
 74
     0
 49
-0.75
 74
     0
  0
LTYPE
  5
53
330
5
100
AcDbSymbolTableRecord
100
AcDbLinetypeTableRecord
  2
AMZIGZAG
 70
     0
  3
/\/-/\/-/\/-/\/-/\/-/\/
 72
    65
 73
     2
 40
11.00009999999999
 49
0.0001
 74
     4
 75
   135
340
52
 46
0.04
 50
0.0
 44
0.0
 45
0.0
 49
-11.0
 74
     0
  0
LTYPE
  5
166
330
5
100
AcDbSymbolTableRecord
100
AcDbLinetypeTableRecord
  2
ACJISTGL
 70
     0
  3
_ _ _ _ _
 72
    65
 73
     2
 40
3.0
 49
2.0
 74
     0
 49
-1.0
 74
     0
  0
LTYPE
  5
26A
330
5
100
AcDbSymbolTableRecord
100
AcDbLinetypeTableRecord
  2
ACJISTGB
 70
     0
  3
__ . . __ . .
 72
    65
 73
     6
 40
9.0
 49
4.0
 74
     0
 49
-1.0
 74
     0
 49
1.0
 74
     0
 49
-1.0
 74
     0
 49
1.0
 74
     0
 49
-1.0
 74
     0
  0
ENDTAB
  0
TABLE
  2
LAYER
  5
2
330
0
100
AcDbSymbolTable
 70
     7
  0
LAYER
  5
10
330
2
100
AcDbSymbolTableRecord
100
AcDbLayerTableRecord
  2
0
 70
     0
 62
     7
  6
CONTINUOUS
  0
LAYER
  5
3F9
330
2
100
AcDbSymbolTableRecord
100
AcDbLayerTableRecord
  2
AM_0
 70
     0
 62
     7
  6
CONTINUOUS
  0
LAYER
  5
C7C
330
2
100
AcDbSymbolTableRecord
100
AcDbLayerTableRecord
  2
AM_7
 70
     0
 62
     4
  6
AM_ISO08W050
  0
LAYER
  5
C97
330
2
100
AcDbSymbolTableRecord
100
AcDbLayerTableRecord
  2
AM_11
 70
     0
 62
     3
  6
AM_ISO09W050
  0
LAYER
  5
CC5
330
2
100
AcDbSymbolTableRecord
100
AcDbLayerTableRecord
  2
AM_5
 70
     0
 62
     3
  6
CONTINUOUS
  0
LAYER
  5
CC7
330
2
100
AcDbSymbolTableRecord
100
AcDbLayerTableRecord
  2
DEFPOINTS
 70
     0
 62
     7
  6
CONTINUOUS
  0
LAYER
  5
19BC
330
2
100
AcDbSymbolTableRecord
100
AcDbLayerTableRecord
  2
AM_6
 70
     0
 62
     2
  6
CONTINUOUS
  0
ENDTAB
  0
TABLE
  2
STYLE
  5
3
330
0
100
AcDbSymbolTable
 70
     5
  0
STYLE
  5
11
330
3
100
AcDbSymbolTableRecord
100
AcDbTextStyleTableRecord
  2
STANDARD
 70
     0
 40
0.0
 41
1.0
 50
0.0
 71
     0
 42
2.5
  3
simplex.shx
  4
EXTFONT.SHX
  0
STYLE
  5
52
330
3
100
AcDbSymbolTableRecord
100
AcDbTextStyleTableRecord
  2

 70
     1
 40
0.0
 41
1.0
 50
0.0
 71
     0
 42
2.5
  3
ltypeshp.shx
  4

  0
STYLE
  5
6B
330
3
100
AcDbSymbolTableRecord
100
AcDbTextStyleTableRecord
  2
ASAMI
 70
     0
 40
0.0
 41
1.0
 50
0.0
 71
     0
 42
2.5
  3
simplex.shx
  4
EXTFONT.SHX
  0
STYLE
  5
262
330
3
100
AcDbSymbolTableRecord
100
AcDbTextStyleTableRecord
  2
ACJISTS
 70
     0
 40
1.0
 41
1.0
 50
0.0
 71
     0
 42
2.5
  3
simplex.shx
  4
bigfont.shx
  0
STYLE
  5
269
330
3
100
AcDbSymbolTableRecord
100
AcDbTextStyleTableRecord
  2
ACJISGDT
 70
     0
 40
0.0
 41
1.0
 50
0.0
 71
     0
 42
2.5
  3
amgdtans.shx
  4

  0
ENDTAB
  0
TABLE
  2
VIEW
  5
6
330
0
100
AcDbSymbolTable
 70
     0
  0
ENDTAB
  0
TABLE
  2
UCS
  5
7
330
0
100
AcDbSymbolTable
 70
     0
  0
ENDTAB
  0
TABLE
  2
APPID
  5
9
330
0
100
AcDbSymbolTable
 70
    16
  0
APPID
  5
12
330
9
100
AcDbSymbolTableRecord
100
AcDbRegAppTableRecord
  2
ACAD
 70
     0
  0
APPID
  5
30
330
9
100
AcDbSymbolTableRecord
100
AcDbRegAppTableRecord
  2
MCAD_NO_VIS
 70
     0
  0
APPID
  5
31
330
9
100
AcDbSymbolTableRecord
100
AcDbRegAppTableRecord
  2
ACAD_TEMP_GRAPHIC
 70
     0
  0
APPID
  5
2C2
330
9
100
AcDbSymbolTableRecord
100
AcDbRegAppTableRecord
  2
GENIUS_GENDTOL_13
 70
     0
  0
APPID
  5
339
330
9
100
AcDbSymbolTableRecord
100
AcDbRegAppTableRecord
  2
GENIUS_GENODEF_13
 70
     0
  0
APPID
  5
33A
330
9
100
AcDbSymbolTableRecord
100
AcDbRegAppTableRecord
  2
GENIUS_GENOBJ-N-RSBK_13
 70
     0
  0
APPID
  5
33B
330
9
100
AcDbSymbolTableRecord
100
AcDbRegAppTableRecord
  2
GENIUS_GENOBJ-N-LIB_13
 70
     0
  0
APPID
  5
33C
330
9
100
AcDbSymbolTableRecord
100
AcDbRegAppTableRecord
  2
GENIUS_GENSCALE_13
 70
     0
  0
APPID
  5
378
330
9
100
AcDbSymbolTableRecord
100
AcDbRegAppTableRecord
  2
GENIUS_GENDIMSH_14
 70
     0
  0
APPID
  5
C82
330
9
100
AcDbSymbolTableRecord
100
AcDbRegAppTableRecord
  2
GENIUS_GENOBJ-N-CRS_13
 70
     0
  0
APPID
  5
C83
330
9
100
AcDbSymbolTableRecord
100
AcDbRegAppTableRecord
  2
GENIUS_GENOENT_13
 70
     0
  0
APPID
  5
C84
330
9
100
AcDbSymbolTableRecord
100
AcDbRegAppTableRecord
  2
GENIUS_GENOREF_13
 70
     0
  0
APPID
  5
C85
330
9
100
AcDbSymbolTableRecord
100
AcDbRegAppTableRecord
  2
GENIUS_GENOLIS_13
 70
     0
  0
APPID
  5
CA0
330
9
100
AcDbSymbolTableRecord
100
AcDbRegAppTableRecord
  2
GENIUS_GENOBJ-N-CEN_13
 70
     0
  0
APPID
  5
2796
330
9
100
AcDbSymbolTableRecord
100
AcDbRegAppTableRecord
  2
GENIUS_GENFIL_13
 70
     0
  0
APPID
  5
2797
330
9
100
AcDbSymbolTableRecord
100
AcDbRegAppTableRecord
  2
GENIUS_GENOBJ-N-CHA_13
 70
     0
  0
ENDTAB
  0
TABLE
  2
DIMSTYLE
  5
A
330
0
100
AcDbSymbolTable
 70
     9
  0
DIMSTYLE
105
58
330
A
100
AcDbSymbolTableRecord
100
AcDbDimStyleTableRecord
  2
AM_JIS
 70
     0
  3

  4
"
  5
OPEN30
  6

  7

 40
0.5
 41
2.5
 42
1.0
 43
12.0
 44
1.0
 45
0.0
 46
0.0
 47
0.1
 48
0.1
140
3.2
141
0.0
142
0.0
143
0.0393701
144
1.0
145
0.0
146
0.71
147
1.5
 71
     0
 72
     0
 73
     0
 74
     0
 75
     0
 76
     0
 77
     3
 78
     8
170
     0
171
     2
172
     1
173
     0
174
     0
175
     0
176
   256
177
   256
178
     2
270
     2
271
     3
272
     3
273
     2
274
     2
340
6B
275
     0
280
     0
281
     0
282
     0
283
     0
284
     0
285
     0
286
     0
287
     3
288
     0
  0
DIMSTYLE
105
5F
330
A
100
AcDbSymbolTableRecord
100
AcDbDimStyleTableRecord
  2
AM_JIS$3
 70
     0
  3

  4
"
  5
OPEN30
  6

  7

 40
0.5
 41
2.5
 42
1.0
 43
10.0
 44
1.0
 45
0.0
 46
0.0
 47
0.1
 48
0.1
140
3.2
141
0.0
142
0.0
143
0.0393701
144
1.0
145
0.0
146
0.71
147
1.5
 71
     0
 72
     0
 73
     0
 74
     1
 75
     0
 76
     0
 77
     3
 78
     8
170
     0
171
     2
172
     0
173
     0
174
     0
175
     0
176
   256
177
   256
178
     2
270
     2
271
     2
272
     3
273
     2
274
     2
340
6B
275
     0
280
     0
281
     0
282
     0
283
     0
284
     0
285
     0
286
     0
287
     0
288
     1
  0
DIMSTYLE
105
60
330
A
100
AcDbSymbolTableRecord
100
AcDbDimStyleTableRecord
  2
AM_JIS$4
 70
     0
  3

  4
"
  5
OPEN30
  6

  7

 40
0.5
 41
2.5
 42
1.0
 43
10.0
 44
1.0
 45
0.0
 46
0.0
 47
0.1
 48
0.1
140
3.2
141
0.0
142
0.0
143
0.0393701
144
1.0
145
0.0
146
0.71
147
1.5
 71
     0
 72
     0
 73
     0
 74
     1
 75
     0
 76
     0
 77
     3
 78
     8
170
     0
171
     2
172
     0
173
     0
174
     0
175
     0
176
   256
177
   256
178
     2
270
     2
271
     2
272
     3
273
     2
274
     2
340
6B
275
     0
280
     0
281
     0
282
     0
283
     0
284
     0
285
     0
286
     0
287
     0
288
     1
  0
DIMSTYLE
105
61
330
A
100
AcDbSymbolTableRecord
100
AcDbDimStyleTableRecord
  2
AM_JIS$6
 70
     0
  3

  4
"
  5
OPEN30
  6

  7

 40
0.5
 41
2.5
 42
1.0
 43
10.0
 44
1.0
 45
0.0
 46
0.0
 47
0.1
 48
0.1
140
3.2
141
0.0
142
0.0
143
0.0393701
144
1.0
145
0.0
146
0.71
147
1.5
 71
     0
 72
     0
 73
     0
 74
     0
 75
     0
 76
     0
 77
     0
 78
     8
170
     0
171
     2
172
     1
173
     0
174
     0
175
     0
176
   256
177
   256
178
     2
270
     2
271
     2
272
     2
273
     2
274
     2
340
6B
275
     0
280
     0
281
     0
282
     0
283
     0
284
     0
285
     0
286
     0
287
     3
288
     0
  0
DIMSTYLE
105
62
330
A
100
AcDbSymbolTableRecord
100
AcDbDimStyleTableRecord
  2
AM_JIS$7
 70
     0
  3

  4
"
  5
OPEN30
  6

  7

 40
0.5
 41
2.5
 42
1.0
 43
10.0
 44
1.0
 45
0.0
 46
0.0
 47
0.1
 48
0.1
140
3.2
141
0.0
142
0.0
143
0.0393701
144
1.0
145
0.0
146
0.71
147
1.5
 71
     0
 72
     0
 73
     0
 74
     0
 75
     0
 76
     0
 77
     3
 78
     8
170
     0
171
     2
172
     1
173
     0
174
     0
175
     0
176
   256
177
   256
178
     2
270
     2
271
     2
272
     3
273
     2
274
     2
340
6B
275
     0
280
     0
281
     0
282
     0
283
     0
284
     0
285
     0
286
     0
287
     3
288
     0
  0
DIMSTYLE
105
63
330
A
100
AcDbSymbolTableRecord
100
AcDbDimStyleTableRecord
  2
AM_JIS$SF
 70
     0
  3

  4
"
  5
OPEN30
  6

  7

 40
0.5
 41
2.5
 42
1.0
 43
10.0
 44
1.0
 45
0.0
 46
0.0
 47
0.1
 48
0.1
140
3.2
141
0.0
142
0.0
143
0.0393701
144
1.0
145
0.0
146
0.71
147
1.5
 71
     0
 72
     0
 73
     0
 74
     0
 75
     1
 76
     1
 77
     3
 78
     8
170
     0
171
     2
172
     1
173
     0
174
     0
175
     0
176
   256
177
   256
178
     2
270
     2
271
     2
272
     2
273
     2
274
     2
340
6B
275
     0
280
     0
281
     0
282
     0
283
     0
284
     0
285
     0
286
     0
287
     3
288
     0
  0
DIMSTYLE
105
68
330
A
100
AcDbSymbolTableRecord
100
AcDbDimStyleTableRecord
  2
AM_JIS$SH
 70
     0
  3

  4
"
  5

  6
GENAXEH
  7
OPEN30
 40
0.5
 41
2.5
 42
1.0
 43
10.0
 44
1.0
 45
0.0
 46
0.0
 47
0.1
 48
0.1
140
3.2
141
0.0
142
0.0
143
0.0393701
144
2.0
145
0.0
146
0.71
147
1.5
 71
     0
 72
     0
 73
     0
 74
     0
 75
     1
 76
     1
 77
     3
 78
     8
170
     0
171
     2
172
     1
173
     1
174
     0
175
     0
176
   256
177
   256
178
     2
270
     2
271
     2
272
     2
273
     2
274
     2
340
6B
275
     0
280
     0
281
     0
282
     0
283
     0
284
     0
285
     0
286
     0
287
     3
288
     0
  0
DIMSTYLE
105
B34
102
{ACAD_REACTORS
330
2C81
102
}
330
A
100
AcDbSymbolTableRecord
100
AcDbDimStyleTableRecord
  2
AM_JIS$2
 70
     0
  3

  4
"
  5
OPEN30
  6

  7

 40
0.5
 41
2.5
 42
1.0
 43
12.0
 44
1.0
 45
0.0
 46
0.0
 47
0.1
 48
0.1
140
3.2
141
0.0
142
0.0
143
0.0393701
144
1.0
145
0.0
146
0.71
147
1.5
 71
     0
 72
     0
 73
     0
 74
     0
 75
     0
 76
     0
 77
     3
 78
     8
170
     0
171
     2
172
     1
173
     0
174
     0
175
     0
176
   256
177
   256
178
     2
270
     2
271
     3
272
     3
273
     2
274
     2
340
6B
275
     0
280
     0
281
     0
282
     0
283
     0
284
     0
285
     0
286
     0
287
     3
288
     0
  0
DIMSTYLE
105
BA5
102
{ACAD_REACTORS
330
CC6
330
2069
330
2C16
330
2D60
102
}
330
A
100
AcDbSymbolTableRecord
100
AcDbDimStyleTableRecord
  2
AM_JIS$0
 70
     0
  3

  4
"
  5
OPEN30
  6

  7

 40
0.5
 41
2.5
 42
0.0
 43
10.0
 44
1.0
 45
0.0
 46
0.0
 47
0.1
 48
0.1000000001
140
3.799999999999999
141
0.0
142
0.0
143
0.0393701
144
1.0
145
0.0
146
0.71
147
1.5
 71
     0
 72
     0
 73
     0
 74
     0
 75
     0
 76
     0
 77
     3
 78
     1
170
     0
171
     2
172
     1
173
     0
174
     0
175
     0
176
     3
177
     3
178
     2
270
     2
271
     2
272
     2
273
     2
274
     2
340
11
275
     1
280
     0
281
     0
282
     0
283
     0
284
     8
285
     0
286
     0
287
     0
288
     0
  0
ENDTAB
  0
TABLE
  2
BLOCK_RECORD
  5
1
330
0
100
AcDbSymbolTable
 70
    10
  0
BLOCK_RECORD
  5
1F
102
{ACAD_XDICTIONARY
360
74
102
}
330
1
100
AcDbSymbolTableRecord
100
AcDbBlockTableRecord
  2
*MODEL_SPACE
  0
BLOCK_RECORD
  5
101
102
{ACAD_XDICTIONARY
360
37BD
102
}
330
1
100
AcDbSymbolTableRecord
100
AcDbBlockTableRecord
  2
*PAPER_SPACE
  0
BLOCK_RECORD
  5
59
330
1
100
AcDbSymbolTableRecord
100
AcDbBlockTableRecord
  2
_OPEN30
  0
BLOCK_RECORD
  5
64
330
1
100
AcDbSymbolTableRecord
100
AcDbBlockTableRecord
  2
GENAXEH
  0
BLOCK_RECORD
  5
CC8
330
1
100
AcDbSymbolTableRecord
100
AcDbBlockTableRecord
  2
*D5
  0
BLOCK_RECORD
  5
206A
330
1
100
AcDbSymbolTableRecord
100
AcDbBlockTableRecord
  2
*D6
  0
BLOCK_RECORD
  5
2C17
330
1
100
AcDbSymbolTableRecord
100
AcDbBlockTableRecord
  2
*D7
  0
BLOCK_RECORD
  5
2C82
330
1
100
AcDbSymbolTableRecord
100
AcDbBlockTableRecord
  2
*D8
  0
BLOCK_RECORD
  5
2D61
330
1
100
AcDbSymbolTableRecord
100
AcDbBlockTableRecord
  2
*D9
  0
ENDTAB
  0
ENDSEC
  0
SECTION
  2
BLOCKS
  0
BLOCK
  5
20
330
1F
100
AcDbEntity
  8
0
100
AcDbBlockBegin
  2
*MODEL_SPACE
 70
     0
 10
0.0
 20
0.0
 30
0.0
  3
*MODEL_SPACE
  1

  0
ENDBLK
  5
21
330
1F
100
AcDbEntity
  8
0
100
AcDbBlockEnd
  0
BLOCK
  5
103
330
101
100
AcDbEntity
 67
     1
  8
0
100
AcDbBlockBegin
  2
*PAPER_SPACE
 70
     0
 10
0.0
 20
0.0
 30
0.0
  3
*PAPER_SPACE
  1

  0
ENDBLK
  5
104
330
101
100
AcDbEntity
 67
     1
  8
0
100
AcDbBlockEnd
  0
BLOCK
  5
5D
330
59
100
AcDbEntity
  8
0
100
AcDbBlockBegin
  2
_OPEN30
 70
     0
 10
0.0
 20
0.0
 30
0.0
  3
_OPEN30
  1

  0
LINE
  5
5A
330
59
100
AcDbEntity
  8
0
 62
     0
100
AcDbLine
 10
-1.0
 20
0.26794919
 30
0.0
 11
0.0
 21
0.0
 31
0.0
  0
LINE
  5
5B
330
59
100
AcDbEntity
  8
0
 62
     0
100
AcDbLine
 10
0.0
 20
0.0
 30
0.0
 11
-1.0
 21
-0.26794919
 31
0.0
  0
LINE
  5
5C
330
59
100
AcDbEntity
  8
0
 62
     0
100
AcDbLine
 10
0.0
 20
0.0
 30
0.0
 11
-1.0
 21
0.0
 31
0.0
  0
ENDBLK
  5
5E
330
59
100
AcDbEntity
  8
0
100
AcDbBlockEnd
  0
BLOCK
  5
66
330
64
100
AcDbEntity
  8
0
100
AcDbBlockBegin
  2
GENAXEH
 70
     0
 10
0.0
 20
0.0
 30
0.0
  3
GENAXEH
  1

  0
LINE
  5
65
330
64
100
AcDbEntity
  8
0
100
AcDbLine
 10
-1.0
 20
0.0
 30
0.0
 11
1.0
 21
0.0
 31
0.0
  0
ENDBLK
  5
67
330
64
100
AcDbEntity
  8
0
100
AcDbBlockEnd
  0
BLOCK
  5
CD2
330
CC8
100
AcDbEntity
  8
0
100
AcDbBlockBegin
  2
*D5
 70
     1
 10
0.0
 20
0.0
 30
0.0
  3
*D5
  1

  0
LINE
  5
3741
330
CC8
100
AcDbEntity
  8
AM_5
 62
     3
100
AcDbLine
 10
-117.9999999999999
 20
-4.949991671745011
 30
0.0
 11
-117.9999999999999
 21
-18.00056505856443
 31
0.0
  0
LINE
  5
3742
330
CC8
100
AcDbEntity
  8
AM_5
 62
     3
100
AcDbLine
 10
-2.00000000000001
 20
-5.500010761925622
 30
0.0
 11
-2.000000000000011
 21
-18.00056505856443
 31
0.0
  0
LINE
  5
3743
330
CC8
100
AcDbEntity
  8
AM_5
 62
     3
100
AcDbLine
 10
-116.7499999999999
 20
-17.50056505856443
 30
0.0
 11
-3.250000000000011
 21
-17.50056505856443
 31
0.0
  0
INSERT
  5
3744
330
CC8
100
AcDbEntity
  8
AM_5
 62
     3
100
AcDbBlockReference
  2
_OPEN30
 10
-117.9999999999999
 20
-17.50056505856443
 30
0.0
 41
1.25
 42
1.25
 43
1.25
 50
180.0
  0
INSERT
  5
3745
330
CC8
100
AcDbEntity
  8
AM_5
 62
     3
100
AcDbBlockReference
  2
_OPEN30
 10
-2.000000000000011
 20
-17.50056505856443
 30
0.0
 41
1.25
 42
1.25
 43
1.25
  0
MTEXT
  5
3746
330
CC8
100
AcDbEntity
  8
AM_5
 62
     2
100
AcDbMText
 10
-60.0
 20
-15.80056505856443
 30
0.0
 40
1.9
 41
0.0
 71
     5
 72
     1
  1
116
1001
ACAD
1000
MTEXTBEGIN
1070
    73
1070
     1
1070
    44
1040
1.0
1070
    74
1070
     0
1000
MTEXTEND
  0
POINT
  5
3747
330
CC8
100
AcDbEntity
  8
DEFPOINTS
 62
     0
100
AcDbPoint
 10
-117.9999999999999
 20
-4.949991671745011
 30
0.0
  0
POINT
  5
3748
330
CC8
100
AcDbEntity
  8
DEFPOINTS
 62
     0
100
AcDbPoint
 10
-2.00000000000001
 20
-5.500010761925622
 30
0.0
  0
POINT
  5
3749
330
CC8
100
AcDbEntity
  8
DEFPOINTS
 62
     0
100
AcDbPoint
 10
-2.000000000000011
 20
-17.50056505856443
 30
0.0
  0
ENDBLK
  5
CD3
330
CC8
100
AcDbEntity
  8
0
100
AcDbBlockEnd
  0
BLOCK
  5
2074
330
206A
100
AcDbEntity
  8
0
100
AcDbBlockBegin
  2
*D6
 70
     1
 10
0.0
 20
0.0
 30
0.0
  3
*D6
  1

  0
LINE
  5
375E
330
206A
100
AcDbEntity
  8
AM_5
 62
     3
100
AcDbLine
 10
-56.99999304336447
 20
-3.687565068334357
 30
0.0
 11
-56.99999304336444
 21
-13.00056505856456
 31
0.0
  0
LINE
  5
375F
330
206A
100
AcDbEntity
  8
AM_5
 62
     3
100
AcDbLine
 10
-1.999999999999994
 20
-5.500010761925628
 30
0.0
 11
-1.999999999999973
 21
-13.0005650585644
 31
0.0
  0
LINE
  5
3760
330
206A
100
AcDbEntity
  8
AM_5
 62
     3
100
AcDbLine
 10
-55.74999304336444
 20
-12.50056505856456
 30
0.0
 11
-3.249999999999974
 21
-12.50056505856441
 31
0.0
  0
INSERT
  5
3761
330
206A
100
AcDbEntity
  8
AM_5
 62
     3
100
AcDbBlockReference
  2
_OPEN30
 10
-56.99999304336444
 20
-12.50056505856456
 30
0.0
 41
1.25
 42
1.25
 43
1.25
 50
180.0000000000001
  0
INSERT
  5
3762
330
206A
100
AcDbEntity
  8
AM_5
 62
     3
100
AcDbBlockReference
  2
_OPEN30
 10
-1.999999999999974
 20
-12.5005650585644
 30
0.0
 41
1.25
 42
1.25
 43
1.25
 50
0.0000000000001527
  0
MTEXT
  5
3763
330
206A
100
AcDbEntity
  8
AM_5
 62
     2
100
AcDbMText
 10
-29.49999652168221
 20
-10.80056505856448
 30
0.0
 40
1.9
 41
0.0
 71
     5
 72
     1
  1
55
1001
ACAD
1000
MTEXTBEGIN
1070
    73
1070
     1
1070
    44
1040
1.0
1070
    74
1070
     0
1000
MTEXTEND
  0
POINT
  5
3764
330
206A
100
AcDbEntity
  8
DEFPOINTS
 62
     0
100
AcDbPoint
 10
-56.99999304336448
 20
-3.687565068334191
 30
0.0
  0
POINT
  5
3765
330
206A
100
AcDbEntity
  8
DEFPOINTS
 62
     0
100
AcDbPoint
 10
-2.00000000000001
 20
-5.500010761925622
 30
0.0
  0
POINT
  5
3766
330
206A
100
AcDbEntity
  8
DEFPOINTS
 62
     0
100
AcDbPoint
 10
-2.000000000000011
 20
-12.5005650585644
 30
0.0
  0
ENDBLK
  5
2075
330
206A
100
AcDbEntity
  8
0
100
AcDbBlockEnd
  0
BLOCK
  5
2C21
330
2C17
100
AcDbEntity
  8
0
100
AcDbBlockBegin
  2
*D7
 70
     1
 10
0.0
 20
0.0
 30
0.0
  3
*D7
  1

  0
LINE
  5
374A
330
2C17
100
AcDbEntity
  8
AM_5
 62
     3
100
AcDbLine
 10
-117.4999999999999
 20
-5.499999999999796
 30
0.0
 11
-128.000001
 21
-5.499999999999833
 31
0.0
  0
LINE
  5
374B
330
2C17
100
AcDbEntity
  8
AM_5
 62
     3
100
AcDbLine
 10
-117.5
 20
5.500000000000235
 30
0.0
 11
-128.000001
 21
5.500000000000198
 31
0.0
  0
LINE
  5
374C
330
2C17
100
AcDbEntity
  8
AM_5
 62
     3
100
AcDbLine
 10
-127.500001
 20
-4.249999999999831
 30
0.0
 11
-127.500001
 21
4.2500000000002
 31
0.0
  0
INSERT
  5
374D
330
2C17
100
AcDbEntity
  8
AM_5
 62
     3
100
AcDbBlockReference
  2
_OPEN30
 10
-127.500001
 20
-5.499999999999831
 30
0.0
 41
1.25
 42
1.25
 43
1.25
 50
270.0000000000002
  0
INSERT
  5
374E
330
2C17
100
AcDbEntity
  8
AM_5
 62
     3
100
AcDbBlockReference
  2
_OPEN30
 10
-127.500001
 20
5.5000000000002
 30
0.0
 41
1.25
 42
1.25
 43
1.25
 50
90.00000000000019
  0
MTEXT
  5
374F
330
2C17
100
AcDbEntity
  8
AM_5
 62
     2
100
AcDbMText
 10
-129.200001
 20
0.0000118250605846
 30
0.0
 40
1.9
 41
0.0
 71
     5
 72
     1
  1
%%c11
 11
-0.0000000000000037
 21
1.0
 31
0.0
1001
ACAD
1000
MTEXTBEGIN
1070
    73
1070
     1
1070
    44
1040
1.0
1070
    74
1070
     0
1000
MTEXTEND
  0
POINT
  5
3750
330
2C17
100
AcDbEntity
  8
DEFPOINTS
 62
     0
100
AcDbPoint
 10
-117.5
 20
-5.499999999999353
 30
0.0
  0
POINT
  5
3751
330
2C17
100
AcDbEntity
  8
DEFPOINTS
 62
     0
100
AcDbPoint
 10
-117.4999999999999
 20
5.500000000000678
 30
0.0
  0
POINT
  5
3752
330
2C17
100
AcDbEntity
  8
DEFPOINTS
 62
     0
100
AcDbPoint
 10
-127.500001
 20
5.500000000000682
 30
0.0
  0
ENDBLK
  5
2C22
330
2C17
100
AcDbEntity
  8
0
100
AcDbBlockEnd
  0
BLOCK
  5
2C90
330
2C82
100
AcDbEntity
  8
0
100
AcDbBlockBegin
  2
*D8
 70
     1
 10
0.0
 20
0.0
 30
0.0
  3
*D8
  1

  0
LINE
  5
3753
330
2C82
100
AcDbEntity
  8
AM_5
100
AcDbLine
 10
0.1710100704080653
 20
-0.469846310849673
 30
0.0
 11
5.02680533937573
 21
-13.81103427669009
 31
0.0
  0
LINE
  5
3754
330
2C82
100
AcDbEntity
  8
AM_5
100
AcDbLine
 10
0.171011111182979
 20
0.4698459320372507
 30
0.0
 11
5.026835932737168
 21
13.81102314157885
 31
0.0
  0
ARC
  5
3755
330
2C82
100
AcDbEntity
  8
AM_5
100
AcDbCircle
 10
-0.0000000000000055
 20
-0.0000000000000152
 30
0.0
 40
14.19739567787043
100
AcDbArc
 50
295.0461983747144
 51
64.95367470711542
  0
INSERT
  5
3756
330
2C82
100
AcDbEntity
  8
AM_5
100
AcDbBlockReference
  2
_OPEN30
 10
4.855795268967661
 20
-13.34118796584044
 30
0.0
 41
1.25
 42
1.25
 43
1.25
 50
202.5230991108504
  0
INSERT
  5
3757
330
2C82
100
AcDbEntity
  8
AM_5
100
AcDbBlockReference
  2
_OPEN30
 10
4.855824821554186
 20
13.34117720954159
 30
0.0
 41
1.25
 42
1.25
 43
1.25
 50
157.4767739709793
  0
MTEXT
  5
3758
330
2C82
100
AcDbEntity
  8
AM_5
 62
     2
100
AcDbMText
 10
12.64739567786267
 20
-0.0000140078757394
 30
0.0
 40
1.6
 41
0.0
 71
     5
 72
     1
  1
140°
  7
ASAMI
 11
0.0000011075699751
 21
0.9999999999993868
 31
0.0
1001
ACAD
1000
MTEXTBEGIN
1070
    73
1070
     1
1070
    44
1040
1.0
1070
    74
1070
     0
1000
MTEXTEND
  0
POINT
  5
3759
330
2C82
100
AcDbEntity
  8
DEFPOINTS
 62
     0
100
AcDbPoint
 10
13.03627323003058
 20
-5.623310795785902
 30
0.0
  0
POINT
  5
375A
330
2C82
100
AcDbEntity
  8
DEFPOINTS
 62
     0
100
AcDbPoint
 10
-0.0000000000000034
 20
-0.0000000000000094
 30
0.0
  0
POINT
  5
375B
330
2C82
100
AcDbEntity
  8
DEFPOINTS
 62
     0
100
AcDbPoint
 10
-0.0000000000000033
 20
-0.0000000000000213
 30
0.0
  0
POINT
  5
375C
330
2C82
100
AcDbEntity
  8
DEFPOINTS
 62
     0
100
AcDbPoint
 10
-0.6288636867983374
 20
1.727788793750279
 30
0.0
  0
POINT
  5
375D
330
2C82
100
AcDbEntity
  8
DEFPOINTS
 62
     0
100
AcDbPoint
 10
-0.6288762571457355
 20
-1.727811421905679
 30
0.0
  0
ENDBLK
  5
2C91
330
2C82
100
AcDbEntity
  8
0
100
AcDbBlockEnd
  0
BLOCK
  5
2D6B
330
2D61
100
AcDbEntity
  8
0
100
AcDbBlockBegin
  2
*D9
 70
     1
 10
0.0
 20
0.0
 30
0.0
  3
*D9
  1

  0
LINE
  5
3767
330
2D61
100
AcDbEntity
  8
AM_5
 62
     3
100
AcDbLine
 10
-2.000000000000002
 20
5.500000568698119
 30
0.0
 11
9.81992033683182
 21
5.499959078936627
 31
0.0
  0
LINE
  5
3768
330
2D61
100
AcDbEntity
  8
AM_5
 62
     3
100
AcDbLine
 10
-1.999999999999995
 20
-5.500010761925628
 30
0.0
 11
9.819881725078653
 21
-5.500052251551587
 31
0.0
  0
LINE
  5
3769
330
2D61
100
AcDbEntity
  8
AM_5
 62
     3
100
AcDbLine
 10
9.319915949140197
 20
4.24996083402221
 30
0.0
 11
9.319886112776437
 21
-4.250050496481406
 31
0.0
  0
INSERT
  5
376A
330
2D61
100
AcDbEntity
  8
AM_5
 62
     3
100
AcDbBlockReference
  2
_OPEN30
 10
9.319920336834901
 20
5.499960834014509
 30
0.0
 41
1.25
 42
1.25
 43
1.25
 50
89.99979888288931
  0
INSERT
  5
376B
330
2D61
100
AcDbEntity
  8
AM_5
 62
     3
100
AcDbBlockReference
  2
_OPEN30
 10
9.319881725081733
 20
-5.500050496473705
 30
0.0
 41
1.25
 42
1.25
 43
1.25
 50
269.9997988828893
  0
MTEXT
  5
376C
330
2D61
100
AcDbEntity
  8
AM_5
 62
     2
100
AcDbMText
 10
7.61990103096879
 20
-0.0000388639648008
 30
0.0
 40
1.9
 41
0.0
 71
     5
 72
     1
  1
%%c11
 11
0.0000035101557632
 21
0.9999999999938395
 31
0.0
1001
ACAD
1000
MTEXTBEGIN
1070
    73
1070
     1
1070
    44
1040
1.0
1070
    74
1070
     0
1000
MTEXTEND
  0
POINT
  5
376D
330
2D61
100
AcDbEntity
  8
DEFPOINTS
 62
     0
100
AcDbPoint
 10
-1.999999999999986
 20
5.500000568698125
 30
0.0
  0
POINT
  5
376E
330
2D61
100
AcDbEntity
  8
DEFPOINTS
 62
     0
100
AcDbPoint
 10
-2.000000000000011
 20
-5.500010761925623
 30
0.0
  0
POINT
  5
376F
330
2D61
100
AcDbEntity
  8
DEFPOINTS
 62
     0
100
AcDbPoint
 10
9.319881725081719
 20
-5.500050496473732
 30
0.0
  0
ENDBLK
  5
2D6C
330
2D61
100
AcDbEntity
  8
0
100
AcDbBlockEnd
  0
ENDSEC
  0
SECTION
  2
ENTITIES
  0
LINE
  5
C1D
330
1F
100
AcDbEntity
  8
AM_0
 48
0.5
100
AcDbLine
 10
-0.0000000000000033
 20
-0.0000000000000213
 30
0.0
 11
-0.6288636867983373
 21
1.727788793750279
 31
0.0
  0
LINE
  5
C20
330
1F
100
AcDbEntity
  8
AM_0
 48
0.5
100
AcDbLine
 10
-0.0000000000000034
 20
-0.0000000000000094
 30
0.0
 11
-0.6288762571457354
 21
-1.727811421905679
 31
0.0
  0
DIMENSION
  5
CC6
330
1F
100
AcDbEntity
  8
AM_5
100
AcDbDimension
  2
*D5
 10
-2.000000000000011
 20
-17.50056505856443
 30
0.0
 11
-60.0
 21
-15.80056505856443
 31
0.0
 70
    32
  1
<>
  3
AM_JIS$0
100
AcDbAlignedDimension
 13
-117.9999999999999
 23
-4.949991671745011
 33
0.0
 14
-2.00000000000001
 24
-5.500010761925622
 34
0.0
 50
0.0000000000001132
100
AcDbRotatedDimension
1001
GENIUS_GENDTOL_13
1000

1000
h7
1000

1040
0.0
1001
ACAD
1000
DSTYLE
1002
{
1070
   271
1070
     0
1002
}
  0
TEXT
  5
19BD
330
1F
100
AcDbEntity
  8
AM_6
100
AcDbText
 10
-70.77380952380948
 20
-28.75056505856446
 30
0.0
 40
2.5
  1
MDW110MHK
 50
0.0000000000001527
 72
     4
 11
-59.99999999999996
 21
-27.50056505856443
 31
0.0
100
AcDbText
  0
DIMENSION
  5
2069
330
1F
100
AcDbEntity
  8
AM_5
100
AcDbDimension
  2
*D6
 10
-2.000000000000011
 20
-12.5005650585644
 30
0.0
 11
-29.49999652168225
 21
-10.80056505856439
 31
0.0
 70
    32
  1
<>
 51
359.9999999999998
  3
AM_JIS$0
100
AcDbAlignedDimension
 13
-56.99999304336448
 23
-3.687565068334191
 33
0.0
 14
-2.00000000000001
 24
-5.500010761925622
 34
0.0
 50
0.0000000000001527
100
AcDbRotatedDimension
1001
ACAD
1000
DSTYLE
1002
{
1070
   271
1070
     0
1070
   174
1070
     1
1002
}
1001
GENIUS_GENDTOL_13
1000

1000
h7
1000

1040
0.0
  0
LINE
  5
23EF
330
1F
100
AcDbEntity
  8
AM_7
100
AcDbLine
 10
-120.4999999999999
 20
0.0000000000006637
 30
0.0
 11
2.319900031072541
 21
-0.0000000000000271
 31
0.0
1001
GENIUS_GENODEF_13
1002
{
1000
HIER
1070
     0
1002
}
1002
{
1000
MANEDIT
1070
     0
1002
}
1002
{
1000
NOSEL
1070
     0
1002
}
1002
{
1000
BEHIND
1070
     0
1002
}
1002
{
1000
REACTOR
1002
}
1001
GENIUS_GENOBJ-N-CEN_13
1002
{
1000
OWNER
1000
GEN
1002
}
  0
LINE
  5
24A7
330
1F
100
AcDbEntity
  8
AM_0
 48
0.5
100
AcDbLine
 10
-1.552914286975396
 20
4.629174220165585
 30
0.0
 11
-1.999999999999985
 21
5.500000568698125
 31
0.0
  0
ELLIPSE
  5
24B7
330
1F
100
AcDbEntity
  8
AM_11
 48
0.5
100
AcDbEllipse
 10
-17.32962994420974
 20
20.09720314218302
 30
0.0
 11
-23.19725211461353
 21
0.0000000000001765
 31
0.0
210
0.0
220
0.0
230
1.0
 40
0.9578947368421058
 41
1.130070686340284
 42
2.011520147323574
  0
ELLIPSE
  5
24B8
330
1F
100
AcDbEntity
  8
AM_11
 48
0.5
100
AcDbEllipse
 10
-17.32962994421084
 20
-20.09718855347518
 30
0.0
 11
-23.1972521146135
 21
0.0000000000001044
 31
0.0
210
0.0
220
0.0
230
1.0
 40
0.9578947368421054
 41
4.271664206181664
 42
5.153113667164971
  0
ELLIPSE
  5
24BE
330
1F
100
AcDbEntity
  8
AM_0
 48
0.5
100
AcDbEllipse
 10
7.381806094752814
 20
6.243325914573069
 30
0.0
 11
8.104082925716948
 21
4.346823266509869
 31
0.0
210
0.0
220
0.0
230
0.9999999999999998
 40
0.8865390934601007
 41
2.790918318021922
 42
3.165246863909731
  0
ELLIPSE
  5
24C7
330
1F
100
AcDbEntity
  8
AM_11
 48
0.5
100
AcDbEllipse
 10
-76.70462994420417
 20
20.09720314218453
 30
0.0
 11
-23.19725211461353
 21
0.0000000000005165
 31
0.0
210
0.0
220
0.0
230
1.0
 40
0.9578947368421058
 41
1.130070686340301
 42
2.011520147323591
  0
ELLIPSE
  5
24C8
330
1F
100
AcDbEntity
  8
AM_11
 48
0.5
100
AcDbEllipse
 10
-76.70462994420531
 20
-20.09718855347367
 30
0.0
 11
23.1972521146135
 21
0.0000000000003877
 31
0.0
210
0.0
220
0.0
230
1.0
 40
0.957894736842107
 41
1.13007155259185
 42
2.011521013575156
  0
ELLIPSE
  5
24D4
330
1F
100
AcDbEntity
  8
AM_11
 48
0.5
100
AcDbEllipse
 10
-56.91296327753751
 20
20.09720314218405
 30
0.0
 11
-23.19725211461356
 21
0.0000000000001353
 31
0.0
210
0.0
220
0.0
230
1.0
 40
0.9578947368421049
 41
1.130070686340283
 42
2.011520147323574
  0
ELLIPSE
  5
24D5
330
1F
100
AcDbEntity
  8
AM_11
 48
0.5
100
AcDbEllipse
 10
-56.91296327753862
 20
-20.09718855347415
 30
0.0
 11
-23.19725211461346
 21
0.0000000000004186
 31
0.0
210
0.0
220
0.0
230
1.0
 40
0.9578947368421083
 41
4.271664206181676
 42
5.153113667164986
  0
ELLIPSE
  5
24E6
330
1F
100
AcDbEntity
  8
AM_11
 48
0.5
100
AcDbEllipse
 10
-37.1212966108775
 20
-20.09718855347468
 30
0.0
 11
-23.19725211461349
 21
0.0000000000006298
 31
0.0
210
0.0
220
0.0
230
1.0
 40
0.957894736842106
 41
4.271664206181685
 42
5.153113667164993
  0
ELLIPSE
  5
24E7
330
1F
100
AcDbEntity
  8
AM_11
 48
0.5
100
AcDbEllipse
 10
-37.1212966108764
 20
20.09720314218352
 30
0.0
 11
23.19725211461354
 21
0.0000000000000375
 31
0.0
210
0.0
220
0.0
230
1.0
 40
0.9578947368421051
 41
4.271663339930067
 42
5.153112800913361
  0
ELLIPSE
  5
2BF2
330
1F
100
AcDbEntity
  8
AM_11
 48
0.5
100
AcDbEllipse
 10
-116.2879632775293
 20
20.0972031421844
 30
0.0
 11
-23.19725211461353
 21
0.0000000000005165
 31
0.0
210
0.0
220
0.0
230
1.0
 40
0.9578947368421058
 41
1.49692573364896
 42
2.011520147323591
  0
ELLIPSE
  5
2BF3
330
1F
100
AcDbEntity
  8
AM_11
 48
0.5
100
AcDbEllipse
 10
-96.49629661086271
 20
20.09720314218391
 30
0.0
 11
-23.19725211461356
 21
0.0000000000001353
 31
0.0
210
0.0
220
0.0
230
1.0
 40
0.9578947368421049
 41
1.130070686340283
 42
2.011520147323574
  0
ELLIPSE
  5
2BF4
330
1F
100
AcDbEntity
  8
AM_11
 48
0.5
100
AcDbEllipse
 10
-116.2879632775305
 20
-20.0971885534738
 30
0.0
 11
23.1972521146135
 21
0.0000000000003877
 31
0.0
210
0.0
220
0.0
230
1.0
 40
0.957894736842107
 41
1.13007155259185
 42
1.644666919940789
  0
ELLIPSE
  5
2BF5
330
1F
100
AcDbEntity
  8
AM_11
 48
0.5
100
AcDbEllipse
 10
-96.49629661086381
 20
-20.09718855347428
 30
0.0
 11
-23.19725211461346
 21
0.0000000000004186
 31
0.0
210
0.0
220
0.0
230
1.0
 40
0.9578947368421083
 41
4.271664206181676
 42
5.153113667164986
  0
LINE
  5
2C11
330
1F
100
AcDbEntity
  8
AM_0
 48
0.5
100
AcDbLine
 10
-117.5
 20
-5.499999999999353
 30
0.0
 11
-118.0
 21
-4.949999999999354
 31
0.0
1001
GENIUS_GENFIL_13
1070
     0
1040
0.5
1040
0.5
1040
20.0
1040
0.0
1002
{
1002
}
1001
GENIUS_GENODEF_13
1002
{
1000
HIER
1070
     0
1002
}
1002
{
1000
MANEDIT
1070
     0
1002
}
1002
{
1000
NOSEL
1070
     0
1002
}
1002
{
1000
BEHIND
1070
     0
1002
}
1002
{
1000
REACTOR
1002
}
1001
GENIUS_GENOBJ-N-CHA_13
1002
{
1000
OWNER
1000
GEN
1002
}
  0
LINE
  5
2C12
330
1F
100
AcDbEntity
  8
AM_0
100
AcDbLine
 10
-117.5
 20
-5.499999999999353
 30
0.0
 11
-55.11174873350598
 21
-5.499999999999285
 31
0.0
  0
LINE
  5
2C13
330
1F
100
AcDbEntity
  8
AM_0
 48
0.5
100
AcDbLine
 10
-117.5
 20
5.500000000000646
 30
0.0
 11
-118.0
 21
4.950000000000644
 31
0.0
1001
GENIUS_GENFIL_13
1070
     0
1040
0.5
1040
0.5
1040
20.0
1040
0.0
1002
{
1002
}
1001
GENIUS_GENODEF_13
1002
{
1000
HIER
1070
     0
1002
}
1002
{
1000
MANEDIT
1070
     0
1002
}
1002
{
1000
NOSEL
1070
     0
1002
}
1002
{
1000
BEHIND
1070
     0
1002
}
1002
{
1000
REACTOR
1002
}
1001
GENIUS_GENOBJ-N-CHA_13
1002
{
1000
OWNER
1000
GEN
1002
}
  0
LINE
  5
2C14
330
1F
100
AcDbEntity
  8
AM_0
 48
0.5
100
AcDbLine
 10
-117.5
 20
-5.499999999999382
 30
0.0
 11
-117.4999999999999
 21
5.499991671746313
 31
0.0
  0
LINE
  5
2C15
330
1F
100
AcDbEntity
  8
AM_0
 48
0.5
100
AcDbLine
 10
-118.0
 20
-4.949991671744995
 30
0.0
 11
-118.0
 21
4.950000000000644
 31
0.0
  0
DIMENSION
  5
2C16
330
1F
100
AcDbEntity
  8
AM_5
100
AcDbDimension
  2
*D7
 10
-127.500001
 20
5.500000000000682
 30
0.0
 11
-127.500001
 21
0.000011825061075
 31
0.0
 70
   160
  1
%%c<>
 51
359.9999999999997
  3
AM_JIS$0
100
AcDbAlignedDimension
 13
-117.5
 23
-5.499999999999353
 33
0.0
 14
-117.4999999999999
 24
5.500000000000678
 34
0.0
 50
270.0
100
AcDbRotatedDimension
1001
ACAD
1000
DSTYLE
1002
{
1070
   271
1070
     0
1002
}
1001
GENIUS_GENDTOL_13
1000

1000
h7
1000

1040
0.0
  0
LINE
  5
2C23
330
1F
100
AcDbEntity
  8
AM_0
100
AcDbLine
 10
-53.09400679828372
 20
5.500781943515567
 30
0.0
 11
-117.5
 21
5.500000000000646
 31
0.0
  0
ELLIPSE
  5
2C72
330
1F
100
AcDbEntity
  8
AM_0
 48
0.5
100
AcDbEllipse
 10
7.381806094752743
 20
-6.243325914573181
 30
0.0
 11
8.104082925716896
 21
-4.346823266509962
 31
0.0
210
0.0
220
0.0
230
-0.9999999999999998
 40
0.8865390934601007
 41
2.790918318021922
 42
3.165246863909731
  0
LINE
  5
2C73
330
1F
100
AcDbEntity
  8
AM_0
 48
0.5
100
AcDbLine
 10
-1.552914286975449
 20
-4.629174220165594
 30
0.0
 11
-2.00000000000001
 21
-5.500010761925622
 31
0.0
  0
DIMENSION
  5
2C81
330
1F
100
AcDbEntity
  8
AM_5
100
AcDbDimension
  2
*D8
 10
-0.6288762571457354
 20
-1.727811421905679
 30
0.0
 11
12.64739567786267
 21
-0.0000140078757768
 31
0.0
 70
    34
  1
<>
 51
359.9999999999998
  3
AM_JIS$2
100
AcDb2LineAngularDimension
 13
-0.0000000000000033
 23
-0.0000000000000213
 33
0.0
 14
-0.6288636867983373
 24
1.727788793750279
 34
0.0
 15
-0.0000000000000034
 25
-0.0000000000000094
 35
0.0
 16
13.03627323003058
 26
-5.623310795785902
 36
0.0
1001
ACAD
1000
DSTYLE
1002
{
1070
   179
1070
     3
1002
}
1001
GENIUS_GENDTOL_13
1000

1000
h7
1000

1040
0.0
  0
DIMENSION
  5
2D60
330
1F
100
AcDbEntity
  8
AM_5
100
AcDbDimension
  2
*D9
 10
9.319881725081719
 20
-5.500050496473732
 30
0.0
 11
7.61990103096879
 21
-0.0000388639648229
 31
0.0
 70
    32
  1
%%c<>
 51
359.9999999999998
  3
AM_JIS$0
100
AcDbAlignedDimension
 13
-1.999999999999985
 23
5.500000568698125
 33
0.0
 14
-2.00000000000001
 24
-5.500010761925622
 34
0.0
 50
89.99979888288933
100
AcDbRotatedDimension
1001
GENIUS_GENDTOL_13
1000

1000
h7
1000

1040
0.0
1001
ACAD
1000
DSTYLE
1002
{
1070
   271
1070
     0
1002
}
  0
ELLIPSE
  5
363F
330
1F
100
AcDbEntity
  8
AM_11
 48
0.5
100
AcDbEllipse
 10
2.462036722457052
 20
20.47285179904571
 30
0.0
 11
-23.19725211461445
 21
0.0000000000183796
 31
0.0
210
0.0
220
0.0
230
1.0
 40
0.9757993113624914
 41
1.130070686341061
 42
1.291800737381746
  0
LINE
  5
36A3
330
1F
100
AcDbEntity
  8
AM_0
 48
0.5
100
AcDbLine
 10
-5.15116439387058
 20
5.500000568698308
 30
0.0
 11
-1.999999999999971
 21
5.500000568698125
 31
0.0
  0
LINE
  5
36A4
330
1F
100
AcDbEntity
  8
AM_0
 48
0.5
100
AcDbLine
 10
-0.0000000000000192
 20
-0.0000000000000082
 30
0.0
 11
-2.590947267588065
 21
2.091910547705391
 31
0.0
  0
LINE
  5
36A5
330
1F
100
AcDbEntity
  8
AM_0
 48
0.5
100
AcDbLine
 10
-5.151164393871153
 20
-5.499999431301693
 30
0.0
 11
-2.000000000000041
 21
-5.500010761925622
 31
0.0
  0
LINE
  5
36A6
330
1F
100
AcDbEntity
  8
AM_11
 48
0.5
100
AcDbLine
 10
-53.09400679828371
 20
5.500781943515569
 30
0.0
 11
-42.00965704544798
 21
5.500000568700317
 31
0.0
  0
LINE
  5
36A7
330
1F
100
AcDbEntity
  8
AM_11
 48
0.5
100
AcDbLine
 10
-55.11043537381038
 20
-5.500008536545299
 30
0.0
 11
-42.12809731115604
 21
-5.499999431299984
 31
0.0
  0
LINE
  5
36A8
330
1F
100
AcDbEntity
  8
AM_0
 48
0.5
100
AcDbLine
 10
-44.94626330327331
 20
2.801863241275045
 30
0.0
 11
-56.99999304336436
 21
-0.4450909296647954
 31
0.0
  0
LINE
  5
36A9
330
1F
100
AcDbEntity
  8
AM_0
 48
0.5
100
AcDbLine
 10
-42.00967200542726
 20
5.500000568700317
 30
0.0
 11
-22.52035220389918
 21
5.500000568699253
 31
0.0
  0
LINE
  5
36AA
330
1F
100
AcDbEntity
  8
AM_0
 48
0.5
100
AcDbLine
 10
-42.12809731115604
 20
-5.499999431299984
 30
0.0
 11
-22.52034643294522
 21
-5.500009921718134
 31
0.0
  0
LINE
  5
36AB
330
1F
100
AcDbEntity
  8
AM_11
 48
0.5
100
AcDbLine
 10
-22.52034643294522
 20
-5.500009921718134
 30
0.0
 11
-5.151164393871153
 21
-5.499999431301693
 31
0.0
  0
LINE
  5
36AC
330
1F
100
AcDbEntity
  8
AM_11
 48
0.5
100
AcDbLine
 10
-22.52035220389918
 20
5.500000568699253
 30
0.0
 11
-5.15116439387058
 21
5.500000568698308
 31
0.0
  0
ELLIPSE
  5
36AD
330
1F
100
AcDbEntity
  8
AM_0
 48
0.5
100
AcDbEllipse
 10
-55.17646818199281
 20
-3.666946411130422
 30
0.0
 11
-1.265321365327315
 21
1.376557983974374
 31
0.0
210
0.0
220
0.0
230
1.0
 40
0.9567111968963711
 41
0.8607269629129469
 42
2.412343271363291
  0
ELLIPSE
  5
36AE
330
1F
100
AcDbEntity
  8
AM_0
 48
0.5
100
AcDbEllipse
 10
-55.63271214955577
 20
-3.72280438740799
 30
0.0
 11
0.4252476344304986
 21
1.315545295293885
 31
0.0
210
0.0
220
0.0
230
1.0
 40
0.9883536543632288
 41
0.0262654836224112
 42
1.854511665884231
  0
SPLINE
  5
36AF
330
1F
100
AcDbEntity
  8
AM_0
100
AcDbSpline
210
0.0
220
0.0
230
1.0
 70
     8
 71
     3
 72
    13
 73
     9
 74
     0
 42
0.0000000001
 43
0.0000000001
 40
16.03460056234195
 40
16.03460056234195
 40
16.03460056234195
 40
16.03460056234195
 40
16.35212717791071
 40
17.38177067057215
 40
18.41822498539278
 40
19.46214186516937
 40
20.5139635832251
 40
21.34083983469381
 40
21.34083983469381
 40
21.34083983469381
 40
21.34083983469381
 10
-55.11045935945432
 20
-5.500010729219601
 30
0.0
 10
-54.91577052769002
 20
-5.482213460587836
 30
0.0
 10
-54.5142625318658
 20
-5.40136148279776
 30
0.0
 10
-53.80700284405816
 20
-5.242938175703794
 30
0.0
 10
-52.89109908231374
 20
-5.007367854083783
 30
0.0
 10
-51.97604620143503
 20
-4.742860738194701
 30
0.0
 10
-51.1293212623353
 20
-4.472510725540792
 30
0.0
 10
-50.58912566193503
 20
-4.286355502016746
 30
0.0
 10
-50.35214508965877
 20
-4.202211644737168
 30
0.0
  0
SPLINE
  5
36B0
330
1F
100
AcDbEntity
  8
AM_0
 48
0.5
100
AcDbSpline
210
0.0
220
0.0
230
1.0
 70
     8
 71
     3
 72
    22
 73
    18
 74
     0
 42
0.0000000001
 43
0.0000000001
 40
0.0
 40
0.0
 40
0.0
 40
0.0
 40
1.010743684496582
 40
2.022833993863546
 40
3.037578683882831
 40
4.056212471389632
 40
5.079857945358201
 40
6.109499720892564
 40
7.145961650132166
 40
8.189873411961459
 40
9.241710626092514
 40
10.30166235592959
 40
11.36982472628033
 40
12.44598212828784
 40
13.52983440361964
 40
14.62080578343036
 40
14.90544694398022
 40
14.90544694398022
 40
14.90544694398022
 40
14.90544694398022
 10
-42.10178816805469
 20
-5.500279744464443
 30
0.0
 10
-42.40901069773118
 20
-5.497008355336276
 30
0.0
 10
-43.02386507302208
 20
-5.490461218572445
 30
0.0
 10
-43.94592154613987
 20
-5.437653478929619
 30
0.0
 10
-44.86794062396625
 20
-5.353740476118431
 30
0.0
 10
-45.78990213044347
 20
-5.236113299855959
 30
0.0
 10
-46.71179437216046
 20
-5.086366399303597
 30
0.0
 10
-47.63360773166147
 20
-4.905208672505655
 30
0.0
 10
-48.55532870110907
 20
-4.693811101189478
 30
0.0
 10
-49.47696361857826
 20
-4.453485109696189
 30
0.0
 10
-50.39850418339011
 20
-4.185731253339631
 30
0.0
 10
-51.31995521142519
 20
-3.892179112250307
 30
0.0
 10
-52.24132264265696
 20
-3.574696692915631
 30
0.0
 10
-53.16260578503032
 20
-3.235171414878502
 30
0.0
 10
-54.08382189769951
 20
-2.875766207881229
 30
0.0
 10
-54.77618018503093
 20
-2.592336315958718
 30
0.0
 10
-55.16198638352361
 20
-2.430336900344607
 30
0.0
 10
-55.24175827633913
 20
-2.39667486374384
 30
0.0
  0
SPLINE
  5
36B1
330
1F
100
AcDbEntity
  8
AM_0
 48
0.5
100
AcDbSpline
210
0.0
220
0.0
230
1.0
 70
     8
 71
     3
 72
    26
 73
    22
 74
     0
 42
0.0000000001
 43
0.0000000001
 40
0.0
 40
0.0
 40
0.0
 40
0.0
 40
0.8422864037471089
 40
1.685694647057321
 40
2.531315797913884
 40
3.380177287502886
 40
4.233214169721234
 40
5.09125020057522
 40
5.954967768899448
 40
6.824900391836836
 40
7.701419186604396
 40
8.584724417931369
 40
9.47485577056355
 40
10.37165251267315
 40
11.27486274211709
 40
12.18400675634887
 40
13.09851504074504
 40
14.01768673654235
 40
14.94071745659532
 40
15.8667176994736
 40
16.76607142455336
 40
16.76607142455336
 40
16.76607142455336
 40
16.76607142455336
 10
-39.52065387046691
 20
-5.500279744464577
 30
0.0
 10
-39.82787634147539
 20
-5.497007377852813
 30
0.0
 10
-40.44273047248211
 20
-5.490458286170768
 30
0.0
 10
-41.36478791118714
 20
-5.437665250490757
 30
0.0
 10
-42.28680599341323
 20
-5.353738126430281
 30
0.0
 10
-43.20876700167969
 20
-5.236111027846436
 30
0.0
 10
-44.13066178430853
 20
-5.086378212382066
 30
0.0
 10
-45.05247197357949
 20
-4.905204820973388
 30
0.0
 10
-45.97419695625329
 20
-4.693814931348496
 30
0.0
 10
-46.89583044618582
 20
-4.453492419232506
 30
0.0
 10
-47.81737026454626
 20
-4.185728445659664
 30
0.0
 10
-48.73882399564177
 20
-3.892189595873285
 30
0.0
 10
-49.66018782126905
 20
-3.574688377653189
 30
0.0
 10
-50.5814721807397
 20
-3.235172422203912
 30
0.0
 10
-51.50268939226042
 20
-2.875769097382763
 30
0.0
 10
-52.42384144623569
 20
-2.498658636377569
 30
0.0
 10
-53.34493520937001
 20
-2.106183940160483
 30
0.0
 10
-54.26598759646648
 20
-1.700766492871314
 30
0.0
 10
-55.18698338611197
 20
-1.284847885207075
 30
0.0
 10
-56.09851854802354
 20
-0.8655596274067121
 30
0.0
 10
-56.70244488830972
 20
-0.5838788346822245
 30
0.0
 10
-57.00000000000006
 20
-0.4450944264703877
 30
0.0
  0
SPLINE
  5
36B2
330
1F
100
AcDbEntity
  8
AM_0
100
AcDbSpline
210
0.0
220
0.0
230
1.0
 70
     8
 71
     3
 72
    23
 73
    19
 74
     0
 42
0.0000000001
 43
0.0000000001
 40
16.03460024169435
 40
16.03460024169435
 40
16.03460024169435
 40
16.03460024169435
 40
16.35212704903564
 40
17.38177054169784
 40
18.41822485651776
 40
19.46214173629503
 40
20.51396345435107
 40
21.57393551351153
 40
22.64208202342361
 40
23.7182574881101
 40
24.80209208578934
 40
25.89306333925047
 40
26.99048218457928
 40
28.09348763352352
 40
29.20111863782268
 40
30.31232390128032
 40
31.42594612798585
 40
32.5407912310448
 40
32.5407912310486
 40
32.5407912310486
 40
32.5407912310486
 10
-53.09400679828372
 20
5.500781943515567
 30
0.0
 10
-52.99927672803988
 20
5.482214912063449
 30
0.0
 10
-52.597769064455
 20
5.401360715894891
 30
0.0
 10
-51.89050899110899
 20
5.242939258408556
 30
0.0
 10
-50.9746053446269
 20
5.007368283606575
 30
0.0
 10
-50.05955243253285
 20
4.742861344610123
 30
0.0
 10
-49.14529618362053
 20
4.450949272669508
 30
0.0
 10
-48.23180414931547
 20
4.133259484120841
 30
0.0
 10
-47.31902353196734
 20
3.791608027769437
 30
0.0
 10
-46.40689076900331
 20
3.427983229392849
 30
0.0
 10
-45.49535402976375
 20
3.044444275023615
 30
0.0
 10
-44.58434023304298
 20
2.643222888470624
 30
0.0
 10
-43.6737755513603
 20
2.226651141779562
 30
0.0
 10
-42.76359931638807
 20
1.797124147855835
 30
0.0
 10
-41.85373537478627
 20
1.357139547347782
 30
0.0
 10
-40.94409945388399
 20
0.9092665275245437
 30
0.0
 10
-40.03461748363968
 20
0.456100391256259
 30
0.0
 10
-39.42845902783677
 20
0.1522772757566026
 30
0.0
 10
-39.12521449678524
 20
0.0002803131650278
 30
0.0
  0
ELLIPSE
  5
36B3
330
1F
100
AcDbEntity
  8
AM_0
 48
0.5
100
AcDbEllipse
 10
-9.126053634831677
 20
9.324236802727197
 30
0.0
 11
8.57649981960429
 21
12.25804698527587
 31
0.0
210
0.0
220
0.0
230
1.0
 40
0.8684434856938395
 41
4.439649593392633
 42
4.550717112810515
  0
ELLIPSE
  5
36B4
330
1F
100
AcDbEntity
  8
AM_0
 48
0.5
100
AcDbEllipse
 10
-5.991234246712068
 20
5.611039820901202
 30
0.0
 11
0.0000000000015805
 21
8.54506763157418
 31
0.0
210
0.0
220
0.0
230
1.0
 40
0.9181818181818378
 41
3.517054509082844
 42
3.681821570856341
  0
ELLIPSE
  5
36B5
330
1F
100
AcDbEntity
  8
AM_0
 48
0.5
100
AcDbEllipse
 10
-1.570663938022005
 20
-1.431427897129298
 30
0.0
 11
-0.1473325783769461
 21
0.9033486589171824
 31
0.0
210
0.0
220
0.0
230
0.9999999999999998
 40
0.4796232302344847
 41
1.81351403519298
 42
4.948855924904957
  0
ELLIPSE
  5
36B6
330
1F
100
AcDbEntity
  8
AM_0
 48
0.5
100
AcDbEllipse
 10
-1.570739693072292
 20
-1.43337860458106
 30
0.0
 11
-0.7551454092926168
 21
0.4682291483863644
 31
0.0
210
0.0
220
0.0
230
1.0
 40
0.5101087776311095
 41
4.509139775446342
 42
7.652580116775853
  0
ELLIPSE
  5
36B7
330
1F
100
AcDbEntity
  8
AM_0
 48
0.5
100
AcDbEllipse
 10
5.277632195533739
 20
-1.468855989697032
 30
0.0
 11
8.241511531039924
 21
1.9785323755581
 31
0.0
210
0.0
220
0.0
230
1.0
 40
0.8079836739822535
 41
2.97833441640995
 42
3.471870957764792
  0
SPLINE
  5
36B8
330
1F
100
AcDbEntity
  8
AM_0
100
AcDbSpline
210
0.0
220
0.0
230
1.0
 70
     8
 71
     3
 72
    22
 73
    18
 74
     0
 42
0.0000000001
 43
0.0000000001
 40
17.17441611292
 40
17.17441611292
 40
17.17441611292
 40
17.17441611292
 40
17.38177636558528
 40
18.41823744757437
 40
19.46215659509824
 40
20.51397914882054
 40
21.57394542641293
 40
22.64209583141747
 40
23.71826625065247
 40
24.80210429862395
 40
25.8930771157021
 40
26.99048705697709
 40
28.09349309193389
 40
29.20112995599786
 40
30.31233024745139
 40
31.42594771747373
 40
32.5407895042663
 40
32.54078950426994
 40
32.54078950426994
 40
32.54078950426994
 10
-26.03964118750211
 20
-4.939039238370379
 30
0.0
 10
-26.10138346680528
 20
-4.926307277820112
 30
0.0
 10
-26.47149471180514
 20
-4.848755514470833
 30
0.0
 10
-27.14951765695925
 20
-4.693254135368802
 30
0.0
 10
-28.07115121997692
 20
-4.452932649764638
 30
0.0
 10
-28.99269087046912
 20
-4.18516797733675
 30
0.0
 10
-29.91414311445414
 20
-3.891631571563504
 30
0.0
 10
-30.83550673475762
 20
-3.574123244611318
 30
0.0
 10
-31.75679307229736
 20
-3.234618997517699
 30
0.0
 10
-32.67800639288807
 20
-2.875205314149552
 30
0.0
 10
-33.59915521994359
 20
-2.498098678998618
 30
0.0
 10
-34.52024979605476
 20
-2.105625601140454
 30
0.0
 10
-35.44129811576689
 20
-1.700199409399483
 30
0.0
 10
-36.36230945092023
 20
-1.284314354216093
 30
0.0
 10
-37.28329196547886
 20
-0.8605276579248537
 30
0.0
 10
-38.20425930299775
 20
-0.4314543135019756
 30
0.0
 10
-38.81811701143746
 20
-0.1436839229557069
 30
0.0
 10
-39.1252144967893
 20
0.0002803131670039
 30
0.0
  0
SPLINE
  5
36B9
330
1F
100
AcDbEntity
  8
AM_0
100
AcDbSpline
210
0.0
220
0.0
230
1.0
 70
     8
 71
     3
 72
    17
 73
    13
 74
     0
 42
0.0000000001
 43
0.0000000001
 40
1.580019955310467
 40
1.580019955310467
 40
1.580019955310467
 40
1.580019955310467
 40
2.030549285115227
 40
3.082371838836284
 40
4.126290986361125
 40
5.162752068350215
 40
6.192395305374981
 40
7.216039564037012
 40
8.234688489606833
 40
9.249433870634691
 40
10.26152376260694
 40
11.27226744710342
 40
11.27226744710342
 40
11.27226744710342
 40
11.27226744710352
 10
-13.83508073207293
 20
-4.059161387548203
 30
0.0
 10
-13.96553646919064
 20
-4.100967383597877
 30
0.0
 10
-14.40130245935967
 20
-4.237992119639638
 30
0.0
 10
-15.14526307002137
 20
-4.452920320951273
 30
0.0
 10
-16.06676834375576
 20
-4.693611394244057
 30
0.0
 10
-16.98852730702924
 20
-4.904906199645313
 30
0.0
 10
-17.91032850497665
 20
-5.086095161709341
 30
0.0
 10
-18.83223013151248
 20
-5.23586030317594
 30
0.0
 10
-19.7541954495863
 20
-5.353346980420054
 30
0.0
 10
-20.67621817660107
 20
-5.437793840461641
 30
0.0
 10
-21.59827559630454
 20
-5.488657289055598
 30
0.0
 10
-22.21312973698136
 20
-5.499999462772062
 30
0.0
 10
-22.52034643294522
 20
-5.500009921718135
 30
0.0
  0
SPLINE
  5
36BA
330
1F
100
AcDbEntity
  8
AM_0
100
AcDbSpline
210
0.0
220
0.0
230
1.0
 70
     8
 71
     3
 72
    11
 73
     7
 74
     0
 42
0.0000000001
 43
0.0000000001
 40
11.27226913003534
 40
11.27226913003534
 40
11.27226913003534
 40
11.2722691300354
 40
12.28301561507924
 40
13.29510212255852
 40
14.30984805882082
 40
15.18258238371378
 40
15.18258238371378
 40
15.18258238371378
 40
15.18258238371378
 10
-22.52034643294527
 20
-5.500009921718135
 30
0.0
 10
-22.82640645974991
 20
-5.47308083301117
 30
0.0
 10
-23.4379376949254
 20
-5.407912078097338
 30
0.0
 10
-24.35207671439602
 20
-5.276450579982846
 30
0.0
 10
-25.21961076265456
 20
-5.119434234676201
 30
0.0
 10
-25.78068086184118
 20
-4.998731096932774
 30
0.0
 10
-26.03923794000285
 20
-4.939107080828321
 30
0.0
  0
SPLINE
  5
36BB
330
1F
100
AcDbEntity
  8
AM_0
 48
0.5
100
AcDbSpline
210
0.0
220
0.0
230
1.0
 70
     8
 71
     3
 72
    25
 73
    21
 74
     0
 42
0.0000000001
 43
0.0000000001
 40
6.846175049578289
 40
6.846175049578289
 40
6.846175049578289
 40
6.846175049578289
 40
7.604337694224321
 40
8.711974558287883
 40
9.814980593243754
 40
10.91239053451967
 40
12.0033633515982
 40
13.08720139956839
 40
14.16337181880432
 40
15.23152222380919
 40
16.29148850140128
 40
17.34331105512262
 40
18.38723020264746
 40
19.42369128463655
 40
20.45333379090873
 40
21.47697865721768
 40
22.49561244472435
 40
23.5103574802404
 40
24.52244778960836
 40
25.53320666051913
 40
25.53320666051913
 40
25.53320666051913
 40
25.53320666051913
 10
-6.226515444653259
 20
0.9955365763779731
 30
0.0
 10
-6.435975331802251
 20
1.092106794663995
 30
0.0
 10
-6.951886223735373
 20
1.328794811206597
 30
0.0
 10
-7.775014818901655
 20
1.700480200780523
 30
0.0
 10
-8.69606308827762
 20
2.105906507083604
 30
0.0
 10
-9.617157677769242
 20
2.498379554435757
 30
0.0
 10
-10.53830650129566
 20
2.875486197828942
 30
0.0
 10
-11.459519822728
 20
3.234899878501334
 30
0.0
 10
-12.3808061603959
 20
3.574404128184879
 30
0.0
 10
-13.30216977936988
 20
3.891912447528688
 30
0.0
 10
-14.22362202848608
 20
4.18544888086094
 30
0.0
 10
-15.14516165998818
 20
4.453213451743851
 30
0.0
 10
-16.06679529310198
 20
4.693535312058669
 30
0.0
 10
-16.98851967533999
 20
4.904927147280933
 30
0.0
 10
-17.91033120598095
 20
5.086093276704505
 30
0.0
 10
-18.83222475557696
 20
5.235832847191959
 30
0.0
 10
-19.75418597983453
 20
5.353460540761266
 30
0.0
 10
-20.6762047178053
 20
5.437378681493628
 30
0.0
 10
-21.5982660023468
 20
5.490186467716909
 30
0.0
 10
-22.21312503669873
 20
5.496730637495056
 30
0.0
 10
-22.52035220389918
 20
5.500000568699253
 30
0.0
  0
SPLINE
  5
36BC
330
1F
100
AcDbEntity
  8
AM_0
 48
0.5
100
AcDbSpline
210
0.0
220
0.0
230
1.0
 70
     8
 71
     3
 72
    17
 73
    13
 74
     0
 42
0.0000000001
 43
0.0000000001
 40
0.0
 40
0.0
 40
0.0
 40
0.0
 40
1.010743614677189
 40
2.022833924044153
 40
3.037578959561199
 40
4.056212747067873
 40
5.079857613375832
 40
6.109500119648989
 40
7.14596120163808
 40
8.18989512056258
 40
9.241717674284874
 40
9.693948937866434
 40
9.693948937866434
 40
9.693948937866434
 40
9.693948937866434
 10
-5.151164393870579
 20
5.500000568698307
 30
0.0
 10
-5.458386920752925
 20
5.49673056017057
 30
0.0
 10
-6.073241311702206
 20
5.490186186220825
 30
0.0
 10
-6.995297974171995
 20
5.437378706376573
 30
0.0
 10
-7.917316676104208
 20
5.353460457170245
 30
0.0
 10
-8.839278036319809
 20
5.235833158493684
 30
0.0
 10
-9.761171074526115
 20
5.086092106513851
 30
0.0
 10
-10.68298453071097
 20
4.904931554337837
 30
0.0
 10
-11.60470603258854
 20
4.693517692351917
 30
0.0
 10
-12.52637134665299
 20
4.453273813122536
 30
0.0
 10
-13.27036362176625
 20
4.236850393572463
 30
0.0
 10
-13.70727950678315
 20
4.101554633304131
 30
0.0
 10
-13.83841821463821
 20
4.06014150679557
 30
0.0
  0
SPLINE
  5
36BD
330
1F
100
AcDbEntity
  8
AM_0
100
AcDbSpline
210
0.0
220
0.0
230
1.0
 70
     8
 71
     3
 72
    46
 73
    42
 74
     0
 42
0.0000000001
 43
0.0000000001
 40
0.0
 40
0.0
 40
0.0
 40
0.0
 40
1.685415058684571
 40
2.531036209541119
 40
3.379897699130121
 40
4.232934581347655
 40
5.090970612202441
 40
5.954688180526682
 40
6.824620803463246
 40
7.701151815239689
 40
8.584457046566678
 40
9.474582384070741
 40
10.37139106676737
 40
11.27458944007583
 40
12.18373345430765
 40
13.09824173870457
 40
14.01741343450111
 40
14.9404441545541
 40
15.86644439743314
 40
16.79446029130534
 40
17.7234937712985
 40
18.65252725129241
 40
19.58054314516461
 40
20.50654338804289
 40
21.42957410809586
 40
22.34874580389317
 40
23.26325408828901
 40
24.17239810252111
 40
25.07560240389441
 40
25.97241108659103
 40
26.8625364240951
 40
27.74584165542183
 40
28.62236045019041
 40
29.49229307312697
 40
30.35601064145121
 40
31.21404606334468
 40
32.06708345193547
 40
32.91595755657689
 40
33.76157841950693
 40
34.60498701064689
 40
35.44727335621125
 40
35.44727335621125
 40
35.44727335621125
 40
35.44727335621125
 10
-2.570030096283356
 20
-5.499999431301841
 30
0.0
 10
-3.184914268008795
 20
-5.487470006146771
 30
0.0
 10
-4.108303492100239
 20
-5.468654208466082
 30
0.0
 10
-5.336174410750711
 20
-5.352808798792238
 30
0.0
 10
-6.258145332503507
 20
-5.23600580959599
 30
0.0
 10
-7.180037447690411
 20
-5.086050612310964
 30
0.0
 10
-8.101848327731927
 20
-4.904937215510562
 30
0.0
 10
-9.023573237104786
 20
-4.693531495525741
 30
0.0
 10
-9.945210632058248
 20
-4.45321062642265
 30
0.0
 10
-10.86675641098038
 20
-4.185450213912682
 30
0.0
 10
-11.78821241582019
 20
-3.891911007371449
 30
0.0
 10
-12.70957616814119
 20
-3.574403072616672
 30
0.0
 10
-13.630862470145
 20
-3.234898719762966
 30
0.0
 10
-14.55207579946725
 20
-2.875485063101493
 30
0.0
 10
-15.47322462752362
 20
-2.498378428020588
 30
0.0
 10
-16.39431919070112
 20
-2.105905322672551
 30
0.0
 10
-17.31536756151909
 20
-1.700479241644432
 30
0.0
 10
-18.23637870410213
 20
-1.284593768750985
 30
0.0
 10
-19.15736238379384
 20
-0.8608084353858444
 30
0.0
 10
-20.07832701384024
 20
-0.43172922345423
 30
0.0
 10
-20.99928390209541
 20
0.0000005686118119
 30
0.0
 10
-21.92024079014826
 20
0.4317303612024929
 30
0.0
 10
-22.84120542080152
 20
0.8608095715609575
 30
0.0
 10
-23.76218909827505
 20
1.28459491067526
 30
0.0
 10
-24.68320024908324
 20
1.700480362247161
 30
0.0
 10
-25.60424858940309
 20
2.105906522333409
 30
0.0
 10
-26.52534326552549
 20
2.498379334901382
 30
0.0
 10
-27.44649367833855
 20
2.875487872792192
 30
0.0
 10
-28.36771058705138
 20
3.234898263998396
 30
0.0
 10
-29.28899853248875
 20
3.574404357714157
 30
0.0
 10
-30.21036226335777
 20
3.891912386944444
 30
0.0
 10
-31.13181448296101
 20
4.185448896111226
 30
0.0
 10
-32.05335412181311
 20
4.453213450647952
 30
0.0
 10
-32.97498775470455
 20
4.6935353014881
 30
0.0
 10
-33.89671213063144
 20
4.904927190200852
 30
0.0
 10
-34.81852368648828
 20
5.086093117023299
 30
0.0
 10
-35.7404216852618
 20
5.235834176363778
 30
0.0
 10
-36.66238785633217
 20
5.353459436844548
 30
0.0
 10
-37.58441106900086
 20
5.437378866507762
 30
0.0
 10
-38.50646775042635
 20
5.490186146295962
 30
0.0
 10
-39.1213221388533
 20
5.496730546869454
 30
0.0
 10
-39.42854466447519
 20
5.500000568700174
 30
0.0
  0
SPLINE
  5
36BE
330
1F
100
AcDbEntity
  8
AM_0
 48
0.5
100
AcDbSpline
210
0.0
220
0.0
230
1.0
 70
     8
 71
     3
 72
    10
 73
     6
 74
     0
 42
0.0000000001
 43
0.0000000001
 40
0.0
 40
0.0
 40
0.0
 40
0.0
 40
2.69986029516136
 40
4.147722969032201
 40
6.285750005020438
 40
6.285750005020438
 40
6.285750005020438
 40
6.285750005020438
 10
-6.226515444653259
 20
0.9955365763779731
 30
0.0
 10
-5.36757127321253
 20
0.4844832447651985
 30
0.0
 10
-4.396057657618876
 20
-0.3005339267313666
 30
0.0
 10
-2.09855846251267
 20
0.0795066383306332
 30
0.0
 10
-2.531244387835346
 20
1.359533548311558
 30
0.0
 10
-2.59094726758806
 20
2.111833505302592
 30
0.0
  0
ELLIPSE
  5
36BF
330
1F
100
AcDbEntity
  8
AM_0
 48
0.5
100
AcDbEllipse
 10
3.165566634227082
 20
6.603088947604078
 30
0.0
 11
-9.679255775323266
 21
10.28904689457742
 31
0.0
210
0.0
220
0.0
230
1.0
 40
0.7669515080682406
 41
1.403585845311343
 42
1.727893777478233
  0
SPLINE
  5
36C0
330
1F
100
AcDbEntity
  8
AM_0
100
AcDbSpline
210
0.0
220
0.0
230
1.0
 70
     8
 71
     3
 72
    55
 73
    51
 74
     0
 42
0.0000000001
 43
0.0000000001
 40
0.0
 40
0.0
 40
0.0
 40
0.0
 40
1.010743684496582
 40
2.022833576467832
 40
3.037578957496688
 40
4.056212745003489
 40
5.079857003664532
 40
6.109500240690281
 40
7.145961322679372
 40
8.189895241603872
 40
9.241717795325891
 40
10.30168407291828
 40
11.36983447792315
 40
12.44600489715814
 40
13.52984294512926
 40
14.62081576220742
 40
15.7182257034828
 40
16.82123173843959
 40
17.92886860250316
 40
19.0400688939571
 40
20.15368796660465
 40
21.26852814259644
 40
22.38336992938901
 40
23.49698739941135
 40
24.6081876908653
 40
25.71582455492886
 40
26.81883757994213
 40
27.91624752121713
 40
29.00722033829659
 40
30.09105838626677
 40
31.16722880550176
 40
32.23537921050758
 40
33.29534548809967
 40
34.347168041821
 40
35.39108718934584
 40
36.42754827133493
 40
37.45720575381954
 40
38.48085062012849
 40
39.49948440763516
 40
40.51422944315121
 40
41.52631975251916
 40
42.53706336719636
 40
43.54780698187354
 40
44.55989729124051
 40
45.57464232675757
 40
46.59327611426424
 40
47.6169209805722
 40
48.64656348684535
 40
49.68302456883444
 40
50.58557219878025
 40
50.58557219878025
 40
50.58557219878025
 40
50.58557219878025
 10
-5.151164393871152
 20
-5.499999431301695
 30
0.0
 10
-5.45838686484268
 20
-5.496727064547326
 30
0.0
 10
-6.073240995775148
 20
-5.490177972579919
 30
0.0
 10
-6.995298435035963
 20
-5.437384939044251
 30
0.0
 10
-7.917316515141274
 20
-5.353457806801543
 30
0.0
 10
-8.839277531379527
 20
-5.235830738974219
 30
0.0
 10
-9.761172284031109
 20
-5.086097807852883
 30
0.0
 10
-10.68298258617375
 20
-4.904924851920676
 30
0.0
 10
-11.60471152122206
 20
-4.693532316784263
 30
0.0
 10
-12.52635091530315
 20
-4.453214669185247
 30
0.0
 10
-13.44789449037306
 20
-4.185447444901271
 30
0.0
 10
-14.36934683981704
 20
-3.891911391119721
 30
0.0
 10
-15.29071043146826
 20
-3.574402968613234
 30
0.0
 10
-16.21199677702676
 20
-3.23489874796456
 30
0.0
 10
-17.13321009448464
 20
-2.875485055350511
 30
0.0
 10
-18.05435892601151
 20
-2.498378430560145
 30
0.0
 10
-18.97545348727252
 20
-2.105905320316634
 30
0.0
 10
-19.8965018622854
 20
-1.700479248555311
 30
0.0
 10
-20.81751298992954
 20
-1.284593743332141
 30
0.0
 10
-21.73849672541538
 20
-0.8608085305221093
 30
0.0
 10
-22.65946114664691
 20
-0.4317288674531044
 30
0.0
 10
-23.58041925906843
 20
-0.0000005535004833
 30
0.0
 10
-24.50137323715861
 20
0.4317355318308454
 30
0.0
 10
-25.42234074526213
 20
0.8608085129945541
 30
0.0
 10
-26.34332334378122
 20
1.2845950085783
 30
0.0
 10
-27.264336113578
 20
1.700482098139876
 30
0.0
 10
-28.18538830954135
 20
2.105904709923908
 30
0.0
 10
-29.10648432453292
 20
2.498379810552165
 30
0.0
 10
-30.02763328904305
 20
2.875486129547943
 30
0.0
 10
-30.94884657298093
 20
3.234899897745341
 30
0.0
 10
-31.87013292089848
 20
3.574404118890642
 30
0.0
 10
-32.79149653601754
 20
3.89191246547608
 30
0.0
 10
-33.71294879035758
 20
4.185448818984951
 30
0.0
 10
-34.6344884049717
 20
4.453213678887766
 30
0.0
 10
-35.55612209977765
 20
4.693534474048377
 30
0.0
 10
-36.47785069291237
 20
4.904931260022737
 30
0.0
 10
-37.39966757708951
 20
5.086083523488436
 30
0.0
 10
-38.32156537542085
 20
5.235862800117245
 30
0.0
 10
-39.2435266649696
 20
5.353350436238097
 30
0.0
 10
-40.16554538572109
 20
5.437787227381677
 30
0.0
 10
-41.08760204318709
 20
5.488666635686859
 30
0.0
 10
-42.00967896228894
 20
5.505663762450311
 30
0.0
 10
-42.93175588003409
 20
5.488666635660312
 30
0.0
 10
-43.8538125415781
 20
5.437787227488771
 30
0.0
 10
-44.77583124731547
 20
5.353350435835459
 30
0.0
 10
-45.6977925931558
 20
5.235862801631657
 30
0.0
 10
-46.61968568543828
 20
5.086084247993794
 30
0.0
 10
-47.54149893800779
 20
4.904933112207281
 30
0.0
 10
-48.42131853232252
 20
4.703130549771032
 30
0.0
 10
-48.99215550478429
 20
4.55555042808586
 30
0.0
 10
-49.25699058922146
 20
4.483627435396783
 30
0.0
  0
VIEWPORT
  5
110
330
101
100
AcDbEntity
 67
     1
  8
0
100
AcDbViewport
 10
420.5
 20
297.0
 30
0.0
 40
948.9782706766916
 41
628.452
 68
     1
 69
     1
1001
ACAD
1000
MVIEW
1002
{
1070
    16
1010
0.0
1020
0.0
1030
0.0
1010
0.0
1020
0.0
1030
1.0
1040
0.0
1040
628.452
1040
420.5
1040
297.0
1040
50.0
1040
0.0
1040
0.0
1070
     0
1070
   100
1070
     1
1070
     1
1070
     0
1070
     0
1070
     0
1070
     0
1040
0.0
1040
0.0
1040
0.0
1040
10.0
1040
10.0
1040
10.0
1040
10.0
1070
     0
1002
{
1002
}
1002
}
  0
ENDSEC
  0
SECTION
  2
OBJECTS
  0
DICTIONARY
  5
C
330
0
100
AcDbDictionary
  3
ACAD_GROUP
350
D
  3
ACAD_LAYOUT
350
1A
  3
ACAD_MLINESTYLE
350
17
  3
ACAD_PLOTSETTINGS
350
19
  3
ACAD_PLOTSTYLENAME
350
E
  3
ACDBVARIABLEDICTIONARY
350
34
  3
ACMDICTIONARY
350
43
  3
AMG
350
2B
  3
AMGSNAPSETTINGS
350
6E
  3
DWGPROPS
350
3789
  3
ACDBHEADERROUNDTRIPXREC
350
3795
  0
DICTIONARY
  5
74
330
1F
100
AcDbDictionary
280
     1
  3
ACAD_INDEX
360
378B
  3
ACAD_LAYOUTSELFREF
360
37B8
  0
DICTIONARY
  5
37BD
330
101
100
AcDbDictionary
280
     1
  3
ACAD_LAYOUTSELFREF
360
37BE
  0
DICTIONARY
  5
D
102
{ACAD_REACTORS
330
C
102
}
330
C
100
AcDbDictionary
  0
DICTIONARY
  5
1A
102
{ACAD_REACTORS
330
C
102
}
330
C
100
AcDbDictionary
  0
DICTIONARY
  5
17
102
{ACAD_REACTORS
330
C
102
}
330
C
100
AcDbDictionary
  3
STANDARD
350
18
  0
DICTIONARY
  5
19
102
{ACAD_REACTORS
330
C
102
}
330
C
100
AcDbDictionary
  0
ACDBDICTIONARYWDFLT
  5
E
102
{ACAD_REACTORS
330
C
102
}
330
C
100
AcDbDictionary
281
     1
  3
Normal
350
F
100
AcDbDictionaryWithDefault
340
F
  0
DICTIONARY
  5
34
102
{ACAD_REACTORS
330
C
102
}
330
C
100
AcDbDictionary
  3
INDEXCTL
350
35
  3
SORTENTS
350
B5E
  0
DICTIONARY
  5
43
102
{ACAD_REACTORS
330
C
102
}
330
C
100
AcDbDictionary
  3
ACMSTDDICTIONARY
350
260
  0
DICTIONARY
  5
2B
102
{ACAD_REACTORS
330
C
102
}
330
C
100
AcDbDictionary
  3
ACMGSETTINGS
350
2C
  0
DICTIONARY
  5
6E
102
{ACAD_REACTORS
330
C
102
}
330
C
100
AcDbDictionary
  0
XRECORD
  5
3789
102
{ACAD_REACTORS
330
C
102
}
330
C
100
AcDbXrecord
  1
DWGPROPS COOKIE
  2

  3

  4

  6

  7

  8

  9

300
AmdtFileType=82
301
=
302
=
303
=
304
=
305
=
306
=
307
=
308
=
309
=
 40
0.0704320138888889
 41
2452800.443498622
 42
2452946.625991748
  1

 90
        1
  0
DICTIONARY
  5
3795
102
{ACAD_REACTORS
330
C
102
}
330
C
100
AcDbDictionary
  3
TSTACKALIGN
350
3796
  3
TSTACKSIZE
350
3797
  3
HYPERLINKBASE
350
3798
  3
STYLESHEET
350
3799
  3
LAYOUTDICT
350
379A
  3
PLOTSETDICT
350
379B
  3
PLOTSTYLNAMDICT
350
379C
  3
LWETCUNION
350
379D
  3
INSUNITS
350
379E
  3
CEPSNTYPE
350
379F
  3
FINGERPRINTGUID
350
37A0
  3
VERSIONGUID
350
37A1
  3
PSVPSCALE
350
37A2
  3
DIMSTYLEDATA
350
37A3
  3
PUCSORTHOREF
350
37A4
  3
PUCSORTHOVIEW
350
37A5
  3
PUCSBASE
350
37A6
  3
PUCSORGTOP
350
37A7
  3
PUCSORGBOTTOM
350
37A8
  3
PUCSORGLEFT
350
37A9
  3
PUCSORGRIGHT
350
37AA
  3
PUCSORGFRONT
350
37AB
  3
PUCSORGBACK
350
37AC
  3
UCSORTHOREF
350
37AD
  3
UCSORTHOVIEW
350
37AE
  3
UCSBASE
350
37AF
  3
UCSORGTOP
350
37B0
  3
UCSORGBOTTOM
350
37B1
  3
UCSORGLEFT
350
37B2
  3
UCSORGRIGHT
350
37B3
  3
UCSORGFRONT
350
37B4
  3
UCSORGBACK
350
37B5
  0
DICTIONARY
  5
378B
102
{ACAD_REACTORS
330
74
102
}
330
74
100
AcDbDictionary
  3
*A1
350
378C
  0
XRECORD
  5
37B8
102
{ACAD_REACTORS
330
74
102
}
330
74
100
AcDbXrecord
340
1F
  0
XRECORD
  5
37BE
102
{ACAD_REACTORS
330
37BD
102
}
330
37BD
100
AcDbXrecord
340
101
  0
MLINESTYLE
  5
18
102
{ACAD_REACTORS
330
17
102
}
330
17
100
AcDbMlineStyle
  2
STANDARD
 70
     0
  3

 62
   256
 51
90.0
 52
90.0
 71
     2
 49
0.5
 62
   256
  6
BYLAYER
 49
-0.5
 62
   256
  6
BYLAYER
  0
ACDBPLACEHOLDER
  5
F
102
{ACAD_REACTORS
330
E
102
}
330
E
100
AcDbPlaceHolder
280
     0
  0
DICTIONARYVAR
  5
35
102
{ACAD_REACTORS
330
34
102
}
330
34
100
DictionaryVariables
280
     0
  1
1
  0
DICTIONARYVAR
  5
B5E
102
{ACAD_REACTORS
330
34
102
}
330
34
100
DictionaryVariables
280
     0
  1
96
  0
DICTIONARY
  5
260
102
{ACAD_REACTORS
330
43
102
}
330
43
100
AcDbDictionary
  0
DICTIONARY
  5
2C
102
{ACAD_REACTORS
330
2B
102
}
330
2B
100
AcDbDictionary
  3
DWGSETTINGS
350
2D
  0
XRECORD
  5
3796
102
{ACAD_REACTORS
330
3795
102
}
330
3795
100
AcDbXrecord
 90
        1
  0
XRECORD
  5
3797
102
{ACAD_REACTORS
330
3795
102
}
330
3795
100
AcDbXrecord
 90
       70
  0
XRECORD
  5
3798
102
{ACAD_REACTORS
330
3795
102
}
330
3795
100
AcDbXrecord
  1

  0
XRECORD
  5
3799
102
{ACAD_REACTORS
330
3795
102
}
330
3795
100
AcDbXrecord
  1
ASAMI.ctb
  0
XRECORD
  5
379A
102
{ACAD_REACTORS
330
3795
102
}
330
3795
100
AcDbXrecord
340
1A
  0
XRECORD
  5
379B
102
{ACAD_REACTORS
330
3795
102
}
330
3795
100
AcDbXrecord
340
19
  0
XRECORD
  5
379C
102
{ACAD_REACTORS
330
3795
102
}
330
3795
100
AcDbXrecord
340
E
  0
XRECORD
  5
379D
102
{ACAD_REACTORS
330
3795
102
}
330
3795
100
AcDbXrecord
 90
    10781
  0
XRECORD
  5
379E
102
{ACAD_REACTORS
330
3795
102
}
330
3795
100
AcDbXrecord
 90
        4
  0
XRECORD
  5
379F
102
{ACAD_REACTORS
330
3795
102
}
330
3795
100
AcDbXrecord
 90
        0
  0
XRECORD
  5
37A0
102
{ACAD_REACTORS
330
3795
102
}
330
3795
100
AcDbXrecord
  1
{AFB28963-8C59-40AE-9337-C84526B81ACE}
  0
XRECORD
  5
37A1
102
{ACAD_REACTORS
330
3795
102
}
330
3795
100
AcDbXrecord
  1
{EDAFFFA7-9BFC-4DCA-8EA2-D35CCE7C6DAB}
  0
XRECORD
  5
37A2
102
{ACAD_REACTORS
330
3795
102
}
330
3795
100
AcDbXrecord
 40
0.0
  0
XRECORD
  5
37A3
102
{ACAD_REACTORS
330
3795
102
}
330
3795
100
AcDbXrecord
1000
DSTYLE
1002
{
1070
    79
 70
     2
1070
   341
340
59
1070
   342
340
59
1070
   371
 70
    -1
1070
   372
 70
    -1
1002
}
  0
XRECORD
  5
37A4
102
{ACAD_REACTORS
330
3795
102
}
330
3795
100
AcDbXrecord
340
0
  0
XRECORD
  5
37A5
102
{ACAD_REACTORS
330
3795
102
}
330
3795
100
AcDbXrecord
 70
     0
  0
XRECORD
  5
37A6
102
{ACAD_REACTORS
330
3795
102
}
330
3795
100
AcDbXrecord
340
0
  0
XRECORD
  5
37A7
102
{ACAD_REACTORS
330
3795
102
}
330
3795
100
AcDbXrecord
 10
0.0
 20
0.0
 30
0.0
  0
XRECORD
  5
37A8
102
{ACAD_REACTORS
330
3795
102
}
330
3795
100
AcDbXrecord
 10
0.0
 20
0.0
 30
0.0
  0
XRECORD
  5
37A9
102
{ACAD_REACTORS
330
3795
102
}
330
3795
100
AcDbXrecord
 10
0.0
 20
0.0
 30
0.0
  0
XRECORD
  5
37AA
102
{ACAD_REACTORS
330
3795
102
}
330
3795
100
AcDbXrecord
 10
0.0
 20
0.0
 30
0.0
  0
XRECORD
  5
37AB
102
{ACAD_REACTORS
330
3795
102
}
330
3795
100
AcDbXrecord
 10
0.0
 20
0.0
 30
0.0
  0
XRECORD
  5
37AC
102
{ACAD_REACTORS
330
3795
102
}
330
3795
100
AcDbXrecord
 10
0.0
 20
0.0
 30
0.0
  0
XRECORD
  5
37AD
102
{ACAD_REACTORS
330
3795
102
}
330
3795
100
AcDbXrecord
340
0
  0
XRECORD
  5
37AE
102
{ACAD_REACTORS
330
3795
102
}
330
3795
100
AcDbXrecord
 70
     0
  0
XRECORD
  5
37AF
102
{ACAD_REACTORS
330
3795
102
}
330
3795
100
AcDbXrecord
340
0
  0
XRECORD
  5
37B0
102
{ACAD_REACTORS
330
3795
102
}
330
3795
100
AcDbXrecord
 10
0.0
 20
0.0
 30
0.0
  0
XRECORD
  5
37B1
102
{ACAD_REACTORS
330
3795
102
}
330
3795
100
AcDbXrecord
 10
0.0
 20
0.0
 30
0.0
  0
XRECORD
  5
37B2
102
{ACAD_REACTORS
330
3795
102
}
330
3795
100
AcDbXrecord
 10
0.0
 20
0.0
 30
0.0
  0
XRECORD
  5
37B3
102
{ACAD_REACTORS
330
3795
102
}
330
3795
100
AcDbXrecord
 10
0.0
 20
0.0
 30
0.0
  0
XRECORD
  5
37B4
102
{ACAD_REACTORS
330
3795
102
}
330
3795
100
AcDbXrecord
 10
0.0
 20
0.0
 30
0.0
  0
XRECORD
  5
37B5
102
{ACAD_REACTORS
330
3795
102
}
330
3795
100
AcDbXrecord
 10
0.0
 20
0.0
 30
0.0
  0
LAYER_INDEX
  5
378C
102
{ACAD_REACTORS
330
378B
102
}
330
378B
100
AcDbIndex
 40
2453151.573991771
100
AcDbLayerIndex
  8
0
360
378D
 90
        0
  8
AM_0
360
378E
 90
       38
  8
AM_7
360
378F
 90
        1
  8
AM_11
360
3790
 90
       17
  8
AM_5
360
3791
 90
        5
  8
Defpoints
360
3792
 90
        0
  8
AM_6
360
3793
 90
        1
  0
XRECORD
  5
2D
102
{ACAD_REACTORS
330
2C
102
}
330
2C
100
AcDbXrecord
  1
VERSION
140
15.0
  1
PRODUCT
  2
AutoCAD Mechanical 2000
  0
IDBUFFER
  5
378D
330
0
100
AcDbIdBuffer
  0
IDBUFFER
  5
378E
330
0
100
AcDbIdBuffer
330
36A9
330
36AA
330
36AD
330
36AE
330
36AF
330
36B0
330
36B1
330
36B2
330
36B3
330
36B4
330
36B5
330
36B6
330
36B7
330
36B8
330
36B9
330
36BA
330
36BB
330
36BC
330
36BD
330
36BE
330
36BF
330
36C0
330
C1D
330
C20
330
24A7
330
24BE
330
2C11
330
2C12
330
2C13
330
2C14
330
2C15
330
2C23
330
2C72
330
2C73
330
36A3
330
36A4
330
36A5
330
36A8
  0
IDBUFFER
  5
378F
330
0
100
AcDbIdBuffer
330
23EF
  0
IDBUFFER
  5
3790
330
0
100
AcDbIdBuffer
330
36AC
330
24B7
330
24B8
330
24C7
330
24C8
330
24D4
330
24D5
330
24E6
330
24E7
330
2BF2
330
2BF3
330
2BF4
330
2BF5
330
363F
330
36A6
330
36A7
330
36AB
  0
IDBUFFER
  5
3791
330
0
100
AcDbIdBuffer
330
CC6
330
2069
330
2C16
330
2C81
330
2D60
  0
IDBUFFER
  5
3792
330
0
100
AcDbIdBuffer
  0
IDBUFFER
  5
3793
330
0
100
AcDbIdBuffer
330
19BD
  0
ENDSEC
  0
EOF
