  0
SECTION
  2
HEADER
  9
$ACADVER
  1
AC1014
  9
$ACADMAINTVER
 70
     9
  9
$DWGCODEPAGE
  3
ANSI_932
  9
$INSBASE
 10
0.0
 20
0.0
 30
0.0
  9
$EXTMIN
 10
-181.300001
 20
-52.50000305448093
 30
-0.00000001
  9
$EXTMAX
 10
34.79084247637011
 20
33.63238212386088
 30
0.00000001
  9
$LIMMIN
 10
-193.2269806945005
 20
-81.94180891199506
  9
$LIMMAX
 10
48.7100153649419
 20
56.53896808917415
  9
$ORTHOMODE
 70
     0
  9
$REGENMODE
 70
     1
  9
$FILLMODE
 70
     1
  9
$QTEXTMODE
 70
     0
  9
$MIRRTEXT
 70
     0
  9
$DRAGMODE
 70
     2
  9
$LTSCALE
 40
1.0
  9
$OSMODE
 70
    55
  9
$ATTMODE
 70
     1
  9
$TEXTSIZE
 40
2.5
  9
$TRACEWID
 40
1.0
  9
$TEXTSTYLE
  7
STANDARD
  9
$CLAYER
  8
AM_0
  9
$CELTYPE
  6
BYLAYER
  9
$CECOLOR
 62
   256
  9
$CELTSCALE
 40
1.0
  9
$DELOBJ
 70
     1
  9
$DISPSILH
 70
     0
  9
$DIMSCALE
 40
1.0
  9
$DIMASZ
 40
2.5
  9
$DIMEXO
 40
1.0
  9
$DIMDLI
 40
12.0
  9
$DIMRND
 40
0.0
  9
$DIMDLE
 40
0.0
  9
$DIMEXE
 40
1.0
  9
$DIMTP
 40
0.1
  9
$DIMTM
 40
0.1
  9
$DIMTXT
 40
3.2
  9
$DIMCEN
 40
0.0
  9
$DIMTSZ
 40
0.0
  9
$DIMTOL
 70
     0
  9
$DIMLIM
 70
     0
  9
$DIMTIH
 70
     0
  9
$DIMTOH
 70
     0
  9
$DIMSE1
 70
     0
  9
$DIMSE2
 70
     0
  9
$DIMTAD
 70
     3
  9
$DIMZIN
 70
     8
  9
$DIMBLK
  1
OPEN30
  9
$DIMASO
 70
     1
  9
$DIMSHO
 70
     1
  9
$DIMPOST
  1

  9
$DIMAPOST
  1
"
  9
$DIMALT
 70
     0
  9
$DIMALTD
 70
     2
  9
$DIMALTF
 40
0.0393701
  9
$DIMLFAC
 40
1.0
  9
$DIMTOFL
 70
     1
  9
$DIMTVP
 40
0.0
  9
$DIMTIX
 70
     0
  9
$DIMSOXD
 70
     0
  9
$DIMSAH
 70
     0
  9
$DIMBLK1
  1

  9
$DIMBLK2
  1

  9
$DIMSTYLE
  2
AM_JIS
  9
$DIMCLRD
 70
   256
  9
$DIMCLRE
 70
   256
  9
$DIMCLRT
 70
     2
  9
$DIMTFAC
 40
0.71
  9
$DIMGAP
 40
1.5
  9
$DIMJUST
 70
     0
  9
$DIMSD1
 70
     0
  9
$DIMSD2
 70
     0
  9
$DIMTOLJ
 70
     0
  9
$DIMTZIN
 70
     0
  9
$DIMALTZ
 70
     0
  9
$DIMALTTZ
 70
     0
  9
$DIMFIT
 70
     3
  9
$DIMUPT
 70
     0
  9
$DIMUNIT
 70
     2
  9
$DIMDEC
 70
     3
  9
$DIMTDEC
 70
     3
  9
$DIMALTU
 70
     2
  9
$DIMALTTD
 70
     2
  9
$DIMTXSTY
  7
ASAMI
  9
$DIMAUNIT
 70
     0
  9
$LUNITS
 70
     2
  9
$LUPREC
 70
     2
  9
$SKETCHINC
 40
1.0
  9
$FILLETRAD
 40
2.5
  9
$AUNITS
 70
     0
  9
$AUPREC
 70
     0
  9
$MENU
  1
.
  9
$ELEVATION
 40
0.0
  9
$PELEVATION
 40
0.0
  9
$THICKNESS
 40
0.0
  9
$LIMCHECK
 70
     0
  9
$BLIPMODE
 70
     0
  9
$CHAMFERA
 40
0.25
  9
$CHAMFERB
 40
0.25
  9
$CHAMFERC
 40
20.0
  9
$CHAMFERD
 40
0.0
  9
$SKPOLY
 70
     0
  9
$TDCREATE
 40
2452800.443498622
  9
$TDUPDATE
 40
2453151.664661446
  9
$TDINDWG
 40
0.0675452199
  9
$TDUSRTIMER
 40
0.0675452199
  9
$USRTIMER
 70
     1
  9
$ANGBASE
 50
0.0
  9
$ANGDIR
 70
     0
  9
$PDMODE
 70
     3
  9
$PDSIZE
 40
0.0
  9
$PLINEWID
 40
0.0
  9
$COORDS
 70
     1
  9
$SPLFRAME
 70
     0
  9
$SPLINETYPE
 70
     6
  9
$SPLINESEGS
 70
     8
  9
$ATTDIA
 70
     1
  9
$ATTREQ
 70
     1
  9
$HANDLING
 70
 12289
  9
$HANDSEED
  5
309C
  9
$SURFTAB1
 70
     6
  9
$SURFTAB2
 70
     6
  9
$SURFTYPE
 70
     6
  9
$SURFU
 70
     6
  9
$SURFV
 70
     6
  9
$UCSNAME
  2

  9
$UCSORG
 10
0.0
 20
0.0
 30
0.0
  9
$UCSXDIR
 10
1.0
 20
0.0000000000000027
 30
0.0
  9
$UCSYDIR
 10
-0.0000000000000027
 20
1.0
 30
0.0
  9
$PUCSNAME
  2

  9
$PUCSORG
 10
0.0
 20
0.0
 30
0.0
  9
$PUCSXDIR
 10
1.0
 20
0.0
 30
0.0
  9
$PUCSYDIR
 10
0.0
 20
1.0
 30
0.0
  9
$USERI1
 70
     0
  9
$USERI2
 70
     0
  9
$USERI3
 70
     0
  9
$USERI4
 70
     0
  9
$USERI5
 70
     0
  9
$USERR1
 40
0.0
  9
$USERR2
 40
0.0
  9
$USERR3
 40
0.0
  9
$USERR4
 40
0.0
  9
$USERR5
 40
0.0
  9
$WORLDVIEW
 70
     1
  9
$SHADEDGE
 70
     3
  9
$SHADEDIF
 70
    70
  9
$TILEMODE
 70
     1
  9
$MAXACTVP
 70
    64
  9
$PINSBASE
 10
0.0
 20
0.0
 30
0.0
  9
$PLIMCHECK
 70
     0
  9
$PEXTMIN
 10
1.000000000000000E+20
 20
1.000000000000000E+20
 30
1.000000000000000E+20
  9
$PEXTMAX
 10
-1.000000000000000E+20
 20
-1.000000000000000E+20
 30
-1.000000000000000E+20
  9
$PLIMMIN
 10
0.0
 20
0.0
  9
$PLIMMAX
 10
841.0
 20
594.0
  9
$UNITMODE
 70
     0
  9
$VISRETAIN
 70
     1
  9
$PLINEGEN
 70
     0
  9
$PSLTSCALE
 70
     0
  9
$TREEDEPTH
 70
  3020
  9
$PICKSTYLE
 70
     0
  9
$CMLSTYLE
  2
STANDARD
  9
$CMLJUST
 70
     0
  9
$CMLSCALE
 40
20.0
  9
$PROXYGRAPHICS
 70
     1
  9
$MEASUREMENT
 70
     1
  0
ENDSEC
  0
SECTION
  2
CLASSES
  0
CLASS
  1
ACDBDICTIONARYWDFLT
  2
AcDbDictionaryWithDefault
  3
AutoCAD 2000
 90
        0
280
     0
281
     0
  0
CLASS
  1
ACDBPLACEHOLDER
  2
AcDbPlaceHolder
  3
AutoCAD 2000
 90
        0
280
     0
281
     0
  0
CLASS
  1
LAYOUT
  2
AcDbLayout
  3
AutoCAD 2000
 90
        0
280
     0
281
     0
  0
CLASS
  1
AMGSETTINGSOBJ
  2
AmgSettingsObj
  3
"AcadM|Product Description: AutoCAD Mechanical 2000|Company: Autodesk"
 90
        0
280
     0
281
     0
  0
CLASS
  1
ACME_DOCUMENT
  2
AcMeDbDoc
  3
AcMeServices
 90
        0
280
     0
281
     0
  0
CLASS
  1
ACMESCOPE
  2
AcMeScope
  3
AcMeServices
 90
        0
280
     0
281
     0
  0
CLASS
  1
ACMECOMMANDHISTORY
  2
AcMeCommandHistory
  3
AcMeServices
 90
        0
280
     0
281
     0
  0
CLASS
  1
DICTIONARYVAR
  2
AcDbDictionaryVar
  3
AutoCAD 2000
 90
        0
280
     0
281
     0
  0
CLASS
  1
ACIMSYSVARMAN
  2
AcImSysVarManager
  3
AcMeServices
 90
        0
280
     0
281
     0
  0
CLASS
  1
ACIMREALSYSVAR
  2
AcImRealSysVar
  3
AcMeServices
 90
        0
280
     0
281
     0
  0
CLASS
  1
ACIMINTSYSVAR
  2
AcImIntSysVar
  3
AcMeServices
 90
        0
280
     0
281
     0
  0
CLASS
  1
ACMEDRAWINGMAN
  2
AcMeDrawingMan
  3
AcMeServices
 90
        0
280
     0
281
     0
  0
CLASS
  1
ACMEVIEW
  2
AcMeView
  3
AcMeServices
 90
        0
280
     0
281
     0
  0
CLASS
  1
ACDBENTITYCACHE
  2
AcMeEntityCache
  3
AcMeServices
 90
        0
280
     0
281
     0
  0
CLASS
  1
GSMANAGER
  2
AcMeGSManager
  3
AcMeServices
 90
        0
280
     0
281
     0
  0
CLASS
  1
AmdtInternalReactor
  2
AmdtInternalReactor
  3
AcMeServices
 90
        0
280
     0
281
     0
  0
CLASS
  1
ACMESTATEMGR
  2
AcMeStateMgr
  3
AcMeServices
 90
        0
280
     0
281
     0
  0
CLASS
  1
ACME_DATABASE
  2
AcMeDbDatabase
  3
AcMeServices
 90
        0
280
     0
281
     0
  0
CLASS
  1
ACRFINSADJUSTERMGR
  2
AcRfInsAdjusterMgr
  3
AcMeServices
 90
        0
280
     0
281
     0
  0
CLASS
  1
ACMDATADICTIONARY
  2
AcmDataDictionary
  3
"AcmSymBB|Product Description: AutoCAD Mechanical 2000|Company: Autodesk"
 90
        0
280
     0
281
     0
  0
CLASS
  1
ACMDATAENTRYBLOCK
  2
AcmDataEntryBlock
  3
"AcmSymBB|Product Description: AutoCAD Mechanical 2000|Company: Autodesk"
 90
        0
280
     0
281
     0
  0
CLASS
  1
AMGOBJPROPCFG
  2
AmgObjPropCfg
  3
"AmgLay|Product Description: AutoCAD Mechanical 2000|Company: Autodesk"
 90
        1
280
     0
281
     0
  0
CLASS
  1
ACAMGFILTERDAT
  2
AcAmgFilterDat
  3
"AcadM|Product Description: AutoCAD Mechanical 2000|Company: Autodesk"
 90
        0
280
     0
281
     0
  0
CLASS
  1
LAYER_INDEX
  2
AcDbLayerIndex
  3
AutoCAD 2000
 90
        0
280
     0
281
     0
  0
CLASS
  1
IDBUFFER
  2
AcDbIdBuffer
  3
AutoCAD 2000
 90
        0
280
     0
281
     0
  0
CLASS
  1
ACIMSTRSYSVAR
  2
AcImStrSysVar
  3
AcMeServices
 90
        0
280
     0
281
     0
  0
CLASS
  1
ACMSTANDARDJIS
  2
AcmStandardJIS
  3
"AcmSymBB|Product Description: AutoCAD Mechanical 2000|Company: Autodesk"
 90
        0
280
     0
281
     0
  0
CLASS
  1
ACMSURFSTANDARDJIS
  2
AcmSurfTextStdJIS
  3
"AcmSymBB|Product Description: AutoCAD Mechanical 2000|Company: Autodesk"
 90
        0
280
     0
281
     0
  0
CLASS
  1
ACMFCFSTANDARDJIS
  2
AcmFCFStdJIS
  3
"AcmSymBB|Product Description: AutoCAD Mechanical 2000|Company: Autodesk"
 90
        0
280
     0
281
     0
  0
CLASS
  1
ACMWELDSTANDARDJIS
  2
AcmWeldingStdJIS
  3
"AcmSymBB|Product Description: AutoCAD Mechanical 2000|Company: Autodesk"
 90
        0
280
     0
281
     0
  0
CLASS
  1
ACMIDSTANDARDJIS
  2
AcmIdStdJIS
  3
"AcmSymBB|Product Description: AutoCAD Mechanical 2000|Company: Autodesk"
 90
        0
280
     0
281
     0
  0
CLASS
  1
ACMDATUMSTANDARDJIS
  2
AcmDatumStdJIS
  3
"AcmSymBB|Product Description: AutoCAD Mechanical 2000|Company: Autodesk"
 90
        0
280
     0
281
     0
  0
CLASS
  1
ACMBOMSTANDARDJIS
  2
AcmBOMStdJIS
  3
"AcmSymBB|Product Description: AutoCAD Mechanical 2000|Company: Autodesk"
 90
        0
280
     0
281
     0
  0
CLASS
  1
ACMSTANDARDANSI
  2
AcmStandardANSI
  3
"AcmSymBB|Product Description: AutoCAD Mechanical 2000|Company: Autodesk"
 90
        0
280
     0
281
     0
  0
CLASS
  1
ACMSURFSTANDARDANSI
  2
AcmSurfTextStdANSI
  3
"AcmSymBB|Product Description: AutoCAD Mechanical 2000|Company: Autodesk"
 90
        0
280
     0
281
     0
  0
CLASS
  1
ACMFCFSTANDARDANSI
  2
AcmFCFStdANSI
  3
"AcmSymBB|Product Description: AutoCAD Mechanical 2000|Company: Autodesk"
 90
        0
280
     0
281
     0
  0
CLASS
  1
ACMWELDSTANDARDANSI
  2
AcmWeldingStdANSI
  3
"AcmSymBB|Product Description: AutoCAD Mechanical 2000|Company: Autodesk"
 90
        0
280
     0
281
     0
  0
CLASS
  1
ACMIDSTANDARDANSI
  2
AcmIdStdANSI
  3
"AcmSymBB|Product Description: AutoCAD Mechanical 2000|Company: Autodesk"
 90
        0
280
     0
281
     0
  0
CLASS
  1
ACMDATUMSTANDARDANSI
  2
AcmDatumStdANSI
  3
"AcmSymBB|Product Description: AutoCAD Mechanical 2000|Company: Autodesk"
 90
        0
280
     0
281
     0
  0
CLASS
  1
ACMBOMSTANDARDANSI
  2
AcmBOMStdANSI
  3
"AcmSymBB|Product Description: AutoCAD Mechanical 2000|Company: Autodesk"
 90
        0
280
     0
281
     0
  0
CLASS
  1
ACMSTANDARDBSI
  2
AcmStandardBSI
  3
"AcmSymBB|Product Description: AutoCAD Mechanical 2000|Company: Autodesk"
 90
        0
280
     0
281
     0
  0
CLASS
  1
ACMSURFSTANDARDBSI
  2
AcmSurfTextStdBSI
  3
"AcmSymBB|Product Description: AutoCAD Mechanical 2000|Company: Autodesk"
 90
        0
280
     0
281
     0
  0
CLASS
  1
ACMFCFSTANDARDBSI
  2
AcmFCFStdBSI
  3
"AcmSymBB|Product Description: AutoCAD Mechanical 2000|Company: Autodesk"
 90
        0
280
     0
281
     0
  0
CLASS
  1
ACMWELDSTANDARDBSI
  2
AcmWeldingStdBSI
  3
"AcmSymBB|Product Description: AutoCAD Mechanical 2000|Company: Autodesk"
 90
        0
280
     0
281
     0
  0
CLASS
  1
ACMIDSTANDARDBSI
  2
AcmIdStdBSI
  3
"AcmSymBB|Product Description: AutoCAD Mechanical 2000|Company: Autodesk"
 90
        0
280
     0
281
     0
  0
CLASS
  1
ACMDATUMSTANDARDBSI
  2
AcmDatumStdBSI
  3
"AcmSymBB|Product Description: AutoCAD Mechanical 2000|Company: Autodesk"
 90
        0
280
     0
281
     0
  0
CLASS
  1
ACMBOMSTANDARDBSI
  2
AcmBOMStdBSI
  3
"AcmSymBB|Product Description: AutoCAD Mechanical 2000|Company: Autodesk"
 90
        0
280
     0
281
     0
  0
CLASS
  1
LONG_TRANSACTION
  2
AcDbLongTransaction
  3
AutoCAD 2000
 90
        0
280
     0
281
     0
  0
CLASS
  1
LWPOLYLINE
  2
AcDbPolyline
  3
AutoCAD 2000
 90
        0
280
     0
281
     1
  0
CLASS
  1
HATCH
  2
AcDbHatch
  3
AutoCAD 2000
 90
        0
280
     0
281
     1
  0
CLASS
  1
XRECORD
  2
AcDbXrecord
  3
AutoCAD 2000
 90
        0
280
     0
281
     0
  0
ENDSEC
  0
SECTION
  2
TABLES
  0
TABLE
  2
VPORT
  5
8
330
0
100
AcDbSymbolTable
 70
     3
  0
VPORT
  5
3066
330
8
100
AcDbSymbolTableRecord
100
AcDbViewportTableRecord
  2
*ACTIVE
 70
     0
 10
0.0
 20
0.0
 11
1.0
 21
1.0
 12
-69.25080161843168
 22
-9.431476811110258
 13
0.0
 23
0.0
 14
2.5
 24
2.5
 15
10.0
 25
10.0
 16
0.0
 26
0.0
 36
1.0
 17
0.0
 27
0.0
 37
0.0
 40
143.8286218397369
 41
1.56570841889117
 42
50.0
 43
0.0
 44
0.0
 50
0.0
 51
0.0
 71
     0
 72
   100
 73
     1
 74
     1
 75
     0
 76
     0
 77
     0
 78
     0
  0
ENDTAB
  0
TABLE
  2
LTYPE
  5
5
330
0
100
AcDbSymbolTable
 70
    10
  0
LTYPE
  5
14
330
5
100
AcDbSymbolTableRecord
100
AcDbLinetypeTableRecord
  2
BYBLOCK
 70
     0
  3

 72
    65
 73
     0
 40
0.0
  0
LTYPE
  5
15
330
5
100
AcDbSymbolTableRecord
100
AcDbLinetypeTableRecord
  2
BYLAYER
 70
     0
  3

 72
    65
 73
     0
 40
0.0
  0
LTYPE
  5
16
330
5
100
AcDbSymbolTableRecord
100
AcDbLinetypeTableRecord
  2
CONTINUOUS
 70
     0
  3
Solid line
 72
    65
 73
     0
 40
0.0
  0
LTYPE
  5
4B
330
5
100
AcDbSymbolTableRecord
100
AcDbLinetypeTableRecord
  2
AM_ISO02W050
 70
     0
  3
__ __ __ __ __ __ __ __ __ __ __ __ __ __ __
 72
    65
 73
     2
 40
7.5
 49
6.0
 74
     0
 49
-1.5
 74
     0
  0
LTYPE
  5
4C
330
5
100
AcDbSymbolTableRecord
100
AcDbLinetypeTableRecord
  2
AM_ISO08W050
 70
     0
  3
____ . ____ . ____ . ____ . ____ . ____ . ____
 72
    65
 73
     4
 40
18.0
 49
12.0
 74
     0
 49
-1.5
 74
     0
 49
3.0
 74
     0
 49
-1.5
 74
     0
  0
LTYPE
  5
4D
330
5
100
AcDbSymbolTableRecord
100
AcDbLinetypeTableRecord
  2
AM_ISO09W050
 70
     0
  3
_____ . . _____ . . _____ . . ____ .. ____
 72
    65
 73
     6
 40
22.5
 49
12.0
 74
     0
 49
-1.5
 74
     0
 49
3.0
 74
     0
 49
-1.5
 74
     0
 49
3.0
 74
     0
 49
-1.5
 74
     0
  0
LTYPE
  5
4E
330
5
100
AcDbSymbolTableRecord
100
AcDbLinetypeTableRecord
  2
AMCONSTR
 70
     0
  3
_______________________
 72
    65
 73
     2
 40
9999.0
 49
9999.0
 74
     0
 49
0.0
 74
     0
  0
LTYPE
  5
4F
330
5
100
AcDbSymbolTableRecord
100
AcDbLinetypeTableRecord
  2
AM_ISO02W050X2
 70
     0
  3
 _ _ _ _ _ _ _ _ _ _ _ _
 72
    65
 73
     2
 40
3.75
 49
3.0
 74
     0
 49
-0.75
 74
     0
  0
LTYPE
  5
50
330
5
100
AcDbSymbolTableRecord
100
AcDbLinetypeTableRecord
  2
AM_ISO08W050X2
 70
     0
  3
__ . __ . __ . __ . __ . __
 72
    65
 73
     4
 40
9.0
 49
6.0
 74
     0
 49
-0.75
 74
     0
 49
1.5
 74
     0
 49
-0.75
 74
     0
  0
LTYPE
  5
53
330
5
100
AcDbSymbolTableRecord
100
AcDbLinetypeTableRecord
  2
AMZIGZAG
 70
     0
  3
/\/-/\/-/\/-/\/-/\/-/\/
 72
    65
 73
     2
 40
11.00009999999999
 49
0.0001
 74
     4
 75
   135
340
52
 46
0.04
 50
0.0
 44
0.0
 45
0.0
 49
-11.0
 74
     0
  0
LTYPE
  5
166
330
5
100
AcDbSymbolTableRecord
100
AcDbLinetypeTableRecord
  2
ACJISTGL
 70
     0
  3
_ _ _ _ _
 72
    65
 73
     2
 40
3.0
 49
2.0
 74
     0
 49
-1.0
 74
     0
  0
LTYPE
  5
26A
330
5
100
AcDbSymbolTableRecord
100
AcDbLinetypeTableRecord
  2
ACJISTGB
 70
     0
  3
__ . . __ . .
 72
    65
 73
     6
 40
9.0
 49
4.0
 74
     0
 49
-1.0
 74
     0
 49
1.0
 74
     0
 49
-1.0
 74
     0
 49
1.0
 74
     0
 49
-1.0
 74
     0
  0
ENDTAB
  0
TABLE
  2
LAYER
  5
2
330
0
100
AcDbSymbolTable
 70
     8
  0
LAYER
  5
10
330
2
100
AcDbSymbolTableRecord
100
AcDbLayerTableRecord
  2
0
 70
     0
 62
     7
  6
CONTINUOUS
  0
LAYER
  5
3F9
330
2
100
AcDbSymbolTableRecord
100
AcDbLayerTableRecord
  2
AM_0
 70
     0
 62
     7
  6
CONTINUOUS
  0
LAYER
  5
C7C
330
2
100
AcDbSymbolTableRecord
100
AcDbLayerTableRecord
  2
AM_7
 70
     0
 62
     4
  6
AM_ISO08W050
  0
LAYER
  5
C97
330
2
100
AcDbSymbolTableRecord
100
AcDbLayerTableRecord
  2
AM_11
 70
     0
 62
     3
  6
AM_ISO09W050
  0
LAYER
  5
CC5
330
2
100
AcDbSymbolTableRecord
100
AcDbLayerTableRecord
  2
AM_5
 70
     0
 62
     3
  6
CONTINUOUS
  0
LAYER
  5
CC7
330
2
100
AcDbSymbolTableRecord
100
AcDbLayerTableRecord
  2
DEFPOINTS
 70
     0
 62
     7
  6
CONTINUOUS
  0
LAYER
  5
19BC
330
2
100
AcDbSymbolTableRecord
100
AcDbLayerTableRecord
  2
AM_6
 70
     0
 62
     2
  6
CONTINUOUS
  0
LAYER
  5
2EDD
330
2
100
AcDbSymbolTableRecord
100
AcDbLayerTableRecord
  2
AM_CL
 70
     0
 62
     1
  6
AMCONSTR
  0
ENDTAB
  0
TABLE
  2
STYLE
  5
3
330
0
100
AcDbSymbolTable
 70
     5
  0
STYLE
  5
11
330
3
100
AcDbSymbolTableRecord
100
AcDbTextStyleTableRecord
  2
STANDARD
 70
     0
 40
0.0
 41
1.0
 50
0.0
 71
     0
 42
2.5
  3
simplex.shx
  4
EXTFONT.SHX
  0
STYLE
  5
52
330
3
100
AcDbSymbolTableRecord
100
AcDbTextStyleTableRecord
  2

 70
     1
 40
0.0
 41
1.0
 50
0.0
 71
     0
 42
2.5
  3
ltypeshp.shx
  4

  0
STYLE
  5
6B
330
3
100
AcDbSymbolTableRecord
100
AcDbTextStyleTableRecord
  2
ASAMI
 70
     0
 40
0.0
 41
1.0
 50
0.0
 71
     0
 42
2.5
  3
simplex.shx
  4
EXTFONT.SHX
  0
STYLE
  5
262
330
3
100
AcDbSymbolTableRecord
100
AcDbTextStyleTableRecord
  2
ACJISTS
 70
     0
 40
1.0
 41
1.0
 50
0.0
 71
     0
 42
2.5
  3
simplex.shx
  4
bigfont.shx
  0
STYLE
  5
269
330
3
100
AcDbSymbolTableRecord
100
AcDbTextStyleTableRecord
  2
ACJISGDT
 70
     0
 40
0.0
 41
1.0
 50
0.0
 71
     0
 42
2.5
  3
amgdtans.shx
  4

  0
ENDTAB
  0
TABLE
  2
VIEW
  5
6
330
0
100
AcDbSymbolTable
 70
     0
  0
ENDTAB
  0
TABLE
  2
UCS
  5
7
330
0
100
AcDbSymbolTable
 70
     0
  0
ENDTAB
  0
TABLE
  2
APPID
  5
9
330
0
100
AcDbSymbolTable
 70
    16
  0
APPID
  5
12
330
9
100
AcDbSymbolTableRecord
100
AcDbRegAppTableRecord
  2
ACAD
 70
     0
  0
APPID
  5
30
330
9
100
AcDbSymbolTableRecord
100
AcDbRegAppTableRecord
  2
MCAD_NO_VIS
 70
     0
  0
APPID
  5
31
330
9
100
AcDbSymbolTableRecord
100
AcDbRegAppTableRecord
  2
ACAD_TEMP_GRAPHIC
 70
     0
  0
APPID
  5
2C2
330
9
100
AcDbSymbolTableRecord
100
AcDbRegAppTableRecord
  2
GENIUS_GENDTOL_13
 70
     0
  0
APPID
  5
339
330
9
100
AcDbSymbolTableRecord
100
AcDbRegAppTableRecord
  2
GENIUS_GENODEF_13
 70
     0
  0
APPID
  5
33A
330
9
100
AcDbSymbolTableRecord
100
AcDbRegAppTableRecord
  2
GENIUS_GENOBJ-N-RSBK_13
 70
     0
  0
APPID
  5
33B
330
9
100
AcDbSymbolTableRecord
100
AcDbRegAppTableRecord
  2
GENIUS_GENOBJ-N-LIB_13
 70
     0
  0
APPID
  5
33C
330
9
100
AcDbSymbolTableRecord
100
AcDbRegAppTableRecord
  2
GENIUS_GENSCALE_13
 70
     0
  0
APPID
  5
378
330
9
100
AcDbSymbolTableRecord
100
AcDbRegAppTableRecord
  2
GENIUS_GENDIMSH_14
 70
     0
  0
APPID
  5
C82
330
9
100
AcDbSymbolTableRecord
100
AcDbRegAppTableRecord
  2
GENIUS_GENOBJ-N-CRS_13
 70
     0
  0
APPID
  5
C83
330
9
100
AcDbSymbolTableRecord
100
AcDbRegAppTableRecord
  2
GENIUS_GENOENT_13
 70
     0
  0
APPID
  5
C84
330
9
100
AcDbSymbolTableRecord
100
AcDbRegAppTableRecord
  2
GENIUS_GENOREF_13
 70
     0
  0
APPID
  5
C85
330
9
100
AcDbSymbolTableRecord
100
AcDbRegAppTableRecord
  2
GENIUS_GENOLIS_13
 70
     0
  0
APPID
  5
CA0
330
9
100
AcDbSymbolTableRecord
100
AcDbRegAppTableRecord
  2
GENIUS_GENOBJ-N-CEN_13
 70
     0
  0
APPID
  5
1E1E
330
9
100
AcDbSymbolTableRecord
100
AcDbRegAppTableRecord
  2
GENIUS_GENFIL_13
 70
     0
  0
APPID
  5
1E1F
330
9
100
AcDbSymbolTableRecord
100
AcDbRegAppTableRecord
  2
GENIUS_GENOBJ-N-CHA_13
 70
     0
  0
ENDTAB
  0
TABLE
  2
DIMSTYLE
  5
A
330
0
100
AcDbSymbolTable
 70
     9
  0
DIMSTYLE
105
58
330
A
100
AcDbSymbolTableRecord
100
AcDbDimStyleTableRecord
  2
AM_JIS
 70
     0
  3

  4
"
  5
OPEN30
  6

  7

 40
1.0
 41
2.5
 42
1.0
 43
12.0
 44
1.0
 45
0.0
 46
0.0
 47
0.1
 48
0.1
140
3.2
141
0.0
142
0.0
143
0.0393701
144
1.0
145
0.0
146
0.71
147
1.5
 71
     0
 72
     0
 73
     0
 74
     0
 75
     0
 76
     0
 77
     3
 78
     8
170
     0
171
     2
172
     1
173
     0
174
     0
175
     0
176
   256
177
   256
178
     2
270
     2
271
     3
272
     3
273
     2
274
     2
340
6B
275
     0
280
     0
281
     0
282
     0
283
     0
284
     0
285
     0
286
     0
287
     3
288
     0
  0
DIMSTYLE
105
5F
330
A
100
AcDbSymbolTableRecord
100
AcDbDimStyleTableRecord
  2
AM_JIS$3
 70
     0
  3

  4
"
  5
OPEN30
  6

  7

 40
1.0
 41
2.5
 42
1.0
 43
10.0
 44
1.0
 45
0.0
 46
0.0
 47
0.1
 48
0.1
140
3.2
141
0.0
142
0.0
143
0.0393701
144
1.0
145
0.0
146
0.71
147
1.5
 71
     0
 72
     0
 73
     0
 74
     1
 75
     0
 76
     0
 77
     3
 78
     8
170
     0
171
     2
172
     0
173
     0
174
     0
175
     0
176
   256
177
   256
178
     2
270
     2
271
     2
272
     3
273
     2
274
     2
340
6B
275
     0
280
     0
281
     0
282
     0
283
     0
284
     0
285
     0
286
     0
287
     0
288
     1
  0
DIMSTYLE
105
60
330
A
100
AcDbSymbolTableRecord
100
AcDbDimStyleTableRecord
  2
AM_JIS$4
 70
     0
  3

  4
"
  5
OPEN30
  6

  7

 40
1.0
 41
2.5
 42
1.0
 43
10.0
 44
1.0
 45
0.0
 46
0.0
 47
0.1
 48
0.1
140
3.2
141
0.0
142
0.0
143
0.0393701
144
1.0
145
0.0
146
0.71
147
1.5
 71
     0
 72
     0
 73
     0
 74
     1
 75
     0
 76
     0
 77
     3
 78
     8
170
     0
171
     2
172
     0
173
     0
174
     0
175
     0
176
   256
177
   256
178
     2
270
     2
271
     2
272
     3
273
     2
274
     2
340
6B
275
     0
280
     0
281
     0
282
     0
283
     0
284
     0
285
     0
286
     0
287
     0
288
     1
  0
DIMSTYLE
105
61
330
A
100
AcDbSymbolTableRecord
100
AcDbDimStyleTableRecord
  2
AM_JIS$6
 70
     0
  3

  4
"
  5
OPEN30
  6

  7

 40
1.0
 41
2.5
 42
1.0
 43
10.0
 44
1.0
 45
0.0
 46
0.0
 47
0.1
 48
0.1
140
3.2
141
0.0
142
0.0
143
0.0393701
144
1.0
145
0.0
146
0.71
147
1.5
 71
     0
 72
     0
 73
     0
 74
     0
 75
     0
 76
     0
 77
     0
 78
     8
170
     0
171
     2
172
     1
173
     0
174
     0
175
     0
176
   256
177
   256
178
     2
270
     2
271
     2
272
     2
273
     2
274
     2
340
6B
275
     0
280
     0
281
     0
282
     0
283
     0
284
     0
285
     0
286
     0
287
     3
288
     0
  0
DIMSTYLE
105
62
330
A
100
AcDbSymbolTableRecord
100
AcDbDimStyleTableRecord
  2
AM_JIS$7
 70
     0
  3

  4
"
  5
OPEN30
  6

  7

 40
1.0
 41
2.5
 42
1.0
 43
10.0
 44
1.0
 45
0.0
 46
0.0
 47
0.1
 48
0.1
140
3.2
141
0.0
142
0.0
143
0.0393701
144
1.0
145
0.0
146
0.71
147
1.5
 71
     0
 72
     0
 73
     0
 74
     0
 75
     0
 76
     0
 77
     3
 78
     8
170
     0
171
     2
172
     1
173
     0
174
     0
175
     0
176
   256
177
   256
178
     2
270
     2
271
     2
272
     3
273
     2
274
     2
340
6B
275
     0
280
     0
281
     0
282
     0
283
     0
284
     0
285
     0
286
     0
287
     3
288
     0
  0
DIMSTYLE
105
63
330
A
100
AcDbSymbolTableRecord
100
AcDbDimStyleTableRecord
  2
AM_JIS$SF
 70
     0
  3

  4
"
  5
OPEN30
  6

  7

 40
1.0
 41
2.5
 42
1.0
 43
10.0
 44
1.0
 45
0.0
 46
0.0
 47
0.1
 48
0.1
140
3.2
141
0.0
142
0.0
143
0.0393701
144
1.0
145
0.0
146
0.71
147
1.5
 71
     0
 72
     0
 73
     0
 74
     0
 75
     1
 76
     1
 77
     3
 78
     8
170
     0
171
     2
172
     1
173
     0
174
     0
175
     0
176
   256
177
   256
178
     2
270
     2
271
     2
272
     2
273
     2
274
     2
340
6B
275
     0
280
     0
281
     0
282
     0
283
     0
284
     0
285
     0
286
     0
287
     3
288
     0
  0
DIMSTYLE
105
68
330
A
100
AcDbSymbolTableRecord
100
AcDbDimStyleTableRecord
  2
AM_JIS$SH
 70
     0
  3

  4
"
  5

  6
GENAXEH
  7
OPEN30
 40
1.0
 41
2.5
 42
1.0
 43
10.0
 44
1.0
 45
0.0
 46
0.0
 47
0.1
 48
0.1
140
3.2
141
0.0
142
0.0
143
0.0393701
144
2.0
145
0.0
146
0.71
147
1.5
 71
     0
 72
     0
 73
     0
 74
     0
 75
     1
 76
     1
 77
     3
 78
     8
170
     0
171
     2
172
     1
173
     1
174
     0
175
     0
176
   256
177
   256
178
     2
270
     2
271
     2
272
     2
273
     2
274
     2
340
6B
275
     0
280
     0
281
     0
282
     0
283
     0
284
     0
285
     0
286
     0
287
     3
288
     0
  0
DIMSTYLE
105
B34
102
{ACAD_REACTORS
330
2F30
102
}
330
A
100
AcDbSymbolTableRecord
100
AcDbDimStyleTableRecord
  2
AM_JIS$2
 70
     0
  3

  4
"
  5
OPEN30
  6

  7

 40
1.0
 41
2.5
 42
1.0
 43
12.0
 44
1.0
 45
0.0
 46
0.0
 47
0.1
 48
0.1
140
3.2
141
0.0
142
0.0
143
0.0393701
144
1.0
145
0.0
146
0.71
147
1.5
 71
     0
 72
     0
 73
     0
 74
     0
 75
     0
 76
     0
 77
     3
 78
     8
170
     0
171
     2
172
     1
173
     0
174
     0
175
     0
176
   256
177
   256
178
     2
270
     2
271
     3
272
     3
273
     2
274
     2
340
6B
275
     0
280
     0
281
     0
282
     0
283
     0
284
     0
285
     0
286
     0
287
     3
288
     0
  0
DIMSTYLE
105
BA5
102
{ACAD_REACTORS
330
CC6
330
DF5
330
1FB6
330
2216
102
}
330
A
100
AcDbSymbolTableRecord
100
AcDbDimStyleTableRecord
  2
AM_JIS$0
 70
     0
  3

  4
"
  5
OPEN30
  6

  7

 40
1.0
 41
2.5
 42
0.0
 43
10.0
 44
1.0
 45
0.0
 46
0.0
 47
0.1
 48
0.1000000001
140
3.799999999999999
141
0.0
142
0.0
143
0.0393701
144
1.0
145
0.0
146
0.71
147
1.5
 71
     0
 72
     0
 73
     0
 74
     0
 75
     0
 76
     0
 77
     3
 78
     1
170
     0
171
     2
172
     1
173
     0
174
     0
175
     0
176
     3
177
     3
178
     2
270
     2
271
     2
272
     2
273
     2
274
     2
340
11
275
     1
280
     0
281
     0
282
     0
283
     0
284
     8
285
     0
286
     0
287
     0
288
     0
  0
ENDTAB
  0
TABLE
  2
BLOCK_RECORD
  5
1
330
0
100
AcDbSymbolTable
 70
    10
  0
BLOCK_RECORD
  5
1F
102
{ACAD_XDICTIONARY
360
74
102
}
330
1
100
AcDbSymbolTableRecord
100
AcDbBlockTableRecord
  2
*MODEL_SPACE
  0
BLOCK_RECORD
  5
101
102
{ACAD_XDICTIONARY
360
308F
102
}
330
1
100
AcDbSymbolTableRecord
100
AcDbBlockTableRecord
  2
*PAPER_SPACE
  0
BLOCK_RECORD
  5
59
330
1
100
AcDbSymbolTableRecord
100
AcDbBlockTableRecord
  2
_OPEN30
  0
BLOCK_RECORD
  5
64
330
1
100
AcDbSymbolTableRecord
100
AcDbBlockTableRecord
  2
GENAXEH
  0
BLOCK_RECORD
  5
CC8
330
1
100
AcDbSymbolTableRecord
100
AcDbBlockTableRecord
  2
*D5
  0
BLOCK_RECORD
  5
DF6
330
1
100
AcDbSymbolTableRecord
100
AcDbBlockTableRecord
  2
*D6
  0
BLOCK_RECORD
  5
1FB7
330
1
100
AcDbSymbolTableRecord
100
AcDbBlockTableRecord
  2
*D7
  0
BLOCK_RECORD
  5
2217
330
1
100
AcDbSymbolTableRecord
100
AcDbBlockTableRecord
  2
*D8
  0
BLOCK_RECORD
  5
2F31
330
1
100
AcDbSymbolTableRecord
100
AcDbBlockTableRecord
  2
*D9
  0
ENDTAB
  0
ENDSEC
  0
SECTION
  2
BLOCKS
  0
BLOCK
  5
20
330
1F
100
AcDbEntity
  8
0
100
AcDbBlockBegin
  2
*MODEL_SPACE
 70
     0
 10
0.0
 20
0.0
 30
0.0
  3
*MODEL_SPACE
  1

  0
ENDBLK
  5
21
330
1F
100
AcDbEntity
  8
0
100
AcDbBlockEnd
  0
BLOCK
  5
103
330
101
100
AcDbEntity
 67
     1
  8
0
100
AcDbBlockBegin
  2
*PAPER_SPACE
 70
     0
 10
0.0
 20
0.0
 30
0.0
  3
*PAPER_SPACE
  1

  0
ENDBLK
  5
104
330
101
100
AcDbEntity
 67
     1
  8
0
100
AcDbBlockEnd
  0
BLOCK
  5
5D
330
59
100
AcDbEntity
  8
0
100
AcDbBlockBegin
  2
_OPEN30
 70
     0
 10
0.0
 20
0.0
 30
0.0
  3
_OPEN30
  1

  0
LINE
  5
5A
330
59
100
AcDbEntity
  8
0
 62
     0
100
AcDbLine
 10
-1.0
 20
0.26794919
 30
0.0
 11
0.0
 21
0.0
 31
0.0
  0
LINE
  5
5B
330
59
100
AcDbEntity
  8
0
 62
     0
100
AcDbLine
 10
0.0
 20
0.0
 30
0.0
 11
-1.0
 21
-0.26794919
 31
0.0
  0
LINE
  5
5C
330
59
100
AcDbEntity
  8
0
 62
     0
100
AcDbLine
 10
0.0
 20
0.0
 30
0.0
 11
-1.0
 21
0.0
 31
0.0
  0
ENDBLK
  5
5E
330
59
100
AcDbEntity
  8
0
100
AcDbBlockEnd
  0
BLOCK
  5
66
330
64
100
AcDbEntity
  8
0
100
AcDbBlockBegin
  2
GENAXEH
 70
     0
 10
0.0
 20
0.0
 30
0.0
  3
GENAXEH
  1

  0
LINE
  5
65
330
64
100
AcDbEntity
  8
0
100
AcDbLine
 10
-1.0
 20
0.0
 30
0.0
 11
1.0
 21
0.0
 31
0.0
  0
ENDBLK
  5
67
330
64
100
AcDbEntity
  8
0
100
AcDbBlockEnd
  0
BLOCK
  5
CD2
330
CC8
100
AcDbEntity
  8
0
100
AcDbBlockBegin
  2
*D5
 70
     1
 10
0.0
 20
0.0
 30
0.0
  3
*D5
  1

  0
LINE
  5
2F07
330
CC8
100
AcDbEntity
  8
AM_5
 62
     3
100
AcDbLine
 10
-159.9999694824266
 20
-5.625045776360185
 30
0.0
 11
-159.9999694824266
 21
-31.00000305448087
 31
0.0
  0
LINE
  5
2F08
330
CC8
100
AcDbEntity
  8
AM_5
 62
     3
100
AcDbLine
 10
-2.00000000000015
 20
-5.850000481200808
 30
0.0
 11
-2.000000000000152
 21
-31.00000305448087
 31
0.0
  0
LINE
  5
2F09
330
CC8
100
AcDbEntity
  8
AM_5
 62
     3
100
AcDbLine
 10
-157.4999694824266
 20
-30.00000305448087
 30
0.0
 11
-4.500000000000152
 21
-30.00000305448087
 31
0.0
  0
INSERT
  5
2F0A
330
CC8
100
AcDbEntity
  8
AM_5
 62
     3
100
AcDbBlockReference
  2
_OPEN30
 10
-159.9999694824266
 20
-30.00000305448087
 30
0.0
 41
2.5
 42
2.5
 43
2.5
 50
180.0
  0
INSERT
  5
2F0B
330
CC8
100
AcDbEntity
  8
AM_5
 62
     3
100
AcDbBlockReference
  2
_OPEN30
 10
-2.000000000000152
 20
-30.00000305448087
 30
0.0
 41
2.5
 42
2.5
 43
2.5
  0
MTEXT
  5
2F0C
330
CC8
100
AcDbEntity
  8
AM_5
 62
     2
100
AcDbMText
 10
-80.9999847412134
 20
-26.60000305448087
 30
0.0
 40
3.799999999999999
 41
0.0
 71
     5
 72
     1
  1
158
1001
ACAD
1000
MTEXTBEGIN
1070
    73
1070
     1
1070
    44
1040
1.0
1070
    74
1070
     0
1000
MTEXTEND
  0
POINT
  5
2F0D
330
CC8
100
AcDbEntity
  8
DEFPOINTS
 62
     0
100
AcDbPoint
 10
-159.9999694824266
 20
-5.625045776360185
 30
0.0
  0
POINT
  5
2F0E
330
CC8
100
AcDbEntity
  8
DEFPOINTS
 62
     0
100
AcDbPoint
 10
-2.00000000000015
 20
-5.850000481200808
 30
0.0
  0
POINT
  5
2F0F
330
CC8
100
AcDbEntity
  8
DEFPOINTS
 62
     0
100
AcDbPoint
 10
-2.000000000000152
 20
-30.00000305448087
 30
0.0
  0
ENDBLK
  5
CD3
330
CC8
100
AcDbEntity
  8
0
100
AcDbBlockEnd
  0
BLOCK
  5
E00
330
DF6
100
AcDbEntity
  8
0
100
AcDbBlockBegin
  2
*D6
 70
     1
 10
0.0
 20
0.0
 30
0.0
  3
*D6
  1

  0
LINE
  5
2EFE
330
DF6
100
AcDbEntity
  8
AM_5
 62
     3
100
AcDbLine
 10
-98.00000000000004
 20
-6.000000000000229
 30
0.0
 11
-98.00000000000004
 21
-21.0000030544808
 31
0.0
  0
LINE
  5
2EFF
330
DF6
100
AcDbEntity
  8
AM_5
 62
     3
100
AcDbLine
 10
-2.00000000000015
 20
-5.850000481200808
 30
0.0
 11
-2.000000000000151
 21
-21.0000030544808
 31
0.0
  0
LINE
  5
2F00
330
DF6
100
AcDbEntity
  8
AM_5
 62
     3
100
AcDbLine
 10
-95.50000000000004
 20
-20.0000030544808
 30
0.0
 11
-4.500000000000151
 21
-20.0000030544808
 31
0.0
  0
INSERT
  5
2F01
330
DF6
100
AcDbEntity
  8
AM_5
 62
     3
100
AcDbBlockReference
  2
_OPEN30
 10
-98.00000000000004
 20
-20.0000030544808
 30
0.0
 41
2.5
 42
2.5
 43
2.5
 50
180.0
  0
INSERT
  5
2F02
330
DF6
100
AcDbEntity
  8
AM_5
 62
     3
100
AcDbBlockReference
  2
_OPEN30
 10
-2.000000000000151
 20
-20.0000030544808
 30
0.0
 41
2.5
 42
2.5
 43
2.5
  0
MTEXT
  5
2F03
330
DF6
100
AcDbEntity
  8
AM_5
 62
     2
100
AcDbMText
 10
-50.0000000000001
 20
-16.6000030544808
 30
0.0
 40
3.799999999999999
 41
0.0
 71
     5
 72
     1
  1
96
1001
ACAD
1000
MTEXTBEGIN
1070
    73
1070
     1
1070
    44
1040
1.0
1070
    74
1070
     0
1000
MTEXTEND
  0
POINT
  5
2F04
330
DF6
100
AcDbEntity
  8
DEFPOINTS
 62
     0
100
AcDbPoint
 10
-98.00000000000004
 20
-6.000000000000229
 30
0.0
  0
POINT
  5
2F05
330
DF6
100
AcDbEntity
  8
DEFPOINTS
 62
     0
100
AcDbPoint
 10
-2.00000000000015
 20
-5.850000481200808
 30
0.0
  0
POINT
  5
2F06
330
DF6
100
AcDbEntity
  8
DEFPOINTS
 62
     0
100
AcDbPoint
 10
-2.000000000000151
 20
-20.0000030544808
 30
0.0
  0
ENDBLK
  5
E01
330
DF6
100
AcDbEntity
  8
0
100
AcDbBlockEnd
  0
BLOCK
  5
1FC3
330
1FB7
100
AcDbEntity
  8
0
100
AcDbBlockBegin
  2
*D7
 70
     1
 10
0.0
 20
0.0
 30
0.0
  3
*D7
  1

  0
LINE
  5
2F19
330
1FB7
100
AcDbEntity
  8
AM_5
 62
     3
100
AcDbLine
 10
-2.00000000000015
 20
-5.850000481200808
 30
0.0
 11
16.55592102485802
 21
-5.850000481200813
 31
0.0
  0
LINE
  5
2F1A
330
1FB7
100
AcDbEntity
  8
AM_5
 62
     3
100
AcDbLine
 10
-1.999999999999937
 20
5.849999518799158
 30
0.0
 11
16.55592102485801
 21
5.849999518799154
 31
0.0
  0
LINE
  5
2F1B
330
1FB7
100
AcDbEntity
  8
AM_5
 62
     3
100
AcDbLine
 10
15.55592102485801
 20
-8.350000481200813
 30
0.0
 11
15.55592102485801
 21
-10.85000048120081
 31
0.0
  0
LINE
  5
2F1C
330
1FB7
100
AcDbEntity
  8
AM_5
 62
     3
100
AcDbLine
 10
15.55592102485801
 20
8.349999518799155
 30
0.0
 11
15.55592102485802
 21
27.42142809022772
 31
0.0
  0
LINE
  5
2F1D
330
1FB7
100
AcDbEntity
  8
AM_5
 62
     3
100
AcDbLine
 10
15.55592102485801
 20
-5.850000481200813
 30
0.0
 11
15.55592102485801
 21
5.849999518799154
 31
0.0
  0
INSERT
  5
2F1E
330
1FB7
100
AcDbEntity
  8
AM_5
 62
     3
100
AcDbBlockReference
  2
_OPEN30
 10
15.55592102485801
 20
-5.850000481200813
 30
0.0
 41
2.5
 42
2.5
 43
2.5
 50
90.0
  0
INSERT
  5
2F1F
330
1FB7
100
AcDbEntity
  8
AM_5
 62
     3
100
AcDbBlockReference
  2
_OPEN30
 10
15.55592102485801
 20
5.849999518799154
 30
0.0
 41
2.5
 42
2.5
 43
2.5
 50
270.0
  0
MTEXT
  5
2F20
330
1FB7
100
AcDbEntity
  8
AM_5
 62
     2
100
AcDbMText
 10
12.15592102485802
 20
19.13571380451344
 30
0.0
 40
3.799999999999999
 41
0.0
 71
     5
 72
     1
  1
%%c11.7
 11
0.0000000000000001
 21
1.0
 31
0.0
1001
ACAD
1000
MTEXTBEGIN
1070
    73
1070
     1
1070
    44
1040
1.0
1070
    74
1070
     0
1000
MTEXTEND
  0
POINT
  5
2F21
330
1FB7
100
AcDbEntity
  8
DEFPOINTS
 62
     0
100
AcDbPoint
 10
-2.00000000000015
 20
-5.850000481200808
 30
0.0
  0
POINT
  5
2F22
330
1FB7
100
AcDbEntity
  8
DEFPOINTS
 62
     0
100
AcDbPoint
 10
-1.999999999999937
 20
5.849999518799158
 30
0.0
  0
POINT
  5
2F23
330
1FB7
100
AcDbEntity
  8
DEFPOINTS
 62
     0
100
AcDbPoint
 10
15.55592102485801
 20
5.849999518799154
 30
0.0
  0
ENDBLK
  5
1FC4
330
1FB7
100
AcDbEntity
  8
0
100
AcDbBlockEnd
  0
BLOCK
  5
2221
330
2217
100
AcDbEntity
  8
0
100
AcDbBlockBegin
  2
*D8
 70
     1
 10
0.0
 20
0.0
 30
0.0
  3
*D8
  1

  0
LINE
  5
2F10
330
2217
100
AcDbEntity
  8
AM_5
 62
     3
100
AcDbLine
 10
-159.75
 20
5.99999999999934
 30
0.0
 11
-177.000001
 21
5.999999999999291
 31
0.0
  0
LINE
  5
2F11
330
2217
100
AcDbEntity
  8
AM_5
 62
     3
100
AcDbLine
 10
-159.75
 20
-6.000000000000658
 30
0.0
 11
-177.0000009999999
 21
-6.000000000000706
 31
0.0
  0
LINE
  5
2F12
330
2217
100
AcDbEntity
  8
AM_5
 62
     3
100
AcDbLine
 10
-176.0000009999999
 20
3.499999999999293
 30
0.0
 11
-176.0000009999999
 21
-3.500000000000704
 31
0.0
  0
INSERT
  5
2F13
330
2217
100
AcDbEntity
  8
AM_5
 62
     3
100
AcDbBlockReference
  2
_OPEN30
 10
-176.000001
 20
5.999999999999293
 30
0.0
 41
2.5
 42
2.5
 43
2.5
 50
90.00000000000017
  0
INSERT
  5
2F14
330
2217
100
AcDbEntity
  8
AM_5
 62
     3
100
AcDbBlockReference
  2
_OPEN30
 10
-176.0000009999999
 20
-6.000000000000704
 30
0.0
 41
2.5
 42
2.5
 43
2.5
 50
270.0000000000001
  0
MTEXT
  5
2F15
330
2217
100
AcDbEntity
  8
AM_5
 62
     2
100
AcDbMText
 10
-179.4000009999999
 20
-0.0000000000007079
 30
0.0
 40
3.799999999999999
 41
0.0
 71
     5
 72
     1
  1
%%c12
 11
-0.0000000000000028
 21
1.0
 31
0.0
1001
ACAD
1000
MTEXTBEGIN
1070
    73
1070
     1
1070
    44
1040
1.0
1070
    74
1070
     0
1000
MTEXTEND
  0
POINT
  5
2F16
330
2217
100
AcDbEntity
  8
DEFPOINTS
 62
     0
100
AcDbPoint
 10
-159.75
 20
5.999999999999836
 30
0.0
  0
POINT
  5
2F17
330
2217
100
AcDbEntity
  8
DEFPOINTS
 62
     0
100
AcDbPoint
 10
-159.75
 20
-6.000000000000161
 30
0.0
  0
POINT
  5
2F18
330
2217
100
AcDbEntity
  8
DEFPOINTS
 62
     0
100
AcDbPoint
 10
-176.0000009999999
 20
-6.000000000000157
 30
0.0
  0
ENDBLK
  5
2222
330
2217
100
AcDbEntity
  8
0
100
AcDbBlockEnd
  0
BLOCK
  5
2F3F
330
2F31
100
AcDbEntity
  8
0
100
AcDbBlockBegin
  2
*D9
 70
     1
 10
0.0
 20
0.0
 30
0.0
  3
*D9
  1

  0
LINE
  5
3091
330
2F31
100
AcDbEntity
  8
AM_5
100
AcDbLine
 10
0.3420199396267289
 20
-0.9396926949261457
 30
0.0
 11
12.24118178296007
 21
-33.63239322030346
 31
0.0
  0
LINE
  5
3092
330
2F31
100
AcDbEntity
  8
AM_5
100
AcDbLine
 10
0.342020791442482
 20
0.9396923848904947
 30
0.0
 11
12.24121227016351
 21
33.63238212386088
 31
0.0
  0
ARC
  5
3093
330
2F31
100
AcDbEntity
  8
AM_5
100
AcDbCircle
 10
-0.0000000000000284
 20
0.0000000000000782
 30
0.0
 40
34.79084247637367
100
AcDbArc
 50
294.1180334302668
 51
65.88191463205617
  0
INSERT
  5
3094
330
2F31
100
AcDbEntity
  8
AM_5
100
AcDbBlockReference
  2
_OPEN30
 10
11.89916184333332
 20
-32.69270052537724
 30
0.0
 41
2.5
 42
2.5
 43
2.5
 50
202.0590105050775
  0
INSERT
  5
3095
330
2F31
100
AcDbEntity
  8
AM_5
100
AcDbBlockReference
  2
_OPEN30
 10
11.899191478721
 20
32.69268973897046
 30
0.0
 41
2.5
 42
2.5
 43
2.5
 50
157.9409375572455
  0
MTEXT
  5
3096
330
2F31
100
AcDbEntity
  8
AM_5
 62
     2
100
AcDbMText
 10
31.69084247637007
 20
-0.00001576866173
 30
0.0
 40
3.2
 41
0.0
 71
     5
 72
     1
  1
140°
  7
ASAMI
 11
-0.0000000000000028
 21
1.0
 31
0.0
  0
POINT
  5
3097
330
2F31
100
AcDbEntity
  8
DEFPOINTS
 62
     0
100
AcDbPoint
 10
31.94551926556504
 20
13.77993175125549
 30
0.0
  0
POINT
  5
3098
330
2F31
100
AcDbEntity
  8
DEFPOINTS
 62
     0
100
AcDbPoint
 10
-0.0000000000000284
 20
0.0000000000000782
 30
0.0
  0
POINT
  5
3099
330
2F31
100
AcDbEntity
  8
DEFPOINTS
 62
     0
100
AcDbPoint
 10
-0.0000000000000284
 20
0.0000000000000782
 30
0.0
  0
POINT
  5
309A
330
2F31
100
AcDbEntity
  8
DEFPOINTS
 62
     0
100
AcDbPoint
 10
-0.6556848755426237
 20
1.801480604883472
 30
0.0
  0
POINT
  5
309B
330
2F31
100
AcDbEntity
  8
DEFPOINTS
 62
     0
100
AcDbPoint
 10
-0.6556992300417855
 20
-1.801514962438432
 30
0.0
  0
ENDBLK
  5
2F40
330
2F31
100
AcDbEntity
  8
0
100
AcDbBlockEnd
  0
ENDSEC
  0
SECTION
  2
ENTITIES
  0
LINE
  5
C9F
330
1F
100
AcDbEntity
  8
AM_7
100
AcDbLine
 10
-162.0
 20
-0.0000000000001626
 30
0.0
 11
1.55592002485803
 21
0.0000000000000805
 31
0.0
1001
GENIUS_GENODEF_13
1002
{
1000
HIER
1070
     0
1002
}
1002
{
1000
MANEDIT
1070
     0
1002
}
1002
{
1000
NOSEL
1070
     0
1002
}
1002
{
1000
BEHIND
1070
     0
1002
}
1002
{
1000
REACTOR
1002
}
1001
GENIUS_GENOBJ-N-CEN_13
1002
{
1000
OWNER
1000
GEN
1002
}
  0
DIMENSION
  5
CC6
330
1F
100
AcDbEntity
  8
AM_5
100
AcDbDimension
  2
*D5
 10
-2.000000000000152
 20
-30.00000305448087
 30
0.0
 11
-80.9999847412134
 21
-26.60000305448087
 31
0.0
 70
    32
  1
<>
  3
AM_JIS$0
100
AcDbAlignedDimension
 13
-159.9999694824266
 23
-5.625045776360185
 33
0.0
 14
-2.00000000000015
 24
-5.850000481200808
 34
0.0
 50
0.0000000000001132
100
AcDbRotatedDimension
1001
GENIUS_GENDTOL_13
1000

1000
h7
1000

1040
0.0
1001
ACAD
1000
DSTYLE
1002
{
1070
   271
1070
     0
1002
}
  0
DIMENSION
  5
DF5
330
1F
100
AcDbEntity
  8
AM_5
100
AcDbDimension
  2
*D6
 10
-2.000000000000151
 20
-20.0000030544808
 30
0.0
 11
-50.0000000000001
 21
-16.6000030544808
 31
0.0
 70
    32
  1
<>
  3
AM_JIS$0
100
AcDbAlignedDimension
 13
-98.00000000000004
 23
-6.000000000000229
 33
0.0
 14
-2.00000000000015
 24
-5.850000481200808
 34
0.0
 50
0.0000000000001527
100
AcDbRotatedDimension
1001
GENIUS_GENDTOL_13
1000

1000
h7
1000

1040
0.0
1001
ACAD
1000
DSTYLE
1002
{
1070
   271
1070
     0
1002
}
  0
TEXT
  5
19BD
330
1F
100
AcDbEntity
  8
AM_6
100
AcDbText
 10
-101.8142551967123
 20
-52.50000305448093
 30
0.0
 40
5.0
  1
MDW117LHK
 50
0.0000000000001527
 72
     4
 11
-81.09996948242663
 21
-50.00000305448087
 31
0.0
100
AcDbText
  0
LINE
  5
1E25
330
1F
100
AcDbEntity
  8
AM_0
100
AcDbLine
 10
-98.00000000000004
 20
-6.000000000000228
 30
0.0
 11
-97.74018738342022
 21
-5.849997115878997
 31
0.0
  0
LINE
  5
1E26
330
1F
100
AcDbEntity
  8
AM_0
100
AcDbLine
 10
-97.74019154540452
 20
5.849999518801314
 30
0.0
 11
-98.000019240447
 21
6.000011108477004
 31
0.0
  0
DIMENSION
  5
1FB6
330
1F
100
AcDbEntity
  8
AM_5
100
AcDbDimension
  2
*D7
 10
15.55592102485801
 20
5.849999518799154
 30
0.0
 11
15.55592102485801
 21
19.13571380451344
 31
0.0
 70
   160
  1
%%c<>
  3
AM_JIS$0
100
AcDbAlignedDimension
 13
-2.00000000000015
 23
-5.850000481200808
 33
0.0
 14
-1.999999999999937
 24
5.849999518799158
 34
0.0
 50
89.99999999999969
100
AcDbRotatedDimension
1001
ACAD
1000
DSTYLE
1002
{
1070
   271
1070
     1
1002
}
1001
GENIUS_GENDTOL_13
1000

1000
h7
1000

1040
0.0
  0
LINE
  5
1FD9
330
1F
100
AcDbEntity
  8
AM_0
100
AcDbLine
 10
-97.74018738342022
 20
-5.849997115879004
 30
0.0
 11
-97.74018767957892
 21
-4.921708627152377
 31
0.0
  0
LINE
  5
21D7
330
1F
100
AcDbEntity
  8
AM_0
 48
0.5
100
AcDbLine
 10
-98.00000000000004
 20
-6.000002054481059
 30
0.0
 11
-98.00000000000002
 21
6.000044433908726
 31
0.0
  0
LINE
  5
21D8
330
1F
100
AcDbEntity
  8
AM_0
 48
0.5
100
AcDbLine
 10
-159.75
 20
5.999999999999836
 30
0.0
 11
-98.00000000000002
 21
5.999999999999769
 31
0.0
1001
GENIUS_GENODEF_13
1002
{
1000
HIER
1070
     0
1002
}
1002
{
1000
MANEDIT
1070
     0
1002
}
1002
{
1000
NOSEL
1070
     0
1002
}
1002
{
1000
BEHIND
1070
     0
1002
}
1002
{
1000
REACTOR
1002
}
1001
GENIUS_GENOBJ-N-CEN_13
1002
{
1000
OWNER
1000
GEN
1002
}
  0
LINE
  5
21D9
330
1F
100
AcDbEntity
  8
AM_0
 48
0.5
100
AcDbLine
 10
-159.75
 20
-6.000000000000161
 30
0.0
 11
-98.00000000000004
 21
-6.000000000000229
 31
0.0
1001
GENIUS_GENODEF_13
1002
{
1000
HIER
1070
     0
1002
}
1002
{
1000
MANEDIT
1070
     0
1002
}
1002
{
1000
NOSEL
1070
     0
1002
}
1002
{
1000
BEHIND
1070
     0
1002
}
1002
{
1000
REACTOR
1002
}
1001
GENIUS_GENOBJ-N-CEN_13
1002
{
1000
OWNER
1000
GEN
1002
}
  0
LINE
  5
21DA
330
1F
100
AcDbEntity
  8
AM_0
 48
0.5
100
AcDbLine
 10
-160.0
 20
5.624999999999838
 30
0.0
 11
-159.75
 21
5.999999999999836
 31
0.0
1001
GENIUS_GENFIL_13
1070
     0
1040
0.25
1040
0.25
1040
20.0
1040
0.0
1002
{
1002
}
1001
GENIUS_GENODEF_13
1002
{
1000
HIER
1070
     0
1002
}
1002
{
1000
MANEDIT
1070
     0
1002
}
1002
{
1000
NOSEL
1070
     0
1002
}
1002
{
1000
BEHIND
1070
     0
1002
}
1002
{
1000
REACTOR
1002
}
1001
GENIUS_GENOBJ-N-CHA_13
1002
{
1000
OWNER
1000
GEN
1002
}
  0
LINE
  5
21DB
330
1F
100
AcDbEntity
  8
AM_0
 48
0.5
100
AcDbLine
 10
-160.0
 20
-5.625000000000159
 30
0.0
 11
-159.75
 21
-6.000000000000161
 31
0.0
1001
GENIUS_GENFIL_13
1070
     0
1040
0.25
1040
0.25
1040
20.0
1040
0.0
1002
{
1002
}
1001
GENIUS_GENODEF_13
1002
{
1000
HIER
1070
     0
1002
}
1002
{
1000
MANEDIT
1070
     0
1002
}
1002
{
1000
NOSEL
1070
     0
1002
}
1002
{
1000
BEHIND
1070
     0
1002
}
1002
{
1000
REACTOR
1002
}
1001
GENIUS_GENOBJ-N-CHA_13
1002
{
1000
OWNER
1000
GEN
1002
}
  0
LINE
  5
21DC
330
1F
100
AcDbEntity
  8
AM_0
100
AcDbLine
 10
-159.75
 20
-6.000000000000161
 30
0.0
 11
-159.75
 21
5.999999999999836
 31
0.0
  0
LINE
  5
21DD
330
1F
100
AcDbEntity
  8
AM_0
 48
0.5
100
AcDbLine
 10
-160.0
 20
-5.625000000000159
 30
0.0
 11
-160.0
 21
5.624999999999838
 31
0.0
  0
DIMENSION
  5
2216
330
1F
100
AcDbEntity
  8
AM_5
100
AcDbDimension
  2
*D8
 10
-176.0000009999999
 20
-6.000000000000157
 30
0.0
 11
-179.4000009999999
 21
-0.000000000000186
 31
0.0
 70
    32
  1
%%c<>
 51
359.9999999999998
  3
AM_JIS$0
100
AcDbAlignedDimension
 13
-159.75
 23
5.999999999999836
 33
0.0
 14
-159.75
 24
-6.000000000000161
 34
0.0
 50
269.9999999999999
100
AcDbRotatedDimension
1001
ACAD
1000
DSTYLE
1002
{
1070
   271
1070
     0
1002
}
1001
GENIUS_GENDTOL_13
1000

1000
h7
1000

1040
0.0
  0
ELLIPSE
  5
282D
330
1F
100
AcDbEntity
  8
AM_0
 48
0.5
100
AcDbEllipse
 10
7.071702167240669
 20
6.181507110595916
 30
0.0
 11
8.904306174127103
 21
0.0000000000008784
 31
0.0
210
0.0
220
0.0
230
1.0
 40
0.9899999999999973
 41
3.323896559076802
 42
3.661579236128986
  0
LINE
  5
282E
330
1F
100
AcDbEntity
  8
AM_0
 48
0.5
100
AcDbLine
 10
-1.685054213912463
 20
4.58335240682004
 30
0.0
 11
-1.999999999999937
 21
5.849999518799158
 31
0.0
  0
LINE
  5
282F
330
1F
100
AcDbEntity
  8
AM_0
 48
0.5
100
AcDbLine
 10
-0.0000000000000284
 20
0.0000000000000782
 30
0.0
 11
-0.6556848755426237
 21
1.801480604883472
 31
0.0
  0
ELLIPSE
  5
2830
330
1F
100
AcDbEntity
  8
AM_0
 48
0.5
100
AcDbEllipse
 10
7.071702167240788
 20
-6.181516647338268
 30
0.0
 11
-8.904306174127102
 21
0.0000000000012877
 31
0.0
210
0.0
220
0.0
230
1.0
 40
0.989999999999997
 41
-0.5199833380394914
 42
-0.1823047399519406
  0
LINE
  5
2831
330
1F
100
AcDbEntity
  8
AM_0
 48
0.5
100
AcDbLine
 10
-1.685047791863655
 20
-4.583330154419115
 30
0.0
 11
-2.00000000000015
 21
-5.850000481200808
 31
0.0
  0
LINE
  5
2832
330
1F
100
AcDbEntity
  8
AM_0
 48
0.5
100
AcDbLine
 10
-0.0000000000000284
 20
0.0000000000000782
 30
0.0
 11
-0.6556992300417855
 21
-1.801514962438432
 31
0.0
  0
LINE
  5
2DF4
330
1F
100
AcDbEntity
  8
AM_0
100
AcDbLine
 10
-97.74019108938778
 20
4.580244314654089
 30
0.0
 11
-97.74019154540452
 21
5.849999518801318
 31
0.0
  0
LINE
  5
2DF5
330
1F
100
AcDbEntity
  8
AM_0
100
AcDbLine
 10
-97.7401883691698
 20
-2.994062430603164
 30
0.0
 11
-97.7401907667272
 21
3.68181261539551
 31
0.0
  0
LINE
  5
2DF6
330
1F
100
AcDbEntity
  8
AM_0
100
AcDbLine
 10
-97.74018783799867
 20
-4.473081083754843
 30
0.0
 11
-97.74018830217995
 21
-3.18059221367139
 31
0.0
  0
LINE
  5
2E52
330
1F
100
AcDbEntity
  8
AM_0
 48
0.5
100
AcDbLine
 10
-5.948917167560295
 20
5.849999518799255
 30
0.0
 11
-1.999999999999937
 21
5.849999518799158
 31
0.0
  0
LINE
  5
2E53
330
1F
100
AcDbEntity
  8
AM_0
 48
0.5
100
AcDbLine
 10
-0.0000000000000284
 20
0.0000000000000782
 30
0.0
 11
-3.566858292653073
 21
2.275914156860049
 31
0.0
  0
LINE
  5
2E54
330
1F
100
AcDbEntity
  8
AM_0
 48
0.5
100
AcDbLine
 10
-5.948917167560567
 20
-5.850000481200743
 30
0.0
 11
-2.000000000000119
 21
-5.850000481200832
 31
0.0
  0
LINE
  5
2E55
330
1F
100
AcDbEntity
  8
AM_11
 48
0.5
100
AcDbLine
 10
-23.8072793654359
 20
5.849999518799692
 30
0.0
 11
-5.948917167560295
 21
5.849999518799255
 31
0.0
  0
LINE
  5
2E56
330
1F
100
AcDbEntity
  8
AM_11
 48
0.5
100
AcDbLine
 10
-23.80727936543617
 20
-5.850000481200307
 30
0.0
 11
-5.948917167560567
 21
-5.850000481200743
 31
0.0
  0
LINE
  5
2E57
330
1F
100
AcDbEntity
  8
AM_11
 48
0.5
100
AcDbLine
 10
-57.55680586743752
 20
-5.850000481199599
 30
0.0
 11
-39.69844366956417
 21
-5.850831579866508
 31
0.0
  0
LINE
  5
2E58
330
1F
100
AcDbEntity
  8
AM_11
 48
0.5
100
AcDbLine
 10
-55.24199027022651
 20
5.850830617466955
 30
0.0
 11
-43.8454681772486
 21
5.849999518800185
 31
0.0
  0
LINE
  5
2E59
330
1F
100
AcDbEntity
  8
AM_0
 48
0.5
100
AcDbLine
 10
-43.84548355855093
 20
5.849999518800185
 30
0.0
 11
-23.8072793654359
 21
5.849999518799692
 31
0.0
  0
LINE
  5
2E5A
330
1F
100
AcDbEntity
  8
AM_0
 48
0.5
100
AcDbLine
 10
-39.69844366956416
 20
-5.850000481200035
 30
0.0
 11
-23.80727936543617
 21
-5.850000481200307
 31
0.0
  0
SPLINE
  5
2E5B
330
1F
100
AcDbEntity
  8
AM_0
100
AcDbSpline
210
0.0
220
0.0
230
1.0
 70
     8
 71
     3
 72
    23
 73
    19
 74
     0
 42
0.0000000001
 43
0.0000000001
 40
16.03460024169435
 40
16.03460024169435
 40
16.03460024169435
 40
16.03460024169435
 40
16.35212704903564
 40
17.38177054169784
 40
18.41822485651776
 40
19.46214173629503
 40
20.51396345435107
 40
21.57393551351153
 40
22.64208202342361
 40
23.7182574881101
 40
24.80209208578934
 40
25.89306333925047
 40
26.99048218457928
 40
28.09348763352352
 40
29.20111863782268
 40
30.31232390128032
 40
31.42594612798585
 40
32.5407912310448
 40
32.5407912310486
 40
32.5407912310486
 40
32.5407912310486
 10
-55.24199027022651
 20
5.850830617466957
 30
0.0
 10
-55.14459228455516
 20
5.831082047649705
 30
0.0
 10
-54.73177682306411
 20
5.74508258445225
 30
0.0
 10
-54.00459794192975
 20
5.576579761489542
 30
0.0
 10
-53.06289938721736
 20
5.326017906472917
 30
0.0
 10
-52.12207552641705
 20
5.044678707722173
 30
0.0
 10
-51.1820707654966
 20
4.73419041302173
 30
0.0
 10
-50.24285174202126
 20
4.396284001565454
 30
0.0
 10
-49.30436417138245
 20
4.03289108890081
 30
0.0
 10
-48.3665427008727
 20
3.646126530627563
 30
0.0
 10
-47.42933404010783
 20
3.238180551889407
 30
0.0
 10
-46.49266304967109
 20
2.811426895283074
 30
0.0
 10
-45.55645382285315
 20
2.368346037438975
 30
0.0
 10
-44.62064398270346
 20
1.911485507538311
 30
0.0
 10
-43.68515523114924
 20
1.443501886997956
 30
0.0
 10
-42.74990092211986
 20
0.9671278568223593
 30
0.0
 10
-41.81480489951351
 20
0.4851238755188503
 30
0.0
 10
-41.1915749954196
 20
0.1619665617601449
 30
0.0
 10
-40.87979008473329
 20
0.0002970651854796
 30
0.0
  0
SPLINE
  5
2E5C
330
1F
100
AcDbEntity
  8
AM_0
100
AcDbSpline
210
0.0
220
0.0
230
1.0
 70
     8
 71
     3
 72
    11
 73
     7
 74
     0
 42
0.0000000001
 43
0.0000000001
 40
11.27226913003534
 40
11.27226913003534
 40
11.27226913003534
 40
11.2722691300354
 40
12.28301561507924
 40
13.29510212255852
 40
14.30984805882082
 40
15.18258238371378
 40
15.18258238371378
 40
15.18258238371378
 40
15.18258238371378
 10
-57.55680586743975
 20
-5.850000481199601
 30
0.0
 10
-57.8714796341669
 20
-5.821368881200692
 30
0.0
 10
-58.50023363305985
 20
-5.752053023701455
 30
0.0
 10
-59.44011786296562
 20
-5.612225793888796
 30
0.0
 10
-60.33208456988588
 20
-5.445217499335388
 30
0.0
 10
-60.9089562785266
 20
-5.316833252826497
 30
0.0
 10
-61.17479518827512
 20
-5.253414981151769
 30
0.0
  0
SPLINE
  5
2E5D
330
1F
100
AcDbEntity
  8
AM_0
100
AcDbSpline
210
0.0
220
0.0
230
1.0
 70
     8
 71
     3
 72
    17
 73
    13
 74
     0
 42
0.0000000001
 43
0.0000000001
 40
1.580019955310467
 40
1.580019955310467
 40
1.580019955310467
 40
1.580019955310467
 40
2.030549285115227
 40
3.082371838836284
 40
4.126290986361125
 40
5.162752068350215
 40
6.192395305374981
 40
7.216039564037012
 40
8.234688489606833
 40
9.249433870634691
 40
10.26152376260694
 40
11.27226744710342
 40
11.27226744710342
 40
11.27226744710342
 40
11.27226744710352
 10
-48.6269281191432
 20
-4.317472743753422
 30
0.0
 10
-48.761057925886
 20
-4.361939121369898
 30
0.0
 10
-49.2090965429514
 20
-4.507683613341608
 30
0.0
 10
-49.9740095712093
 20
-4.736289063827636
 30
0.0
 10
-50.92146751372169
 20
-4.992296841784542
 30
0.0
 10
-51.86918629051859
 20
-5.217037680256819
 30
0.0
 10
-52.81694849145901
 20
-5.409756848997677
 30
0.0
 10
-53.76481394939261
 20
-5.569052499466726
 30
0.0
 10
-54.71274489263078
 20
-5.69401560162641
 30
0.0
 10
-55.66073486163761
 20
-5.783836352761566
 30
0.0
 10
-56.60876050039521
 20
-5.837936566266091
 30
0.0
 10
-57.24093098891573
 20
-5.850000514673617
 30
0.0
 10
-57.5568058674397
 20
-5.850000481199601
 30
0.0
  0
SPLINE
  5
2E5E
330
1F
100
AcDbEntity
  8
AM_0
 48
0.5
100
AcDbSpline
210
0.0
220
0.0
230
1.0
 70
     8
 71
     3
 72
    17
 73
    13
 74
     0
 42
0.0000000001
 43
0.0000000001
 40
0.0
 40
0.0
 40
0.0
 40
0.0
 40
1.010743614677189
 40
2.022833924044153
 40
3.037578959561199
 40
4.056212747067873
 40
5.079857613375832
 40
6.109500119648989
 40
7.14596120163808
 40
8.18989512056258
 40
9.241717674284874
 40
9.693948937866434
 40
9.693948937866434
 40
9.693948937866434
 40
9.693948937866434
 10
-5.948917167560295
 20
5.849999518799255
 30
0.0
 10
-6.264792107737044
 20
5.84652141881974
 30
0.0
 10
-6.896962853578518
 20
5.839560584709539
 30
0.0
 10
-7.844987713776211
 20
5.783392628875164
 30
0.0
 10
-8.792973544340698
 20
5.694134127446595
 30
0.0
 10
-9.740900418254158
 20
5.569021455217857
 30
0.0
 10
-10.68875704598216
 20
5.409751427202909
 30
0.0
 10
-11.63653185039297
 20
5.217062476252032
 30
0.0
 10
-12.58421211075584
 20
4.992195004866977
 30
0.0
 10
-13.53183460086895
 20
4.736662878777506
 30
0.0
 10
-14.29678018535521
 20
4.506467059801503
 30
0.0
 10
-14.7460010821511
 20
4.362561569334263
 30
0.0
 10
-14.88083309437016
 20
4.318513062047878
 30
0.0
  0
SPLINE
  5
2E5F
330
1F
100
AcDbEntity
  8
AM_0
 48
0.5
100
AcDbSpline
210
0.0
220
0.0
230
1.0
 70
     8
 71
     3
 72
    16
 73
    12
 74
     0
 42
0.0000000001
 43
0.0000000001
 40
0.0
 40
0.0
 40
0.0
 40
0.0
 40
1.010743614677189
 40
2.022833924044153
 40
3.037578959561199
 40
4.056212747067873
 40
5.079857613375832
 40
6.109500119648989
 40
7.14596120163808
 40
8.18989512056258
 40
8.545190612624931
 40
8.545190612624931
 40
8.545190612624931
 40
8.545190612624931
 10
-5.948917167560295
 20
5.849999518799255
 30
0.0
 10
-6.264774547146887
 20
5.849964365276058
 30
0.0
 10
-6.896971016266139
 20
5.837960677170261
 30
0.0
 10
-7.844985511510081
 20
5.78382273367443
 30
0.0
 10
-8.792974166618819
 20
5.694018367322357
 30
0.0
 10
-9.740900141027541
 20
5.569052366446029
 30
0.0
 10
-10.68875753214444
 20
5.409744279992278
 30
0.0
 10
-11.63653016995606
 20
5.217059872242343
 30
0.0
 10
-12.58421840565306
 20
4.992212817580932
 30
0.0
 10
-13.32108993286045
 20
4.79343686233645
 30
0.0
 10
-13.74227063177723
 20
4.671184728188372
 30
0.0
 10
-13.84907970477319
 20
4.639636677665158
 30
0.0
  0
SPLINE
  5
2E60
330
1F
100
AcDbEntity
  8
AM_0
 48
0.5
100
AcDbSpline
210
0.0
220
0.0
230
1.0
 70
     8
 71
     3
 72
    25
 73
    21
 74
     0
 42
0.0000000001
 43
0.0000000001
 40
6.846175049578289
 40
6.846175049578289
 40
6.846175049578289
 40
6.846175049578289
 40
7.604337694224321
 40
8.711974558287883
 40
9.814980593243754
 40
10.91239053451967
 40
12.0033633515982
 40
13.08720139956839
 40
14.16337181880432
 40
15.23152222380919
 40
16.29148850140128
 40
17.34331105512262
 40
18.38723020264746
 40
19.42369128463655
 40
20.45333379090873
 40
21.47697865721768
 40
22.49561244472435
 40
23.5103574802404
 40
24.52244778960836
 40
25.53320666051913
 40
25.53320666051913
 40
25.53320666051913
 40
25.53320666051913
 10
-7.054553698455139
 20
1.058887817876684
 30
0.0
 10
-7.26991267617735
 20
1.161603413689993
 30
0.0
 10
-7.800353343336885
 20
1.413353394921655
 30
0.0
 10
-8.646663991173898
 20
1.808691491104801
 30
0.0
 10
-9.593652058557555
 20
2.239917653263506
 30
0.0
 10
-10.54068775058615
 20
2.657366258174399
 30
0.0
 10
-11.48777920406125
 20
3.05847059705621
 30
0.0
 10
-12.43493697191889
 20
3.440756057407726
 30
0.0
 10
-13.38216981239335
 20
3.801865122980196
 30
0.0
 10
-14.32948211067381
 20
4.139578517191306
 30
0.0
 10
-15.27688553521754
 20
4.451794541735575
 30
0.0
 10
-16.22437880312724
 20
4.736598676220098
 30
0.0
 10
-17.17196872004825
 20
4.992213745827648
 30
0.0
 10
-18.11965194189214
 20
5.217057788745845
 30
0.0
 10
-19.06742476652932
 20
5.409752671859974
 30
0.0
 10
-20.01528192004948
 20
5.569021124105693
 30
0.0
 10
-20.9632086541759
 20
5.694134216356651
 30
0.0
 10
-21.91119452179392
 20
5.783392602408325
 30
0.0
 10
-22.85922413423632
 20
5.839560884118503
 30
0.0
 10
-23.49139965425418
 20
5.846521501064329
 30
0.0
 10
-23.8072793654359
 20
5.849999518799692
 30
0.0
  0
SPLINE
  5
2E61
330
1F
100
AcDbEntity
  8
AM_0
100
AcDbSpline
210
0.0
220
0.0
230
1.0
 70
     8
 71
     3
 72
    46
 73
    42
 74
     0
 42
0.0000000001
 43
0.0000000001
 40
0.0
 40
0.0
 40
0.0
 40
0.0
 40
1.348332046947657
 40
2.024828967632895
 40
2.703918159304097
 40
3.386347665078124
 40
4.072776489761952
 40
4.763750544421347
 40
5.459696642770596
 40
6.160921452191754
 40
6.867565637253344
 40
7.579665907256596
 40
8.297112853413899
 40
9.019671552060676
 40
9.746986763446127
 40
10.47859339096366
 40
11.21393074760089
 40
11.95235532364328
 40
12.69315551794651
 40
13.43556823304427
 40
14.1787950170388
 40
14.92202180103393
 40
15.66443451613169
 40
16.40523471043432
 40
17.14365928647669
 40
17.87899664311455
 40
18.61060327063121
 40
19.3379184820169
 40
20.06048192311554
 40
20.77792886927283
 40
21.49002913927608
 40
22.19667332433747
 40
22.89788836015233
 40
23.59383445850158
 40
24.28480851316097
 40
24.97123685067576
 40
25.65366676154838
 40
26.33276604526152
 40
27.00926273560555
 40
27.68398960851751
 40
28.357818684969
 40
28.357818684969
 40
28.357818684969
 40
28.357818684969
 10
-3.295089500324
 20
-5.85000048120081
 30
0.0
 10
-3.927290865667836
 20
-5.836673728990451
 30
0.0
 10
-4.876685816876736
 20
-5.816660562366473
 30
0.0
 10
-6.139137684939202
 20
-5.693443172077055
 30
0.0
 10
-7.08707438967471
 20
-5.569207265386535
 30
0.0
 10
-8.034930068388014
 20
-5.409709464637941
 30
0.0
 10
-8.982702224102693
 20
-5.217070669859367
 30
0.0
 10
-9.930385987927309
 20
-4.99221185860282
 30
0.0
 10
-10.87797977263396
 20
-4.736597843284096
 30
0.0
 10
-11.82547936109561
 20
-4.451798131796258
 30
0.0
 10
-12.77288664713667
 20
-4.139579157566062
 30
0.0
 10
-13.72019908251964
 20
-3.801866172417827
 30
0.0
 10
-14.6674318863256
 20
-3.440756997109828
 30
0.0
 10
-15.61458966229535
 20
-3.058471562297199
 30
0.0
 10
-16.561681120428
 20
-2.657367232256629
 30
0.0
 10
-17.50871678540136
 20
-2.239918565659204
 30
0.0
 10
-18.45570495708398
 20
-1.808692643111142
 30
0.0
 10
-19.40265485206008
 20
-1.366341731033601
 30
0.0
 10
-20.34957651069806
 20
-0.9155882400907042
 30
0.0
 10
-21.29647858318909
 20
-0.459203987399836
 30
0.0
 10
-22.24337269585411
 20
-0.0000004812932585
 30
0.0
 10
-23.19026680831111
 20
0.4592030253713442
 30
0.0
 10
-24.1371688814261
 20
0.9155872763889561
 30
0.0
 10
-25.08409053778341
 20
1.366340773446863
 30
0.0
 10
-26.03104044121634
 20
1.80869166284604
 30
0.0
 10
-26.97802858154189
 20
2.239917669483196
 30
0.0
 10
-27.9250643626411
 20
2.657366024669109
 30
0.0
 10
-28.87215745016247
 20
3.058472378607481
 30
0.0
 10
-29.81931890633038
 20
3.440754340163143
 30
0.0
 10
-30.7665533998545
 20
3.801865367115332
 30
0.0
 10
-31.71386581318133
 20
4.139578452751147
 30
0.0
 10
-32.6612692073809
 20
4.451794557955786
 30
0.0
 10
-33.60876248284762
 20
4.736598675053906
 30
0.0
 10
-34.55635239954
 20
4.992213734583852
 30
0.0
 10
-35.50403561489503
 20
5.217057834396485
 30
0.0
 10
-36.45180846545826
 20
5.40975250201669
 30
0.0
 10
-37.39967019345964
 20
5.569022537860623
 30
0.0
 10
-38.34760201371763
 20
5.69413304219014
 30
0.0
 10
-39.29559248205605
 20
5.783392799195534
 30
0.0
 10
-40.24361736174329
 20
5.839560542242937
 30
0.0
 10
-40.87578810499138
 20
5.846521404671091
 30
0.0
 10
-41.1916630438722
 20
5.849999518800119
 30
0.0
  0
SPLINE
  5
2E62
330
1F
100
AcDbEntity
  8
AM_0
100
AcDbSpline
210
0.0
220
0.0
230
1.0
 70
     8
 71
     3
 72
    55
 73
    51
 74
     0
 42
0.0000000001
 43
0.0000000001
 40
0.0
 40
0.0
 40
0.0
 40
0.0
 40
1.010743684496582
 40
2.022833576467832
 40
3.037578957496688
 40
4.056212745003489
 40
5.079857003664532
 40
6.109500240690281
 40
7.145961322679372
 40
8.189895241603872
 40
9.241717795325891
 40
10.30168407291828
 40
11.36983447792315
 40
12.44600489715814
 40
13.52984294512926
 40
14.62081576220742
 40
15.7182257034828
 40
16.82123173843959
 40
17.92886860250316
 40
19.0400688939571
 40
20.15368796660465
 40
21.26852814259644
 40
22.38336992938901
 40
23.49698739941135
 40
24.6081876908653
 40
25.71582455492886
 40
26.81883757994213
 40
27.91624752121713
 40
29.00722033829659
 40
30.09105838626677
 40
31.16722880550176
 40
32.23537921050758
 40
33.29534548809967
 40
34.347168041821
 40
35.39108718934584
 40
36.42754827133493
 40
37.45720575381954
 40
38.48085062012849
 40
39.49948440763516
 40
40.51422944315121
 40
41.52631975251916
 40
42.53706336719636
 40
43.54780698187354
 40
44.55989729124051
 40
45.57464232675757
 40
46.59327611426424
 40
47.6169209805722
 40
48.64656348684535
 40
49.68302456883444
 40
50.58557219878025
 40
50.58557219878025
 40
50.58557219878025
 40
50.58557219878025
 10
-5.948917167560567
 20
-5.850000481200744
 30
0.0
 10
-6.264792050251861
 20
-5.846519872925656
 30
0.0
 10
-6.896962528753585
 20
-5.839554020560342
 30
0.0
 10
-7.844988187619336
 20
-5.783401430345163
 30
0.0
 10
-8.792973378844196
 20
-5.694133480596126
 30
0.0
 10
-9.740899899092765
 20
-5.569021053907093
 30
0.0
 10
-10.68875828955056
 20
-5.409759663532614
 30
0.0
 10
-11.63652985109081
 20
-5.217057519495661
 30
0.0
 10
-12.58421775396735
 20
-4.992212732123324
 30
0.0
 10
-13.53181359410375
 20
-4.736602143313496
 30
0.0
 10
-14.47931091664532
 20
-4.451795186575116
 30
0.0
 10
-15.4267144443424
 20
-4.139579565734762
 30
0.0
 10
-16.37402671453059
 20
-3.801866061796075
 30
0.0
 10
-17.32125956311788
 20
-3.440757027106151
 30
0.0
 10
-18.26841732688911
 20
-3.058471554053057
 30
0.0
 10
-19.21550878858998
 20
-2.657367234957874
 30
0.0
 10
-20.16254445159293
 20
-2.239918563153448
 30
0.0
 10
-21.10953262758856
 20
-1.80869265046189
 30
0.0
 10
-22.05648250720506
 20
-1.366341703997277
 30
0.0
 10
-23.00340422320851
 20
-0.91558834128118
 30
0.0
 10
-23.95030608100374
 20
-0.4592036087441783
 30
0.0
 10
-24.89720145231173
 20
-0.0000016748127839
 30
0.0
 10
-25.8440925728518
 20
0.4592085250395991
 30
0.0
 10
-26.79099760445567
 20
0.9155861504591507
 30
0.0
 10
-27.73791815147157
 20
1.366340877580014
 30
0.0
 10
-28.68486971948922
 20
1.808693509204568
 30
0.0
 10
-29.63186182404606
 20
2.239915741738466
 30
0.0
 10
-30.5788989817215
 20
2.657366530588491
 30
0.0
 10
-31.52599058015086
 20
3.058470524429421
 30
0.0
 10
-32.47314830945807
 20
3.440756077875713
 30
0.0
 10
-33.42038116047086
 20
3.80186511309387
 30
0.0
 10
-34.36769345478782
 20
4.139578536280167
 30
0.0
 10
-35.31509688470249
 20
4.451794475921387
 30
0.0
 10
-36.26259013524864
 20
4.736598917817985
 30
0.0
 10
-37.21018011559925
 20
4.992212854488793
 30
0.0
 10
-38.15786766693276
 20
5.217062163206946
 30
0.0
 10
-39.10564599587962
 20
5.409742297984063
 30
0.0
 10
-40.0535075177937
 20
5.569052983125592
 30
0.0
 10
-41.00143431905009
 20
5.694017105181376
 30
0.0
 10
-41.94942016896388
 20
5.783827146670422
 30
0.0
 10
-42.89744502401684
 20
5.837944335504092
 30
0.0
 10
-43.84549071134109
 20
5.856023097607003
 30
0.0
 10
-44.79353639727039
 20
5.83794433547579
 30
0.0
 10
-45.74156125651622
 20
5.783827146784211
 30
0.0
 10
-46.68954709099304
 20
5.694017104752933
 30
0.0
 10
-47.63747395012638
 20
5.56905298473613
 30
0.0
 10
-48.58533063345355
 20
5.409743068594013
 30
0.0
 10
-49.53310522851452
 20
5.217064133257414
 30
0.0
 10
-50.43770348353416
 20
5.002419589575197
 30
0.0
 10
-51.02461713324865
 20
4.84544800560095
 30
0.0
 10
-51.29691085891457
 20
4.768948095195288
 30
0.0
  0
SPLINE
  5
2E63
330
1F
100
AcDbEntity
  8
AM_0
100
AcDbSpline
210
0.0
220
0.0
230
1.0
 70
     8
 71
     3
 72
    11
 73
     7
 74
     0
 42
0.0000000001
 43
0.0000000001
 40
11.27226913003534
 40
11.27226913003534
 40
11.27226913003534
 40
11.2722691300354
 40
12.28301561507924
 40
13.29510212255852
 40
14.30984805882082
 40
15.18258238371378
 40
15.18258238371378
 40
15.18258238371378
 40
15.18258238371378
 10
-23.80727936543614
 20
-5.850000481200308
 30
0.0
 10
-24.1219531321633
 20
-5.821368881201402
 30
0.0
 10
-24.75070713105626
 20
-5.752053023702164
 30
0.0
 10
-25.69059136096203
 20
-5.612225793889505
 30
0.0
 10
-26.58255806788228
 20
-5.445217499336103
 30
0.0
 10
-27.159429776523
 20
-5.316833252827206
 30
0.0
 10
-27.42526868627153
 20
-5.253414981152476
 30
0.0
  0
SPLINE
  5
2E64
330
1F
100
AcDbEntity
  8
AM_0
100
AcDbSpline
210
0.0
220
0.0
230
1.0
 70
     8
 71
     3
 72
    22
 73
    18
 74
     0
 42
0.0000000001
 43
0.0000000001
 40
17.17441611292
 40
17.17441611292
 40
17.17441611292
 40
17.17441611292
 40
17.38177636558528
 40
18.41823744757437
 40
19.46215659509824
 40
20.51397914882054
 40
21.57394542641293
 40
22.64209583141747
 40
23.71826625065247
 40
24.80210429862395
 40
25.8930771157021
 40
26.99048705697709
 40
28.09349309193389
 40
29.20112995599786
 40
30.31233024745139
 40
31.42594771747373
 40
32.5407895042663
 40
32.54078950426994
 40
32.54078950426994
 40
32.54078950426994
 10
-27.4256832905683
 20
-5.25334282144721
 30
0.0
 10
-27.48916443883948
 20
-5.239800645225564
 30
0.0
 10
-27.8696992536509
 20
-5.157313769663162
 30
0.0
 10
-28.56681759133401
 20
-4.991916848254661
 30
0.0
 10
-29.51440743618471
 20
-4.736302177202993
 30
0.0
 10
-30.46190072361933
 20
-4.451497934711539
 30
0.0
 10
-31.40930414288737
 20
-4.139281939480023
 30
0.0
 10
-32.3566164425348
 20
-3.801568537176364
 30
0.0
 10
-33.30384928287748
 20
-3.440459474358634
 30
0.0
 10
-34.25100704986979
 20
-3.058174011139816
 30
0.0
 10
-35.19809850697334
 20
-2.657069681024762
 30
0.0
 10
-36.14513418524469
 20
-2.239621043666562
 30
0.0
 10
-37.09212230438211
 20
-1.808395003360288
 30
0.0
 10
-38.03907239735204
 20
-1.366044535574351
 30
0.0
 10
-38.98599285804289
 20
-0.9152895949736972
 30
0.0
 10
-39.93289771425782
 20
-0.4589115831784851
 30
0.0
 10
-40.56404370767868
 20
-0.1528285314156553
 30
0.0
 10
-40.87979008473749
 20
0.0002970651875814
 30
0.0
  0
SPLINE
  5
2E65
330
1F
100
AcDbEntity
  8
AM_0
100
AcDbSpline
210
0.0
220
0.0
230
1.0
 70
     8
 71
     3
 72
    17
 73
    13
 74
     0
 42
0.0000000001
 43
0.0000000001
 40
1.580019955310467
 40
1.580019955310467
 40
1.580019955310467
 40
1.580019955310467
 40
2.030549285115227
 40
3.082371838836284
 40
4.126290986361125
 40
5.162752068350215
 40
6.192395305374981
 40
7.216039564037012
 40
8.234688489606833
 40
9.249433870634691
 40
10.26152376260694
 40
11.27226744710342
 40
11.27226744710342
 40
11.27226744710342
 40
11.27226744710352
 10
-14.87740161713957
 20
-4.317472743754136
 30
0.0
 10
-15.01153142388239
 20
-4.361939121370608
 30
0.0
 10
-15.45957004094779
 20
-4.507683613342316
 30
0.0
 10
-16.22448306920569
 20
-4.736289063828353
 30
0.0
 10
-17.17194101171809
 20
-4.99229684178525
 30
0.0
 10
-18.11965978851499
 20
-5.217037680257529
 30
0.0
 10
-19.06742198945541
 20
-5.409756848998385
 30
0.0
 10
-20.01528744738902
 20
-5.569052499467435
 30
0.0
 10
-20.9632183906272
 20
-5.694015601627119
 30
0.0
 10
-21.91120835963402
 20
-5.783836352762281
 30
0.0
 10
-22.85923399839162
 20
-5.8379365662668
 30
0.0
 10
-23.49140448691212
 20
-5.850000514674325
 30
0.0
 10
-23.80727936543609
 20
-5.850000481200308
 30
0.0
  0
ELLIPSE
  5
2E66
330
1F
100
AcDbEntity
  8
AM_0
 48
0.5
100
AcDbEllipse
 10
2.724860412701643
 20
7.023284430908384
 30
0.0
 11
-0.0000000000003248
 21
11.79035181999189
 31
0.0
210
0.0
220
0.0
230
1.0
 40
0.9615384615384609
 41
2.10116388002894
 42
2.509284810223832
  0
ELLIPSE
  5
2E67
330
1F
100
AcDbEntity
  8
AM_0
 48
0.5
100
AcDbEllipse
 10
4.951980812176119
 20
-1.300374893737275
 30
0.0
 11
8.953311714069737
 21
0.9892947591738529
 31
0.0
210
0.0
220
0.0
230
1.0
 40
0.733764546268279
 41
3.171793487574035
 42
3.746463824963346
  0
ELLIPSE
  5
2E68
330
1F
100
AcDbEntity
  8
AM_0
 48
0.5
100
AcDbEllipse
 10
-11.6957828823344
 20
15.9107020059071
 30
0.0
 11
0.00208387494017
 21
20.02763110723475
 31
0.0
210
0.0
220
0.0
230
0.9999999999999998
 40
0.9615420239644002
 41
3.687227597159469
 42
3.794408111267006
  0
ELLIPSE
  5
2E69
330
1F
100
AcDbEntity
  8
AM_0
 48
0.5
100
AcDbEllipse
 10
-2.097797015306439
 20
-1.524596310771737
 30
0.0
 11
-0.8062001312788764
 21
0.4972365181007701
 31
0.0
210
0.0
220
0.0
230
1.0
 40
0.5093978841822949
 41
4.507216240164901
 42
7.650656581494411
  0
ELLIPSE
  5
2E6A
330
1F
100
AcDbEntity
  8
AM_0
 48
0.5
100
AcDbEllipse
 10
-2.097797015306439
 20
-1.524596310771737
 30
0.0
 11
-0.1588994322878404
 21
0.9608646667288526
 31
0.0
210
0.0
220
0.0
230
1.0
 40
0.4818373534812637
 41
1.814282599439103
 42
4.949624489151079
  0
ELLIPSE
  5
2E6B
330
1F
100
AcDbEntity
  8
AM_0
 48
0.5
100
AcDbEllipse
 10
-1.699030517026558
 20
-5.985504992450415
 30
0.0
 11
5.96538145376162
 21
2.851740766466624
 31
0.0
210
0.0
220
0.0
230
0.9999999999999998
 40
0.6279119490632752
 41
1.409566376141167
 42
1.653322802897071
  0
SPLINE
  5
2E6C
330
1F
100
AcDbEntity
  8
AM_0
 48
0.5
100
AcDbSpline
210
0.0
220
0.0
230
1.0
 70
     8
 71
     3
 72
    10
 73
     6
 74
     0
 42
0.0000000001
 43
0.0000000001
 40
0.0
 40
0.0
 40
0.0
 40
0.0
 40
2.69986029516136
 40
4.147722969032201
 40
6.285750005020438
 40
6.285750005020438
 40
6.285750005020438
 40
6.285750005020438
 10
-7.05440213002384
 20
1.058818335937841
 30
0.0
 10
-6.379673128456399
 20
0.5153129106158656
 30
0.0
 10
-5.343105057623652
 20
-0.3196598990668146
 30
0.0
 10
-2.891760814799302
 20
0.0845650655901095
 30
0.0
 10
-3.353420237466443
 20
1.446048233478897
 30
0.0
 10
-3.566858292653073
 20
2.275914156860049
 30
0.0
  0
LINE
  5
2E6D
330
1F
100
AcDbEntity
  8
AM_11
 48
0.5
100
AcDbLine
 10
-88.98754962596965
 20
5.849999518801181
 30
0.0
 11
-77.59514023579751
 21
5.849999518800895
 31
0.0
  0
LINE
  5
2E6E
330
1F
100
AcDbEntity
  8
AM_11
 48
0.5
100
AcDbLine
 10
-90.67988046491654
 20
-5.850000481198751
 30
0.0
 11
-77.59514023579777
 21
-5.850000481199105
 31
0.0
  0
POLYLINE
  5
2E6F
330
1F
100
AcDbEntity
  8
AM_0
100
AcDb2dPolyline
 66
     1
 10
0.0
 20
0.0
 30
0.0
 70
     2
  0
VERTEX
  5
2E70
330
2E6F
100
AcDbEntity
  8
AM_0
100
AcDbVertex
100
AcDb2dVertex
 10
-95.93645110763011
 20
5.540082805288123
 30
0.0
 42
0.0276737331564208
  0
VERTEX
  5
2E71
330
2E6F
100
AcDbEntity
  8
AM_0
100
AcDbVertex
100
AcDb2dVertex
 10
-96.40748357144964
 20
5.43881445787164
 30
0.0
 42
0.0414024687830266
 70
     1
  0
VERTEX
  5
2E72
330
2E6F
100
AcDbEntity
  8
AM_0
100
AcDbVertex
100
AcDb2dVertex
 10
-96.71028194226874
 20
5.32839869745763
 30
0.0
 42
0.0280074108471844
  0
VERTEX
  5
2E73
330
2E6F
100
AcDbEntity
  8
AM_0
100
AcDbVertex
100
AcDb2dVertex
 10
-97.40067338982671
 20
4.961683361713456
 30
0.0
 42
0.0427564762256376
 70
     1
  0
VERTEX
  5
2E74
330
2E6F
100
AcDbEntity
  8
AM_0
100
AcDbVertex
100
AcDb2dVertex
 10
-97.7420563884536
 20
4.577748705687215
 30
0.0
 42
0.0658714570033076
  0
VERTEX
  5
2E75
330
2E6F
100
AcDbEntity
  8
AM_0
100
AcDbVertex
100
AcDb2dVertex
 10
-97.95631225453552
 20
4.318254564964163
 30
0.0
 42
0.1411961588081283
 70
     1
  0
VERTEX
  5
2E76
330
2E6F
100
AcDbEntity
  8
AM_0
100
AcDbVertex
100
AcDb2dVertex
 10
-97.99999999999986
 20
4.165016817197787
 30
0.0
 42
0.1226739033459629
  0
VERTEX
  5
2E77
330
2E6F
100
AcDbEntity
  8
AM_0
100
AcDbVertex
100
AcDb2dVertex
 10
-97.95737978441811
 20
3.996533535376057
 30
0.0
 42
0.0555312784770531
 70
     1
  0
VERTEX
  5
2E78
330
2E6F
100
AcDbEntity
  8
AM_0
100
AcDbVertex
100
AcDb2dVertex
 10
-97.74205638845366
 20
3.683962901706742
 30
0.0
 42
0.0351528005485752
  0
VERTEX
  5
2E79
330
2E6F
100
AcDbEntity
  8
AM_0
100
AcDbVertex
100
AcDb2dVertex
 10
-97.39406342727427
 20
3.335346451374906
 30
0.0
 42
0.0197318127063559
 70
     1
  0
VERTEX
  5
2E7A
330
2E6F
100
AcDbEntity
  8
AM_0
100
AcDbVertex
100
AcDb2dVertex
 10
-96.71028194226883
 20
2.786258797380382
 30
0.0
 42
0.0358460074876439
  0
VERTEX
  5
2E7B
330
2E6F
100
AcDbEntity
  8
AM_0
100
AcDbVertex
100
AcDb2dVertex
 10
-96.42982917906167
 20
2.608266233490293
 30
0.0
 42
0.021710998496176
 70
     1
  0
VERTEX
  5
2E7C
330
2E6F
100
AcDbEntity
  8
AM_0
100
AcDbVertex
100
AcDb2dVertex
 10
-95.93645110763024
 20
2.369608608545066
 30
0.0
  0
SEQEND
  5
2E7D
330
2E6F
100
AcDbEntity
  8
AM_0
  0
POLYLINE
  5
2E7E
330
1F
100
AcDbEntity
  8
AM_0
100
AcDb2dPolyline
 66
     1
 10
0.0
 20
0.0
 30
0.0
 70
     2
  0
VERTEX
  5
2E7F
330
2E7E
100
AcDbEntity
  8
AM_0
100
AcDbVertex
100
AcDb2dVertex
 10
-96.89944059073621
 20
-4.46830550558199
 30
0.0
 42
0.0351157762658453
  0
VERTEX
  5
2E80
330
2E7E
100
AcDbEntity
  8
AM_0
100
AcDbVertex
100
AcDb2dVertex
 10
-97.12870049837951
 20
-4.421547634877565
 30
0.0
 42
0.044786481860755
 70
     1
  0
VERTEX
  5
2E81
330
2E7E
100
AcDbEntity
  8
AM_0
100
AcDbVertex
100
AcDb2dVertex
 10
-97.31215036921014
 20
-4.413887507116197
 30
0.0
 42
0.0378244354854128
  0
VERTEX
  5
2E82
330
2E7E
100
AcDbEntity
  8
AM_0
100
AcDbVertex
100
AcDb2dVertex
 10
-97.68980077460916
 20
-4.460621359225263
 30
0.0
 42
0.0785304530199817
 70
     1
  0
VERTEX
  5
2E83
330
2E7E
100
AcDbEntity
  8
AM_0
100
AcDbVertex
100
AcDb2dVertex
 10
-97.86243007384207
 20
-4.524642768655316
 30
0.0
 42
0.0914341172496281
  0
VERTEX
  5
2E84
330
2E7E
100
AcDbEntity
  8
AM_0
100
AcDbVertex
100
AcDb2dVertex
 10
-97.97333661122639
 20
-4.616919261389785
 30
0.0
 42
0.1734786634335468
 70
     1
  0
VERTEX
  5
2E85
330
2E7E
100
AcDbEntity
  8
AM_0
100
AcDbVertex
100
AcDb2dVertex
 10
-98.00000000000002
 20
-4.689816028660204
 30
0.0
 42
0.1707159826348874
  0
VERTEX
  5
2E86
330
2E7E
100
AcDbEntity
  8
AM_0
100
AcDbVertex
100
AcDb2dVertex
 10
-97.97438376207722
 20
-4.764093048097251
 30
0.0
 42
0.0878858945849485
 70
     1
  0
VERTEX
  5
2E87
330
2E7E
100
AcDbEntity
  8
AM_0
100
AcDbVertex
100
AcDb2dVertex
 10
-97.86243007384207
 20
-4.863256746907453
 30
0.0
 42
0.0737173247185441
  0
VERTEX
  5
2E88
330
2E7E
100
AcDbEntity
  8
AM_0
100
AcDbVertex
100
AcDb2dVertex
 10
-97.68594566472108
 20
-4.938419803418617
 30
0.0
 42
0.037064748993984
 70
     1
  0
VERTEX
  5
2E89
330
2E7E
100
AcDbEntity
  8
AM_0
100
AcDbVertex
100
AcDb2dVertex
 10
-97.31215036921014
 20
-5.007081841415918
 30
0.0
 42
0.0449345368811406
  0
VERTEX
  5
2E8A
330
2E7E
100
AcDbEntity
  8
AM_0
100
AcDbVertex
100
AcDb2dVertex
 10
-97.13192534580011
 20
-5.010330612009116
 30
0.0
 42
0.0344667769950814
 70
     1
  0
VERTEX
  5
2E8B
330
2E7E
100
AcDbEntity
  8
AM_0
100
AcDbVertex
100
AcDb2dVertex
 10
-96.89944059073621
 20
-4.977466217677165
 30
0.0
  0
SEQEND
  5
2E8C
330
2E7E
100
AcDbEntity
  8
AM_0
  0
LINE
  5
2E8D
330
1F
100
AcDbEntity
  8
AM_0
100
AcDbLine
 10
-88.98754962596965
 20
5.849999518801181
 30
0.0
 11
-97.74019154540452
 21
5.849999518801318
 31
0.0
  0
LINE
  5
2E8E
330
1F
100
AcDbEntity
  8
AM_0
100
AcDbLine
 10
-90.67988046491654
 20
-5.850000481198751
 30
0.0
 11
-97.74019321232485
 21
-5.850000481198666
 31
0.0
  0
ELLIPSE
  5
2E8F
330
1F
100
AcDbEntity
  8
AM_0
100
AcDbEllipse
 10
-96.4811100859486
 20
-6.444872187260696
 30
0.0
 11
1.432042771903809
 21
0.869347993942768
 31
0.0
210
0.0
220
0.0
230
1.0
 40
0.9050324402296382
 41
1.327308539275091
 42
2.261682329596451
  0
SPLINE
  5
2E90
330
1F
100
AcDbEntity
  8
AM_0
100
AcDbSpline
210
0.0
220
0.0
230
1.0
 70
     8
 71
     3
 72
    15
 73
    11
 74
     0
 42
0.0000000001
 43
0.0000000001
 40
5.241236682593577
 40
5.241236682593577
 40
5.241236682593577
 40
5.241236682593577
 40
5.954688180526682
 40
6.824620803463244
 40
7.701151815239697
 40
8.58445704656667
 40
9.47458238407075
 40
10.37139106676736
 40
11.27458944007584
 40
12.17321262433756
 40
12.17321262433756
 40
12.17321262433756
 40
12.17321262433756
 10
-88.94716898284833
 20
-0.5195806373504441
 30
0.0
 10
-89.26688016133125
 20
-0.579925055558482
 30
0.0
 10
-89.97444774381021
 20
-0.7217511932625099
 30
0.0
 10
-91.06649806661403
 20
-0.9677075376323397
 30
0.0
 10
-92.22514205256407
 20
-1.258486810162207
 30
0.0
 10
-93.38367316707252
 20
-1.577261031253925
 30
0.0
 10
-94.54208829404288
 20
-1.922064527129247
 30
0.0
 10
-95.70040604403397
 20
-2.290755431875515
 30
0.0
 10
-96.85413414365934
 20
-2.679551452923168
 30
0.0
 10
-97.61943107672955
 20
-2.950089951153536
 30
0.0
 10
-97.99999999999997
 20
-3.08732731017876
 30
0.0
  0
SPLINE
  5
2E91
330
1F
100
AcDbEntity
  8
AM_0
100
AcDbSpline
210
0.0
220
0.0
230
1.0
 70
     8
 71
     3
 72
     9
 73
     5
 74
     0
 42
0.0000000001
 43
0.0000000001
 40
1.580019955310467
 40
1.580019955310467
 40
1.580019955310467
 40
1.580019955310467
 40
2.030549285115227
 40
2.43907978603305
 40
2.43907978603305
 40
2.43907978603305
 40
2.43907978603305
 10
-95.95767643878533
 20
-4.730341130731344
 30
0.0
 10
-96.12169623975592
 20
-4.775230997658455
 30
0.0
 10
-96.4349802114998
 20
-4.859362852375172
 30
0.0
 10
-96.74957389694663
 20
-4.939909169838566
 30
0.0
 10
-96.89944059073619
 20
-4.977466217677122
 30
0.0
  0
SPLINE
  5
2E92
330
1F
100
AcDbEntity
  8
AM_0
100
AcDbSpline
210
0.0
220
0.0
230
1.0
 70
     8
 71
     3
 72
    14
 73
    10
 74
     0
 42
0.0000000001
 43
0.0000000001
 40
4.945401553178233
 40
4.945401553178233
 40
4.945401553178233
 40
4.945401553178233
 40
5.079857003664532
 40
6.109500240690281
 40
7.145961322679372
 40
8.189895241603872
 40
9.241717795325891
 40
10.30168407291828
 40
10.55450228288433
 40
10.55450228288433
 40
10.55450228288433
 40
10.55450228288433
 10
-90.67988046470397
 20
-5.850000481195117
 30
0.0
 10
-90.73053051861595
 20
-5.842488940432029
 30
0.0
 10
-91.16864789088591
 20
-5.776206475636083
 30
0.0
 10
-91.99408631799585
 20
-5.637654366635572
 30
0.0
 10
-93.15296058305834
 20
-5.410668200335876
 30
0.0
 10
-94.31172226977089
 20
-5.152623224965958
 30
0.0
 10
-95.47036348485463
 20
-4.86510382102054
 30
0.0
 10
-96.33184534343854
 20
-4.630728785283065
 30
0.0
 10
-96.80785349115303
 20
-4.494712679817207
 30
0.0
 10
-96.8994405907358
 20
-4.468305505580556
 30
0.0
  0
SPLINE
  5
2E93
330
1F
100
AcDbEntity
  8
AM_0
100
AcDbSpline
210
0.0
220
0.0
230
1.0
 70
     8
 71
     3
 72
    16
 73
    12
 74
     0
 42
0.0000000001
 43
0.0000000001
 40
4.415514848569964
 40
4.415514848569964
 40
4.415514848569964
 40
4.415514848569964
 40
5.09097061220244
 40
5.954688180526682
 40
6.824620803463244
 40
7.701151815239697
 40
8.58445704656667
 40
9.47458238407075
 40
10.37139106676736
 40
11.27458944007584
 40
12.17321262433756
 40
12.17321262433756
 40
12.17321262433756
 40
12.17321262433756
 10
-87.83362498107129
 20
-5.850000481198858
 30
0.0
 10
-88.13817575724637
 20
-5.800899223252761
 30
0.0
 10
-88.83051022439525
 20
-5.68133421336123
 30
0.0
 10
-89.90773889337097
 20
-5.467927885791608
 30
0.0
 10
-91.06649806661406
 20
-5.206947082705374
 30
0.0
 10
-92.22514205256409
 20
-4.916167810175472
 30
0.0
 10
-93.38367316707257
 20
-4.597393589083718
 30
0.0
 10
-94.54208829404292
 20
-4.252590093208362
 30
0.0
 10
-95.70040604403402
 20
-3.883899188462057
 30
0.0
 10
-96.85413414365939
 20
-3.495103167414378
 30
0.0
 10
-97.61943107672962
 20
-3.224564669183998
 30
0.0
 10
-97.99999999999997
 20
-3.087327310158765
 30
0.0
  0
ELLIPSE
  5
2E95
330
1F
100
AcDbEntity
  8
AM_0
100
AcDbEllipse
 10
-95.53378715893868
 20
21.21861203182233
 30
0.0
 11
0.2625757376389137
 21
15.6397447914746
 31
0.0
210
0.0
220
0.0
230
1.0
 40
0.6190317160262654
 41
2.965224372002878
 42
3.176344026486415
  0
SPLINE
  5
2E96
330
1F
100
AcDbEntity
  8
AM_0
100
AcDbSpline
210
0.0
220
0.0
230
1.0
 70
     8
 71
     3
 72
    22
 73
    18
 74
     0
 42
0.0000000001
 43
0.0000000001
 40
30.51371389116273
 40
30.51371389116273
 40
30.51371389116273
 40
30.51371389116273
 40
31.16722880550176
 40
32.23537921050758
 40
33.29534548809967
 40
34.347168041821
 40
35.39108718934584
 40
36.42754827133493
 40
37.45720575381954
 40
38.48085062012849
 40
39.49948440763516
 40
40.51422944315121
 40
41.52631975251916
 40
42.53706336719636
 40
43.54780698187354
 40
44.55989729124051
 40
45.14939243453665
 40
45.14939243453665
 40
45.14939243453665
 40
45.14939243453665
 10
-74.62870400681379
 20
-0.000000013966527
 30
0.0
 10
-78.87540908959962
 20
2.529040892750131
 30
0.0
 10
-78.92325641015206
 20
2.574334905287316
 30
0.0
 10
-80.73872758963178
 20
3.582229838237411
 30
0.0
 10
-81.89725398870004
 20
3.897419263018067
 30
0.0
 10
-83.51616059631357
 20
4.452964189443296
 30
0.0
 10
-84.8319351066687
 20
4.80244959083342
 30
0.0
 10
-85.99080894184901
 20
5.029440321539383
 30
0.0
 10
-87.1497937838699
 20
5.223955505219145
 30
0.0
 10
-88.30888035789397
 20
5.384783434981078
 30
0.0
 10
-89.46804675835629
 20
5.510937691532642
 30
0.0
 10
-90.62728536610242
 20
5.60160306675014
 30
0.0
 10
-91.78657167104075
 20
5.656235657382235
 30
0.0
 10
-92.94588345059262
 20
5.674486598171856
 30
0.0
 10
-94.10519522843868
 20
5.656235657353675
 30
0.0
 10
-95.10218571509632
 20
5.609251428776404
 30
0.0
 10
-95.71215662166222
 20
5.565531400452031
 30
0.0
 10
-95.93645110763011
 20
5.540082805288123
 30
0.0
  0
SPLINE
  5
2E97
330
1F
100
AcDbEntity
  8
AM_0
100
AcDbSpline
210
0.0
220
0.0
230
1.0
 70
     8
 71
     3
 72
    22
 73
    18
 74
     0
 42
0.0000000001
 43
0.0000000001
 40
17.17441611292
 40
17.17441611292
 40
17.17441611292
 40
17.17441611292
 40
17.38177636558528
 40
18.41823744757437
 40
19.46215659509824
 40
20.51397914882054
 40
21.57394542641293
 40
22.64209583141747
 40
23.71826625065247
 40
24.80210429862395
 40
25.8930771157021
 40
26.99048705697709
 40
28.09349309193389
 40
29.20112995599786
 40
30.31233024745139
 40
31.42594771747373
 40
32.5407895042663
 40
32.54078950426994
 40
32.54078950426994
 40
32.54078950426994
 10
-61.17520979257189
 20
-5.253342821446502
 30
0.0
 10
-61.23869094084307
 20
-5.239800645224856
 30
0.0
 10
-61.61922575565451
 20
-5.157313769662447
 30
0.0
 10
-62.31634409333762
 20
-4.991916848253946
 30
0.0
 10
-63.26393393818833
 20
-4.736302177202283
 30
0.0
 10
-64.21142722562297
 20
-4.451497934710831
 30
0.0
 10
-65.15883064489099
 20
-4.139281939479315
 30
0.0
 10
-66.10614294453842
 20
-3.801568537175652
 30
0.0
 10
-67.05337578488112
 20
-3.440459474357921
 30
0.0
 10
-68.00053355187344
 20
-3.058174011139107
 30
0.0
 10
-68.94762500897693
 20
-2.657069681024052
 30
0.0
 10
-69.89466068724826
 20
-2.23962104366585
 30
0.0
 10
-70.84164880638565
 20
-1.808395003359578
 30
0.0
 10
-71.7885988993556
 20
-1.366044535573641
 30
0.0
 10
-72.7355193600465
 20
-0.9152895949729868
 30
0.0
 10
-73.68242421626144
 20
-0.4589115831777744
 30
0.0
 10
-74.3135702096823
 20
-0.1528285314149449
 30
0.0
 10
-74.6293165867411
 20
0.000297065188292
 30
0.0
  0
SPLINE
  5
2E98
330
1F
100
AcDbEntity
  8
AM_0
100
AcDbSpline
210
0.0
220
0.0
230
1.0
 70
     8
 71
     3
 72
    46
 73
    42
 74
     0
 42
0.0000000001
 43
0.0000000001
 40
0.0
 40
0.0
 40
0.0
 40
0.0
 40
1.348332046947654
 40
2.024828967632893
 40
2.703918159304094
 40
3.386347665078122
 40
4.072776489761951
 40
4.763750544421345
 40
5.459696642770595
 40
6.160921452191748
 40
6.867565637253344
 40
7.579665907256597
 40
8.297112853413899
 40
9.019671552060666
 40
9.746986763446125
 40
10.47859339096365
 40
11.21393074760088
 40
11.95235532364327
 40
12.69315551794651
 40
13.43556823304427
 40
14.1787950170388
 40
14.92202180103393
 40
15.66443451613169
 40
16.40523471043432
 40
17.14365928647669
 40
17.87899664311455
 40
18.61060327063121
 40
19.33791848201689
 40
20.06048192311554
 40
20.77792886927282
 40
21.49002913927608
 40
22.19667332433747
 40
22.89788836015233
 40
23.59383445850157
 40
24.28480851316097
 40
24.97123685067575
 40
25.65366676154837
 40
26.33276604526151
 40
27.00926273560554
 40
27.68398960851752
 40
28.35781868496899
 40
28.35781868496899
 40
28.35781868496899
 40
28.35781868496899
 10
-37.0446160023276
 20
-5.850000481200103
 30
0.0
 10
-37.67681736767143
 20
-5.836673728989737
 30
0.0
 10
-38.62621231888033
 20
-5.816660562365758
 30
0.0
 10
-39.88866418694279
 20
-5.693443172076345
 30
0.0
 10
-40.83660089167831
 20
-5.569207265385827
 30
0.0
 10
-41.78445657039161
 20
-5.409709464637229
 30
0.0
 10
-42.7322287261063
 20
-5.217070669858657
 30
0.0
 10
-43.67991248993092
 20
-4.992211858602104
 30
0.0
 10
-44.62750627463755
 20
-4.736597843283382
 30
0.0
 10
-45.57500586309923
 20
-4.451798131795544
 30
0.0
 10
-46.52241314914028
 20
-4.139579157565355
 30
0.0
 10
-47.46972558452323
 20
-3.801866172417117
 30
0.0
 10
-48.41695838832921
 20
-3.44075699710912
 30
0.0
 10
-49.36411616429894
 20
-3.05847156229648
 30
0.0
 10
-50.31120762243161
 20
-2.65736723225593
 30
0.0
 10
-51.25824328740499
 20
-2.239918565658485
 30
0.0
 10
-52.20523145908757
 20
-1.808692643110438
 30
0.0
 10
-53.15218135406365
 20
-1.366341731032884
 30
0.0
 10
-54.09910301270162
 20
-0.9155882400899972
 30
0.0
 10
-55.04600508519269
 20
-0.4592039873991251
 30
0.0
 10
-55.99289919785772
 20
-0.0000004812925467
 30
0.0
 10
-56.93979331031473
 20
0.4592030253720535
 30
0.0
 10
-57.88669538342974
 20
0.9155872763896669
 30
0.0
 10
-58.83361703978704
 20
1.366340773447574
 30
0.0
 10
-59.78056694321994
 20
1.808691662846749
 30
0.0
 10
-60.72755508354549
 20
2.239917669483908
 30
0.0
 10
-61.6745908646447
 20
2.657366024669817
 30
0.0
 10
-62.62168395216606
 20
3.058472378608189
 30
0.0
 10
-63.56884540833401
 20
3.440754340163855
 30
0.0
 10
-64.51607990185808
 20
3.80186536711604
 30
0.0
 10
-65.46339231518492
 20
4.139578452751858
 30
0.0
 10
-66.4107957093845
 20
4.451794557956493
 30
0.0
 10
-67.35828898485124
 20
4.736598675054621
 30
0.0
 10
-68.30587890154363
 20
4.992213734584569
 30
0.0
 10
-69.25356211689865
 20
5.217057834397191
 30
0.0
 10
-70.20133496746189
 20
5.409752502017399
 30
0.0
 10
-71.14919669546324
 20
5.56902253786133
 30
0.0
 10
-72.09712851572125
 20
5.694133042190854
 30
0.0
 10
-73.04511898405967
 20
5.783392799196243
 30
0.0
 10
-73.99314386374692
 20
5.839560542243648
 30
0.0
 10
-74.62531460699501
 20
5.846521404671805
 30
0.0
 10
-74.9411895458758
 20
5.84999951880083
 30
0.0
  0
LINE
  5
2E99
330
1F
100
AcDbEntity
  8
AM_0
100
AcDbLine
 10
-77.59514023579751
 20
5.849999518800895
 30
0.0
 11
-55.24199027022651
 21
5.850830617466955
 31
0.0
  0
LINE
  5
2E9A
330
1F
100
AcDbEntity
  8
AM_0
 48
0.5
100
AcDbLine
 10
-77.5951473883884
 20
-5.850000481199027
 30
0.0
 11
-57.55680586744141
 21
-5.850000481199448
 31
0.0
  0
SPLINE
  5
2E9B
330
1F
100
AcDbEntity
  8
AM_0
100
AcDbSpline
210
0.0
220
0.0
230
1.0
 70
     8
 71
     3
 72
    55
 73
    51
 74
     0
 42
0.0000000001
 43
0.0000000001
 40
0.0
 40
0.0
 40
0.0
 40
0.0
 40
1.010743684496582
 40
2.022833576467832
 40
3.037578957496688
 40
4.056212745003489
 40
5.079857003664532
 40
6.109500240690281
 40
7.145961322679372
 40
8.189895241603872
 40
9.241717795325891
 40
10.30168407291828
 40
11.36983447792315
 40
12.44600489715814
 40
13.52984294512926
 40
14.62081576220742
 40
15.7182257034828
 40
16.82123173843959
 40
17.92886860250316
 40
19.0400688939571
 40
20.15368796660465
 40
21.26852814259644
 40
22.38336992938901
 40
23.49698739941135
 40
24.6081876908653
 40
25.71582455492886
 40
26.81883757994213
 40
27.91624752121713
 40
29.00722033829659
 40
30.09105838626677
 40
31.16722880550176
 40
32.23537921050758
 40
33.29534548809967
 40
34.347168041821
 40
35.39108718934584
 40
36.42754827133493
 40
37.45720575381954
 40
38.48085062012849
 40
39.49948440763516
 40
40.51422944315121
 40
41.52631975251916
 40
42.53706336719636
 40
43.54780698187354
 40
44.55989729124051
 40
45.57464232675757
 40
46.59327611426424
 40
47.6169209805722
 40
48.64656348684535
 40
49.68302456883444
 40
50.43701433679709
 40
50.43701433679709
 40
50.43701433679709
 40
50.43701433679709
 10
-39.69844366956416
 20
-5.850000481200036
 30
0.0
 10
-40.01431855225546
 20
-5.846519872924941
 30
0.0
 10
-40.64648903075718
 20
-5.839554020559626
 30
0.0
 10
-41.59451468962293
 20
-5.783401430344454
 30
0.0
 10
-42.54249988084779
 20
-5.694133480595416
 30
0.0
 10
-43.49042640109637
 20
-5.569021053906384
 30
0.0
 10
-44.43828479155417
 20
-5.409759663531906
 30
0.0
 10
-45.38605635309442
 20
-5.217057519494951
 30
0.0
 10
-46.33374425597096
 20
-4.99221273212261
 30
0.0
 10
-47.28134009610735
 20
-4.736602143312782
 30
0.0
 10
-48.22883741864893
 20
-4.451795186574406
 30
0.0
 10
-49.176240946346
 20
-4.139579565734052
 30
0.0
 10
-50.12355321653418
 20
-3.801866061795365
 30
0.0
 10
-51.07078606512147
 20
-3.440757027105439
 30
0.0
 10
-52.01794382889273
 20
-3.058471554052348
 30
0.0
 10
-52.9650352905936
 20
-2.657367234957165
 30
0.0
 10
-53.91207095359655
 20
-2.239918563152735
 30
0.0
 10
-54.85905912959217
 20
-1.80869265046118
 30
0.0
 10
-55.80600900920866
 20
-1.366341703996567
 30
0.0
 10
-56.7529307252121
 20
-0.9155883412804696
 30
0.0
 10
-57.69983258300735
 20
-0.4592036087434678
 30
0.0
 10
-58.64672795431535
 20
-0.0000016748120734
 30
0.0
 10
-59.5936190748554
 20
0.4592085250403096
 30
0.0
 10
-60.5405241064593
 20
0.9155861504598613
 30
0.0
 10
-61.48744465347519
 20
1.366340877580725
 30
0.0
 10
-62.43439622149281
 20
1.808693509205278
 30
0.0
 10
-63.38138832604966
 20
2.239915741739176
 30
0.0
 10
-64.32842548372509
 20
2.657366530589199
 30
0.0
 10
-65.2755170821544
 20
3.058470524430133
 30
0.0
 10
-66.22267481146164
 20
3.440756077876425
 30
0.0
 10
-67.16990766247443
 20
3.80186511309458
 30
0.0
 10
-68.11721995679142
 20
4.139578536280875
 30
0.0
 10
-69.0646233867061
 20
4.451794475922097
 30
0.0
 10
-70.01211663725223
 20
4.7365989178187
 30
0.0
 10
-70.95970661760286
 20
4.99221285448951
 30
0.0
 10
-71.90739416893638
 20
5.217062163207654
 30
0.0
 10
-72.85517249788324
 20
5.409742297984772
 30
0.0
 10
-73.80303401979732
 20
5.5690529831263
 30
0.0
 10
-74.75096082105372
 20
5.694017105182084
 30
0.0
 10
-75.6989466709675
 20
5.783827146671131
 30
0.0
 10
-76.64697152602046
 20
5.837944335504805
 30
0.0
 10
-77.59501721334467
 20
5.856023097607711
 30
0.0
 10
-78.543062899274
 20
5.837944335476499
 30
0.0
 10
-79.49108775851984
 20
5.78382714678492
 30
0.0
 10
-80.43907359299666
 20
5.694017104753642
 30
0.0
 10
-81.38700045212999
 20
5.56905298473684
 30
0.0
 10
-82.33485713545716
 20
5.409743068594728
 30
0.0
 10
-83.28263173051812
 20
5.217064133258128
 30
0.0
 10
-84.14196189142984
 20
5.013160876494425
 30
0.0
 10
-84.68418732840966
 20
4.869402414174555
 30
0.0
 10
-84.91190741493445
 20
4.80644333004511
 30
0.0
  0
SPLINE
  5
2E9C
330
1F
100
AcDbEntity
  8
AM_0
100
AcDbSpline
210
0.0
220
0.0
230
1.0
 70
     8
 71
     3
 72
    21
 73
    17
 74
     0
 42
0.0000000001
 43
0.0000000001
 40
17.76287965763106
 40
17.76287965763106
 40
17.76287965763106
 40
17.76287965763106
 40
18.41823744757437
 40
19.46215659509824
 40
20.51397914882054
 40
21.57394542641293
 40
22.64209583141747
 40
23.71826625065247
 40
24.80210429862395
 40
25.8930771157021
 40
26.99048705697709
 40
28.09349309193389
 40
29.20112995599786
 40
30.31233024745139
 40
31.42594771747373
 40
32.5407895042663
 40
32.54078950426994
 40
32.54078950426994
 40
32.54078950426994
 10
-72.77112321463055
 20
-5.850000481199126
 30
0.0
 10
-73.18221571240576
 20
-5.737517111648648
 30
0.0
 10
-74.40344160421131
 20
-5.378971991089038
 30
0.0
 10
-75.4212072912408
 20
-5.152320402036116
 30
0.0
 10
-76.57984357201911
 20
-4.86480373818759
 30
0.0
 10
-77.73836995806819
 20
-4.549614257287205
 30
0.0
 10
-78.8967849190552
 20
-4.208684536866365
 30
0.0
 10
-80.05510271372504
 20
-3.844136340117024
 30
0.0
 10
-81.2133287054147
 20
-3.458210062962785
 30
0.0
 10
-82.37147361046879
 20
-3.053285691608539
 30
0.0
 10
-83.52955030672431
 20
-2.631861352942157
 30
0.0
 10
-84.68756884558848
 20
-2.196528397966292
 30
0.0
 10
-85.84554088438997
 20
-1.749965068582378
 30
0.0
 10
-87.00347668754305
 20
-1.294917223785527
 30
0.0
 10
-88.16139340885966
 20
-0.8341927547351239
 30
0.0
 10
-88.93318636628022
 20
-0.5251946262888313
 30
0.0
 10
-89.31929486207245
 20
-0.3706106906703273
 30
0.0
  0
DIMENSION
  5
2F30
330
1F
100
AcDbEntity
  8
AM_5
100
AcDbDimension
  2
*D9
 10
-0.6556992300417855
 20
-1.801514962438432
 30
0.0
 11
31.69084247637007
 21
-0.0000157686618273
 31
0.0
 70
    34
  1
<>
 51
359.9999999999998
  3
AM_JIS$2
100
AcDb2LineAngularDimension
 13
-0.0000000000000284
 23
0.0000000000000782
 33
0.0
 14
-0.6556848755426237
 24
1.801480604883472
 34
0.0
 15
-0.0000000000000284
 25
0.0000000000000782
 35
0.0
 16
31.94551926556504
 26
13.77993175125549
 36
0.0
1001
GENIUS_GENDTOL_13
1000

1000
h7
1000

1040
0.0
1001
ACAD
1000
DSTYLE
1002
{
1070
   271
1070
     0
1002
}
  0
ELLIPSE
  5
3032
330
1F
100
AcDbEntity
  8
AM_11
 48
0.5
100
AcDbEllipse
 10
-156.2534427026573
 20
23.85166937466865
 30
0.0
 11
-26.63799285888635
 21
0.0000000000003979
 31
0.0
210
0.0
220
0.0
230
1.0
 40
0.9900000000000002
 41
1.429681313187787
 42
2.011520147323597
  0
ELLIPSE
  5
3033
330
1F
100
AcDbEntity
  8
AM_11
 48
0.5
100
AcDbEllipse
 10
-156.253442702658
 20
-23.85156472567294
 30
0.0
 11
-26.63799285888627
 21
0.0000000000015277
 31
0.0
210
0.0
220
0.0
230
1.0
 40
0.9900000000000032
 41
4.271664206181728
 42
4.853503993991846
  0
ELLIPSE
  5
3034
330
1F
100
AcDbEntity
  8
AM_11
 48
0.5
100
AcDbEllipse
 10
-133.5261229292479
 20
23.85164740650103
 30
0.0
 11
-26.63799285888635
 21
0.0000000000003979
 31
0.0
210
0.0
220
0.0
230
1.0
 40
0.9900000000000002
 41
1.130070686340306
 42
2.011520147323597
  0
ELLIPSE
  5
3035
330
1F
100
AcDbEntity
  8
AM_11
 48
0.5
100
AcDbEllipse
 10
-133.5261229292485
 20
-23.85158669384055
 30
0.0
 11
-26.63799285888627
 21
0.0000000000015277
 31
0.0
210
0.0
220
0.0
230
1.0
 40
0.9900000000000032
 41
4.271664206181728
 42
5.153113667165039
  0
ELLIPSE
  5
3036
330
1F
100
AcDbEntity
  8
AM_11
 48
0.5
100
AcDbEllipse
 10
-110.7988031558384
 20
23.85162543833342
 30
0.0
 11
-26.63799285888635
 21
0.0000000000003979
 31
0.0
210
0.0
220
0.0
230
1.0
 40
0.9900000000000002
 41
1.130070686340306
 42
2.011520147323597
  0
ELLIPSE
  5
3037
330
1F
100
AcDbEntity
  8
AM_11
 48
0.5
100
AcDbEllipse
 10
-110.798803155839
 20
-23.85160866200817
 30
0.0
 11
-26.63799285888627
 21
0.0000000000015277
 31
0.0
210
0.0
220
0.0
230
1.0
 40
0.9900000000000032
 41
4.271664206181728
 42
5.153113667165039
  0
ELLIPSE
  5
3038
330
1F
100
AcDbEntity
  8
AM_11
 48
0.5
100
AcDbEllipse
 10
-88.07157747494295
 20
-23.85158669384028
 30
0.0
 11
-26.63799285888627
 21
0.0000000000015277
 31
0.0
210
0.0
220
0.0
230
1.0
 40
0.9900000000000032
 41
4.271664206181728
 42
5.153113667165039
  0
ELLIPSE
  5
3039
330
1F
100
AcDbEntity
  8
AM_11
 48
0.5
100
AcDbEllipse
 10
-88.07157747494233
 20
23.85164740650131
 30
0.0
 11
-26.63799285888635
 21
0.0000000000003979
 31
0.0
210
0.0
220
0.0
230
1.0
 40
0.9900000000000002
 41
1.130070686340306
 42
2.011520147323597
  0
ELLIPSE
  5
303A
330
1F
100
AcDbEntity
  8
AM_11
 48
0.5
100
AcDbEllipse
 10
-42.61698497426166
 20
-23.85160866200775
 30
0.0
 11
-26.63799285888627
 21
0.0000000000015277
 31
0.0
210
0.0
220
0.0
230
1.0
 40
0.9900000000000032
 41
4.271664206181728
 42
5.153113667165039
  0
ELLIPSE
  5
303B
330
1F
100
AcDbEntity
  8
AM_11
 48
0.5
100
AcDbEllipse
 10
-42.61698497426102
 20
23.85162543833383
 30
0.0
 11
-26.63799285888635
 21
0.0000000000003979
 31
0.0
210
0.0
220
0.0
230
1.0
 40
0.9900000000000002
 41
1.130070686340306
 42
2.011520147323597
  0
ELLIPSE
  5
303C
330
1F
100
AcDbEntity
  8
AM_11
 48
0.5
100
AcDbEllipse
 10
-65.34425770153351
 20
-23.85160866200789
 30
0.0
 11
-26.63799285888627
 21
0.0000000000015277
 31
0.0
210
0.0
220
0.0
230
1.0
 40
0.9900000000000032
 41
4.271664206181728
 42
5.153113667165039
  0
ELLIPSE
  5
303D
330
1F
100
AcDbEntity
  8
AM_11
 48
0.5
100
AcDbEllipse
 10
-65.34425770153287
 20
23.8516254383337
 30
0.0
 11
-26.63799285888635
 21
0.0000000000003979
 31
0.0
210
0.0
220
0.0
230
1.0
 40
0.9900000000000002
 41
1.130070686340306
 42
2.011520147323597
  0
ELLIPSE
  5
303E
330
1F
100
AcDbEntity
  8
AM_11
 48
0.5
100
AcDbEllipse
 10
-19.88971224698829
 20
23.85162543833354
 30
0.0
 11
-26.63799285888635
 21
0.0000000000011491
 31
0.0
210
0.0
220
0.0
230
1.0
 40
0.9899999999999995
 41
1.130070686340335
 42
2.011520147323624
  0
ELLIPSE
  5
303F
330
1F
100
AcDbEntity
  8
AM_11
 48
0.5
100
AcDbEllipse
 10
-19.88971224698895
 20
-23.85160866200804
 30
0.0
 11
-26.63799285888632
 21
0.0000000000017761
 31
0.0
210
0.0
220
0.0
230
1.0
 40
0.9900000000000009
 41
4.271664206181739
 42
5.153113667165048
  0
ELLIPSE
  5
3040
330
1F
100
AcDbEntity
  8
AM_11
 48
0.5
100
AcDbEllipse
 10
2.837560480284452
 20
23.85162543833322
 30
0.0
 11
-26.63799285888681
 21
0.0000000000250272
 31
0.0
210
0.0
220
0.0
230
1.0
 40
0.9899999999999861
 41
1.130070686341231
 42
1.291800737381917
  0
VIEWPORT
  5
110
330
101
100
AcDbEntity
 67
     1
  8
0
100
AcDbViewport
 10
420.5
 20
297.0
 30
0.0
 40
948.9782706766916
 41
628.452
 68
     1
 69
     1
1001
ACAD
1000
MVIEW
1002
{
1070
    16
1010
0.0
1020
0.0
1030
0.0
1010
0.0
1020
0.0
1030
1.0
1040
0.0
1040
628.452
1040
420.5
1040
297.0
1040
50.0
1040
0.0
1040
0.0
1070
     0
1070
   100
1070
     1
1070
     1
1070
     0
1070
     0
1070
     0
1070
     0
1040
0.0
1040
0.0
1040
0.0
1040
10.0
1040
10.0
1040
10.0
1040
10.0
1070
     0
1002
{
1002
}
1002
}
  0
ENDSEC
  0
SECTION
  2
OBJECTS
  0
DICTIONARY
  5
C
330
0
100
AcDbDictionary
  3
ACAD_GROUP
350
D
  3
ACAD_LAYOUT
350
1A
  3
ACAD_MLINESTYLE
350
17
  3
ACAD_PLOTSETTINGS
350
19
  3
ACAD_PLOTSTYLENAME
350
E
  3
ACDBVARIABLEDICTIONARY
350
34
  3
ACMDICTIONARY
350
43
  3
AMG
350
2B
  3
AMGSNAPSETTINGS
350
6E
  3
DWGPROPS
350
305A
  3
ACDBHEADERROUNDTRIPXREC
350
3067
  0
DICTIONARY
  5
74
330
1F
100
AcDbDictionary
280
     1
  3
ACAD_INDEX
360
305C
  3
ACAD_LAYOUTSELFREF
360
308A
  0
DICTIONARY
  5
308F
330
101
100
AcDbDictionary
280
     1
  3
ACAD_LAYOUTSELFREF
360
3090
  0
DICTIONARY
  5
D
102
{ACAD_REACTORS
330
C
102
}
330
C
100
AcDbDictionary
  0
DICTIONARY
  5
1A
102
{ACAD_REACTORS
330
C
102
}
330
C
100
AcDbDictionary
  0
DICTIONARY
  5
17
102
{ACAD_REACTORS
330
C
102
}
330
C
100
AcDbDictionary
  3
STANDARD
350
18
  0
DICTIONARY
  5
19
102
{ACAD_REACTORS
330
C
102
}
330
C
100
AcDbDictionary
  0
ACDBDICTIONARYWDFLT
  5
E
102
{ACAD_REACTORS
330
C
102
}
330
C
100
AcDbDictionary
281
     1
  3
Normal
350
F
100
AcDbDictionaryWithDefault
340
F
  0
DICTIONARY
  5
34
102
{ACAD_REACTORS
330
C
102
}
330
C
100
AcDbDictionary
  3
INDEXCTL
350
35
  3
SORTENTS
350
B5E
  0
DICTIONARY
  5
43
102
{ACAD_REACTORS
330
C
102
}
330
C
100
AcDbDictionary
  3
ACMSTDDICTIONARY
350
260
  0
DICTIONARY
  5
2B
102
{ACAD_REACTORS
330
C
102
}
330
C
100
AcDbDictionary
  3
ACMGSETTINGS
350
2C
  0
DICTIONARY
  5
6E
102
{ACAD_REACTORS
330
C
102
}
330
C
100
AcDbDictionary
  0
XRECORD
  5
305A
102
{ACAD_REACTORS
330
C
102
}
330
C
100
AcDbXrecord
  1
DWGPROPS COOKIE
  2

  3

  4

  6

  7

  8

  9

300
AmdtFileType=82
301
=
302
=
303
=
304
=
305
=
306
=
307
=
308
=
309
=
 40
0.0673971064814815
 41
2452800.443498622
 42
2452948.655667129
  1

 90
        1
  0
DICTIONARY
  5
3067
102
{ACAD_REACTORS
330
C
102
}
330
C
100
AcDbDictionary
  3
TSTACKALIGN
350
3068
  3
TSTACKSIZE
350
3069
  3
HYPERLINKBASE
350
306A
  3
STYLESHEET
350
306B
  3
LAYOUTDICT
350
306C
  3
PLOTSETDICT
350
306D
  3
PLOTSTYLNAMDICT
350
306E
  3
LWETCUNION
350
306F
  3
INSUNITS
350
3070
  3
CEPSNTYPE
350
3071
  3
FINGERPRINTGUID
350
3072
  3
VERSIONGUID
350
3073
  3
PSVPSCALE
350
3074
  3
DIMSTYLEDATA
350
3075
  3
PUCSORTHOREF
350
3076
  3
PUCSORTHOVIEW
350
3077
  3
PUCSBASE
350
3078
  3
PUCSORGTOP
350
3079
  3
PUCSORGBOTTOM
350
307A
  3
PUCSORGLEFT
350
307B
  3
PUCSORGRIGHT
350
307C
  3
PUCSORGFRONT
350
307D
  3
PUCSORGBACK
350
307E
  3
UCSORTHOREF
350
307F
  3
UCSORTHOVIEW
350
3080
  3
UCSBASE
350
3081
  3
UCSORGTOP
350
3082
  3
UCSORGBOTTOM
350
3083
  3
UCSORGLEFT
350
3084
  3
UCSORGRIGHT
350
3085
  3
UCSORGFRONT
350
3086
  3
UCSORGBACK
350
3087
  0
DICTIONARY
  5
305C
102
{ACAD_REACTORS
330
74
102
}
330
74
100
AcDbDictionary
  3
*A1
350
305D
  0
XRECORD
  5
308A
102
{ACAD_REACTORS
330
74
102
}
330
74
100
AcDbXrecord
340
1F
  0
XRECORD
  5
3090
102
{ACAD_REACTORS
330
308F
102
}
330
308F
100
AcDbXrecord
340
101
  0
MLINESTYLE
  5
18
102
{ACAD_REACTORS
330
17
102
}
330
17
100
AcDbMlineStyle
  2
STANDARD
 70
     0
  3

 62
   256
 51
90.0
 52
90.0
 71
     2
 49
0.5
 62
   256
  6
BYLAYER
 49
-0.5
 62
   256
  6
BYLAYER
  0
ACDBPLACEHOLDER
  5
F
102
{ACAD_REACTORS
330
E
102
}
330
E
100
AcDbPlaceHolder
280
     0
  0
DICTIONARYVAR
  5
35
102
{ACAD_REACTORS
330
34
102
}
330
34
100
DictionaryVariables
280
     0
  1
1
  0
DICTIONARYVAR
  5
B5E
102
{ACAD_REACTORS
330
34
102
}
330
34
100
DictionaryVariables
280
     0
  1
96
  0
DICTIONARY
  5
260
102
{ACAD_REACTORS
330
43
102
}
330
43
100
AcDbDictionary
  0
DICTIONARY
  5
2C
102
{ACAD_REACTORS
330
2B
102
}
330
2B
100
AcDbDictionary
  3
DWGSETTINGS
350
2D
  0
XRECORD
  5
3068
102
{ACAD_REACTORS
330
3067
102
}
330
3067
100
AcDbXrecord
 90
        1
  0
XRECORD
  5
3069
102
{ACAD_REACTORS
330
3067
102
}
330
3067
100
AcDbXrecord
 90
       70
  0
XRECORD
  5
306A
102
{ACAD_REACTORS
330
3067
102
}
330
3067
100
AcDbXrecord
  1

  0
XRECORD
  5
306B
102
{ACAD_REACTORS
330
3067
102
}
330
3067
100
AcDbXrecord
  1
ASAMI.ctb
  0
XRECORD
  5
306C
102
{ACAD_REACTORS
330
3067
102
}
330
3067
100
AcDbXrecord
340
1A
  0
XRECORD
  5
306D
102
{ACAD_REACTORS
330
3067
102
}
330
3067
100
AcDbXrecord
340
19
  0
XRECORD
  5
306E
102
{ACAD_REACTORS
330
3067
102
}
330
3067
100
AcDbXrecord
340
E
  0
XRECORD
  5
306F
102
{ACAD_REACTORS
330
3067
102
}
330
3067
100
AcDbXrecord
 90
    10781
  0
XRECORD
  5
3070
102
{ACAD_REACTORS
330
3067
102
}
330
3067
100
AcDbXrecord
 90
        4
  0
XRECORD
  5
3071
102
{ACAD_REACTORS
330
3067
102
}
330
3067
100
AcDbXrecord
 90
        0
  0
XRECORD
  5
3072
102
{ACAD_REACTORS
330
3067
102
}
330
3067
100
AcDbXrecord
  1
{AFB28963-8C59-40AE-9337-C84526B81ACE}
  0
XRECORD
  5
3073
102
{ACAD_REACTORS
330
3067
102
}
330
3067
100
AcDbXrecord
  1
{21CC2253-B57D-4D5C-A84D-74E51E279F05}
  0
XRECORD
  5
3074
102
{ACAD_REACTORS
330
3067
102
}
330
3067
100
AcDbXrecord
 40
0.0
  0
XRECORD
  5
3075
102
{ACAD_REACTORS
330
3067
102
}
330
3067
100
AcDbXrecord
1000
DSTYLE
1002
{
1070
    79
 70
     2
1070
   341
340
59
1070
   342
340
59
1070
   371
 70
    -1
1070
   372
 70
    -1
1002
}
  0
XRECORD
  5
3076
102
{ACAD_REACTORS
330
3067
102
}
330
3067
100
AcDbXrecord
340
0
  0
XRECORD
  5
3077
102
{ACAD_REACTORS
330
3067
102
}
330
3067
100
AcDbXrecord
 70
     0
  0
XRECORD
  5
3078
102
{ACAD_REACTORS
330
3067
102
}
330
3067
100
AcDbXrecord
340
0
  0
XRECORD
  5
3079
102
{ACAD_REACTORS
330
3067
102
}
330
3067
100
AcDbXrecord
 10
0.0
 20
0.0
 30
0.0
  0
XRECORD
  5
307A
102
{ACAD_REACTORS
330
3067
102
}
330
3067
100
AcDbXrecord
 10
0.0
 20
0.0
 30
0.0
  0
XRECORD
  5
307B
102
{ACAD_REACTORS
330
3067
102
}
330
3067
100
AcDbXrecord
 10
0.0
 20
0.0
 30
0.0
  0
XRECORD
  5
307C
102
{ACAD_REACTORS
330
3067
102
}
330
3067
100
AcDbXrecord
 10
0.0
 20
0.0
 30
0.0
  0
XRECORD
  5
307D
102
{ACAD_REACTORS
330
3067
102
}
330
3067
100
AcDbXrecord
 10
0.0
 20
0.0
 30
0.0
  0
XRECORD
  5
307E
102
{ACAD_REACTORS
330
3067
102
}
330
3067
100
AcDbXrecord
 10
0.0
 20
0.0
 30
0.0
  0
XRECORD
  5
307F
102
{ACAD_REACTORS
330
3067
102
}
330
3067
100
AcDbXrecord
340
0
  0
XRECORD
  5
3080
102
{ACAD_REACTORS
330
3067
102
}
330
3067
100
AcDbXrecord
 70
     0
  0
XRECORD
  5
3081
102
{ACAD_REACTORS
330
3067
102
}
330
3067
100
AcDbXrecord
340
0
  0
XRECORD
  5
3082
102
{ACAD_REACTORS
330
3067
102
}
330
3067
100
AcDbXrecord
 10
0.0
 20
0.0
 30
0.0
  0
XRECORD
  5
3083
102
{ACAD_REACTORS
330
3067
102
}
330
3067
100
AcDbXrecord
 10
0.0
 20
0.0
 30
0.0
  0
XRECORD
  5
3084
102
{ACAD_REACTORS
330
3067
102
}
330
3067
100
AcDbXrecord
 10
0.0
 20
0.0
 30
0.0
  0
XRECORD
  5
3085
102
{ACAD_REACTORS
330
3067
102
}
330
3067
100
AcDbXrecord
 10
0.0
 20
0.0
 30
0.0
  0
XRECORD
  5
3086
102
{ACAD_REACTORS
330
3067
102
}
330
3067
100
AcDbXrecord
 10
0.0
 20
0.0
 30
0.0
  0
XRECORD
  5
3087
102
{ACAD_REACTORS
330
3067
102
}
330
3067
100
AcDbXrecord
 10
0.0
 20
0.0
 30
0.0
  0
LAYER_INDEX
  5
305D
102
{ACAD_REACTORS
330
305C
102
}
330
305C
100
AcDbIndex
 40
2453151.664661446
100
AcDbLayerIndex
  8
0
360
305E
 90
        0
  8
AM_0
360
305F
 90
       59
  8
AM_7
360
3060
 90
        1
  8
AM_11
360
3061
 90
       21
  8
AM_5
360
3062
 90
        5
  8
Defpoints
360
3063
 90
        0
  8
AM_6
360
3064
 90
        1
  8
AM_CL
360
3065
 90
        0
  0
XRECORD
  5
2D
102
{ACAD_REACTORS
330
2C
102
}
330
2C
100
AcDbXrecord
  1
VERSION
140
15.0
  1
PRODUCT
  2
AutoCAD Mechanical 2000
  0
IDBUFFER
  5
305E
330
0
100
AcDbIdBuffer
  0
IDBUFFER
  5
305F
330
0
100
AcDbIdBuffer
330
2E91
330
2E92
330
2E93
330
2E95
330
2E96
330
2E97
330
2E98
330
2E99
330
2E9A
330
2E9B
330
2E9C
330
1E25
330
1E26
330
1FD9
330
21D7
330
21D8
330
21D9
330
21DA
330
21DB
330
21DC
330
21DD
330
282D
330
282E
330
282F
330
2830
330
2831
330
2832
330
2DF4
330
2DF5
330
2DF6
330
2E52
330
2E53
330
2E54
330
2E59
330
2E5A
330
2E5B
330
2E5C
330
2E5D
330
2E5E
330
2E5F
330
2E60
330
2E61
330
2E62
330
2E63
330
2E64
330
2E65
330
2E66
330
2E67
330
2E68
330
2E69
330
2E6A
330
2E6B
330
2E6C
330
2E6F
330
2E7E
330
2E8D
330
2E8E
330
2E8F
330
2E90
  0
IDBUFFER
  5
3060
330
0
100
AcDbIdBuffer
330
C9F
  0
IDBUFFER
  5
3061
330
0
100
AcDbIdBuffer
330
303C
330
303D
330
303E
330
303F
330
3040
330
2E55
330
2E56
330
2E57
330
2E58
330
2E6D
330
2E6E
330
3032
330
3033
330
3034
330
3035
330
3036
330
3037
330
3038
330
3039
330
303A
330
303B
  0
IDBUFFER
  5
3062
330
0
100
AcDbIdBuffer
330
CC6
330
DF5
330
1FB6
330
2216
330
2F30
  0
IDBUFFER
  5
3063
330
0
100
AcDbIdBuffer
  0
IDBUFFER
  5
3064
330
0
100
AcDbIdBuffer
330
19BD
  0
IDBUFFER
  5
3065
330
0
100
AcDbIdBuffer
  0
ENDSEC
  0
EOF
