  0
SECTION
  2
HEADER
  9
$ACADVER
  1
AC1014
  9
$ACADMAINTVER
 70
     9
  9
$DWGCODEPAGE
  3
ANSI_932
  9
$INSBASE
 10
0.0
 20
0.0
 30
0.0
  9
$EXTMIN
 10
-136.150001
 20
-29.25000099999954
 30
-0.00000001
  9
$EXTMAX
 10
15.43921670627628
 20
15.0200238509594
 30
0.00000001
  9
$LIMMIN
 10
-156.1444050923396
 20
-44.51020785580943
  9
$LIMMAX
 10
20.31336096277607
 20
28.16015358894219
  9
$ORTHOMODE
 70
     0
  9
$REGENMODE
 70
     1
  9
$FILLMODE
 70
     1
  9
$QTEXTMODE
 70
     0
  9
$MIRRTEXT
 70
     0
  9
$DRAGMODE
 70
     2
  9
$LTSCALE
 40
1.0
  9
$OSMODE
 70
    55
  9
$ATTMODE
 70
     1
  9
$TEXTSIZE
 40
2.5
  9
$TRACEWID
 40
1.0
  9
$TEXTSTYLE
  7
STANDARD
  9
$CLAYER
  8
AM_0
  9
$CELTYPE
  6
BYLAYER
  9
$CECOLOR
 62
   256
  9
$CELTSCALE
 40
1.0
  9
$DELOBJ
 70
     1
  9
$DISPSILH
 70
     0
  9
$DIMSCALE
 40
0.5
  9
$DIMASZ
 40
2.5
  9
$DIMEXO
 40
1.0
  9
$DIMDLI
 40
12.0
  9
$DIMRND
 40
0.0
  9
$DIMDLE
 40
0.0
  9
$DIMEXE
 40
1.0
  9
$DIMTP
 40
0.1
  9
$DIMTM
 40
0.1
  9
$DIMTXT
 40
3.2
  9
$DIMCEN
 40
0.0
  9
$DIMTSZ
 40
0.0
  9
$DIMTOL
 70
     0
  9
$DIMLIM
 70
     0
  9
$DIMTIH
 70
     0
  9
$DIMTOH
 70
     0
  9
$DIMSE1
 70
     0
  9
$DIMSE2
 70
     0
  9
$DIMTAD
 70
     3
  9
$DIMZIN
 70
     8
  9
$DIMBLK
  1
OPEN30
  9
$DIMASO
 70
     1
  9
$DIMSHO
 70
     1
  9
$DIMPOST
  1

  9
$DIMAPOST
  1
"
  9
$DIMALT
 70
     0
  9
$DIMALTD
 70
     2
  9
$DIMALTF
 40
0.0393701
  9
$DIMLFAC
 40
1.0
  9
$DIMTOFL
 70
     1
  9
$DIMTVP
 40
0.0
  9
$DIMTIX
 70
     0
  9
$DIMSOXD
 70
     0
  9
$DIMSAH
 70
     0
  9
$DIMBLK1
  1

  9
$DIMBLK2
  1

  9
$DIMSTYLE
  2
AM_JIS
  9
$DIMCLRD
 70
   256
  9
$DIMCLRE
 70
   256
  9
$DIMCLRT
 70
     2
  9
$DIMTFAC
 40
0.71
  9
$DIMGAP
 40
1.5
  9
$DIMJUST
 70
     0
  9
$DIMSD1
 70
     0
  9
$DIMSD2
 70
     0
  9
$DIMTOLJ
 70
     0
  9
$DIMTZIN
 70
     0
  9
$DIMALTZ
 70
     0
  9
$DIMALTTZ
 70
     0
  9
$DIMFIT
 70
     3
  9
$DIMUPT
 70
     0
  9
$DIMUNIT
 70
     2
  9
$DIMDEC
 70
     3
  9
$DIMTDEC
 70
     3
  9
$DIMALTU
 70
     2
  9
$DIMALTTD
 70
     2
  9
$DIMTXSTY
  7
ASAMI
  9
$DIMAUNIT
 70
     0
  9
$LUNITS
 70
     2
  9
$LUPREC
 70
     2
  9
$SKETCHINC
 40
1.0
  9
$FILLETRAD
 40
2.5
  9
$AUNITS
 70
     0
  9
$AUPREC
 70
     0
  9
$MENU
  1
.
  9
$ELEVATION
 40
0.0
  9
$PELEVATION
 40
0.0
  9
$THICKNESS
 40
0.0
  9
$LIMCHECK
 70
     0
  9
$BLIPMODE
 70
     0
  9
$CHAMFERA
 40
0.5
  9
$CHAMFERB
 40
0.5
  9
$CHAMFERC
 40
20.0
  9
$CHAMFERD
 40
0.0
  9
$SKPOLY
 70
     0
  9
$TDCREATE
 40
2452800.443498622
  9
$TDUPDATE
 40
2453151.562292372
  9
$TDINDWG
 40
0.0780985764
  9
$TDUSRTIMER
 40
0.0780985764
  9
$USRTIMER
 70
     1
  9
$ANGBASE
 50
0.0
  9
$ANGDIR
 70
     0
  9
$PDMODE
 70
     0
  9
$PDSIZE
 40
0.0
  9
$PLINEWID
 40
0.0
  9
$COORDS
 70
     1
  9
$SPLFRAME
 70
     0
  9
$SPLINETYPE
 70
     6
  9
$SPLINESEGS
 70
     8
  9
$ATTDIA
 70
     1
  9
$ATTREQ
 70
     1
  9
$HANDLING
 70
 12289
  9
$HANDSEED
  5
3994
  9
$SURFTAB1
 70
     6
  9
$SURFTAB2
 70
     6
  9
$SURFTYPE
 70
     6
  9
$SURFU
 70
     6
  9
$SURFV
 70
     6
  9
$UCSNAME
  2

  9
$UCSORG
 10
0.0
 20
0.0
 30
0.0
  9
$UCSXDIR
 10
1.0
 20
0.0000000000000027
 30
0.0
  9
$UCSYDIR
 10
-0.0000000000000027
 20
1.0
 30
0.0
  9
$PUCSNAME
  2

  9
$PUCSORG
 10
0.0
 20
0.0
 30
0.0
  9
$PUCSXDIR
 10
1.0
 20
0.0
 30
0.0
  9
$PUCSYDIR
 10
0.0
 20
1.0
 30
0.0
  9
$USERI1
 70
     0
  9
$USERI2
 70
     0
  9
$USERI3
 70
     0
  9
$USERI4
 70
     0
  9
$USERI5
 70
     0
  9
$USERR1
 40
0.0
  9
$USERR2
 40
0.0
  9
$USERR3
 40
0.0
  9
$USERR4
 40
0.0
  9
$USERR5
 40
0.0
  9
$WORLDVIEW
 70
     1
  9
$SHADEDGE
 70
     3
  9
$SHADEDIF
 70
    70
  9
$TILEMODE
 70
     1
  9
$MAXACTVP
 70
    64
  9
$PINSBASE
 10
0.0
 20
0.0
 30
0.0
  9
$PLIMCHECK
 70
     0
  9
$PEXTMIN
 10
1.000000000000000E+20
 20
1.000000000000000E+20
 30
1.000000000000000E+20
  9
$PEXTMAX
 10
-1.000000000000000E+20
 20
-1.000000000000000E+20
 30
-1.000000000000000E+20
  9
$PLIMMIN
 10
0.0
 20
0.0
  9
$PLIMMAX
 10
841.0
 20
594.0
  9
$UNITMODE
 70
     0
  9
$VISRETAIN
 70
     1
  9
$PLINEGEN
 70
     0
  9
$PSLTSCALE
 70
     0
  9
$TREEDEPTH
 70
  3020
  9
$PICKSTYLE
 70
     0
  9
$CMLSTYLE
  2
STANDARD
  9
$CMLJUST
 70
     0
  9
$CMLSCALE
 40
20.0
  9
$PROXYGRAPHICS
 70
     1
  9
$MEASUREMENT
 70
     1
  0
ENDSEC
  0
SECTION
  2
CLASSES
  0
CLASS
  1
ACDBDICTIONARYWDFLT
  2
AcDbDictionaryWithDefault
  3
AutoCAD 2000
 90
        0
280
     0
281
     0
  0
CLASS
  1
ACDBPLACEHOLDER
  2
AcDbPlaceHolder
  3
AutoCAD 2000
 90
        0
280
     0
281
     0
  0
CLASS
  1
LAYOUT
  2
AcDbLayout
  3
AutoCAD 2000
 90
        0
280
     0
281
     0
  0
CLASS
  1
AMGSETTINGSOBJ
  2
AmgSettingsObj
  3
"AcadM|Product Description: AutoCAD Mechanical 2000|Company: Autodesk"
 90
        0
280
     0
281
     0
  0
CLASS
  1
ACME_DOCUMENT
  2
AcMeDbDoc
  3
AcMeServices
 90
        0
280
     0
281
     0
  0
CLASS
  1
ACMESCOPE
  2
AcMeScope
  3
AcMeServices
 90
        0
280
     0
281
     0
  0
CLASS
  1
ACMECOMMANDHISTORY
  2
AcMeCommandHistory
  3
AcMeServices
 90
        0
280
     0
281
     0
  0
CLASS
  1
DICTIONARYVAR
  2
AcDbDictionaryVar
  3
AutoCAD 2000
 90
        0
280
     0
281
     0
  0
CLASS
  1
ACIMSYSVARMAN
  2
AcImSysVarManager
  3
AcMeServices
 90
        0
280
     0
281
     0
  0
CLASS
  1
ACIMREALSYSVAR
  2
AcImRealSysVar
  3
AcMeServices
 90
        0
280
     0
281
     0
  0
CLASS
  1
ACIMINTSYSVAR
  2
AcImIntSysVar
  3
AcMeServices
 90
        0
280
     0
281
     0
  0
CLASS
  1
ACMEDRAWINGMAN
  2
AcMeDrawingMan
  3
AcMeServices
 90
        0
280
     0
281
     0
  0
CLASS
  1
ACMEVIEW
  2
AcMeView
  3
AcMeServices
 90
        0
280
     0
281
     0
  0
CLASS
  1
ACDBENTITYCACHE
  2
AcMeEntityCache
  3
AcMeServices
 90
        0
280
     0
281
     0
  0
CLASS
  1
GSMANAGER
  2
AcMeGSManager
  3
AcMeServices
 90
        0
280
     0
281
     0
  0
CLASS
  1
AmdtInternalReactor
  2
AmdtInternalReactor
  3
AcMeServices
 90
        0
280
     0
281
     0
  0
CLASS
  1
ACMESTATEMGR
  2
AcMeStateMgr
  3
AcMeServices
 90
        0
280
     0
281
     0
  0
CLASS
  1
ACME_DATABASE
  2
AcMeDbDatabase
  3
AcMeServices
 90
        0
280
     0
281
     0
  0
CLASS
  1
ACRFINSADJUSTERMGR
  2
AcRfInsAdjusterMgr
  3
AcMeServices
 90
        0
280
     0
281
     0
  0
CLASS
  1
ACMDATADICTIONARY
  2
AcmDataDictionary
  3
"AcmSymBB|Product Description: AutoCAD Mechanical 2000|Company: Autodesk"
 90
        0
280
     0
281
     0
  0
CLASS
  1
ACMDATAENTRYBLOCK
  2
AcmDataEntryBlock
  3
"AcmSymBB|Product Description: AutoCAD Mechanical 2000|Company: Autodesk"
 90
        0
280
     0
281
     0
  0
CLASS
  1
AMGOBJPROPCFG
  2
AmgObjPropCfg
  3
"AmgLay|Product Description: AutoCAD Mechanical 2000|Company: Autodesk"
 90
        1
280
     0
281
     0
  0
CLASS
  1
ACAMGFILTERDAT
  2
AcAmgFilterDat
  3
"AcadM|Product Description: AutoCAD Mechanical 2000|Company: Autodesk"
 90
        0
280
     0
281
     0
  0
CLASS
  1
LAYER_INDEX
  2
AcDbLayerIndex
  3
AutoCAD 2000
 90
        0
280
     0
281
     0
  0
CLASS
  1
IDBUFFER
  2
AcDbIdBuffer
  3
AutoCAD 2000
 90
        0
280
     0
281
     0
  0
CLASS
  1
ACIMSTRSYSVAR
  2
AcImStrSysVar
  3
AcMeServices
 90
        0
280
     0
281
     0
  0
CLASS
  1
ACMSTANDARDJIS
  2
AcmStandardJIS
  3
"AcmSymBB|Product Description: AutoCAD Mechanical 2000|Company: Autodesk"
 90
        0
280
     0
281
     0
  0
CLASS
  1
ACMSURFSTANDARDJIS
  2
AcmSurfTextStdJIS
  3
"AcmSymBB|Product Description: AutoCAD Mechanical 2000|Company: Autodesk"
 90
        0
280
     0
281
     0
  0
CLASS
  1
ACMFCFSTANDARDJIS
  2
AcmFCFStdJIS
  3
"AcmSymBB|Product Description: AutoCAD Mechanical 2000|Company: Autodesk"
 90
        0
280
     0
281
     0
  0
CLASS
  1
ACMWELDSTANDARDJIS
  2
AcmWeldingStdJIS
  3
"AcmSymBB|Product Description: AutoCAD Mechanical 2000|Company: Autodesk"
 90
        0
280
     0
281
     0
  0
CLASS
  1
ACMIDSTANDARDJIS
  2
AcmIdStdJIS
  3
"AcmSymBB|Product Description: AutoCAD Mechanical 2000|Company: Autodesk"
 90
        0
280
     0
281
     0
  0
CLASS
  1
ACMDATUMSTANDARDJIS
  2
AcmDatumStdJIS
  3
"AcmSymBB|Product Description: AutoCAD Mechanical 2000|Company: Autodesk"
 90
        0
280
     0
281
     0
  0
CLASS
  1
ACMBOMSTANDARDJIS
  2
AcmBOMStdJIS
  3
"AcmSymBB|Product Description: AutoCAD Mechanical 2000|Company: Autodesk"
 90
        0
280
     0
281
     0
  0
CLASS
  1
ACMSTANDARDANSI
  2
AcmStandardANSI
  3
"AcmSymBB|Product Description: AutoCAD Mechanical 2000|Company: Autodesk"
 90
        0
280
     0
281
     0
  0
CLASS
  1
ACMSURFSTANDARDANSI
  2
AcmSurfTextStdANSI
  3
"AcmSymBB|Product Description: AutoCAD Mechanical 2000|Company: Autodesk"
 90
        0
280
     0
281
     0
  0
CLASS
  1
ACMFCFSTANDARDANSI
  2
AcmFCFStdANSI
  3
"AcmSymBB|Product Description: AutoCAD Mechanical 2000|Company: Autodesk"
 90
        0
280
     0
281
     0
  0
CLASS
  1
ACMWELDSTANDARDANSI
  2
AcmWeldingStdANSI
  3
"AcmSymBB|Product Description: AutoCAD Mechanical 2000|Company: Autodesk"
 90
        0
280
     0
281
     0
  0
CLASS
  1
ACMIDSTANDARDANSI
  2
AcmIdStdANSI
  3
"AcmSymBB|Product Description: AutoCAD Mechanical 2000|Company: Autodesk"
 90
        0
280
     0
281
     0
  0
CLASS
  1
ACMDATUMSTANDARDANSI
  2
AcmDatumStdANSI
  3
"AcmSymBB|Product Description: AutoCAD Mechanical 2000|Company: Autodesk"
 90
        0
280
     0
281
     0
  0
CLASS
  1
ACMBOMSTANDARDANSI
  2
AcmBOMStdANSI
  3
"AcmSymBB|Product Description: AutoCAD Mechanical 2000|Company: Autodesk"
 90
        0
280
     0
281
     0
  0
CLASS
  1
ACMSTANDARDBSI
  2
AcmStandardBSI
  3
"AcmSymBB|Product Description: AutoCAD Mechanical 2000|Company: Autodesk"
 90
        0
280
     0
281
     0
  0
CLASS
  1
ACMSURFSTANDARDBSI
  2
AcmSurfTextStdBSI
  3
"AcmSymBB|Product Description: AutoCAD Mechanical 2000|Company: Autodesk"
 90
        0
280
     0
281
     0
  0
CLASS
  1
ACMFCFSTANDARDBSI
  2
AcmFCFStdBSI
  3
"AcmSymBB|Product Description: AutoCAD Mechanical 2000|Company: Autodesk"
 90
        0
280
     0
281
     0
  0
CLASS
  1
ACMWELDSTANDARDBSI
  2
AcmWeldingStdBSI
  3
"AcmSymBB|Product Description: AutoCAD Mechanical 2000|Company: Autodesk"
 90
        0
280
     0
281
     0
  0
CLASS
  1
ACMIDSTANDARDBSI
  2
AcmIdStdBSI
  3
"AcmSymBB|Product Description: AutoCAD Mechanical 2000|Company: Autodesk"
 90
        0
280
     0
281
     0
  0
CLASS
  1
ACMDATUMSTANDARDBSI
  2
AcmDatumStdBSI
  3
"AcmSymBB|Product Description: AutoCAD Mechanical 2000|Company: Autodesk"
 90
        0
280
     0
281
     0
  0
CLASS
  1
ACMBOMSTANDARDBSI
  2
AcmBOMStdBSI
  3
"AcmSymBB|Product Description: AutoCAD Mechanical 2000|Company: Autodesk"
 90
        0
280
     0
281
     0
  0
CLASS
  1
LONG_TRANSACTION
  2
AcDbLongTransaction
  3
AutoCAD 2000
 90
        0
280
     0
281
     0
  0
CLASS
  1
LWPOLYLINE
  2
AcDbPolyline
  3
AutoCAD 2000
 90
        0
280
     0
281
     1
  0
CLASS
  1
HATCH
  2
AcDbHatch
  3
AutoCAD 2000
 90
        0
280
     0
281
     1
  0
CLASS
  1
XRECORD
  2
AcDbXrecord
  3
AutoCAD 2000
 90
        0
280
     0
281
     0
  0
ENDSEC
  0
SECTION
  2
TABLES
  0
TABLE
  2
VPORT
  5
8
330
0
100
AcDbSymbolTable
 70
     3
  0
VPORT
  5
3969
330
8
100
AcDbSymbolTableRecord
100
AcDbViewportTableRecord
  2
*ACTIVE
 70
     0
 10
0.0
 20
0.0
 11
1.0
 21
1.0
 12
-57.52615564614288
 22
-7.116064023858001
 13
0.0
 23
0.0
 14
2.5
 24
2.5
 15
10.0
 25
10.0
 16
0.0
 26
0.0
 36
1.0
 17
0.0
 27
0.0
 37
0.0
 40
100.9238338214634
 41
1.56570841889117
 42
50.0
 43
0.0
 44
0.0
 50
0.0
 51
0.0
 71
     0
 72
   100
 73
     1
 74
     1
 75
     0
 76
     0
 77
     0
 78
     0
  0
ENDTAB
  0
TABLE
  2
LTYPE
  5
5
330
0
100
AcDbSymbolTable
 70
    10
  0
LTYPE
  5
14
330
5
100
AcDbSymbolTableRecord
100
AcDbLinetypeTableRecord
  2
BYBLOCK
 70
     0
  3

 72
    65
 73
     0
 40
0.0
  0
LTYPE
  5
15
330
5
100
AcDbSymbolTableRecord
100
AcDbLinetypeTableRecord
  2
BYLAYER
 70
     0
  3

 72
    65
 73
     0
 40
0.0
  0
LTYPE
  5
16
330
5
100
AcDbSymbolTableRecord
100
AcDbLinetypeTableRecord
  2
CONTINUOUS
 70
     0
  3
Solid line
 72
    65
 73
     0
 40
0.0
  0
LTYPE
  5
4B
330
5
100
AcDbSymbolTableRecord
100
AcDbLinetypeTableRecord
  2
AM_ISO02W050
 70
     0
  3
__ __ __ __ __ __ __ __ __ __ __ __ __ __ __
 72
    65
 73
     2
 40
7.5
 49
6.0
 74
     0
 49
-1.5
 74
     0
  0
LTYPE
  5
4C
330
5
100
AcDbSymbolTableRecord
100
AcDbLinetypeTableRecord
  2
AM_ISO08W050
 70
     0
  3
____ . ____ . ____ . ____ . ____ . ____ . ____
 72
    65
 73
     4
 40
18.0
 49
12.0
 74
     0
 49
-1.5
 74
     0
 49
3.0
 74
     0
 49
-1.5
 74
     0
  0
LTYPE
  5
4D
330
5
100
AcDbSymbolTableRecord
100
AcDbLinetypeTableRecord
  2
AM_ISO09W050
 70
     0
  3
_____ . . _____ . . _____ . . ____ .. ____
 72
    65
 73
     6
 40
22.5
 49
12.0
 74
     0
 49
-1.5
 74
     0
 49
3.0
 74
     0
 49
-1.5
 74
     0
 49
3.0
 74
     0
 49
-1.5
 74
     0
  0
LTYPE
  5
4E
330
5
100
AcDbSymbolTableRecord
100
AcDbLinetypeTableRecord
  2
AMCONSTR
 70
     0
  3
_______________________
 72
    65
 73
     2
 40
9999.0
 49
9999.0
 74
     0
 49
0.0
 74
     0
  0
LTYPE
  5
4F
330
5
100
AcDbSymbolTableRecord
100
AcDbLinetypeTableRecord
  2
AM_ISO02W050X2
 70
     0
  3
 _ _ _ _ _ _ _ _ _ _ _ _
 72
    65
 73
     2
 40
3.75
 49
3.0
 74
     0
 49
-0.75
 74
     0
  0
LTYPE
  5
50
330
5
100
AcDbSymbolTableRecord
100
AcDbLinetypeTableRecord
  2
AM_ISO08W050X2
 70
     0
  3
__ . __ . __ . __ . __ . __
 72
    65
 73
     4
 40
9.0
 49
6.0
 74
     0
 49
-0.75
 74
     0
 49
1.5
 74
     0
 49
-0.75
 74
     0
  0
LTYPE
  5
53
330
5
100
AcDbSymbolTableRecord
100
AcDbLinetypeTableRecord
  2
AMZIGZAG
 70
     0
  3
/\/-/\/-/\/-/\/-/\/-/\/
 72
    65
 73
     2
 40
11.00009999999999
 49
0.0001
 74
     4
 75
   135
340
52
 46
0.04
 50
0.0
 44
0.0
 45
0.0
 49
-11.0
 74
     0
  0
LTYPE
  5
166
330
5
100
AcDbSymbolTableRecord
100
AcDbLinetypeTableRecord
  2
ACJISTGL
 70
     0
  3
_ _ _ _ _
 72
    65
 73
     2
 40
3.0
 49
2.0
 74
     0
 49
-1.0
 74
     0
  0
LTYPE
  5
26A
330
5
100
AcDbSymbolTableRecord
100
AcDbLinetypeTableRecord
  2
ACJISTGB
 70
     0
  3
__ . . __ . .
 72
    65
 73
     6
 40
9.0
 49
4.0
 74
     0
 49
-1.0
 74
     0
 49
1.0
 74
     0
 49
-1.0
 74
     0
 49
1.0
 74
     0
 49
-1.0
 74
     0
  0
ENDTAB
  0
TABLE
  2
LAYER
  5
2
330
0
100
AcDbSymbolTable
 70
     7
  0
LAYER
  5
10
330
2
100
AcDbSymbolTableRecord
100
AcDbLayerTableRecord
  2
0
 70
     0
 62
     7
  6
CONTINUOUS
  0
LAYER
  5
3F9
330
2
100
AcDbSymbolTableRecord
100
AcDbLayerTableRecord
  2
AM_0
 70
     0
 62
     7
  6
CONTINUOUS
  0
LAYER
  5
C7C
330
2
100
AcDbSymbolTableRecord
100
AcDbLayerTableRecord
  2
AM_7
 70
     0
 62
     4
  6
AM_ISO08W050
  0
LAYER
  5
C97
330
2
100
AcDbSymbolTableRecord
100
AcDbLayerTableRecord
  2
AM_11
 70
     0
 62
     3
  6
AM_ISO09W050
  0
LAYER
  5
CC5
330
2
100
AcDbSymbolTableRecord
100
AcDbLayerTableRecord
  2
AM_5
 70
     0
 62
     3
  6
CONTINUOUS
  0
LAYER
  5
CC7
330
2
100
AcDbSymbolTableRecord
100
AcDbLayerTableRecord
  2
DEFPOINTS
 70
     0
 62
     7
  6
CONTINUOUS
  0
LAYER
  5
19BC
330
2
100
AcDbSymbolTableRecord
100
AcDbLayerTableRecord
  2
AM_6
 70
     0
 62
     2
  6
CONTINUOUS
  0
ENDTAB
  0
TABLE
  2
STYLE
  5
3
330
0
100
AcDbSymbolTable
 70
     5
  0
STYLE
  5
11
330
3
100
AcDbSymbolTableRecord
100
AcDbTextStyleTableRecord
  2
STANDARD
 70
     0
 40
0.0
 41
1.0
 50
0.0
 71
     0
 42
2.5
  3
simplex.shx
  4
EXTFONT.SHX
  0
STYLE
  5
52
330
3
100
AcDbSymbolTableRecord
100
AcDbTextStyleTableRecord
  2

 70
     1
 40
0.0
 41
1.0
 50
0.0
 71
     0
 42
2.5
  3
ltypeshp.shx
  4

  0
STYLE
  5
6B
330
3
100
AcDbSymbolTableRecord
100
AcDbTextStyleTableRecord
  2
ASAMI
 70
     0
 40
0.0
 41
1.0
 50
0.0
 71
     0
 42
2.5
  3
simplex.shx
  4
EXTFONT.SHX
  0
STYLE
  5
262
330
3
100
AcDbSymbolTableRecord
100
AcDbTextStyleTableRecord
  2
ACJISTS
 70
     0
 40
1.0
 41
1.0
 50
0.0
 71
     0
 42
2.5
  3
simplex.shx
  4
bigfont.shx
  0
STYLE
  5
269
330
3
100
AcDbSymbolTableRecord
100
AcDbTextStyleTableRecord
  2
ACJISGDT
 70
     0
 40
0.0
 41
1.0
 50
0.0
 71
     0
 42
2.5
  3
amgdtans.shx
  4

  0
ENDTAB
  0
TABLE
  2
VIEW
  5
6
330
0
100
AcDbSymbolTable
 70
     0
  0
ENDTAB
  0
TABLE
  2
UCS
  5
7
330
0
100
AcDbSymbolTable
 70
     0
  0
ENDTAB
  0
TABLE
  2
APPID
  5
9
330
0
100
AcDbSymbolTable
 70
    16
  0
APPID
  5
12
330
9
100
AcDbSymbolTableRecord
100
AcDbRegAppTableRecord
  2
ACAD
 70
     0
  0
APPID
  5
30
330
9
100
AcDbSymbolTableRecord
100
AcDbRegAppTableRecord
  2
MCAD_NO_VIS
 70
     0
  0
APPID
  5
31
330
9
100
AcDbSymbolTableRecord
100
AcDbRegAppTableRecord
  2
ACAD_TEMP_GRAPHIC
 70
     0
  0
APPID
  5
2C2
330
9
100
AcDbSymbolTableRecord
100
AcDbRegAppTableRecord
  2
GENIUS_GENDTOL_13
 70
     0
  0
APPID
  5
339
330
9
100
AcDbSymbolTableRecord
100
AcDbRegAppTableRecord
  2
GENIUS_GENODEF_13
 70
     0
  0
APPID
  5
33A
330
9
100
AcDbSymbolTableRecord
100
AcDbRegAppTableRecord
  2
GENIUS_GENOBJ-N-RSBK_13
 70
     0
  0
APPID
  5
33B
330
9
100
AcDbSymbolTableRecord
100
AcDbRegAppTableRecord
  2
GENIUS_GENOBJ-N-LIB_13
 70
     0
  0
APPID
  5
33C
330
9
100
AcDbSymbolTableRecord
100
AcDbRegAppTableRecord
  2
GENIUS_GENSCALE_13
 70
     0
  0
APPID
  5
378
330
9
100
AcDbSymbolTableRecord
100
AcDbRegAppTableRecord
  2
GENIUS_GENDIMSH_14
 70
     0
  0
APPID
  5
C82
330
9
100
AcDbSymbolTableRecord
100
AcDbRegAppTableRecord
  2
GENIUS_GENOBJ-N-CRS_13
 70
     0
  0
APPID
  5
C83
330
9
100
AcDbSymbolTableRecord
100
AcDbRegAppTableRecord
  2
GENIUS_GENOENT_13
 70
     0
  0
APPID
  5
C84
330
9
100
AcDbSymbolTableRecord
100
AcDbRegAppTableRecord
  2
GENIUS_GENOREF_13
 70
     0
  0
APPID
  5
C85
330
9
100
AcDbSymbolTableRecord
100
AcDbRegAppTableRecord
  2
GENIUS_GENOLIS_13
 70
     0
  0
APPID
  5
CA0
330
9
100
AcDbSymbolTableRecord
100
AcDbRegAppTableRecord
  2
GENIUS_GENOBJ-N-CEN_13
 70
     0
  0
APPID
  5
2796
330
9
100
AcDbSymbolTableRecord
100
AcDbRegAppTableRecord
  2
GENIUS_GENFIL_13
 70
     0
  0
APPID
  5
2797
330
9
100
AcDbSymbolTableRecord
100
AcDbRegAppTableRecord
  2
GENIUS_GENOBJ-N-CHA_13
 70
     0
  0
ENDTAB
  0
TABLE
  2
DIMSTYLE
  5
A
330
0
100
AcDbSymbolTable
 70
     9
  0
DIMSTYLE
105
58
330
A
100
AcDbSymbolTableRecord
100
AcDbDimStyleTableRecord
  2
AM_JIS
 70
     0
  3

  4
"
  5
OPEN30
  6

  7

 40
0.5
 41
2.5
 42
1.0
 43
12.0
 44
1.0
 45
0.0
 46
0.0
 47
0.1
 48
0.1
140
3.2
141
0.0
142
0.0
143
0.0393701
144
1.0
145
0.0
146
0.71
147
1.5
 71
     0
 72
     0
 73
     0
 74
     0
 75
     0
 76
     0
 77
     3
 78
     8
170
     0
171
     2
172
     1
173
     0
174
     0
175
     0
176
   256
177
   256
178
     2
270
     2
271
     3
272
     3
273
     2
274
     2
340
6B
275
     0
280
     0
281
     0
282
     0
283
     0
284
     0
285
     0
286
     0
287
     3
288
     0
  0
DIMSTYLE
105
5F
330
A
100
AcDbSymbolTableRecord
100
AcDbDimStyleTableRecord
  2
AM_JIS$3
 70
     0
  3

  4
"
  5
OPEN30
  6

  7

 40
0.5
 41
2.5
 42
1.0
 43
10.0
 44
1.0
 45
0.0
 46
0.0
 47
0.1
 48
0.1
140
3.2
141
0.0
142
0.0
143
0.0393701
144
1.0
145
0.0
146
0.71
147
1.5
 71
     0
 72
     0
 73
     0
 74
     1
 75
     0
 76
     0
 77
     3
 78
     8
170
     0
171
     2
172
     0
173
     0
174
     0
175
     0
176
   256
177
   256
178
     2
270
     2
271
     2
272
     3
273
     2
274
     2
340
6B
275
     0
280
     0
281
     0
282
     0
283
     0
284
     0
285
     0
286
     0
287
     0
288
     1
  0
DIMSTYLE
105
60
330
A
100
AcDbSymbolTableRecord
100
AcDbDimStyleTableRecord
  2
AM_JIS$4
 70
     0
  3

  4
"
  5
OPEN30
  6

  7

 40
0.5
 41
2.5
 42
1.0
 43
10.0
 44
1.0
 45
0.0
 46
0.0
 47
0.1
 48
0.1
140
3.2
141
0.0
142
0.0
143
0.0393701
144
1.0
145
0.0
146
0.71
147
1.5
 71
     0
 72
     0
 73
     0
 74
     1
 75
     0
 76
     0
 77
     3
 78
     8
170
     0
171
     2
172
     0
173
     0
174
     0
175
     0
176
   256
177
   256
178
     2
270
     2
271
     2
272
     3
273
     2
274
     2
340
6B
275
     0
280
     0
281
     0
282
     0
283
     0
284
     0
285
     0
286
     0
287
     0
288
     1
  0
DIMSTYLE
105
61
330
A
100
AcDbSymbolTableRecord
100
AcDbDimStyleTableRecord
  2
AM_JIS$6
 70
     0
  3

  4
"
  5
OPEN30
  6

  7

 40
0.5
 41
2.5
 42
1.0
 43
10.0
 44
1.0
 45
0.0
 46
0.0
 47
0.1
 48
0.1
140
3.2
141
0.0
142
0.0
143
0.0393701
144
1.0
145
0.0
146
0.71
147
1.5
 71
     0
 72
     0
 73
     0
 74
     0
 75
     0
 76
     0
 77
     0
 78
     8
170
     0
171
     2
172
     1
173
     0
174
     0
175
     0
176
   256
177
   256
178
     2
270
     2
271
     2
272
     2
273
     2
274
     2
340
6B
275
     0
280
     0
281
     0
282
     0
283
     0
284
     0
285
     0
286
     0
287
     3
288
     0
  0
DIMSTYLE
105
62
330
A
100
AcDbSymbolTableRecord
100
AcDbDimStyleTableRecord
  2
AM_JIS$7
 70
     0
  3

  4
"
  5
OPEN30
  6

  7

 40
0.5
 41
2.5
 42
1.0
 43
10.0
 44
1.0
 45
0.0
 46
0.0
 47
0.1
 48
0.1
140
3.2
141
0.0
142
0.0
143
0.0393701
144
1.0
145
0.0
146
0.71
147
1.5
 71
     0
 72
     0
 73
     0
 74
     0
 75
     0
 76
     0
 77
     3
 78
     8
170
     0
171
     2
172
     1
173
     0
174
     0
175
     0
176
   256
177
   256
178
     2
270
     2
271
     2
272
     3
273
     2
274
     2
340
6B
275
     0
280
     0
281
     0
282
     0
283
     0
284
     0
285
     0
286
     0
287
     3
288
     0
  0
DIMSTYLE
105
63
330
A
100
AcDbSymbolTableRecord
100
AcDbDimStyleTableRecord
  2
AM_JIS$SF
 70
     0
  3

  4
"
  5
OPEN30
  6

  7

 40
0.5
 41
2.5
 42
1.0
 43
10.0
 44
1.0
 45
0.0
 46
0.0
 47
0.1
 48
0.1
140
3.2
141
0.0
142
0.0
143
0.0393701
144
1.0
145
0.0
146
0.71
147
1.5
 71
     0
 72
     0
 73
     0
 74
     0
 75
     1
 76
     1
 77
     3
 78
     8
170
     0
171
     2
172
     1
173
     0
174
     0
175
     0
176
   256
177
   256
178
     2
270
     2
271
     2
272
     2
273
     2
274
     2
340
6B
275
     0
280
     0
281
     0
282
     0
283
     0
284
     0
285
     0
286
     0
287
     3
288
     0
  0
DIMSTYLE
105
68
330
A
100
AcDbSymbolTableRecord
100
AcDbDimStyleTableRecord
  2
AM_JIS$SH
 70
     0
  3

  4
"
  5

  6
GENAXEH
  7
OPEN30
 40
0.5
 41
2.5
 42
1.0
 43
10.0
 44
1.0
 45
0.0
 46
0.0
 47
0.1
 48
0.1
140
3.2
141
0.0
142
0.0
143
0.0393701
144
2.0
145
0.0
146
0.71
147
1.5
 71
     0
 72
     0
 73
     0
 74
     0
 75
     1
 76
     1
 77
     3
 78
     8
170
     0
171
     2
172
     1
173
     1
174
     0
175
     0
176
   256
177
   256
178
     2
270
     2
271
     2
272
     2
273
     2
274
     2
340
6B
275
     0
280
     0
281
     0
282
     0
283
     0
284
     0
285
     0
286
     0
287
     3
288
     0
  0
DIMSTYLE
105
B34
102
{ACAD_REACTORS
330
2C81
102
}
330
A
100
AcDbSymbolTableRecord
100
AcDbDimStyleTableRecord
  2
AM_JIS$2
 70
     0
  3

  4
"
  5
OPEN30
  6

  7

 40
0.5
 41
2.5
 42
1.0
 43
12.0
 44
1.0
 45
0.0
 46
0.0
 47
0.1
 48
0.1
140
3.2
141
0.0
142
0.0
143
0.0393701
144
1.0
145
0.0
146
0.71
147
1.5
 71
     0
 72
     0
 73
     0
 74
     0
 75
     0
 76
     0
 77
     3
 78
     8
170
     0
171
     2
172
     1
173
     0
174
     0
175
     0
176
   256
177
   256
178
     2
270
     2
271
     3
272
     3
273
     2
274
     2
340
6B
275
     0
280
     0
281
     0
282
     0
283
     0
284
     0
285
     0
286
     0
287
     3
288
     0
  0
DIMSTYLE
105
BA5
102
{ACAD_REACTORS
330
CC6
330
2069
330
2D60
330
324F
102
}
330
A
100
AcDbSymbolTableRecord
100
AcDbDimStyleTableRecord
  2
AM_JIS$0
 70
     0
  3

  4
"
  5
OPEN30
  6

  7

 40
0.5
 41
2.5
 42
0.0
 43
10.0
 44
1.0
 45
0.0
 46
0.0
 47
0.1
 48
0.1000000001
140
3.799999999999999
141
0.0
142
0.0
143
0.0393701
144
1.0
145
0.0
146
0.71
147
1.5
 71
     0
 72
     0
 73
     0
 74
     0
 75
     0
 76
     0
 77
     3
 78
     1
170
     0
171
     2
172
     1
173
     0
174
     0
175
     0
176
     3
177
     3
178
     2
270
     2
271
     2
272
     2
273
     2
274
     2
340
11
275
     1
280
     0
281
     0
282
     0
283
     0
284
     8
285
     0
286
     0
287
     0
288
     0
  0
ENDTAB
  0
TABLE
  2
BLOCK_RECORD
  5
1
330
0
100
AcDbSymbolTable
 70
    10
  0
BLOCK_RECORD
  5
1F
102
{ACAD_XDICTIONARY
360
74
102
}
330
1
100
AcDbSymbolTableRecord
100
AcDbBlockTableRecord
  2
*MODEL_SPACE
  0
BLOCK_RECORD
  5
101
102
{ACAD_XDICTIONARY
360
3992
102
}
330
1
100
AcDbSymbolTableRecord
100
AcDbBlockTableRecord
  2
*PAPER_SPACE
  0
BLOCK_RECORD
  5
59
330
1
100
AcDbSymbolTableRecord
100
AcDbBlockTableRecord
  2
_OPEN30
  0
BLOCK_RECORD
  5
64
330
1
100
AcDbSymbolTableRecord
100
AcDbBlockTableRecord
  2
GENAXEH
  0
BLOCK_RECORD
  5
CC8
330
1
100
AcDbSymbolTableRecord
100
AcDbBlockTableRecord
  2
*D5
  0
BLOCK_RECORD
  5
206A
330
1
100
AcDbSymbolTableRecord
100
AcDbBlockTableRecord
  2
*D6
  0
BLOCK_RECORD
  5
2C82
330
1
100
AcDbSymbolTableRecord
100
AcDbBlockTableRecord
  2
*D7
  0
BLOCK_RECORD
  5
2D61
330
1
100
AcDbSymbolTableRecord
100
AcDbBlockTableRecord
  2
*D8
  0
BLOCK_RECORD
  5
3250
330
1
100
AcDbSymbolTableRecord
100
AcDbBlockTableRecord
  2
*D9
  0
ENDTAB
  0
ENDSEC
  0
SECTION
  2
BLOCKS
  0
BLOCK
  5
20
330
1F
100
AcDbEntity
  8
0
100
AcDbBlockBegin
  2
*MODEL_SPACE
 70
     0
 10
0.0
 20
0.0
 30
0.0
  3
*MODEL_SPACE
  1

  0
ENDBLK
  5
21
330
1F
100
AcDbEntity
  8
0
100
AcDbBlockEnd
  0
BLOCK
  5
103
330
101
100
AcDbEntity
 67
     1
  8
0
100
AcDbBlockBegin
  2
*PAPER_SPACE
 70
     0
 10
0.0
 20
0.0
 30
0.0
  3
*PAPER_SPACE
  1

  0
ENDBLK
  5
104
330
101
100
AcDbEntity
 67
     1
  8
0
100
AcDbBlockEnd
  0
BLOCK
  5
5D
330
59
100
AcDbEntity
  8
0
100
AcDbBlockBegin
  2
_OPEN30
 70
     0
 10
0.0
 20
0.0
 30
0.0
  3
_OPEN30
  1

  0
LINE
  5
5A
330
59
100
AcDbEntity
  8
0
 62
     0
100
AcDbLine
 10
-1.0
 20
0.26794919
 30
0.0
 11
0.0
 21
0.0
 31
0.0
  0
LINE
  5
5B
330
59
100
AcDbEntity
  8
0
 62
     0
100
AcDbLine
 10
0.0
 20
0.0
 30
0.0
 11
-1.0
 21
-0.26794919
 31
0.0
  0
LINE
  5
5C
330
59
100
AcDbEntity
  8
0
 62
     0
100
AcDbLine
 10
0.0
 20
0.0
 30
0.0
 11
-1.0
 21
0.0
 31
0.0
  0
ENDBLK
  5
5E
330
59
100
AcDbEntity
  8
0
100
AcDbBlockEnd
  0
BLOCK
  5
66
330
64
100
AcDbEntity
  8
0
100
AcDbBlockBegin
  2
GENAXEH
 70
     0
 10
0.0
 20
0.0
 30
0.0
  3
GENAXEH
  1

  0
LINE
  5
65
330
64
100
AcDbEntity
  8
0
100
AcDbLine
 10
-1.0
 20
0.0
 30
0.0
 11
1.0
 21
0.0
 31
0.0
  0
ENDBLK
  5
67
330
64
100
AcDbEntity
  8
0
100
AcDbBlockEnd
  0
BLOCK
  5
CD2
330
CC8
100
AcDbEntity
  8
0
100
AcDbBlockBegin
  2
*D5
 70
     1
 10
0.0
 20
0.0
 30
0.0
  3
*D5
  1

  0
LINE
  5
3917
330
CC8
100
AcDbEntity
  8
AM_5
 62
     3
100
AcDbLine
 10
-124.0
 20
-5.499999999999359
 30
0.0
 11
-124.0
 21
-18.50000099999951
 31
0.0
  0
LINE
  5
3918
330
CC8
100
AcDbEntity
  8
AM_5
 62
     3
100
AcDbLine
 10
-2.000000000000208
 20
-5.900012283525375
 30
0.0
 11
-2.000000000000209
 21
-18.50000099999951
 31
0.0
  0
LINE
  5
3919
330
CC8
100
AcDbEntity
  8
AM_5
 62
     3
100
AcDbLine
 10
-122.75
 20
-18.00000099999951
 30
0.0
 11
-3.250000000000209
 21
-18.00000099999951
 31
0.0
  0
INSERT
  5
391A
330
CC8
100
AcDbEntity
  8
AM_5
 62
     3
100
AcDbBlockReference
  2
_OPEN30
 10
-124.0
 20
-18.00000099999951
 30
0.0
 41
1.25
 42
1.25
 43
1.25
 50
180.0
  0
INSERT
  5
391B
330
CC8
100
AcDbEntity
  8
AM_5
 62
     3
100
AcDbBlockReference
  2
_OPEN30
 10
-2.000000000000209
 20
-18.00000099999951
 30
0.0
 41
1.25
 42
1.25
 43
1.25
  0
MTEXT
  5
391C
330
CC8
100
AcDbEntity
  8
AM_5
 62
     2
100
AcDbMText
 10
-63.00000000000012
 20
-16.30000099999951
 30
0.0
 40
1.9
 41
0.0
 71
     5
 72
     1
  1
122
1001
ACAD
1000
MTEXTBEGIN
1070
    73
1070
     1
1070
    44
1040
1.0
1070
    74
1070
     0
1000
MTEXTEND
  0
POINT
  5
391D
330
CC8
100
AcDbEntity
  8
DEFPOINTS
 62
     0
100
AcDbPoint
 10
-124.0
 20
-5.499999999999359
 30
0.0
  0
POINT
  5
391E
330
CC8
100
AcDbEntity
  8
DEFPOINTS
 62
     0
100
AcDbPoint
 10
-2.000000000000208
 20
-5.900012283525375
 30
0.0
  0
POINT
  5
391F
330
CC8
100
AcDbEntity
  8
DEFPOINTS
 62
     0
100
AcDbPoint
 10
-2.000000000000209
 20
-18.00000099999951
 30
0.0
  0
ENDBLK
  5
CD3
330
CC8
100
AcDbEntity
  8
0
100
AcDbBlockEnd
  0
BLOCK
  5
2074
330
206A
100
AcDbEntity
  8
0
100
AcDbBlockBegin
  2
*D6
 70
     1
 10
0.0
 20
0.0
 30
0.0
  3
*D6
  1

  0
LINE
  5
3934
330
206A
100
AcDbEntity
  8
AM_5
 62
     3
100
AcDbLine
 10
-62.00000000000011
 20
-5.999999999999633
 30
0.0
 11
-62.00000000000009
 21
-13.50000099999965
 31
0.0
  0
LINE
  5
3935
330
206A
100
AcDbEntity
  8
AM_5
 62
     3
100
AcDbLine
 10
-2.00000000000019
 20
-5.900012283525382
 30
0.0
 11
-2.000000000000169
 21
-13.50000099999947
 31
0.0
  0
LINE
  5
3936
330
206A
100
AcDbEntity
  8
AM_5
 62
     3
100
AcDbLine
 10
-60.75000000000009
 20
-13.00000099999965
 30
0.0
 11
-3.25000000000017
 21
-13.00000099999948
 31
0.0
  0
INSERT
  5
3937
330
206A
100
AcDbEntity
  8
AM_5
 62
     3
100
AcDbBlockReference
  2
_OPEN30
 10
-62.00000000000009
 20
-13.00000099999965
 30
0.0
 41
1.25
 42
1.25
 43
1.25
 50
180.0000000000001
  0
INSERT
  5
3938
330
206A
100
AcDbEntity
  8
AM_5
 62
     3
100
AcDbBlockReference
  2
_OPEN30
 10
-2.00000000000017
 20
-13.00000099999947
 30
0.0
 41
1.25
 42
1.25
 43
1.25
 50
0.0000000000001527
  0
MTEXT
  5
3939
330
206A
100
AcDbEntity
  8
AM_5
 62
     2
100
AcDbMText
 10
-32.00000000000013
 20
-11.30000099999956
 30
0.0
 40
1.9
 41
0.0
 71
     5
 72
     1
  1
60
1001
ACAD
1000
MTEXTBEGIN
1070
    73
1070
     1
1070
    44
1040
1.0
1070
    74
1070
     0
1000
MTEXTEND
  0
POINT
  5
393A
330
206A
100
AcDbEntity
  8
DEFPOINTS
 62
     0
100
AcDbPoint
 10
-62.00000000000013
 20
-5.999999999999452
 30
0.0
  0
POINT
  5
393B
330
206A
100
AcDbEntity
  8
DEFPOINTS
 62
     0
100
AcDbPoint
 10
-2.000000000000208
 20
-5.900012283525375
 30
0.0
  0
POINT
  5
393C
330
206A
100
AcDbEntity
  8
DEFPOINTS
 62
     0
100
AcDbPoint
 10
-2.000000000000208
 20
-13.00000099999947
 30
0.0
  0
ENDBLK
  5
2075
330
206A
100
AcDbEntity
  8
0
100
AcDbBlockEnd
  0
BLOCK
  5
2C90
330
2C82
100
AcDbEntity
  8
0
100
AcDbBlockBegin
  2
*D7
 70
     1
 10
0.0
 20
0.0
 30
0.0
  3
*D7
  1

  0
LINE
  5
3929
330
2C82
100
AcDbEntity
  8
AM_5
100
AcDbLine
 10
0.1710100704080544
 20
-0.4698463108496579
 30
0.0
 11
5.46684596192212
 21
-15.02003596082515
 31
0.0
  0
LINE
  5
392A
330
2C82
100
AcDbEntity
  8
AM_5
100
AcDbLine
 10
0.1710111111829681
 20
0.4698459320372658
 30
0.0
 11
5.46687923339041
 21
15.0200238509594
 31
0.0
  0
ARC
  5
392B
330
2C82
100
AcDbEntity
  8
AM_5
100
AcDbCircle
 10
-0.0000000000000164
 20
-0.0000000000000001
 30
0.0
 40
15.48398839576233
100
AcDbArc
 50
294.6266622332645
 51
65.37321084856529
  0
INSERT
  5
392C
330
2C82
100
AcDbEntity
  8
AM_5
100
AcDbBlockReference
  2
_OPEN30
 10
5.295835891514052
 20
-14.5501896499755
 30
0.0
 41
1.25
 42
1.25
 43
1.25
 50
202.3133310401254
  0
INSERT
  5
392D
330
2C82
100
AcDbEntity
  8
AM_5
100
AcDbBlockReference
  2
_OPEN30
 10
5.295868122207428
 20
14.55017791892215
 30
0.0
 41
1.25
 42
1.25
 43
1.25
 50
157.6865420417043
  0
MTEXT
  5
392E
330
2C82
100
AcDbEntity
  8
AM_5
 62
     2
100
AcDbMText
 10
13.93398839575377
 20
-0.0000154328671896
 30
0.0
 40
1.6
 41
0.0
 71
     5
 72
     1
  1
140°
  7
ASAMI
 11
0.0000011075699751
 21
0.9999999999993868
 31
0.0
1001
ACAD
1000
MTEXTBEGIN
1070
    73
1070
     1
1070
    44
1040
1.0
1070
    74
1070
     0
1000
MTEXTEND
  0
POINT
  5
392F
330
2C82
100
AcDbEntity
  8
DEFPOINTS
 62
     0
100
AcDbPoint
 10
14.21764300986629
 20
-6.132905011827785
 30
0.0
  0
POINT
  5
3930
330
2C82
100
AcDbEntity
  8
DEFPOINTS
 62
     0
100
AcDbPoint
 10
-0.0000000000000143
 20
0.0000000000000056
 30
0.0
  0
POINT
  5
3931
330
2C82
100
AcDbEntity
  8
DEFPOINTS
 62
     0
100
AcDbPoint
 10
-0.0000000000000142
 20
-0.0000000000000063
 30
0.0
  0
POINT
  5
3932
330
2C82
100
AcDbEntity
  8
DEFPOINTS
 62
     0
100
AcDbPoint
 10
-0.6288636867983483
 20
1.727788793750294
 30
0.0
  0
POINT
  5
3933
330
2C82
100
AcDbEntity
  8
DEFPOINTS
 62
     0
100
AcDbPoint
 10
-0.6288762571457464
 20
-1.727811421905664
 30
0.0
  0
ENDBLK
  5
2C91
330
2C82
100
AcDbEntity
  8
0
100
AcDbBlockEnd
  0
BLOCK
  5
2D6B
330
2D61
100
AcDbEntity
  8
0
100
AcDbBlockBegin
  2
*D8
 70
     1
 10
0.0
 20
0.0
 30
0.0
  3
*D8
  1

  0
LINE
  5
393D
330
2D61
100
AcDbEntity
  8
AM_5
 62
     3
100
AcDbLine
 10
-2.00000000129579
 20
5.899999999999995
 30
0.0
 11
9.819921740892118
 21
5.899958510233569
 31
0.0
  0
LINE
  5
393E
330
2D61
100
AcDbEntity
  8
AM_5
 62
     3
100
AcDbLine
 10
-2.000000000000191
 20
-5.900012283525382
 30
0.0
 11
9.819880321010996
 21
-5.900053773146412
 31
0.0
  0
LINE
  5
393F
330
2D61
100
AcDbEntity
  8
AM_5
 62
     3
100
AcDbLine
 10
9.319917353200494
 20
4.649960265319152
 30
0.0
 11
9.31988470870878
 21
-4.65005201807623
 31
0.0
  0
INSERT
  5
3940
330
2D61
100
AcDbEntity
  8
AM_5
 62
     3
100
AcDbBlockReference
  2
_OPEN30
 10
9.319921740895198
 20
5.899960265311452
 30
0.0
 41
1.25
 42
1.25
 43
1.25
 50
89.99979888288931
  0
INSERT
  5
3941
330
2D61
100
AcDbEntity
  8
AM_5
 62
     3
100
AcDbBlockReference
  2
_OPEN30
 10
9.319880321014077
 20
-5.90005201806853
 30
0.0
 41
1.25
 42
1.25
 43
1.25
 50
269.9997988828893
  0
MTEXT
  5
3942
330
2D61
100
AcDbEntity
  8
AM_5
 62
     2
100
AcDbMText
 10
7.61990103096511
 20
-0.0000399091137419
 30
0.0
 40
1.9
 41
0.0
 71
     5
 72
     1
  1
%%c11.8
 11
0.0000035101557632
 21
0.9999999999938395
 31
0.0
1001
ACAD
1000
MTEXTBEGIN
1070
    73
1070
     1
1070
    44
1040
1.0
1070
    74
1070
     0
1000
MTEXTEND
  0
POINT
  5
3943
330
2D61
100
AcDbEntity
  8
DEFPOINTS
 62
     0
100
AcDbPoint
 10
-2.000000001295773
 20
5.900000000000001
 30
0.0
  0
POINT
  5
3944
330
2D61
100
AcDbEntity
  8
DEFPOINTS
 62
     0
100
AcDbPoint
 10
-2.000000000000208
 20
-5.900012283525377
 30
0.0
  0
POINT
  5
3945
330
2D61
100
AcDbEntity
  8
DEFPOINTS
 62
     0
100
AcDbPoint
 10
9.319880321014061
 20
-5.900052018068557
 30
0.0
  0
ENDBLK
  5
2D6C
330
2D61
100
AcDbEntity
  8
0
100
AcDbBlockEnd
  0
BLOCK
  5
325A
330
3250
100
AcDbEntity
  8
0
100
AcDbBlockBegin
  2
*D9
 70
     1
 10
0.0
 20
0.0
 30
0.0
  3
*D9
  1

  0
LINE
  5
3920
330
3250
100
AcDbEntity
  8
AM_5
 62
     3
100
AcDbLine
 10
-123.5
 20
-5.999999999999936
 30
0.0
 11
-134.000001
 21
-5.999999999999982
 31
0.0
  0
LINE
  5
3921
330
3250
100
AcDbEntity
  8
AM_5
 62
     3
100
AcDbLine
 10
-123.5
 20
6.000000000000097
 30
0.0
 11
-134.000001
 21
6.000000000000051
 31
0.0
  0
LINE
  5
3922
330
3250
100
AcDbEntity
  8
AM_5
 62
     3
100
AcDbLine
 10
-133.500001
 20
-4.74999999999998
 30
0.0
 11
-133.500001
 21
4.750000000000053
 31
0.0
  0
INSERT
  5
3923
330
3250
100
AcDbEntity
  8
AM_5
 62
     3
100
AcDbBlockReference
  2
_OPEN30
 10
-133.500001
 20
-5.99999999999998
 30
0.0
 41
1.25
 42
1.25
 43
1.25
 50
270.0000000000002
  0
INSERT
  5
3924
330
3250
100
AcDbEntity
  8
AM_5
 62
     3
100
AcDbBlockReference
  2
_OPEN30
 10
-133.500001
 20
6.000000000000053
 30
0.0
 41
1.25
 42
1.25
 43
1.25
 50
90.00000000000026
  0
MTEXT
  5
3925
330
3250
100
AcDbEntity
  8
AM_5
 62
     2
100
AcDbMText
 10
-135.200001
 20
0.0000129000659571
 30
0.0
 40
1.9
 41
0.0
 71
     5
 72
     1
  1
%%c12
 11
-0.0000000000000046
 21
1.0
 31
0.0
1001
ACAD
1000
MTEXTBEGIN
1070
    73
1070
     1
1070
    44
1040
1.0
1070
    74
1070
     0
1000
MTEXTEND
  0
POINT
  5
3926
330
3250
100
AcDbEntity
  8
DEFPOINTS
 62
     0
100
AcDbPoint
 10
-123.5
 20
-5.99999999999936
 30
0.0
  0
POINT
  5
3927
330
3250
100
AcDbEntity
  8
DEFPOINTS
 62
     0
100
AcDbPoint
 10
-123.4999999999999
 20
6.000000000000673
 30
0.0
  0
POINT
  5
3928
330
3250
100
AcDbEntity
  8
DEFPOINTS
 62
     0
100
AcDbPoint
 10
-133.500001
 20
6.000000000000675
 30
0.0
  0
ENDBLK
  5
325B
330
3250
100
AcDbEntity
  8
0
100
AcDbBlockEnd
  0
ENDSEC
  0
SECTION
  2
ENTITIES
  0
LINE
  5
C1D
330
1F
100
AcDbEntity
  8
AM_0
 48
0.5
100
AcDbLine
 10
-0.0000000000000156
 20
-0.0000000000000069
 30
0.0
 11
-0.6911274181645214
 21
1.898856991151313
 31
0.0
  0
LINE
  5
C20
330
1F
100
AcDbEntity
  8
AM_0
 48
0.5
100
AcDbLine
 10
-0.0000000000000158
 20
0.0000000000000062
 30
0.0
 11
-0.6911412331007707
 21
-1.898881859718106
 31
0.0
  0
DIMENSION
  5
CC6
330
1F
100
AcDbEntity
  8
AM_5
100
AcDbDimension
  2
*D5
 10
-2.000000000000209
 20
-18.00000099999951
 30
0.0
 11
-63.00000000000012
 21
-16.30000099999951
 31
0.0
 70
    32
  1
<>
  3
AM_JIS$0
100
AcDbAlignedDimension
 13
-124.0
 23
-5.499999999999359
 33
0.0
 14
-2.000000000000208
 24
-5.900012283525375
 34
0.0
 50
0.0000000000001132
100
AcDbRotatedDimension
1001
GENIUS_GENDTOL_13
1000

1000
h7
1000

1040
0.0
1001
ACAD
1000
DSTYLE
1002
{
1070
   271
1070
     0
1002
}
  0
TEXT
  5
19BD
330
1F
100
AcDbEntity
  8
AM_6
100
AcDbText
 10
-73.77380952380956
 20
-29.25000099999954
 30
0.0
 40
2.5
  1
MDW118MHK
 50
0.0000000000001527
 72
     4
 11
-63.00000000000004
 21
-28.00000099999951
 31
0.0
100
AcDbText
  0
DIMENSION
  5
2069
330
1F
100
AcDbEntity
  8
AM_5
100
AcDbDimension
  2
*D6
 10
-2.000000000000208
 20
-13.00000099999947
 30
0.0
 11
-32.00000000000017
 21
-11.30000099999947
 31
0.0
 70
    32
  1
<>
 51
359.9999999999998
  3
AM_JIS$0
100
AcDbAlignedDimension
 13
-62.00000000000013
 23
-5.999999999999452
 33
0.0
 14
-2.000000000000208
 24
-5.900012283525375
 34
0.0
 50
0.0000000000001527
100
AcDbRotatedDimension
1001
ACAD
1000
DSTYLE
1002
{
1070
   271
1070
     0
1070
   174
1070
     1
1002
}
1001
GENIUS_GENDTOL_13
1000

1000
h7
1000

1040
0.0
  0
LINE
  5
23EF
330
1F
100
AcDbEntity
  8
AM_7
100
AcDbLine
 10
-126.5
 20
0.0000000000006583
 30
0.0
 11
2.31990003107253
 21
-0.0000000000000121
 31
0.0
1001
GENIUS_GENODEF_13
1002
{
1000
HIER
1070
     0
1002
}
1002
{
1000
MANEDIT
1070
     0
1002
}
1002
{
1000
NOSEL
1070
     0
1002
}
1002
{
1000
BEHIND
1070
     0
1002
}
1002
{
1000
REACTOR
1002
}
1001
GENIUS_GENOBJ-N-CEN_13
1002
{
1000
OWNER
1000
GEN
1002
}
  0
ELLIPSE
  5
24B7
330
1F
100
AcDbEntity
  8
AM_11
 48
0.5
100
AcDbEllipse
 10
-18.90505084822881
 20
21.92422160965422
 30
0.0
 11
-25.30609321594203
 21
0.0000000000001926
 31
0.0
210
0.0
220
0.0
230
1.0
 40
0.9578947368421056
 41
1.130070686340284
 42
2.011520147323574
  0
ELLIPSE
  5
24B8
330
1F
100
AcDbEntity
  8
AM_11
 48
0.5
100
AcDbEllipse
 10
-18.90505084823002
 20
-21.92420569470017
 30
0.0
 11
-25.306093215942
 21
0.0000000000001139
 31
0.0
210
0.0
220
0.0
230
1.0
 40
0.9578947368421054
 41
4.271664206181664
 42
5.153113667164971
  0
ELLIPSE
  5
24B9
330
1F
100
AcDbEntity
  8
AM_11
 48
0.5
100
AcDbEllipse
 10
2.685858242680295
 20
21.92422160965365
 30
0.0
 11
-25.30609321594198
 21
0.0000000000019795
 31
0.0
210
0.0
220
0.0
230
1.0
 40
0.9578947368421141
 41
1.130070686340349
 42
1.291800737381041
  0
ELLIPSE
  5
24BE
330
1F
100
AcDbEntity
  8
AM_0
 48
0.5
100
AcDbEllipse
 10
8.112677985322388
 20
6.861476995223885
 30
0.0
 11
8.923049457853185
 21
4.746715063030587
 31
0.0
210
0.0
220
0.0
230
1.0
 40
0.881062575869514
 41
2.787798752473538
 42
3.169290432513448
  0
ELLIPSE
  5
24C7
330
1F
100
AcDbEntity
  8
AM_11
 48
0.5
100
AcDbEllipse
 10
-83.67777812095001
 20
21.92422160965587
 30
0.0
 11
-25.30609321594203
 21
0.0000000000005635
 31
0.0
210
0.0
220
0.0
230
1.0
 40
0.9578947368421056
 41
1.130070686340301
 42
2.011520147323591
  0
ELLIPSE
  5
24C8
330
1F
100
AcDbEntity
  8
AM_11
 48
0.5
100
AcDbEllipse
 10
-83.67777812095125
 20
-21.92420569469852
 30
0.0
 11
25.306093215942
 21
0.000000000000423
 31
0.0
210
0.0
220
0.0
230
1.0
 40
0.957894736842107
 41
1.13007155259185
 42
2.011521013575156
  0
ELLIPSE
  5
24D4
330
1F
100
AcDbEntity
  8
AM_11
 48
0.5
100
AcDbEllipse
 10
-62.08686903004092
 20
21.92422160965534
 30
0.0
 11
-25.30609321594207
 21
0.0000000000001476
 31
0.0
210
0.0
220
0.0
230
1.0
 40
0.9578947368421051
 41
1.130070686340283
 42
2.011520147323574
  0
ELLIPSE
  5
24D5
330
1F
100
AcDbEntity
  8
AM_11
 48
0.5
100
AcDbEllipse
 10
-62.08686903004213
 20
-21.92420569469905
 30
0.0
 11
-25.30609321594196
 21
0.0000000000004567
 31
0.0
210
0.0
220
0.0
230
1.0
 40
0.9578947368421083
 41
4.271664206181676
 42
5.153113667164986
  0
ELLIPSE
  5
24E6
330
1F
100
AcDbEntity
  8
AM_11
 48
0.5
100
AcDbEllipse
 10
-40.4959599391391
 20
-21.92420569469962
 30
0.0
 11
-25.30609321594199
 21
0.0000000000006871
 31
0.0
210
0.0
220
0.0
230
1.0
 40
0.9578947368421058
 41
4.271664206181685
 42
5.153113667164993
  0
ELLIPSE
  5
24E7
330
1F
100
AcDbEntity
  8
AM_11
 48
0.5
100
AcDbEllipse
 10
-40.49595993913789
 20
21.92422160965477
 30
0.0
 11
25.30609321594204
 21
0.0000000000000409
 31
0.0
210
0.0
220
0.0
230
1.0
 40
0.9578947368421051
 41
4.271663339930067
 42
5.153112800913361
  0
ELLIPSE
  5
2BF3
330
1F
100
AcDbEntity
  8
AM_11
 48
0.5
100
AcDbEllipse
 10
-105.2686872118502
 20
21.9242216096552
 30
0.0
 11
-25.30609321594207
 21
0.0000000000001476
 31
0.0
210
0.0
220
0.0
230
1.0
 40
0.9578947368421051
 41
1.130070686340283
 42
2.011520147323574
  0
ELLIPSE
  5
2BF5
330
1F
100
AcDbEntity
  8
AM_11
 48
0.5
100
AcDbEllipse
 10
-105.2686872118514
 20
-21.92420569469919
 30
0.0
 11
-25.30609321594196
 21
0.0000000000004567
 31
0.0
210
0.0
220
0.0
230
1.0
 40
0.9578947368421083
 41
4.271664206181676
 42
5.153113667164986
  0
LINE
  5
2C0E
330
1F
100
AcDbEntity
  8
AM_0
 48
0.5
100
AcDbLine
 10
-62.00000000000013
 20
-5.999999999999452
 30
0.0
 11
-62.00000000000013
 21
6.000000000000543
 31
0.0
  0
ELLIPSE
  5
2C72
330
1F
100
AcDbEntity
  8
AM_0
 48
0.5
100
AcDbEllipse
 10
8.11267798532231
 20
-6.861476995223975
 30
0.0
 11
8.906467373807679
 21
-4.777201807748571
 31
0.0
210
0.0
220
0.0
230
-1.0
 40
0.8865390934601007
 41
2.790918318021922
 42
3.165246863909731
  0
LINE
  5
2C73
330
1F
100
AcDbEntity
  8
AM_0
 48
0.5
100
AcDbLine
 10
-1.706668176775011
 20
-5.087508301370093
 30
0.0
 11
-2.000000000000208
 21
-5.900012283525375
 31
0.0
  0
DIMENSION
  5
2C81
330
1F
100
AcDbEntity
  8
AM_5
100
AcDbDimension
  2
*D7
 10
-0.6288762571457463
 20
-1.727811421905664
 30
0.0
 11
13.93398839575377
 21
-0.0000154328672309
 31
0.0
 70
    34
  1
<>
 51
359.9999999999998
  3
AM_JIS$2
100
AcDb2LineAngularDimension
 13
-0.0000000000000142
 23
-0.0000000000000063
 33
0.0
 14
-0.6288636867983481
 24
1.727788793750294
 34
0.0
 15
-0.0000000000000143
 25
0.0000000000000056
 35
0.0
 16
14.21764300986629
 26
-6.132905011827785
 36
0.0
1001
ACAD
1000
DSTYLE
1002
{
1070
   179
1070
     3
1002
}
1001
GENIUS_GENDTOL_13
1000

1000
h7
1000

1040
0.0
  0
DIMENSION
  5
2D60
330
1F
100
AcDbEntity
  8
AM_5
100
AcDbDimension
  2
*D8
 10
9.319880321014061
 20
-5.900052018068557
 30
0.0
 11
7.61990103096511
 21
-0.0000399091137641
 31
0.0
 70
    32
  1
%%c<>
 51
359.9999999999998
  3
AM_JIS$0
100
AcDbAlignedDimension
 13
-2.000000001295773
 23
5.9
 33
0.0
 14
-2.000000000000208
 24
-5.900012283525375
 34
0.0
 50
89.99979888288933
100
AcDbRotatedDimension
1001
ACAD
1000
DSTYLE
1002
{
1070
   271
1070
     1
1002
}
1001
GENIUS_GENDTOL_13
1000

1000
h7
1000

1040
0.0
  0
LINE
  5
2FB7
330
1F
100
AcDbEntity
  8
AM_0
100
AcDbLine
 10
-62.00000000000013
 20
6.000000000000543
 30
0.0
 11
-61.8266812656814
 21
5.899934382086023
 31
0.0
  0
LINE
  5
2FB9
330
1F
100
AcDbEntity
  8
AM_0
100
AcDbLine
 10
-62.00000000000011
 20
-5.999999999999633
 30
0.0
 11
-61.82672068347423
 21
-5.89995713995843
 31
0.0
  0
LINE
  5
324C
330
1F
100
AcDbEntity
  8
AM_0
100
AcDbLine
 10
-123.5
 20
-5.99999999999936
 30
0.0
 11
-61.99999999999981
 21
-5.999999999999451
 31
0.0
  0
DIMENSION
  5
324F
330
1F
100
AcDbEntity
  8
AM_5
100
AcDbDimension
  2
*D9
 10
-133.500001
 20
6.000000000000675
 30
0.0
 11
-133.500001
 21
0.0000129000665904
 31
0.0
 70
   160
  1
%%c<>
 51
359.9999999999997
  3
AM_JIS$0
100
AcDbAlignedDimension
 13
-123.5
 23
-5.99999999999936
 33
0.0
 14
-123.4999999999999
 24
6.000000000000673
 34
0.0
 50
270.0
100
AcDbRotatedDimension
1001
ACAD
1000
DSTYLE
1002
{
1070
   271
1070
     0
1002
}
1001
GENIUS_GENDTOL_13
1000

1000
h7
1000

1040
0.0
  0
LINE
  5
325C
330
1F
100
AcDbEntity
  8
AM_0
 48
0.5
100
AcDbLine
 10
-123.5
 20
-5.999999999999392
 30
0.0
 11
-123.4999999999999
 21
5.999990914632275
 31
0.0
  0
LINE
  5
325D
330
1F
100
AcDbEntity
  8
AM_0
 48
0.5
100
AcDbLine
 10
-124.0
 20
-5.499999999999359
 30
0.0
 11
-124.0
 21
5.500000000000639
 31
0.0
  0
LINE
  5
325E
330
1F
100
AcDbEntity
  8
AM_0
100
AcDbLine
 10
-62.00000000000013
 20
6.000000000000543
 30
0.0
 11
-123.5
 21
6.000000000000638
 31
0.0
  0
LINE
  5
3273
330
1F
100
AcDbEntity
  8
AM_0
 48
0.5
100
AcDbLine
 10
-123.5
 20
-5.99999999999936
 30
0.0
 11
-124.0
 21
-5.499999999999359
 31
0.0
1001
GENIUS_GENFIL_13
1070
     0
1040
0.5
1040
0.5
1040
20.0
1040
0.0
1002
{
1002
}
1001
GENIUS_GENODEF_13
1002
{
1000
HIER
1070
     0
1002
}
1002
{
1000
MANEDIT
1070
     0
1002
}
1002
{
1000
NOSEL
1070
     0
1002
}
1002
{
1000
BEHIND
1070
     0
1002
}
1002
{
1000
REACTOR
1002
}
1001
GENIUS_GENOBJ-N-CHA_13
1002
{
1000
OWNER
1000
GEN
1002
}
  0
LINE
  5
327F
330
1F
100
AcDbEntity
  8
AM_0
 48
0.5
100
AcDbLine
 10
-123.5
 20
6.000000000000638
 30
0.0
 11
-124.0
 21
5.500000000000639
 31
0.0
1001
GENIUS_GENFIL_13
1070
     0
1040
0.5
1040
0.5
1040
20.0
1040
0.0
1002
{
1002
}
1001
GENIUS_GENODEF_13
1002
{
1000
HIER
1070
     0
1002
}
1002
{
1000
MANEDIT
1070
     0
1002
}
1002
{
1000
NOSEL
1070
     0
1002
}
1002
{
1000
BEHIND
1070
     0
1002
}
1002
{
1000
REACTOR
1002
}
1001
GENIUS_GENOBJ-N-CHA_13
1002
{
1000
OWNER
1000
GEN
1002
}
  0
ELLIPSE
  5
3281
330
1F
100
AcDbEntity
  8
AM_11
 48
0.5
100
AcDbEllipse
 10
-126.8595410461822
 20
-21.92420569469927
 30
0.0
 11
-25.30609321594196
 21
0.0000000000004567
 31
0.0
210
0.0
220
0.0
230
1.0
 40
0.9578947368421083
 41
4.271664206181676
 42
4.599148993739767
  0
ELLIPSE
  5
3282
330
1F
100
AcDbEntity
  8
AM_11
 48
0.5
100
AcDbEllipse
 10
-126.8595410461809
 20
21.92422160965513
 30
0.0
 11
-25.30609321594207
 21
0.0000000000001476
 31
0.0
210
0.0
220
0.0
230
1.0
 40
0.9578947368421051
 41
1.684036313439791
 42
2.011520147323574
  0
LINE
  5
364D
330
1F
100
AcDbEntity
  8
AM_0
 48
0.5
100
AcDbLine
 10
-1.706668176774939
 20
5.132530498727377
 30
0.0
 11
-2.000000001295773
 21
5.9
 31
0.0
  0
LINE
  5
38A3
330
1F
100
AcDbEntity
  8
AM_0
 48
0.5
100
AcDbLine
 10
-61.82679458277576
 20
-5.899999805740049
 30
0.0
 11
-59.92987767255257
 21
-5.899999987900445
 31
0.0
  0
LINE
  5
38A4
330
1F
100
AcDbEntity
  8
AM_0
100
AcDbLine
 10
-61.82671654485857
 20
-4.661039680165171
 30
0.0
 11
-61.82672068361679
 21
-5.89999981405646
 31
0.0
  0
ELLIPSE
  5
38A5
330
1F
100
AcDbEntity
  8
AM_0
 48
0.5
100
AcDbEllipse
 10
-60.50205527826275
 20
-3.993553797401601
 30
0.0
 11
1.446753784584388
 21
0.3965714231639266
 31
0.0
210
0.0
220
0.0
230
0.9999999999999998
 40
0.9866425794235876
 41
1.016839349680961
 42
2.845085531942789
  0
ELLIPSE
  5
38A6
330
1F
100
AcDbEntity
  8
AM_0
 48
0.5
100
AcDbEllipse
 10
-60.00221047963346
 20
-3.933633422849298
 30
0.0
 11
-1.678066194483397
 21
1.142603522899059
 31
0.0
210
0.0
220
0.0
230
1.0
 40
0.9537200060255816
 41
0.6312728768059009
 42
2.182903107318429
  0
SPLINE
  5
38A7
330
1F
100
AcDbEntity
  8
AM_0
 48
0.5
100
AcDbSpline
210
0.0
220
0.0
230
1.0
 70
     8
 71
     3
 72
    26
 73
    22
 74
     0
 42
0.0000000001
 43
0.0000000001
 40
0.0
 40
0.0
 40
0.0
 40
0.0
 40
0.8422864037471089
 40
1.685694647057321
 40
2.531315797913884
 40
3.380177287502886
 40
4.233214169721234
 40
5.09125020057522
 40
5.954967768899448
 40
6.824900391836836
 40
7.701419186604396
 40
8.584724417931369
 40
9.47485577056355
 40
10.37165251267315
 40
11.27486274211709
 40
12.18400675634887
 40
13.09851504074504
 40
14.01768673654235
 40
14.94071745659532
 40
15.8667176994736
 40
16.76607142455336
 40
16.76607142455336
 40
16.76607142455336
 40
16.76607142455336
 10
-42.85025251792633
 20
-5.900300089516764
 30
0.0
 10
-43.18683462108463
 20
-5.896789732605962
 30
0.0
 10
-43.86044712042585
 20
-5.889764343347049
 30
0.0
 10
-44.87062072827869
 20
-5.833131814163039
 30
0.0
 10
-45.88075121856133
 20
-5.743100899261804
 30
0.0
 10
-46.89081918062687
 20
-5.61691910259914
 30
0.0
 10
-47.90081458821968
 20
-5.456296627828274
 30
0.0
 10
-48.91071731831329
 20
-5.261946989771701
 30
0.0
 10
-49.9205266990644
 20
-5.035183289992274
 30
0.0
 10
-50.93023584359522
 20
-4.777382776995125
 30
0.0
 10
-51.93984236485561
 20
-4.490145059889719
 30
0.0
 10
-52.94935457194489
 20
-4.175257930118875
 30
0.0
 10
-53.95876828177421
 20
-3.83466571421005
 30
0.0
 10
-54.9680949312852
 20
-3.470457689273559
 30
0.0
 10
-55.97734801587065
 20
-3.084915940829059
 30
0.0
 10
-56.98652971614747
 20
-2.680379264478037
 30
0.0
 10
-57.99564755503494
 20
-2.259360953990624
 30
0.0
 10
-59.00472006379472
 20
-1.824458601444067
 30
0.0
 10
-60.0137305663835
 20
-1.378291367767888
 30
0.0
 10
-61.01237633891379
 20
-0.9285094184911409
 30
0.0
 10
-61.67401673617696
 20
-0.626342749932149
 30
0.0
 10
-62.00000762144482
 20
-0.4774649302139979
 30
0.0
  0
LINE
  5
38A8
330
1F
100
AcDbEntity
  8
AM_0
 48
0.5
100
AcDbLine
 10
-49.07375911146854
 20
2.931940998855146
 30
0.0
 11
-62.00000000000013
 21
-0.4774611790952715
 31
0.0
  0
LINE
  5
38A9
330
1F
100
AcDbEntity
  8
AM_0
100
AcDbLine
 10
-61.82670283395978
 20
-0.5566064020826697
 30
0.0
 11
-61.8267120302203
 21
-3.309557780243864
 31
0.0
  0
LINE
  5
38AA
330
1F
100
AcDbEntity
  8
AM_0
100
AcDbLine
 10
-61.82668126568139
 20
5.89997686158966
 30
0.0
 11
-61.82670241688416
 21
-0.4317525185183728
 31
0.0
  0
LINE
  5
38AB
330
1F
100
AcDbEntity
  8
AM_0
 48
0.5
100
AcDbLine
 10
-58.1679211634694
 20
5.900000000001067
 30
0.0
 11
-61.8266812656814
 21
5.899934382086023
 31
0.0
  0
LINE
  5
38AC
330
1F
100
AcDbEntity
  8
AM_0
 48
0.5
100
AcDbLine
 10
-5.643434023962009
 20
5.900000000000196
 30
0.0
 11
-2.000000001295773
 21
5.9
 31
0.0
  0
LINE
  5
38AD
330
1F
100
AcDbEntity
  8
AM_0
 48
0.5
100
AcDbLine
 10
-0.0000000000000331
 20
0.000000000000007
 30
0.0
 11
-2.847476700022546
 21
2.265421396597328
 31
0.0
  0
LINE
  5
38AE
330
1F
100
AcDbEntity
  8
AM_0
 48
0.5
100
AcDbLine
 10
-5.643434022622158
 20
-5.899999389941835
 30
0.0
 11
-2.000000000000236
 21
-5.900012283525375
 31
0.0
  0
LINE
  5
38AF
330
1F
100
AcDbEntity
  8
AM_11
 48
0.5
100
AcDbLine
 10
-58.1679211634694
 20
5.900000000001067
 30
0.0
 11
-46.02429853161876
 21
5.900000000000841
 31
0.0
  0
LINE
  5
38B0
330
1F
100
AcDbEntity
  8
AM_11
 48
0.5
100
AcDbLine
 10
-59.92987767255257
 20
-5.899999987900445
 30
0.0
 11
-46.0236598279119
 21
-5.900300089516612
 31
0.0
  0
LINE
  5
38B1
330
1F
100
AcDbEntity
  8
AM_0
 48
0.5
100
AcDbLine
 10
-45.07091451352257
 20
-5.899999389940167
 30
0.0
 11
-24.67250759139834
 21
-5.899999999999558
 31
0.0
  0
LINE
  5
38B2
330
1F
100
AcDbEntity
  8
AM_0
 48
0.5
100
AcDbLine
 10
-46.02431492124442
 20
5.900000610060112
 30
0.0
 11
-24.67250355803787
 21
5.900000000001109
 31
0.0
  0
LINE
  5
38B3
330
1F
100
AcDbEntity
  8
AM_11
 48
0.5
100
AcDbLine
 10
-24.67250759139834
 20
-5.899999999999558
 30
0.0
 11
-5.643434022622158
 21
-5.899999389941835
 31
0.0
  0
LINE
  5
38B4
330
1F
100
AcDbEntity
  8
AM_11
 48
0.5
100
AcDbLine
 10
-24.67250355803787
 20
5.900000000001109
 30
0.0
 11
-5.643434023962011
 21
5.900000000000197
 31
0.0
  0
ELLIPSE
  5
38B5
330
1F
100
AcDbEntity
  8
AM_0
 48
0.5
100
AcDbEllipse
 10
-10.02962330164676
 20
10.00236311565279
 30
0.0
 11
10.38012771447896
 21
12.42771713814845
 31
0.0
210
0.0
220
0.0
230
1.0
 40
0.8739749812760358
 41
4.524211742969248
 42
4.635279262387112
  0
ELLIPSE
  5
38B6
330
1F
100
AcDbEntity
  8
AM_0
 48
0.5
100
AcDbEllipse
 10
-6.584425756287565
 20
6.019115444239449
 30
0.0
 11
0.0000000000017914
 21
9.166527095688643
 31
0.0
210
0.0
220
0.0
230
1.0
 40
0.9406779661017139
 41
3.517054509082858
 42
3.681821570856356
  0
ELLIPSE
  5
38B7
330
1F
100
AcDbEntity
  8
AM_0
 48
0.5
100
AcDbEllipse
 10
-1.726175219014286
 20
-1.53553174419324
 30
0.0
 11
-0.164285469952827
 21
0.9686578680935197
 31
0.0
210
0.0
220
0.0
230
1.0
 40
0.4907344301266014
 41
1.808541976897421
 42
4.943883866609398
  0
ELLIPSE
  5
38B8
330
1F
100
AcDbEntity
  8
AM_0
 48
0.5
100
AcDbEllipse
 10
-1.726258474564602
 20
-1.537624321277858
 30
0.0
 11
-0.8336746424515812
 21
0.4961647414227923
 31
0.0
210
0.0
220
0.0
230
1.0
 40
0.5044497964597894
 41
4.494465852006696
 42
7.637906193336208
  0
SPLINE
  5
38B9
330
1F
100
AcDbEntity
  8
AM_0
100
AcDbSpline
210
0.0
220
0.0
230
1.0
 70
     8
 71
     3
 72
    11
 73
     7
 74
     0
 42
0.0000000001
 43
0.0000000001
 40
11.27226913003534
 40
11.27226913003534
 40
11.27226913003534
 40
11.2722691300354
 40
12.28301561507924
 40
13.29510212255852
 40
14.30984805882082
 40
15.18258238371378
 40
15.18258238371378
 40
15.18258238371378
 40
15.18258238371378
 10
-24.6725075913984
 20
-5.89999999999956
 30
0.0
 10
-25.00780580453307
 20
-5.871123075412103
 30
0.0
 10
-25.67777785640386
 20
-5.801214774686358
 30
0.0
 10
-26.67927632343492
 20
-5.660192440345367
 30
0.0
 10
-27.62971602781526
 20
-5.491756724470963
 30
0.0
 10
-28.24440463891709
 20
-5.362275176709844
 30
0.0
 10
-28.527670654155
 20
-5.29831486852507
 30
0.0
  0
SPLINE
  5
38BA
330
1F
100
AcDbEntity
  8
AM_0
100
AcDbSpline
210
0.0
220
0.0
230
1.0
 70
     8
 71
     3
 72
    17
 73
    13
 74
     0
 42
0.0000000001
 43
0.0000000001
 40
1.580019955310467
 40
1.580019955310467
 40
1.580019955310467
 40
1.580019955310467
 40
2.030549285115227
 40
3.082371838836284
 40
4.126290986361125
 40
5.162752068350215
 40
6.192395305374981
 40
7.216039564037012
 40
8.234688489606833
 40
9.249433870634691
 40
10.26152376260694
 40
11.27226744710342
 40
11.27226744710342
 40
11.27226744710342
 40
11.27226744710352
 10
-15.15722647135882
 20
-4.354373124824507
 30
0.0
 10
-15.30014917562589
 20
-4.399219556950518
 30
0.0
 10
-15.77755902450348
 20
-4.546209728340776
 30
0.0
 10
-16.59261602922543
 20
-4.776769071565985
 30
0.0
 10
-17.60218470461189
 20
-5.034964950189159
 30
0.0
 10
-18.61203131330947
 20
-5.2616266505287
 30
0.0
 10
-19.62192419282612
 20
-5.45599299165193
 30
0.0
 10
-20.63192709836205
 20
-5.616650143407016
 30
0.0
 10
-21.6419997821005
 20
-5.742681306268894
 30
0.0
 10
-22.6521353610498
 20
-5.833269756131684
 30
0.0
 10
-23.66230894808519
 20
-5.88783236462339
 30
0.0
 10
-24.33592145802065
 20
-5.899999423701057
 30
0.0
 10
-24.67250759139835
 20
-5.89999999999956
 30
0.0
  0
SPLINE
  5
38BB
330
1F
100
AcDbEntity
  8
AM_0
100
AcDbSpline
210
0.0
220
0.0
230
1.0
 70
     8
 71
     3
 72
    22
 73
    18
 74
     0
 42
0.0000000001
 43
0.0000000001
 40
17.17441611292
 40
17.17441611292
 40
17.17441611292
 40
17.17441611292
 40
17.38177636558528
 40
18.41823744757437
 40
19.46215659509824
 40
20.51397914882054
 40
21.57394542641293
 40
22.64209583141747
 40
23.71826625065247
 40
24.80210429862395
 40
25.8930771157021
 40
26.99048705697709
 40
28.09349309193389
 40
29.20112995599786
 40
30.31233024745139
 40
31.42594771747373
 40
32.5407895042663
 40
32.54078950426994
 40
32.54078950426994
 40
32.54078950426994
 10
-28.5281124378922
 20
-5.298242092070186
 30
0.0
 10
-28.59575510137783
 20
-5.284584170752627
 30
0.0
 10
-29.00123592716402
 20
-5.201392279159763
 30
0.0
 10
-29.74405395125076
 20
-5.034581708850313
 30
0.0
 10
-30.75376317585105
 20
-4.7767822970204
 30
0.0
 10
-31.76336951320086
 20
-4.48954383023412
 30
0.0
 10
-32.77288009106433
 20
-4.174659322222823
 30
0.0
 10
-33.78229357594814
 20
-3.83405948058321
 30
0.0
 10
-34.7916223925619
 20
-3.469864015519152
 30
0.0
 10
-35.80087121438168
 20
-3.084311155178781
 30
0.0
 10
-36.81004937935902
 20
-2.679778582925969
 30
0.0
 10
-37.81916810891526
 20
-2.258762008496306
 30
0.0
 10
-38.82823616159221
 20
-1.823850275537816
 30
0.0
 10
-39.8372636952911
 20
-1.377719034522911
 30
0.0
 10
-40.84625965416288
 20
-0.9231114875923147
 30
0.0
 10
-41.85523898560523
 20
-0.462832809029596
 30
0.0
 10
-42.52775983952697
 20
-0.1541336628072385
 30
0.0
 10
-42.86420501280825
 20
0.0003006995789403
 30
0.0
  0
SPLINE
  5
38BC
330
1F
100
AcDbEntity
  8
AM_0
100
AcDbSpline
210
0.0
220
0.0
230
1.0
 70
     8
 71
     3
 72
    23
 73
    19
 74
     0
 42
0.0000000001
 43
0.0000000001
 40
16.03460024169435
 40
16.03460024169435
 40
16.03460024169435
 40
16.03460024169435
 40
16.35212704903564
 40
17.38177054169784
 40
18.41822485651776
 40
19.46214173629503
 40
20.51396345435107
 40
21.57393551351153
 40
22.64208202342361
 40
23.7182574881101
 40
24.80209208578934
 40
25.89306333925047
 40
26.99048218457928
 40
28.09348763352352
 40
29.20111863782268
 40
30.31232390128032
 40
31.42594612798585
 40
32.5407912310448
 40
32.5407912310486
 40
32.5407912310486
 40
32.5407912310486
 10
-58.1679211634694
 20
5.900000000001064
 30
0.0
 10
-58.06413823974529
 20
5.880082638988795
 30
0.0
 10
-57.624260605144
 20
5.79334813764434
 30
0.0
 10
-56.8494114146363
 20
5.623405119613552
 30
0.0
 10
-55.84597968449185
 20
5.37070171028052
 30
0.0
 10
-54.84347998893653
 20
5.086957902993428
 30
0.0
 10
-53.84185308946395
 20
4.773815862184404
 30
0.0
 10
-52.84106343656034
 20
4.433021361741301
 30
0.0
 10
-51.84105318698234
 20
4.066522526746163
 30
0.0
 10
-50.841752703817
 20
3.676452288487649
 30
0.0
 10
-49.84310520322176
 20
3.265019591982473
 30
0.0
 10
-48.84503062000536
 20
2.834618468225635
 30
0.0
 10
-47.84744807138388
 20
2.387750594502501
 30
0.0
 10
-46.85029109127742
 20
1.926985273747963
 30
0.0
 10
-45.8534762487726
 20
1.455001793202966
 30
0.0
 10
-44.85691121770376
 20
0.9745561901198593
 30
0.0
 10
-43.86051484954573
 20
0.4884325166684323
 30
0.0
 10
-43.19642902525164
 20
0.1625131745869864
 30
0.0
 10
-42.86420501280381
 20
-0.0005381125567012
 30
0.0
  0
SPLINE
  5
38BD
330
1F
100
AcDbEntity
  8
AM_0
 48
0.5
100
AcDbSpline
210
0.0
220
0.0
230
1.0
 70
     8
 71
     3
 72
    17
 73
    13
 74
     0
 42
0.0000000001
 43
0.0000000001
 40
0.0
 40
0.0
 40
0.0
 40
0.0
 40
1.010743614677189
 40
2.022833924044153
 40
3.037578959561199
 40
4.056212747067873
 40
5.079857613375832
 40
6.109500119648989
 40
7.14596120163808
 40
8.18989512056258
 40
9.241717674284874
 40
9.693948937866434
 40
9.693948937866434
 40
9.693948937866434
 40
9.693948937866434
 10
-5.643434023962009
 20
5.900000000000196
 30
0.0
 10
-5.980016188333748
 20
5.89649217267044
 30
0.0
 10
-6.653628972458884
 20
5.889471844251619
 30
0.0
 10
-7.663801729895757
 20
5.832823820418688
 30
0.0
 10
-8.673932899106576
 20
5.742802425815535
 30
0.0
 10
-9.684001246755174
 20
5.616620414507944
 30
0.0
 10
-10.69399474322018
 20
5.455989104202294
 30
0.0
 10
-11.70390105242944
 20
5.261653239140748
 30
0.0
 10
-12.71370661974297
 20
5.034863823555848
 30
0.0
 10
-13.72345062967023
 20
4.777147662200685
 30
0.0
 10
-14.53854232484848
 20
4.544984357592428
 30
0.0
 10
-15.01721195796331
 20
4.399848905668215
 30
0.0
 10
-15.1608829008811
 20
4.355423915413571
 30
0.0
  0
SPLINE
  5
38BE
330
1F
100
AcDbEntity
  8
AM_0
100
AcDbSpline
210
0.0
220
0.0
230
1.0
 70
     8
 71
     3
 72
    46
 73
    42
 74
     0
 42
0.0000000001
 43
0.0000000001
 40
0.0
 40
0.0
 40
0.0
 40
0.0
 40
1.685415058684571
 40
2.531036209541119
 40
3.379897699130121
 40
4.232934581347655
 40
5.090970612202441
 40
5.954688180526682
 40
6.824620803463246
 40
7.701151815239689
 40
8.584457046566678
 40
9.474582384070741
 40
10.37139106676737
 40
11.27458944007583
 40
12.18373345430765
 40
13.09824173870457
 40
14.01741343450111
 40
14.9404441545541
 40
15.86644439743314
 40
16.79446029130534
 40
17.7234937712985
 40
18.65252725129241
 40
19.58054314516461
 40
20.50654338804289
 40
21.42957410809586
 40
22.34874580389317
 40
23.26325408828901
 40
24.17239810252111
 40
25.07560240389441
 40
25.97241108659103
 40
26.8625364240951
 40
27.74584165542183
 40
28.62236045019041
 40
29.49229307312697
 40
30.35601064145121
 40
31.21404606334468
 40
32.06708345193547
 40
32.91595755657689
 40
33.76157841950693
 40
34.60498701064689
 40
35.44727335621125
 40
35.44727335621125
 40
35.44727335621125
 40
35.44727335621125
 10
-2.815634325665267
 20
-5.899999389941976
 30
0.0
 10
-3.489279736558359
 20
-5.886558733866543
 30
0.0
 10
-4.500912401506984
 20
-5.866374514536351
 30
0.0
 10
-5.846124471606132
 20
-5.742103984158967
 30
0.0
 10
-6.856203294537638
 20
-5.616806232112092
 30
0.0
 10
-7.86619577977515
 20
-5.455945202297246
 30
0.0
 10
-8.876099266652628
 20
-5.261659922093187
 30
0.0
 10
-9.885908567097798
 20
-5.034879240654932
 30
0.0
 10
-10.89562198983183
 20
-4.777080490162524
 30
0.0
 10
-11.90523504127333
 20
-4.489846593106383
 30
0.0
 10
-12.91474973939665
 20
-4.174959080634879
 30
0.0
 10
-13.92416336891423
 20
-3.834359659716122
 30
0.0
 10
-14.93349214659605
 20
-3.470164081200334
 30
0.0
 10
-15.94274097798178
 20
-3.084611249508941
 30
0.0
 10
-16.95191914405564
 20
-2.680078677331249
 30
0.0
 10
-17.96103785944221
 20
-2.25906207341245
 30
0.0
 10
-18.97010596810891
 20
-1.824150459218657
 30
0.0
 10
-19.97913329083452
 20
-1.378018770114781
 30
0.0
 10
-20.98813052618502
 20
-0.923412685232182
 30
0.0
 10
-21.99710689141603
 20
-0.4631277124328192
 30
0.0
 10
-23.00607477501364
 20
0.0000006099652931
 30
0.0
 10
-24.01504265838957
 20
0.4631289329262002
 30
0.0
 10
-25.02401902428545
 20
0.923413904038002
 30
0.0
 10
-26.03301625720579
 20
1.378019995087885
 30
0.0
 10
-27.04204358894258
 20
1.824151661319556
 30
0.0
 10
-28.05111166419662
 20
2.259063360321162
 30
0.0
 10
-29.06023050332163
 20
2.680079650166801
 30
0.0
 10
-30.06941040559903
 20
3.08461426354057
 30
0.0
 10
-31.07866315843882
 20
3.470163592289041
 30
0.0
 10
-32.0879937366085
 20
3.834361038275033
 30
0.0
 10
-33.09740734262404
 20
4.174960560540244
 30
0.0
 10
-34.10691789377567
 20
4.489845179464601
 30
0.0
 10
-35.116524218373
 20
4.777083519785809
 30
0.0
 10
-36.12623351952459
 20
5.034883323414326
 30
0.0
 10
-37.13604223554519
 20
5.261649167669824
 30
0.0
 10
-38.14594646282211
 20
5.455990798261169
 30
0.0
 10
-39.15594539390959
 20
5.616622116462766
 30
0.0
 10
-40.16601901216099
 20
5.742801941342139
 30
0.0
 10
-41.17615512317558
 20
5.832824602253579
 30
0.0
 10
-42.18632790137966
 20
5.889472411480911
 30
0.0
 10
-42.85994068274141
 20
5.896492768459748
 30
0.0
 10
-43.19652284573225
 20
5.900000610059973
 30
0.0
  0
SPLINE
  5
38BF
330
1F
100
AcDbEntity
  8
AM_0
 48
0.5
100
AcDbSpline
210
0.0
220
0.0
230
1.0
 70
     8
 71
     3
 72
    25
 73
    21
 74
     0
 42
0.0000000001
 43
0.0000000001
 40
6.846175049578289
 40
6.846175049578289
 40
6.846175049578289
 40
6.846175049578289
 40
7.604337694224321
 40
8.711974558287883
 40
9.814980593243754
 40
10.91239053451967
 40
12.0033633515982
 40
13.08720139956839
 40
14.16337181880432
 40
15.23152222380919
 40
16.29148850140128
 40
17.34331105512262
 40
18.38723020264746
 40
19.42369128463655
 40
20.45333379090873
 40
21.47697865721768
 40
22.49561244472435
 40
23.5103574802404
 40
24.52244778960836
 40
25.53320666051913
 40
25.53320666051913
 40
25.53320666051913
 40
25.53320666051913
 10
-6.821550705030302
 20
1.067939236478169
 30
0.0
 10
-7.051027569507325
 20
1.171532743366811
 30
0.0
 10
-7.616241345957724
 20
1.425434433839781
 30
0.0
 10
-8.518032002159943
 20
1.824151488109986
 30
0.0
 10
-9.527099999690378
 20
2.259063343962377
 30
0.0
 10
-10.53621874390576
 20
2.680079885667407
 30
0.0
 10
-11.54539690501676
 20
3.084612466761911
 30
0.0
 10
-12.55464572775859
 20
3.470165324210473
 30
0.0
 10
-13.56397454451272
 20
3.834360792052814
 30
0.0
 10
-14.57338802794001
 20
4.174960625530713
 30
0.0
 10
-15.58289861142503
 20
4.489845163105306
 30
0.0
 10
-16.59250492796997
 20
4.777083520961513
 30
0.0
 10
-17.60221422936513
 20
5.034883334753763
 30
0.0
 10
-18.61202295229996
 20
5.261649121628547
 30
0.0
 10
-19.62192715195126
 20
5.45599096955565
 30
0.0
 10
-20.63192120867678
 20
5.616620690624002
 30
0.0
 10
-21.64198940737457
 20
5.742803125543797
 30
0.0
 10
-22.65212061606796
 20
5.832824403783968
 30
0.0
 10
-23.66229843728358
 20
5.889472756278023
 30
0.0
 10
-24.33591630855687
 20
5.896492865676395
 30
0.0
 10
-24.67250355803787
 20
5.900000000001109
 30
0.0
  0
SPLINE
  5
38C0
330
1F
100
AcDbEntity
  8
AM_0
 48
0.5
100
AcDbSpline
210
0.0
220
0.0
230
1.0
 70
     8
 71
     3
 72
    10
 73
     6
 74
     0
 42
0.0000000001
 43
0.0000000001
 40
0.0
 40
0.0
 40
0.0
 40
0.0
 40
2.69986029516136
 40
4.147722969032201
 40
6.285750005020438
 40
6.285750005020438
 40
6.285750005020438
 40
6.285750005020438
 10
-6.821550705030302
 20
1.067939236478169
 30
0.0
 10
-5.899013973530614
 20
0.5197183898390158
 30
0.0
 10
-4.831310891046497
 20
-0.3223909395845664
 30
0.0
 10
-2.306336528107996
 20
0.0852889393001373
 30
0.0
 10
-2.781862644056689
 20
1.458408715461491
 30
0.0
 10
-2.847476700022546
 20
2.265421396597328
 30
0.0
  0
ELLIPSE
  5
38C1
330
1F
100
AcDbEntity
  8
AM_0
 48
0.5
100
AcDbEllipse
 10
3.478989073259416
 20
7.083313598338949
 30
0.0
 11
-10.68982418677202
 21
10.42711238733012
 31
0.0
210
0.0
220
0.0
230
0.9999999999999998
 40
0.7880000845207764
 41
1.3566585530091
 42
1.688754744201583
  0
ELLIPSE
  5
38C2
330
1F
100
AcDbEntity
  8
AM_0
 48
0.5
100
AcDbEllipse
 10
5.800170036675689
 20
-1.575681879856771
 30
0.0
 11
9.183118120548085
 21
1.297334659772348
 31
0.0
210
0.0
220
0.0
230
1.0
 40
0.7819293760442072
 41
3.091086835150566
 42
3.597171734227963
  0
SPLINE
  5
38C3
330
1F
100
AcDbEntity
  8
AM_0
 48
0.5
100
AcDbSpline
210
0.0
220
0.0
230
1.0
 70
     8
 71
     3
 72
    22
 73
    18
 74
     0
 42
0.0000000001
 43
0.0000000001
 40
0.0
 40
0.0
 40
0.0
 40
0.0
 40
1.010743684496582
 40
2.022833993863546
 40
3.037578683882831
 40
4.056212471389632
 40
5.079857945358201
 40
6.109499720892564
 40
7.145961650132166
 40
8.189873411961459
 40
9.241710626092514
 40
10.30166235592959
 40
11.36982472628033
 40
12.44598212828784
 40
13.52983440361964
 40
14.62080578343036
 40
14.90544694398022
 40
14.90544694398022
 40
14.90544694398022
 40
14.90544694398022
 10
-45.67788361610381
 20
-5.899999999999171
 30
0.0
 10
-46.0146343823161
 20
-5.896790781179142
 30
0.0
 10
-46.68824714928647
 20
-5.889767489014311
 30
0.0
 10
-47.69841969927598
 20
-5.833119186488381
 30
0.0
 10
-48.70855128030318
 20
-5.743103419836379
 30
0.0
 10
-49.71861978819084
 20
-5.616921539845734
 30
0.0
 10
-50.72861241205028
 20
-5.456283955616845
 30
0.0
 10
-51.7385186153361
 20
-5.261951121415415
 30
0.0
 10
-52.74832359933813
 20
-5.035179181276251
 30
0.0
 10
-53.75803430782777
 20
-4.777374935856187
 30
0.0
 10
-54.76764164687399
 20
-4.49014807176461
 30
0.0
 10
-55.7771508925856
 20
-4.175246684050604
 30
0.0
 10
-56.78656855258801
 20
-3.834674634218864
 30
0.0
 10
-57.79589386869016
 20
-3.470456608688133
 30
0.0
 10
-58.80514574941263
 20
-3.084912841181973
 30
0.0
 10
-59.56366906876532
 20
-2.780869866210558
 30
0.0
 10
-59.98634473201976
 20
-2.607088674915422
 30
0.0
 10
-60.07374000414497
 20
-2.570978490198235
 30
0.0
  0
SPLINE
  5
38C4
330
1F
100
AcDbEntity
  8
AM_0
100
AcDbSpline
210
0.0
220
0.0
230
1.0
 70
     8
 71
     3
 72
    13
 73
     9
 74
     0
 42
0.0000000001
 43
0.0000000001
 40
16.03460056234195
 40
16.03460056234195
 40
16.03460056234195
 40
16.03460056234195
 40
16.35212717791071
 40
17.38177067057215
 40
18.41822498539278
 40
19.46214186516937
 40
20.5139635832251
 40
21.34083983469381
 40
21.34083983469381
 40
21.34083983469381
 40
21.34083983469381
 10
-59.92987818967339
 20
-5.899999999998905
 30
0.0
 10
-59.71659932467581
 20
-5.880919894085433
 30
0.0
 10
-59.27672132608481
 20
-5.79418777245608
 30
0.0
 10
-58.50187255795935
 20
-5.624242770300726
 30
0.0
 10
-57.49844070153754
 20
-5.371540061653806
 30
0.0
 10
-56.49594104018068
 20
-5.087796064609147
 30
0.0
 10
-55.5682990618343
 20
-4.79778423285313
 30
0.0
 10
-54.97647981533599
 20
-4.598090447618239
 30
0.0
 10
-54.71685225891876
 20
-4.507827037081964
 30
0.0
  0
SPLINE
  5
38C5
330
1F
100
AcDbEntity
  8
AM_0
100
AcDbSpline
210
0.0
220
0.0
230
1.0
 70
     8
 71
     3
 72
    55
 73
    51
 74
     0
 42
0.0000000001
 43
0.0000000001
 40
0.0
 40
0.0
 40
0.0
 40
0.0
 40
1.010743684496582
 40
2.022833576467832
 40
3.037578957496688
 40
4.056212745003489
 40
5.079857003664532
 40
6.109500240690281
 40
7.145961322679372
 40
8.189895241603872
 40
9.241717795325891
 40
10.30168407291828
 40
11.36983447792315
 40
12.44600489715814
 40
13.52984294512926
 40
14.62081576220742
 40
15.7182257034828
 40
16.82123173843959
 40
17.92886860250316
 40
19.0400688939571
 40
20.15368796660465
 40
21.26852814259644
 40
22.38336992938901
 40
23.49698739941135
 40
24.6081876908653
 40
25.71582455492886
 40
26.81883757994213
 40
27.91624752121713
 40
29.00722033829659
 40
30.09105838626677
 40
31.16722880550176
 40
32.23537921050758
 40
33.29534548809967
 40
34.347168041821
 40
35.39108718934584
 40
36.42754827133493
 40
37.45720575381954
 40
38.48085062012849
 40
39.49948440763516
 40
40.51422944315121
 40
41.52631975251916
 40
42.53706336719636
 40
43.54780698187354
 40
44.55989729124051
 40
45.57464232675757
 40
46.59327611426424
 40
47.6169209805722
 40
48.64656348684535
 40
49.68302456883444
 40
50.58557219878025
 40
50.58557219878025
 40
50.58557219878025
 40
50.58557219878025
 10
-5.643434022622156
 20
-5.899999389941835
 30
0.0
 10
-5.980016125739974
 20
-5.896489032878061
 30
0.0
 10
-6.653628624999862
 20
-5.88946364331303
 30
0.0
 10
-7.663802233461584
 20
-5.832831116429318
 30
0.0
 10
-8.673932721420777
 20
-5.742800192750776
 30
0.0
 10
-9.684000692219932
 20
-5.616618429081471
 30
0.0
 10
-10.69399606697072
 20
-5.455995830242235
 30
0.0
 10
-11.70389892072257
 20
-5.261646659333142
 30
0.0
 10
-12.71371263155577
 20
-5.034880121641356
 30
0.0
 10
-13.72342824446353
 20
-4.777084826944239
 30
0.0
 10
-14.73303888144225
 20
-4.489843622712341
 30
0.0
 10
-15.74254957484285
 20
-4.174959492292131
 30
0.0
 10
-16.75196302833628
 20
-3.834359548148815
 30
0.0
 10
-17.76129185373509
 20
-3.470164111452969
 30
0.0
 10
-18.77054067212262
 20
-3.084611241194267
 30
0.0
 10
-19.77971884199864
 20
-2.680078680055512
 30
0.0
 10
-20.78883755528558
 20
-2.25906207088521
 30
0.0
 10
-21.79790566854807
 20
-1.82415046663216
 30
0.0
 10
-22.80693297490714
 20
-1.378018742847311
 30
0.0
 10
-23.81593027138373
 20
-0.9234127872874628
 30
0.0
 10
-24.82490640784453
 20
-0.4631273305407175
 30
0.0
 10
-25.83387563259561
 20
-0.0000005937551839
 30
0.0
 10
-26.84284032791909
 20
0.4631344796002361
 30
0.0
 10
-27.85181984624798
 20
0.9234127684849365
 30
0.0
 10
-28.86081589710388
 20
1.378020100111132
 30
0.0
 10
-29.86984500254748
 20
1.824153523458998
 30
0.0
 10
-30.87891730190854
 20
2.259061416100045
 30
0.0
 10
-31.8880376078514
 20
2.680080160410352
 30
0.0
 10
-32.89721592341919
 20
3.084612393514909
 30
0.0
 10
-33.90646470508341
 20
3.47016534485393
 30
0.0
 10
-34.91579353306672
 20
3.834360782082519
 30
0.0
 10
-35.92520701227066
 20
4.174960644783255
 30
0.0
 10
-36.93471760147871
 20
4.489845096729129
 30
0.0
 10
-37.94432389952181
 20
4.777083764624864
 30
0.0
 10
-38.95403326850472
 20
5.034882435797155
 30
0.0
 10
-39.96384660474946
 20
5.261653533478733
 30
0.0
 10
-40.97375666954616
 20
5.455980507014656
 30
0.0
 10
-41.98375538103625
 20
5.616652821943746
 30
0.0
 10
-42.99382365126475
 20
5.742685013418837
 30
0.0
 10
-44.0039548410933
 20
5.833262662100119
 30
0.0
 10
-45.0141275930482
 20
5.887842391009317
 30
0.0
 10
-46.02432254293669
 20
5.90607567244647
 30
0.0
 10
-47.03451749133881
 20
5.887842390980824
 30
0.0
 10
-48.04469024776143
 20
5.83326266221499
 30
0.0
 10
-49.05482142114105
 20
5.742685012986882
 30
0.0
 10
-50.06488975304062
 20
5.616652823568252
 30
0.0
 10
-51.07488330874957
 20
5.455981284211273
 30
0.0
 10
-52.08478939488503
 20
5.26165552036755
 30
0.0
 10
-53.04868871019963
 20
5.045176407935931
 30
0.0
 10
-53.67407756317321
 20
4.886863186491834
 30
0.0
 10
-53.9642215406543
 20
4.809709430698095
 30
0.0
  0
VIEWPORT
  5
110
330
101
100
AcDbEntity
 67
     1
  8
0
100
AcDbViewport
 10
420.5
 20
297.0
 30
0.0
 40
948.9782706766916
 41
628.452
 68
     1
 69
     1
1001
ACAD
1000
MVIEW
1002
{
1070
    16
1010
0.0
1020
0.0
1030
0.0
1010
0.0
1020
0.0
1030
1.0
1040
0.0
1040
628.452
1040
420.5
1040
297.0
1040
50.0
1040
0.0
1040
0.0
1070
     0
1070
   100
1070
     1
1070
     1
1070
     0
1070
     0
1070
     0
1070
     0
1040
0.0
1040
0.0
1040
0.0
1040
10.0
1040
10.0
1040
10.0
1040
10.0
1070
     0
1002
{
1002
}
1002
}
  0
ENDSEC
  0
SECTION
  2
OBJECTS
  0
DICTIONARY
  5
C
330
0
100
AcDbDictionary
  3
ACAD_GROUP
350
D
  3
ACAD_LAYOUT
350
1A
  3
ACAD_MLINESTYLE
350
17
  3
ACAD_PLOTSETTINGS
350
19
  3
ACAD_PLOTSTYLENAME
350
E
  3
ACDBVARIABLEDICTIONARY
350
34
  3
ACMDICTIONARY
350
43
  3
AMG
350
2B
  3
AMGSNAPSETTINGS
350
6E
  3
DWGPROPS
350
395E
  3
ACDBHEADERROUNDTRIPXREC
350
396A
  0
DICTIONARY
  5
74
330
1F
100
AcDbDictionary
280
     1
  3
ACAD_INDEX
360
3960
  3
ACAD_LAYOUTSELFREF
360
398D
  0
DICTIONARY
  5
3992
330
101
100
AcDbDictionary
280
     1
  3
ACAD_LAYOUTSELFREF
360
3993
  0
DICTIONARY
  5
D
102
{ACAD_REACTORS
330
C
102
}
330
C
100
AcDbDictionary
  0
DICTIONARY
  5
1A
102
{ACAD_REACTORS
330
C
102
}
330
C
100
AcDbDictionary
  0
DICTIONARY
  5
17
102
{ACAD_REACTORS
330
C
102
}
330
C
100
AcDbDictionary
  3
STANDARD
350
18
  0
DICTIONARY
  5
19
102
{ACAD_REACTORS
330
C
102
}
330
C
100
AcDbDictionary
  0
ACDBDICTIONARYWDFLT
  5
E
102
{ACAD_REACTORS
330
C
102
}
330
C
100
AcDbDictionary
281
     1
  3
Normal
350
F
100
AcDbDictionaryWithDefault
340
F
  0
DICTIONARY
  5
34
102
{ACAD_REACTORS
330
C
102
}
330
C
100
AcDbDictionary
  3
INDEXCTL
350
35
  3
SORTENTS
350
B5E
  0
DICTIONARY
  5
43
102
{ACAD_REACTORS
330
C
102
}
330
C
100
AcDbDictionary
  3
ACMSTDDICTIONARY
350
260
  0
DICTIONARY
  5
2B
102
{ACAD_REACTORS
330
C
102
}
330
C
100
AcDbDictionary
  3
ACMGSETTINGS
350
2C
  0
DICTIONARY
  5
6E
102
{ACAD_REACTORS
330
C
102
}
330
C
100
AcDbDictionary
  0
XRECORD
  5
395E
102
{ACAD_REACTORS
330
C
102
}
330
C
100
AcDbXrecord
  1
DWGPROPS COOKIE
  2

  3

  4

  6

  7

  8

  9

300
AmdtFileType=82
301
=
302
=
303
=
304
=
305
=
306
=
307
=
308
=
309
=
 40
0.0780244328703704
 41
2452800.443498622
 42
2452946.628867905
  1

 90
        1
  0
DICTIONARY
  5
396A
102
{ACAD_REACTORS
330
C
102
}
330
C
100
AcDbDictionary
  3
TSTACKALIGN
350
396B
  3
TSTACKSIZE
350
396C
  3
HYPERLINKBASE
350
396D
  3
STYLESHEET
350
396E
  3
LAYOUTDICT
350
396F
  3
PLOTSETDICT
350
3970
  3
PLOTSTYLNAMDICT
350
3971
  3
LWETCUNION
350
3972
  3
INSUNITS
350
3973
  3
CEPSNTYPE
350
3974
  3
FINGERPRINTGUID
350
3975
  3
VERSIONGUID
350
3976
  3
PSVPSCALE
350
3977
  3
DIMSTYLEDATA
350
3978
  3
PUCSORTHOREF
350
3979
  3
PUCSORTHOVIEW
350
397A
  3
PUCSBASE
350
397B
  3
PUCSORGTOP
350
397C
  3
PUCSORGBOTTOM
350
397D
  3
PUCSORGLEFT
350
397E
  3
PUCSORGRIGHT
350
397F
  3
PUCSORGFRONT
350
3980
  3
PUCSORGBACK
350
3981
  3
UCSORTHOREF
350
3982
  3
UCSORTHOVIEW
350
3983
  3
UCSBASE
350
3984
  3
UCSORGTOP
350
3985
  3
UCSORGBOTTOM
350
3986
  3
UCSORGLEFT
350
3987
  3
UCSORGRIGHT
350
3988
  3
UCSORGFRONT
350
3989
  3
UCSORGBACK
350
398A
  0
DICTIONARY
  5
3960
102
{ACAD_REACTORS
330
74
102
}
330
74
100
AcDbDictionary
  3
*A1
350
3961
  0
XRECORD
  5
398D
102
{ACAD_REACTORS
330
74
102
}
330
74
100
AcDbXrecord
340
1F
  0
XRECORD
  5
3993
102
{ACAD_REACTORS
330
3992
102
}
330
3992
100
AcDbXrecord
340
101
  0
MLINESTYLE
  5
18
102
{ACAD_REACTORS
330
17
102
}
330
17
100
AcDbMlineStyle
  2
STANDARD
 70
     0
  3

 62
   256
 51
90.0
 52
90.0
 71
     2
 49
0.5
 62
   256
  6
BYLAYER
 49
-0.5
 62
   256
  6
BYLAYER
  0
ACDBPLACEHOLDER
  5
F
102
{ACAD_REACTORS
330
E
102
}
330
E
100
AcDbPlaceHolder
280
     0
  0
DICTIONARYVAR
  5
35
102
{ACAD_REACTORS
330
34
102
}
330
34
100
DictionaryVariables
280
     0
  1
1
  0
DICTIONARYVAR
  5
B5E
102
{ACAD_REACTORS
330
34
102
}
330
34
100
DictionaryVariables
280
     0
  1
96
  0
DICTIONARY
  5
260
102
{ACAD_REACTORS
330
43
102
}
330
43
100
AcDbDictionary
  0
DICTIONARY
  5
2C
102
{ACAD_REACTORS
330
2B
102
}
330
2B
100
AcDbDictionary
  3
DWGSETTINGS
350
2D
  0
XRECORD
  5
396B
102
{ACAD_REACTORS
330
396A
102
}
330
396A
100
AcDbXrecord
 90
        1
  0
XRECORD
  5
396C
102
{ACAD_REACTORS
330
396A
102
}
330
396A
100
AcDbXrecord
 90
       70
  0
XRECORD
  5
396D
102
{ACAD_REACTORS
330
396A
102
}
330
396A
100
AcDbXrecord
  1

  0
XRECORD
  5
396E
102
{ACAD_REACTORS
330
396A
102
}
330
396A
100
AcDbXrecord
  1
ASAMI.ctb
  0
XRECORD
  5
396F
102
{ACAD_REACTORS
330
396A
102
}
330
396A
100
AcDbXrecord
340
1A
  0
XRECORD
  5
3970
102
{ACAD_REACTORS
330
396A
102
}
330
396A
100
AcDbXrecord
340
19
  0
XRECORD
  5
3971
102
{ACAD_REACTORS
330
396A
102
}
330
396A
100
AcDbXrecord
340
E
  0
XRECORD
  5
3972
102
{ACAD_REACTORS
330
396A
102
}
330
396A
100
AcDbXrecord
 90
    10781
  0
XRECORD
  5
3973
102
{ACAD_REACTORS
330
396A
102
}
330
396A
100
AcDbXrecord
 90
        4
  0
XRECORD
  5
3974
102
{ACAD_REACTORS
330
396A
102
}
330
396A
100
AcDbXrecord
 90
        0
  0
XRECORD
  5
3975
102
{ACAD_REACTORS
330
396A
102
}
330
396A
100
AcDbXrecord
  1
{AFB28963-8C59-40AE-9337-C84526B81ACE}
  0
XRECORD
  5
3976
102
{ACAD_REACTORS
330
396A
102
}
330
396A
100
AcDbXrecord
  1
{9AD8B451-1E9E-40DB-BCFD-9EB0858B5881}
  0
XRECORD
  5
3977
102
{ACAD_REACTORS
330
396A
102
}
330
396A
100
AcDbXrecord
 40
0.0
  0
XRECORD
  5
3978
102
{ACAD_REACTORS
330
396A
102
}
330
396A
100
AcDbXrecord
1000
DSTYLE
1002
{
1070
    79
 70
     2
1070
   341
340
59
1070
   342
340
59
1070
   371
 70
    -1
1070
   372
 70
    -1
1002
}
  0
XRECORD
  5
3979
102
{ACAD_REACTORS
330
396A
102
}
330
396A
100
AcDbXrecord
340
0
  0
XRECORD
  5
397A
102
{ACAD_REACTORS
330
396A
102
}
330
396A
100
AcDbXrecord
 70
     0
  0
XRECORD
  5
397B
102
{ACAD_REACTORS
330
396A
102
}
330
396A
100
AcDbXrecord
340
0
  0
XRECORD
  5
397C
102
{ACAD_REACTORS
330
396A
102
}
330
396A
100
AcDbXrecord
 10
0.0
 20
0.0
 30
0.0
  0
XRECORD
  5
397D
102
{ACAD_REACTORS
330
396A
102
}
330
396A
100
AcDbXrecord
 10
0.0
 20
0.0
 30
0.0
  0
XRECORD
  5
397E
102
{ACAD_REACTORS
330
396A
102
}
330
396A
100
AcDbXrecord
 10
0.0
 20
0.0
 30
0.0
  0
XRECORD
  5
397F
102
{ACAD_REACTORS
330
396A
102
}
330
396A
100
AcDbXrecord
 10
0.0
 20
0.0
 30
0.0
  0
XRECORD
  5
3980
102
{ACAD_REACTORS
330
396A
102
}
330
396A
100
AcDbXrecord
 10
0.0
 20
0.0
 30
0.0
  0
XRECORD
  5
3981
102
{ACAD_REACTORS
330
396A
102
}
330
396A
100
AcDbXrecord
 10
0.0
 20
0.0
 30
0.0
  0
XRECORD
  5
3982
102
{ACAD_REACTORS
330
396A
102
}
330
396A
100
AcDbXrecord
340
0
  0
XRECORD
  5
3983
102
{ACAD_REACTORS
330
396A
102
}
330
396A
100
AcDbXrecord
 70
     0
  0
XRECORD
  5
3984
102
{ACAD_REACTORS
330
396A
102
}
330
396A
100
AcDbXrecord
340
0
  0
XRECORD
  5
3985
102
{ACAD_REACTORS
330
396A
102
}
330
396A
100
AcDbXrecord
 10
0.0
 20
0.0
 30
0.0
  0
XRECORD
  5
3986
102
{ACAD_REACTORS
330
396A
102
}
330
396A
100
AcDbXrecord
 10
0.0
 20
0.0
 30
0.0
  0
XRECORD
  5
3987
102
{ACAD_REACTORS
330
396A
102
}
330
396A
100
AcDbXrecord
 10
0.0
 20
0.0
 30
0.0
  0
XRECORD
  5
3988
102
{ACAD_REACTORS
330
396A
102
}
330
396A
100
AcDbXrecord
 10
0.0
 20
0.0
 30
0.0
  0
XRECORD
  5
3989
102
{ACAD_REACTORS
330
396A
102
}
330
396A
100
AcDbXrecord
 10
0.0
 20
0.0
 30
0.0
  0
XRECORD
  5
398A
102
{ACAD_REACTORS
330
396A
102
}
330
396A
100
AcDbXrecord
 10
0.0
 20
0.0
 30
0.0
  0
LAYER_INDEX
  5
3961
102
{ACAD_REACTORS
330
3960
102
}
330
3960
100
AcDbIndex
 40
2453151.562292372
100
AcDbLayerIndex
  8
0
360
3962
 90
        0
  8
AM_0
360
3963
 90
       46
  8
AM_7
360
3964
 90
        1
  8
AM_11
360
3965
 90
       17
  8
AM_5
360
3966
 90
        5
  8
Defpoints
360
3967
 90
        0
  8
AM_6
360
3968
 90
        1
  0
XRECORD
  5
2D
102
{ACAD_REACTORS
330
2C
102
}
330
2C
100
AcDbXrecord
  1
VERSION
140
15.0
  1
PRODUCT
  2
AutoCAD Mechanical 2000
  0
IDBUFFER
  5
3962
330
0
100
AcDbIdBuffer
  0
IDBUFFER
  5
3963
330
0
100
AcDbIdBuffer
330
38A4
330
38A5
330
38A6
330
38A7
330
38A8
330
38A9
330
38AA
330
38AB
330
38AC
330
38AD
330
38AE
330
38B1
330
38B2
330
38B5
330
38B6
330
38B7
330
38B8
330
38B9
330
38BA
330
38BB
330
38BC
330
38BD
330
38BE
330
38BF
330
38C0
330
38C1
330
38C2
330
38C3
330
38C4
330
38C5
330
C1D
330
C20
330
24BE
330
2C0E
330
2C72
330
2C73
330
2FB7
330
2FB9
330
324C
330
325C
330
325D
330
325E
330
3273
330
327F
330
364D
330
38A3
  0
IDBUFFER
  5
3964
330
0
100
AcDbIdBuffer
330
23EF
  0
IDBUFFER
  5
3965
330
0
100
AcDbIdBuffer
330
38B4
330
24B7
330
24B8
330
24B9
330
24C7
330
24C8
330
24D4
330
24D5
330
24E6
330
24E7
330
2BF3
330
2BF5
330
3281
330
3282
330
38AF
330
38B0
330
38B3
  0
IDBUFFER
  5
3966
330
0
100
AcDbIdBuffer
330
CC6
330
2069
330
2C81
330
2D60
330
324F
  0
IDBUFFER
  5
3967
330
0
100
AcDbIdBuffer
  0
IDBUFFER
  5
3968
330
0
100
AcDbIdBuffer
330
19BD
  0
ENDSEC
  0
EOF
