  0
SECTION
  2
HEADER
  9
$ACADVER
  1
AC1014
  9
$ACADMAINTVER
 70
     9
  9
$DWGCODEPAGE
  3
ANSI_932
  9
$INSBASE
 10
0.0
 20
0.0
 30
0.0
  9
$EXTMIN
 10
-190.3000009973128
 20
-52.500003054481
 30
-0.00000001
  9
$EXTMAX
 10
34.59929269186552
 20
33.45236769091025
 30
0.00000001
  9
$LIMMIN
 10
-204.9481783985751
 20
-88.05709827321306
  9
$LIMMAX
 10
45.46559379740722
 20
54.22958895053546
  9
$ORTHOMODE
 70
     0
  9
$REGENMODE
 70
     1
  9
$FILLMODE
 70
     1
  9
$QTEXTMODE
 70
     0
  9
$MIRRTEXT
 70
     0
  9
$DRAGMODE
 70
     2
  9
$LTSCALE
 40
1.0
  9
$OSMODE
 70
    55
  9
$ATTMODE
 70
     1
  9
$TEXTSIZE
 40
2.5
  9
$TRACEWID
 40
1.0
  9
$TEXTSTYLE
  7
STANDARD
  9
$CLAYER
  8
AM_0
  9
$CELTYPE
  6
BYLAYER
  9
$CECOLOR
 62
   256
  9
$CELTSCALE
 40
1.0
  9
$DELOBJ
 70
     1
  9
$DISPSILH
 70
     0
  9
$DIMSCALE
 40
1.0
  9
$DIMASZ
 40
2.5
  9
$DIMEXO
 40
1.0
  9
$DIMDLI
 40
12.0
  9
$DIMRND
 40
0.0
  9
$DIMDLE
 40
0.0
  9
$DIMEXE
 40
1.0
  9
$DIMTP
 40
0.1
  9
$DIMTM
 40
0.1
  9
$DIMTXT
 40
3.2
  9
$DIMCEN
 40
0.0
  9
$DIMTSZ
 40
0.0
  9
$DIMTOL
 70
     0
  9
$DIMLIM
 70
     0
  9
$DIMTIH
 70
     0
  9
$DIMTOH
 70
     0
  9
$DIMSE1
 70
     0
  9
$DIMSE2
 70
     0
  9
$DIMTAD
 70
     3
  9
$DIMZIN
 70
     8
  9
$DIMBLK
  1
OPEN30
  9
$DIMASO
 70
     1
  9
$DIMSHO
 70
     1
  9
$DIMPOST
  1

  9
$DIMAPOST
  1
"
  9
$DIMALT
 70
     0
  9
$DIMALTD
 70
     2
  9
$DIMALTF
 40
0.0393701
  9
$DIMLFAC
 40
1.0
  9
$DIMTOFL
 70
     1
  9
$DIMTVP
 40
0.0
  9
$DIMTIX
 70
     0
  9
$DIMSOXD
 70
     0
  9
$DIMSAH
 70
     0
  9
$DIMBLK1
  1

  9
$DIMBLK2
  1

  9
$DIMSTYLE
  2
AM_JIS
  9
$DIMCLRD
 70
   256
  9
$DIMCLRE
 70
   256
  9
$DIMCLRT
 70
     2
  9
$DIMTFAC
 40
0.71
  9
$DIMGAP
 40
1.5
  9
$DIMJUST
 70
     0
  9
$DIMSD1
 70
     0
  9
$DIMSD2
 70
     0
  9
$DIMTOLJ
 70
     0
  9
$DIMTZIN
 70
     0
  9
$DIMALTZ
 70
     0
  9
$DIMALTTZ
 70
     0
  9
$DIMFIT
 70
     3
  9
$DIMUPT
 70
     0
  9
$DIMUNIT
 70
     2
  9
$DIMDEC
 70
     3
  9
$DIMTDEC
 70
     3
  9
$DIMALTU
 70
     2
  9
$DIMALTTD
 70
     2
  9
$DIMTXSTY
  7
ASAMI
  9
$DIMAUNIT
 70
     0
  9
$LUNITS
 70
     2
  9
$LUPREC
 70
     2
  9
$SKETCHINC
 40
1.0
  9
$FILLETRAD
 40
2.5
  9
$AUNITS
 70
     0
  9
$AUPREC
 70
     0
  9
$MENU
  1
.
  9
$ELEVATION
 40
0.0
  9
$PELEVATION
 40
0.0
  9
$THICKNESS
 40
0.0
  9
$LIMCHECK
 70
     0
  9
$BLIPMODE
 70
     0
  9
$CHAMFERA
 40
0.5
  9
$CHAMFERB
 40
0.5
  9
$CHAMFERC
 40
20.0
  9
$CHAMFERD
 40
0.0
  9
$SKPOLY
 70
     0
  9
$TDCREATE
 40
2452800.443498622
  9
$TDUPDATE
 40
2453151.665753021
  9
$TDINDWG
 40
0.0625468403
  9
$TDUSRTIMER
 40
0.0625468403
  9
$USRTIMER
 70
     1
  9
$ANGBASE
 50
0.0
  9
$ANGDIR
 70
     0
  9
$PDMODE
 70
     3
  9
$PDSIZE
 40
0.0
  9
$PLINEWID
 40
0.0
  9
$COORDS
 70
     1
  9
$SPLFRAME
 70
     0
  9
$SPLINETYPE
 70
     6
  9
$SPLINESEGS
 70
     8
  9
$ATTDIA
 70
     1
  9
$ATTREQ
 70
     1
  9
$HANDLING
 70
 12289
  9
$HANDSEED
  5
339C
  9
$SURFTAB1
 70
     6
  9
$SURFTAB2
 70
     6
  9
$SURFTYPE
 70
     6
  9
$SURFU
 70
     6
  9
$SURFV
 70
     6
  9
$UCSNAME
  2

  9
$UCSORG
 10
0.0
 20
0.0
 30
0.0
  9
$UCSXDIR
 10
1.0
 20
0.0000000000000027
 30
0.0
  9
$UCSYDIR
 10
-0.0000000000000027
 20
1.0
 30
0.0
  9
$PUCSNAME
  2

  9
$PUCSORG
 10
0.0
 20
0.0
 30
0.0
  9
$PUCSXDIR
 10
1.0
 20
0.0
 30
0.0
  9
$PUCSYDIR
 10
0.0
 20
1.0
 30
0.0
  9
$USERI1
 70
     0
  9
$USERI2
 70
     0
  9
$USERI3
 70
     0
  9
$USERI4
 70
     0
  9
$USERI5
 70
     0
  9
$USERR1
 40
0.0
  9
$USERR2
 40
0.0
  9
$USERR3
 40
0.0
  9
$USERR4
 40
0.0
  9
$USERR5
 40
0.0
  9
$WORLDVIEW
 70
     1
  9
$SHADEDGE
 70
     3
  9
$SHADEDIF
 70
    70
  9
$TILEMODE
 70
     1
  9
$MAXACTVP
 70
    64
  9
$PINSBASE
 10
0.0
 20
0.0
 30
0.0
  9
$PLIMCHECK
 70
     0
  9
$PEXTMIN
 10
1.000000000000000E+20
 20
1.000000000000000E+20
 30
1.000000000000000E+20
  9
$PEXTMAX
 10
-1.000000000000000E+20
 20
-1.000000000000000E+20
 30
-1.000000000000000E+20
  9
$PLIMMIN
 10
0.0
 20
0.0
  9
$PLIMMAX
 10
841.0
 20
594.0
  9
$UNITMODE
 70
     0
  9
$VISRETAIN
 70
     1
  9
$PLINEGEN
 70
     0
  9
$PSLTSCALE
 70
     0
  9
$TREEDEPTH
 70
  3020
  9
$PICKSTYLE
 70
     0
  9
$CMLSTYLE
  2
STANDARD
  9
$CMLJUST
 70
     0
  9
$CMLSCALE
 40
20.0
  9
$PROXYGRAPHICS
 70
     1
  9
$MEASUREMENT
 70
     1
  0
ENDSEC
  0
SECTION
  2
CLASSES
  0
CLASS
  1
ACDBDICTIONARYWDFLT
  2
AcDbDictionaryWithDefault
  3
AutoCAD 2000
 90
        0
280
     0
281
     0
  0
CLASS
  1
ACDBPLACEHOLDER
  2
AcDbPlaceHolder
  3
AutoCAD 2000
 90
        0
280
     0
281
     0
  0
CLASS
  1
LAYOUT
  2
AcDbLayout
  3
AutoCAD 2000
 90
        0
280
     0
281
     0
  0
CLASS
  1
AMGSETTINGSOBJ
  2
AmgSettingsObj
  3
"AcadM|Product Description: AutoCAD Mechanical 2000|Company: Autodesk"
 90
        0
280
     0
281
     0
  0
CLASS
  1
ACME_DOCUMENT
  2
AcMeDbDoc
  3
AcMeServices
 90
        0
280
     0
281
     0
  0
CLASS
  1
ACMESCOPE
  2
AcMeScope
  3
AcMeServices
 90
        0
280
     0
281
     0
  0
CLASS
  1
ACMECOMMANDHISTORY
  2
AcMeCommandHistory
  3
AcMeServices
 90
        0
280
     0
281
     0
  0
CLASS
  1
DICTIONARYVAR
  2
AcDbDictionaryVar
  3
AutoCAD 2000
 90
        0
280
     0
281
     0
  0
CLASS
  1
ACIMSYSVARMAN
  2
AcImSysVarManager
  3
AcMeServices
 90
        0
280
     0
281
     0
  0
CLASS
  1
ACIMREALSYSVAR
  2
AcImRealSysVar
  3
AcMeServices
 90
        0
280
     0
281
     0
  0
CLASS
  1
ACIMINTSYSVAR
  2
AcImIntSysVar
  3
AcMeServices
 90
        0
280
     0
281
     0
  0
CLASS
  1
ACMEDRAWINGMAN
  2
AcMeDrawingMan
  3
AcMeServices
 90
        0
280
     0
281
     0
  0
CLASS
  1
ACMEVIEW
  2
AcMeView
  3
AcMeServices
 90
        0
280
     0
281
     0
  0
CLASS
  1
ACDBENTITYCACHE
  2
AcMeEntityCache
  3
AcMeServices
 90
        0
280
     0
281
     0
  0
CLASS
  1
GSMANAGER
  2
AcMeGSManager
  3
AcMeServices
 90
        0
280
     0
281
     0
  0
CLASS
  1
AmdtInternalReactor
  2
AmdtInternalReactor
  3
AcMeServices
 90
        0
280
     0
281
     0
  0
CLASS
  1
ACMESTATEMGR
  2
AcMeStateMgr
  3
AcMeServices
 90
        0
280
     0
281
     0
  0
CLASS
  1
ACME_DATABASE
  2
AcMeDbDatabase
  3
AcMeServices
 90
        0
280
     0
281
     0
  0
CLASS
  1
ACRFINSADJUSTERMGR
  2
AcRfInsAdjusterMgr
  3
AcMeServices
 90
        0
280
     0
281
     0
  0
CLASS
  1
ACMDATADICTIONARY
  2
AcmDataDictionary
  3
"AcmSymBB|Product Description: AutoCAD Mechanical 2000|Company: Autodesk"
 90
        0
280
     0
281
     0
  0
CLASS
  1
ACMDATAENTRYBLOCK
  2
AcmDataEntryBlock
  3
"AcmSymBB|Product Description: AutoCAD Mechanical 2000|Company: Autodesk"
 90
        0
280
     0
281
     0
  0
CLASS
  1
AMGOBJPROPCFG
  2
AmgObjPropCfg
  3
"AmgLay|Product Description: AutoCAD Mechanical 2000|Company: Autodesk"
 90
        1
280
     0
281
     0
  0
CLASS
  1
ACAMGFILTERDAT
  2
AcAmgFilterDat
  3
"AcadM|Product Description: AutoCAD Mechanical 2000|Company: Autodesk"
 90
        0
280
     0
281
     0
  0
CLASS
  1
LAYER_INDEX
  2
AcDbLayerIndex
  3
AutoCAD 2000
 90
        0
280
     0
281
     0
  0
CLASS
  1
IDBUFFER
  2
AcDbIdBuffer
  3
AutoCAD 2000
 90
        0
280
     0
281
     0
  0
CLASS
  1
ACIMSTRSYSVAR
  2
AcImStrSysVar
  3
AcMeServices
 90
        0
280
     0
281
     0
  0
CLASS
  1
ACMSTANDARDJIS
  2
AcmStandardJIS
  3
"AcmSymBB|Product Description: AutoCAD Mechanical 2000|Company: Autodesk"
 90
        0
280
     0
281
     0
  0
CLASS
  1
ACMSURFSTANDARDJIS
  2
AcmSurfTextStdJIS
  3
"AcmSymBB|Product Description: AutoCAD Mechanical 2000|Company: Autodesk"
 90
        0
280
     0
281
     0
  0
CLASS
  1
ACMFCFSTANDARDJIS
  2
AcmFCFStdJIS
  3
"AcmSymBB|Product Description: AutoCAD Mechanical 2000|Company: Autodesk"
 90
        0
280
     0
281
     0
  0
CLASS
  1
ACMWELDSTANDARDJIS
  2
AcmWeldingStdJIS
  3
"AcmSymBB|Product Description: AutoCAD Mechanical 2000|Company: Autodesk"
 90
        0
280
     0
281
     0
  0
CLASS
  1
ACMIDSTANDARDJIS
  2
AcmIdStdJIS
  3
"AcmSymBB|Product Description: AutoCAD Mechanical 2000|Company: Autodesk"
 90
        0
280
     0
281
     0
  0
CLASS
  1
ACMDATUMSTANDARDJIS
  2
AcmDatumStdJIS
  3
"AcmSymBB|Product Description: AutoCAD Mechanical 2000|Company: Autodesk"
 90
        0
280
     0
281
     0
  0
CLASS
  1
ACMBOMSTANDARDJIS
  2
AcmBOMStdJIS
  3
"AcmSymBB|Product Description: AutoCAD Mechanical 2000|Company: Autodesk"
 90
        0
280
     0
281
     0
  0
CLASS
  1
ACMSTANDARDANSI
  2
AcmStandardANSI
  3
"AcmSymBB|Product Description: AutoCAD Mechanical 2000|Company: Autodesk"
 90
        0
280
     0
281
     0
  0
CLASS
  1
ACMSURFSTANDARDANSI
  2
AcmSurfTextStdANSI
  3
"AcmSymBB|Product Description: AutoCAD Mechanical 2000|Company: Autodesk"
 90
        0
280
     0
281
     0
  0
CLASS
  1
ACMFCFSTANDARDANSI
  2
AcmFCFStdANSI
  3
"AcmSymBB|Product Description: AutoCAD Mechanical 2000|Company: Autodesk"
 90
        0
280
     0
281
     0
  0
CLASS
  1
ACMWELDSTANDARDANSI
  2
AcmWeldingStdANSI
  3
"AcmSymBB|Product Description: AutoCAD Mechanical 2000|Company: Autodesk"
 90
        0
280
     0
281
     0
  0
CLASS
  1
ACMIDSTANDARDANSI
  2
AcmIdStdANSI
  3
"AcmSymBB|Product Description: AutoCAD Mechanical 2000|Company: Autodesk"
 90
        0
280
     0
281
     0
  0
CLASS
  1
ACMDATUMSTANDARDANSI
  2
AcmDatumStdANSI
  3
"AcmSymBB|Product Description: AutoCAD Mechanical 2000|Company: Autodesk"
 90
        0
280
     0
281
     0
  0
CLASS
  1
ACMBOMSTANDARDANSI
  2
AcmBOMStdANSI
  3
"AcmSymBB|Product Description: AutoCAD Mechanical 2000|Company: Autodesk"
 90
        0
280
     0
281
     0
  0
CLASS
  1
ACMSTANDARDBSI
  2
AcmStandardBSI
  3
"AcmSymBB|Product Description: AutoCAD Mechanical 2000|Company: Autodesk"
 90
        0
280
     0
281
     0
  0
CLASS
  1
ACMSURFSTANDARDBSI
  2
AcmSurfTextStdBSI
  3
"AcmSymBB|Product Description: AutoCAD Mechanical 2000|Company: Autodesk"
 90
        0
280
     0
281
     0
  0
CLASS
  1
ACMFCFSTANDARDBSI
  2
AcmFCFStdBSI
  3
"AcmSymBB|Product Description: AutoCAD Mechanical 2000|Company: Autodesk"
 90
        0
280
     0
281
     0
  0
CLASS
  1
ACMWELDSTANDARDBSI
  2
AcmWeldingStdBSI
  3
"AcmSymBB|Product Description: AutoCAD Mechanical 2000|Company: Autodesk"
 90
        0
280
     0
281
     0
  0
CLASS
  1
ACMIDSTANDARDBSI
  2
AcmIdStdBSI
  3
"AcmSymBB|Product Description: AutoCAD Mechanical 2000|Company: Autodesk"
 90
        0
280
     0
281
     0
  0
CLASS
  1
ACMDATUMSTANDARDBSI
  2
AcmDatumStdBSI
  3
"AcmSymBB|Product Description: AutoCAD Mechanical 2000|Company: Autodesk"
 90
        0
280
     0
281
     0
  0
CLASS
  1
ACMBOMSTANDARDBSI
  2
AcmBOMStdBSI
  3
"AcmSymBB|Product Description: AutoCAD Mechanical 2000|Company: Autodesk"
 90
        0
280
     0
281
     0
  0
CLASS
  1
LONG_TRANSACTION
  2
AcDbLongTransaction
  3
AutoCAD 2000
 90
        0
280
     0
281
     0
  0
CLASS
  1
LWPOLYLINE
  2
AcDbPolyline
  3
AutoCAD 2000
 90
        0
280
     0
281
     1
  0
CLASS
  1
HATCH
  2
AcDbHatch
  3
AutoCAD 2000
 90
        0
280
     0
281
     1
  0
CLASS
  1
XRECORD
  2
AcDbXrecord
  3
AutoCAD 2000
 90
        0
280
     0
281
     0
  0
ENDSEC
  0
SECTION
  2
TABLES
  0
TABLE
  2
VPORT
  5
8
330
0
100
AcDbSymbolTable
 70
     3
  0
VPORT
  5
3366
330
8
100
AcDbSymbolTableRecord
100
AcDbViewportTableRecord
  2
*ACTIVE
 70
     0
 10
0.0
 20
0.0
 11
1.0
 21
1.0
 12
-73.68250084475629
 22
-9.526509856138147
 13
0.0
 23
0.0
 14
2.5
 24
2.5
 15
10.0
 25
10.0
 16
0.0
 26
0.0
 36
1.0
 17
0.0
 27
0.0
 37
0.0
 40
149.6817269251201
 41
1.56570841889117
 42
50.0
 43
0.0
 44
0.0
 50
0.0
 51
0.0
 71
     0
 72
   100
 73
     1
 74
     1
 75
     0
 76
     0
 77
     0
 78
     0
  0
ENDTAB
  0
TABLE
  2
LTYPE
  5
5
330
0
100
AcDbSymbolTable
 70
    10
  0
LTYPE
  5
14
330
5
100
AcDbSymbolTableRecord
100
AcDbLinetypeTableRecord
  2
BYBLOCK
 70
     0
  3

 72
    65
 73
     0
 40
0.0
  0
LTYPE
  5
15
330
5
100
AcDbSymbolTableRecord
100
AcDbLinetypeTableRecord
  2
BYLAYER
 70
     0
  3

 72
    65
 73
     0
 40
0.0
  0
LTYPE
  5
16
330
5
100
AcDbSymbolTableRecord
100
AcDbLinetypeTableRecord
  2
CONTINUOUS
 70
     0
  3
Solid line
 72
    65
 73
     0
 40
0.0
  0
LTYPE
  5
4B
330
5
100
AcDbSymbolTableRecord
100
AcDbLinetypeTableRecord
  2
AM_ISO02W050
 70
     0
  3
__ __ __ __ __ __ __ __ __ __ __ __ __ __ __
 72
    65
 73
     2
 40
7.5
 49
6.0
 74
     0
 49
-1.5
 74
     0
  0
LTYPE
  5
4C
330
5
100
AcDbSymbolTableRecord
100
AcDbLinetypeTableRecord
  2
AM_ISO08W050
 70
     0
  3
____ . ____ . ____ . ____ . ____ . ____ . ____
 72
    65
 73
     4
 40
18.0
 49
12.0
 74
     0
 49
-1.5
 74
     0
 49
3.0
 74
     0
 49
-1.5
 74
     0
  0
LTYPE
  5
4D
330
5
100
AcDbSymbolTableRecord
100
AcDbLinetypeTableRecord
  2
AM_ISO09W050
 70
     0
  3
_____ . . _____ . . _____ . . ____ .. ____
 72
    65
 73
     6
 40
22.5
 49
12.0
 74
     0
 49
-1.5
 74
     0
 49
3.0
 74
     0
 49
-1.5
 74
     0
 49
3.0
 74
     0
 49
-1.5
 74
     0
  0
LTYPE
  5
4E
330
5
100
AcDbSymbolTableRecord
100
AcDbLinetypeTableRecord
  2
AMCONSTR
 70
     0
  3
_______________________
 72
    65
 73
     2
 40
9999.0
 49
9999.0
 74
     0
 49
0.0
 74
     0
  0
LTYPE
  5
4F
330
5
100
AcDbSymbolTableRecord
100
AcDbLinetypeTableRecord
  2
AM_ISO02W050X2
 70
     0
  3
 _ _ _ _ _ _ _ _ _ _ _ _
 72
    65
 73
     2
 40
3.75
 49
3.0
 74
     0
 49
-0.75
 74
     0
  0
LTYPE
  5
50
330
5
100
AcDbSymbolTableRecord
100
AcDbLinetypeTableRecord
  2
AM_ISO08W050X2
 70
     0
  3
__ . __ . __ . __ . __ . __
 72
    65
 73
     4
 40
9.0
 49
6.0
 74
     0
 49
-0.75
 74
     0
 49
1.5
 74
     0
 49
-0.75
 74
     0
  0
LTYPE
  5
53
330
5
100
AcDbSymbolTableRecord
100
AcDbLinetypeTableRecord
  2
AMZIGZAG
 70
     0
  3
/\/-/\/-/\/-/\/-/\/-/\/
 72
    65
 73
     2
 40
11.00009999999999
 49
0.0001
 74
     4
 75
   135
340
52
 46
0.04
 50
0.0
 44
0.0
 45
0.0
 49
-11.0
 74
     0
  0
LTYPE
  5
166
330
5
100
AcDbSymbolTableRecord
100
AcDbLinetypeTableRecord
  2
ACJISTGL
 70
     0
  3
_ _ _ _ _
 72
    65
 73
     2
 40
3.0
 49
2.0
 74
     0
 49
-1.0
 74
     0
  0
LTYPE
  5
26A
330
5
100
AcDbSymbolTableRecord
100
AcDbLinetypeTableRecord
  2
ACJISTGB
 70
     0
  3
__ . . __ . .
 72
    65
 73
     6
 40
9.0
 49
4.0
 74
     0
 49
-1.0
 74
     0
 49
1.0
 74
     0
 49
-1.0
 74
     0
 49
1.0
 74
     0
 49
-1.0
 74
     0
  0
ENDTAB
  0
TABLE
  2
LAYER
  5
2
330
0
100
AcDbSymbolTable
 70
     8
  0
LAYER
  5
10
330
2
100
AcDbSymbolTableRecord
100
AcDbLayerTableRecord
  2
0
 70
     0
 62
     7
  6
CONTINUOUS
  0
LAYER
  5
3F9
330
2
100
AcDbSymbolTableRecord
100
AcDbLayerTableRecord
  2
AM_0
 70
     0
 62
     7
  6
CONTINUOUS
  0
LAYER
  5
C7C
330
2
100
AcDbSymbolTableRecord
100
AcDbLayerTableRecord
  2
AM_7
 70
     0
 62
     4
  6
AM_ISO08W050
  0
LAYER
  5
C97
330
2
100
AcDbSymbolTableRecord
100
AcDbLayerTableRecord
  2
AM_11
 70
     0
 62
     3
  6
AM_ISO09W050
  0
LAYER
  5
CC5
330
2
100
AcDbSymbolTableRecord
100
AcDbLayerTableRecord
  2
AM_5
 70
     0
 62
     3
  6
CONTINUOUS
  0
LAYER
  5
CC7
330
2
100
AcDbSymbolTableRecord
100
AcDbLayerTableRecord
  2
DEFPOINTS
 70
     0
 62
     7
  6
CONTINUOUS
  0
LAYER
  5
19BC
330
2
100
AcDbSymbolTableRecord
100
AcDbLayerTableRecord
  2
AM_6
 70
     0
 62
     2
  6
CONTINUOUS
  0
LAYER
  5
31D2
330
2
100
AcDbSymbolTableRecord
100
AcDbLayerTableRecord
  2
AM_CL
 70
     0
 62
     1
  6
AMCONSTR
  0
ENDTAB
  0
TABLE
  2
STYLE
  5
3
330
0
100
AcDbSymbolTable
 70
     5
  0
STYLE
  5
11
330
3
100
AcDbSymbolTableRecord
100
AcDbTextStyleTableRecord
  2
STANDARD
 70
     0
 40
0.0
 41
1.0
 50
0.0
 71
     0
 42
2.5
  3
simplex.shx
  4
EXTFONT.SHX
  0
STYLE
  5
52
330
3
100
AcDbSymbolTableRecord
100
AcDbTextStyleTableRecord
  2

 70
     1
 40
0.0
 41
1.0
 50
0.0
 71
     0
 42
2.5
  3
ltypeshp.shx
  4

  0
STYLE
  5
6B
330
3
100
AcDbSymbolTableRecord
100
AcDbTextStyleTableRecord
  2
ASAMI
 70
     0
 40
0.0
 41
1.0
 50
0.0
 71
     0
 42
2.5
  3
simplex.shx
  4
EXTFONT.SHX
  0
STYLE
  5
262
330
3
100
AcDbSymbolTableRecord
100
AcDbTextStyleTableRecord
  2
ACJISTS
 70
     0
 40
1.0
 41
1.0
 50
0.0
 71
     0
 42
2.5
  3
simplex.shx
  4
bigfont.shx
  0
STYLE
  5
269
330
3
100
AcDbSymbolTableRecord
100
AcDbTextStyleTableRecord
  2
ACJISGDT
 70
     0
 40
0.0
 41
1.0
 50
0.0
 71
     0
 42
2.5
  3
amgdtans.shx
  4

  0
ENDTAB
  0
TABLE
  2
VIEW
  5
6
330
0
100
AcDbSymbolTable
 70
     0
  0
ENDTAB
  0
TABLE
  2
UCS
  5
7
330
0
100
AcDbSymbolTable
 70
     0
  0
ENDTAB
  0
TABLE
  2
APPID
  5
9
330
0
100
AcDbSymbolTable
 70
    16
  0
APPID
  5
12
330
9
100
AcDbSymbolTableRecord
100
AcDbRegAppTableRecord
  2
ACAD
 70
     0
  0
APPID
  5
30
330
9
100
AcDbSymbolTableRecord
100
AcDbRegAppTableRecord
  2
MCAD_NO_VIS
 70
     0
  0
APPID
  5
31
330
9
100
AcDbSymbolTableRecord
100
AcDbRegAppTableRecord
  2
ACAD_TEMP_GRAPHIC
 70
     0
  0
APPID
  5
2C2
330
9
100
AcDbSymbolTableRecord
100
AcDbRegAppTableRecord
  2
GENIUS_GENDTOL_13
 70
     0
  0
APPID
  5
339
330
9
100
AcDbSymbolTableRecord
100
AcDbRegAppTableRecord
  2
GENIUS_GENODEF_13
 70
     0
  0
APPID
  5
33A
330
9
100
AcDbSymbolTableRecord
100
AcDbRegAppTableRecord
  2
GENIUS_GENOBJ-N-RSBK_13
 70
     0
  0
APPID
  5
33B
330
9
100
AcDbSymbolTableRecord
100
AcDbRegAppTableRecord
  2
GENIUS_GENOBJ-N-LIB_13
 70
     0
  0
APPID
  5
33C
330
9
100
AcDbSymbolTableRecord
100
AcDbRegAppTableRecord
  2
GENIUS_GENSCALE_13
 70
     0
  0
APPID
  5
378
330
9
100
AcDbSymbolTableRecord
100
AcDbRegAppTableRecord
  2
GENIUS_GENDIMSH_14
 70
     0
  0
APPID
  5
C82
330
9
100
AcDbSymbolTableRecord
100
AcDbRegAppTableRecord
  2
GENIUS_GENOBJ-N-CRS_13
 70
     0
  0
APPID
  5
C83
330
9
100
AcDbSymbolTableRecord
100
AcDbRegAppTableRecord
  2
GENIUS_GENOENT_13
 70
     0
  0
APPID
  5
C84
330
9
100
AcDbSymbolTableRecord
100
AcDbRegAppTableRecord
  2
GENIUS_GENOREF_13
 70
     0
  0
APPID
  5
C85
330
9
100
AcDbSymbolTableRecord
100
AcDbRegAppTableRecord
  2
GENIUS_GENOLIS_13
 70
     0
  0
APPID
  5
CA0
330
9
100
AcDbSymbolTableRecord
100
AcDbRegAppTableRecord
  2
GENIUS_GENOBJ-N-CEN_13
 70
     0
  0
APPID
  5
1E1E
330
9
100
AcDbSymbolTableRecord
100
AcDbRegAppTableRecord
  2
GENIUS_GENFIL_13
 70
     0
  0
APPID
  5
1E1F
330
9
100
AcDbSymbolTableRecord
100
AcDbRegAppTableRecord
  2
GENIUS_GENOBJ-N-CHA_13
 70
     0
  0
ENDTAB
  0
TABLE
  2
DIMSTYLE
  5
A
330
0
100
AcDbSymbolTable
 70
     9
  0
DIMSTYLE
105
58
330
A
100
AcDbSymbolTableRecord
100
AcDbDimStyleTableRecord
  2
AM_JIS
 70
     0
  3

  4
"
  5
OPEN30
  6

  7

 40
1.0
 41
2.5
 42
1.0
 43
12.0
 44
1.0
 45
0.0
 46
0.0
 47
0.1
 48
0.1
140
3.2
141
0.0
142
0.0
143
0.0393701
144
1.0
145
0.0
146
0.71
147
1.5
 71
     0
 72
     0
 73
     0
 74
     0
 75
     0
 76
     0
 77
     3
 78
     8
170
     0
171
     2
172
     1
173
     0
174
     0
175
     0
176
   256
177
   256
178
     2
270
     2
271
     3
272
     3
273
     2
274
     2
340
6B
275
     0
280
     0
281
     0
282
     0
283
     0
284
     0
285
     0
286
     0
287
     3
288
     0
  0
DIMSTYLE
105
5F
330
A
100
AcDbSymbolTableRecord
100
AcDbDimStyleTableRecord
  2
AM_JIS$3
 70
     0
  3

  4
"
  5
OPEN30
  6

  7

 40
1.0
 41
2.5
 42
1.0
 43
10.0
 44
1.0
 45
0.0
 46
0.0
 47
0.1
 48
0.1
140
3.2
141
0.0
142
0.0
143
0.0393701
144
1.0
145
0.0
146
0.71
147
1.5
 71
     0
 72
     0
 73
     0
 74
     1
 75
     0
 76
     0
 77
     3
 78
     8
170
     0
171
     2
172
     0
173
     0
174
     0
175
     0
176
   256
177
   256
178
     2
270
     2
271
     2
272
     3
273
     2
274
     2
340
6B
275
     0
280
     0
281
     0
282
     0
283
     0
284
     0
285
     0
286
     0
287
     0
288
     1
  0
DIMSTYLE
105
60
330
A
100
AcDbSymbolTableRecord
100
AcDbDimStyleTableRecord
  2
AM_JIS$4
 70
     0
  3

  4
"
  5
OPEN30
  6

  7

 40
1.0
 41
2.5
 42
1.0
 43
10.0
 44
1.0
 45
0.0
 46
0.0
 47
0.1
 48
0.1
140
3.2
141
0.0
142
0.0
143
0.0393701
144
1.0
145
0.0
146
0.71
147
1.5
 71
     0
 72
     0
 73
     0
 74
     1
 75
     0
 76
     0
 77
     3
 78
     8
170
     0
171
     2
172
     0
173
     0
174
     0
175
     0
176
   256
177
   256
178
     2
270
     2
271
     2
272
     3
273
     2
274
     2
340
6B
275
     0
280
     0
281
     0
282
     0
283
     0
284
     0
285
     0
286
     0
287
     0
288
     1
  0
DIMSTYLE
105
61
330
A
100
AcDbSymbolTableRecord
100
AcDbDimStyleTableRecord
  2
AM_JIS$6
 70
     0
  3

  4
"
  5
OPEN30
  6

  7

 40
1.0
 41
2.5
 42
1.0
 43
10.0
 44
1.0
 45
0.0
 46
0.0
 47
0.1
 48
0.1
140
3.2
141
0.0
142
0.0
143
0.0393701
144
1.0
145
0.0
146
0.71
147
1.5
 71
     0
 72
     0
 73
     0
 74
     0
 75
     0
 76
     0
 77
     0
 78
     8
170
     0
171
     2
172
     1
173
     0
174
     0
175
     0
176
   256
177
   256
178
     2
270
     2
271
     2
272
     2
273
     2
274
     2
340
6B
275
     0
280
     0
281
     0
282
     0
283
     0
284
     0
285
     0
286
     0
287
     3
288
     0
  0
DIMSTYLE
105
62
330
A
100
AcDbSymbolTableRecord
100
AcDbDimStyleTableRecord
  2
AM_JIS$7
 70
     0
  3

  4
"
  5
OPEN30
  6

  7

 40
1.0
 41
2.5
 42
1.0
 43
10.0
 44
1.0
 45
0.0
 46
0.0
 47
0.1
 48
0.1
140
3.2
141
0.0
142
0.0
143
0.0393701
144
1.0
145
0.0
146
0.71
147
1.5
 71
     0
 72
     0
 73
     0
 74
     0
 75
     0
 76
     0
 77
     3
 78
     8
170
     0
171
     2
172
     1
173
     0
174
     0
175
     0
176
   256
177
   256
178
     2
270
     2
271
     2
272
     3
273
     2
274
     2
340
6B
275
     0
280
     0
281
     0
282
     0
283
     0
284
     0
285
     0
286
     0
287
     3
288
     0
  0
DIMSTYLE
105
63
330
A
100
AcDbSymbolTableRecord
100
AcDbDimStyleTableRecord
  2
AM_JIS$SF
 70
     0
  3

  4
"
  5
OPEN30
  6

  7

 40
1.0
 41
2.5
 42
1.0
 43
10.0
 44
1.0
 45
0.0
 46
0.0
 47
0.1
 48
0.1
140
3.2
141
0.0
142
0.0
143
0.0393701
144
1.0
145
0.0
146
0.71
147
1.5
 71
     0
 72
     0
 73
     0
 74
     0
 75
     1
 76
     1
 77
     3
 78
     8
170
     0
171
     2
172
     1
173
     0
174
     0
175
     0
176
   256
177
   256
178
     2
270
     2
271
     2
272
     2
273
     2
274
     2
340
6B
275
     0
280
     0
281
     0
282
     0
283
     0
284
     0
285
     0
286
     0
287
     3
288
     0
  0
DIMSTYLE
105
68
330
A
100
AcDbSymbolTableRecord
100
AcDbDimStyleTableRecord
  2
AM_JIS$SH
 70
     0
  3

  4
"
  5

  6
GENAXEH
  7
OPEN30
 40
1.0
 41
2.5
 42
1.0
 43
10.0
 44
1.0
 45
0.0
 46
0.0
 47
0.1
 48
0.1
140
3.2
141
0.0
142
0.0
143
0.0393701
144
2.0
145
0.0
146
0.71
147
1.5
 71
     0
 72
     0
 73
     0
 74
     0
 75
     1
 76
     1
 77
     3
 78
     8
170
     0
171
     2
172
     1
173
     1
174
     0
175
     0
176
   256
177
   256
178
     2
270
     2
271
     2
272
     2
273
     2
274
     2
340
6B
275
     0
280
     0
281
     0
282
     0
283
     0
284
     0
285
     0
286
     0
287
     3
288
     0
  0
DIMSTYLE
105
B34
102
{ACAD_REACTORS
330
3230
102
}
330
A
100
AcDbSymbolTableRecord
100
AcDbDimStyleTableRecord
  2
AM_JIS$2
 70
     0
  3

  4
"
  5
OPEN30
  6

  7

 40
1.0
 41
2.5
 42
1.0
 43
12.0
 44
1.0
 45
0.0
 46
0.0
 47
0.1
 48
0.1
140
3.2
141
0.0
142
0.0
143
0.0393701
144
1.0
145
0.0
146
0.71
147
1.5
 71
     0
 72
     0
 73
     0
 74
     0
 75
     0
 76
     0
 77
     3
 78
     8
170
     0
171
     2
172
     1
173
     0
174
     0
175
     0
176
   256
177
   256
178
     2
270
     2
271
     3
272
     3
273
     2
274
     2
340
6B
275
     0
280
     0
281
     0
282
     0
283
     0
284
     0
285
     0
286
     0
287
     3
288
     0
  0
DIMSTYLE
105
BA5
102
{ACAD_REACTORS
330
CC6
330
DF5
330
1FB6
330
2216
102
}
330
A
100
AcDbSymbolTableRecord
100
AcDbDimStyleTableRecord
  2
AM_JIS$0
 70
     0
  3

  4
"
  5
OPEN30
  6

  7

 40
1.0
 41
2.5
 42
0.0
 43
10.0
 44
1.0
 45
0.0
 46
0.0
 47
0.1
 48
0.1000000001
140
3.799999999999999
141
0.0
142
0.0
143
0.0393701
144
1.0
145
0.0
146
0.71
147
1.5
 71
     0
 72
     0
 73
     0
 74
     0
 75
     0
 76
     0
 77
     3
 78
     1
170
     0
171
     2
172
     1
173
     0
174
     0
175
     0
176
     3
177
     3
178
     2
270
     2
271
     2
272
     2
273
     2
274
     2
340
11
275
     1
280
     0
281
     0
282
     0
283
     0
284
     8
285
     0
286
     0
287
     0
288
     0
  0
ENDTAB
  0
TABLE
  2
BLOCK_RECORD
  5
1
330
0
100
AcDbSymbolTable
 70
    10
  0
BLOCK_RECORD
  5
1F
102
{ACAD_XDICTIONARY
360
74
102
}
330
1
100
AcDbSymbolTableRecord
100
AcDbBlockTableRecord
  2
*MODEL_SPACE
  0
BLOCK_RECORD
  5
101
102
{ACAD_XDICTIONARY
360
338F
102
}
330
1
100
AcDbSymbolTableRecord
100
AcDbBlockTableRecord
  2
*PAPER_SPACE
  0
BLOCK_RECORD
  5
59
330
1
100
AcDbSymbolTableRecord
100
AcDbBlockTableRecord
  2
_OPEN30
  0
BLOCK_RECORD
  5
64
330
1
100
AcDbSymbolTableRecord
100
AcDbBlockTableRecord
  2
GENAXEH
  0
BLOCK_RECORD
  5
CC8
330
1
100
AcDbSymbolTableRecord
100
AcDbBlockTableRecord
  2
*D5
  0
BLOCK_RECORD
  5
DF6
330
1
100
AcDbSymbolTableRecord
100
AcDbBlockTableRecord
  2
*D6
  0
BLOCK_RECORD
  5
1FB7
330
1
100
AcDbSymbolTableRecord
100
AcDbBlockTableRecord
  2
*D7
  0
BLOCK_RECORD
  5
2217
330
1
100
AcDbSymbolTableRecord
100
AcDbBlockTableRecord
  2
*D8
  0
BLOCK_RECORD
  5
3231
330
1
100
AcDbSymbolTableRecord
100
AcDbBlockTableRecord
  2
*D9
  0
ENDTAB
  0
ENDSEC
  0
SECTION
  2
BLOCKS
  0
BLOCK
  5
20
330
1F
100
AcDbEntity
  8
0
100
AcDbBlockBegin
  2
*MODEL_SPACE
 70
     0
 10
0.0
 20
0.0
 30
0.0
  3
*MODEL_SPACE
  1

  0
ENDBLK
  5
21
330
1F
100
AcDbEntity
  8
0
100
AcDbBlockEnd
  0
BLOCK
  5
103
330
101
100
AcDbEntity
 67
     1
  8
0
100
AcDbBlockBegin
  2
*PAPER_SPACE
 70
     0
 10
0.0
 20
0.0
 30
0.0
  3
*PAPER_SPACE
  1

  0
ENDBLK
  5
104
330
101
100
AcDbEntity
 67
     1
  8
0
100
AcDbBlockEnd
  0
BLOCK
  5
5D
330
59
100
AcDbEntity
  8
0
100
AcDbBlockBegin
  2
_OPEN30
 70
     0
 10
0.0
 20
0.0
 30
0.0
  3
_OPEN30
  1

  0
LINE
  5
5A
330
59
100
AcDbEntity
  8
0
 62
     0
100
AcDbLine
 10
-1.0
 20
0.26794919
 30
0.0
 11
0.0
 21
0.0
 31
0.0
  0
LINE
  5
5B
330
59
100
AcDbEntity
  8
0
 62
     0
100
AcDbLine
 10
0.0
 20
0.0
 30
0.0
 11
-1.0
 21
-0.26794919
 31
0.0
  0
LINE
  5
5C
330
59
100
AcDbEntity
  8
0
 62
     0
100
AcDbLine
 10
0.0
 20
0.0
 30
0.0
 11
-1.0
 21
0.0
 31
0.0
  0
ENDBLK
  5
5E
330
59
100
AcDbEntity
  8
0
100
AcDbBlockEnd
  0
BLOCK
  5
66
330
64
100
AcDbEntity
  8
0
100
AcDbBlockBegin
  2
GENAXEH
 70
     0
 10
0.0
 20
0.0
 30
0.0
  3
GENAXEH
  1

  0
LINE
  5
65
330
64
100
AcDbEntity
  8
0
100
AcDbLine
 10
-1.0
 20
0.0
 30
0.0
 11
1.0
 21
0.0
 31
0.0
  0
ENDBLK
  5
67
330
64
100
AcDbEntity
  8
0
100
AcDbBlockEnd
  0
BLOCK
  5
CD2
330
CC8
100
AcDbEntity
  8
0
100
AcDbBlockBegin
  2
*D5
 70
     1
 10
0.0
 20
0.0
 30
0.0
  3
*D5
  1

  0
LINE
  5
31F4
330
CC8
100
AcDbEntity
  8
AM_5
 62
     3
100
AcDbLine
 10
-168.9999999973128
 20
-6.000002054481103
 30
0.0
 11
-168.9999999973128
 21
-31.50000305448099
 31
0.0
  0
LINE
  5
31F5
330
CC8
100
AcDbEntity
  8
AM_5
 62
     3
100
AcDbLine
 10
-1.999999997312471
 20
-6.150000536593019
 30
0.0
 11
-1.999999997312473
 21
-31.50000305448099
 31
0.0
  0
LINE
  5
31F6
330
CC8
100
AcDbEntity
  8
AM_5
 62
     3
100
AcDbLine
 10
-166.4999999973128
 20
-30.50000305448099
 30
0.0
 11
-4.499999997312473
 21
-30.50000305448099
 31
0.0
  0
INSERT
  5
31F7
330
CC8
100
AcDbEntity
  8
AM_5
 62
     3
100
AcDbBlockReference
  2
_OPEN30
 10
-168.9999999973128
 20
-30.50000305448099
 30
0.0
 41
2.5
 42
2.5
 43
2.5
 50
180.0
  0
INSERT
  5
31F8
330
CC8
100
AcDbEntity
  8
AM_5
 62
     3
100
AcDbBlockReference
  2
_OPEN30
 10
-1.999999997312473
 20
-30.50000305448099
 30
0.0
 41
2.5
 42
2.5
 43
2.5
  0
MTEXT
  5
31F9
330
CC8
100
AcDbEntity
  8
AM_5
 62
     2
100
AcDbMText
 10
-85.49999999731264
 20
-27.10000305448099
 30
0.0
 40
3.799999999999999
 41
0.0
 71
     5
 72
     1
  1
167
1001
ACAD
1000
MTEXTBEGIN
1070
    73
1070
     1
1070
    44
1040
1.0
1070
    74
1070
     0
1000
MTEXTEND
  0
POINT
  5
31FA
330
CC8
100
AcDbEntity
  8
DEFPOINTS
 62
     0
100
AcDbPoint
 10
-168.9999999973128
 20
-6.000002054481103
 30
0.0
  0
POINT
  5
31FB
330
CC8
100
AcDbEntity
  8
DEFPOINTS
 62
     0
100
AcDbPoint
 10
-1.999999997312471
 20
-6.150000536593019
 30
0.0
  0
POINT
  5
31FC
330
CC8
100
AcDbEntity
  8
DEFPOINTS
 62
     0
100
AcDbPoint
 10
-1.999999997312473
 20
-30.50000305448099
 30
0.0
  0
ENDBLK
  5
CD3
330
CC8
100
AcDbEntity
  8
0
100
AcDbBlockEnd
  0
BLOCK
  5
E00
330
DF6
100
AcDbEntity
  8
0
100
AcDbBlockBegin
  2
*D6
 70
     1
 10
0.0
 20
0.0
 30
0.0
  3
*D6
  1

  0
LINE
  5
31EB
330
DF6
100
AcDbEntity
  8
AM_5
 62
     3
100
AcDbLine
 10
-105.9999999973127
 20
-6.500002054481134
 30
0.0
 11
-105.9999999973127
 21
-21.50000305448087
 31
0.0
  0
LINE
  5
31EC
330
DF6
100
AcDbEntity
  8
AM_5
 62
     3
100
AcDbLine
 10
-1.999999997312471
 20
-6.150000536593019
 30
0.0
 11
-1.999999997312472
 21
-21.50000305448087
 31
0.0
  0
LINE
  5
31ED
330
DF6
100
AcDbEntity
  8
AM_5
 62
     3
100
AcDbLine
 10
-103.4999999973128
 20
-20.50000305448087
 30
0.0
 11
-4.499999997312473
 21
-20.50000305448087
 31
0.0
  0
INSERT
  5
31EE
330
DF6
100
AcDbEntity
  8
AM_5
 62
     3
100
AcDbBlockReference
  2
_OPEN30
 10
-105.9999999973127
 20
-20.50000305448087
 30
0.0
 41
2.5
 42
2.5
 43
2.5
 50
180.0
  0
INSERT
  5
31EF
330
DF6
100
AcDbEntity
  8
AM_5
 62
     3
100
AcDbBlockReference
  2
_OPEN30
 10
-1.999999997312472
 20
-20.50000305448087
 30
0.0
 41
2.5
 42
2.5
 43
2.5
  0
MTEXT
  5
31F0
330
DF6
100
AcDbEntity
  8
AM_5
 62
     2
100
AcDbMText
 10
-53.99999999731264
 20
-17.10000305448087
 30
0.0
 40
3.799999999999999
 41
0.0
 71
     5
 72
     1
  1
104
1001
ACAD
1000
MTEXTBEGIN
1070
    73
1070
     1
1070
    44
1040
1.0
1070
    74
1070
     0
1000
MTEXTEND
  0
POINT
  5
31F1
330
DF6
100
AcDbEntity
  8
DEFPOINTS
 62
     0
100
AcDbPoint
 10
-105.9999999973127
 20
-6.500002054481134
 30
0.0
  0
POINT
  5
31F2
330
DF6
100
AcDbEntity
  8
DEFPOINTS
 62
     0
100
AcDbPoint
 10
-1.999999997312471
 20
-6.150000536593019
 30
0.0
  0
POINT
  5
31F3
330
DF6
100
AcDbEntity
  8
DEFPOINTS
 62
     0
100
AcDbPoint
 10
-1.999999997312472
 20
-20.50000305448087
 30
0.0
  0
ENDBLK
  5
E01
330
DF6
100
AcDbEntity
  8
0
100
AcDbBlockEnd
  0
BLOCK
  5
1FC3
330
1FB7
100
AcDbEntity
  8
0
100
AcDbBlockBegin
  2
*D7
 70
     1
 10
0.0
 20
0.0
 30
0.0
  3
*D7
  1

  0
LINE
  5
3211
330
1FB7
100
AcDbEntity
  8
AM_5
 62
     3
100
AcDbLine
 10
-1.999999997312869
 20
-6.150000536593019
 30
0.0
 11
16.5559210275452
 21
-6.150000536593023
 31
0.0
  0
LINE
  5
3212
330
1FB7
100
AcDbEntity
  8
AM_5
 62
     3
100
AcDbLine
 10
-1.999999997312861
 20
6.149999463406714
 30
0.0
 11
16.5559210275452
 21
6.14999946340671
 31
0.0
  0
LINE
  5
3213
330
1FB7
100
AcDbEntity
  8
AM_5
 62
     3
100
AcDbLine
 10
15.5559210275452
 20
-8.650000536593022
 30
0.0
 11
15.5559210275452
 21
-11.15000053659302
 31
0.0
  0
LINE
  5
3214
330
1FB7
100
AcDbEntity
  8
AM_5
 62
     3
100
AcDbLine
 10
15.5559210275452
 20
8.649999463406711
 30
0.0
 11
15.55592102754521
 21
28.4452375586448
 31
0.0
  0
LINE
  5
3215
330
1FB7
100
AcDbEntity
  8
AM_5
 62
     3
100
AcDbLine
 10
15.5559210275452
 20
-6.150000536593023
 30
0.0
 11
15.5559210275452
 21
6.14999946340671
 31
0.0
  0
INSERT
  5
3216
330
1FB7
100
AcDbEntity
  8
AM_5
 62
     3
100
AcDbBlockReference
  2
_OPEN30
 10
15.5559210275452
 20
-6.150000536593023
 30
0.0
 41
2.5
 42
2.5
 43
2.5
 50
90.0
  0
INSERT
  5
3217
330
1FB7
100
AcDbEntity
  8
AM_5
 62
     3
100
AcDbBlockReference
  2
_OPEN30
 10
15.5559210275452
 20
6.14999946340671
 30
0.0
 41
2.5
 42
2.5
 43
2.5
 50
270.0
  0
MTEXT
  5
3218
330
1FB7
100
AcDbEntity
  8
AM_5
 62
     2
100
AcDbMText
 10
12.1559210275452
 20
19.79761851102576
 30
0.0
 40
3.799999999999999
 41
0.0
 71
     5
 72
     1
  1
%%c12.3
 11
0.0000000000000001
 21
1.0
 31
0.0
1001
ACAD
1000
MTEXTBEGIN
1070
    73
1070
     1
1070
    44
1040
1.0
1070
    74
1070
     0
1000
MTEXTEND
  0
POINT
  5
3219
330
1FB7
100
AcDbEntity
  8
DEFPOINTS
 62
     0
100
AcDbPoint
 10
-1.999999997312869
 20
-6.150000536593019
 30
0.0
  0
POINT
  5
321A
330
1FB7
100
AcDbEntity
  8
DEFPOINTS
 62
     0
100
AcDbPoint
 10
-1.999999997312861
 20
6.149999463406714
 30
0.0
  0
POINT
  5
321B
330
1FB7
100
AcDbEntity
  8
DEFPOINTS
 62
     0
100
AcDbPoint
 10
15.5559210275452
 20
6.14999946340671
 30
0.0
  0
ENDBLK
  5
1FC4
330
1FB7
100
AcDbEntity
  8
0
100
AcDbBlockEnd
  0
BLOCK
  5
2221
330
2217
100
AcDbEntity
  8
0
100
AcDbBlockBegin
  2
*D8
 70
     1
 10
0.0
 20
0.0
 30
0.0
  3
*D8
  1

  0
LINE
  5
31FD
330
2217
100
AcDbEntity
  8
AM_5
 62
     3
100
AcDbLine
 10
-168.4999999973133
 20
6.499999999998699
 30
0.0
 11
-186.0000009973128
 21
6.499999999998649
 31
0.0
  0
LINE
  5
31FE
330
2217
100
AcDbEntity
  8
AM_5
 62
     3
100
AcDbLine
 10
-168.4999999973127
 20
-6.500002054481627
 30
0.0
 11
-186.0000009973127
 21
-6.500002054481677
 31
0.0
  0
LINE
  5
31FF
330
2217
100
AcDbEntity
  8
AM_5
 62
     3
100
AcDbLine
 10
-185.0000009973128
 20
3.999999999998653
 30
0.0
 11
-185.0000009973128
 21
-4.000002054481673
 31
0.0
  0
INSERT
  5
3200
330
2217
100
AcDbEntity
  8
AM_5
 62
     3
100
AcDbBlockReference
  2
_OPEN30
 10
-185.0000009973128
 20
6.499999999998653
 30
0.0
 41
2.5
 42
2.5
 43
2.5
 50
90.00000000000017
  0
INSERT
  5
3201
330
2217
100
AcDbEntity
  8
AM_5
 62
     3
100
AcDbBlockReference
  2
_OPEN30
 10
-185.0000009973127
 20
-6.500002054481673
 30
0.0
 41
2.5
 42
2.5
 43
2.5
 50
270.0000000000001
  0
MTEXT
  5
3202
330
2217
100
AcDbEntity
  8
AM_5
 62
     2
100
AcDbMText
 10
-188.4000009973128
 20
-0.0000010272415127
 30
0.0
 40
3.799999999999999
 41
0.0
 71
     5
 72
     1
  1
%%c13
 11
-0.0000000000000028
 21
1.0
 31
0.0
1001
ACAD
1000
MTEXTBEGIN
1070
    73
1070
     1
1070
    44
1040
1.0
1070
    74
1070
     0
1000
MTEXTEND
  0
POINT
  5
3203
330
2217
100
AcDbEntity
  8
DEFPOINTS
 62
     0
100
AcDbPoint
 10
-168.4999999973133
 20
6.499999999999223
 30
0.0
  0
POINT
  5
3204
330
2217
100
AcDbEntity
  8
DEFPOINTS
 62
     0
100
AcDbPoint
 10
-168.4999999973128
 20
-6.500002054481103
 30
0.0
  0
POINT
  5
3205
330
2217
100
AcDbEntity
  8
DEFPOINTS
 62
     0
100
AcDbPoint
 10
-185.0000009973128
 20
-6.500002054481099
 30
0.0
  0
ENDBLK
  5
2222
330
2217
100
AcDbEntity
  8
0
100
AcDbBlockEnd
  0
BLOCK
  5
323F
330
3231
100
AcDbEntity
  8
0
100
AcDbBlockBegin
  2
*D9
 70
     1
 10
0.0
 20
0.0
 30
0.0
  3
*D9
  1

  0
LINE
  5
3391
330
3231
100
AcDbEntity
  8
AM_5
100
AcDbLine
 10
0.3420201435032975
 20
-0.9396926216993024
 30
0.0
 11
12.17567510120106
 21
-33.45239267775186
 31
0.0
  0
LINE
  5
3392
330
3231
100
AcDbEntity
  8
AM_5
100
AcDbLine
 10
0.3420220719282381
 20
0.9396919198078581
 30
0.0
 11
12.17574375176597
 21
33.45236769091025
 31
0.0
  0
ARC
  5
3393
330
3231
100
AcDbEntity
  8
AM_5
100
AcDbCircle
 10
0.0000000026871305
 20
0.0000000000000781
 30
0.0
 40
34.59929268919655
100
AcDbArc
 50
294.1408540647826
 51
65.85902835352048
  0
INSERT
  5
3394
330
3231
100
AcDbEntity
  8
AM_5
100
AcDbBlockReference
  2
_OPEN30
 10
11.83365496038493
 20
-32.51270005605256
 30
0.0
 41
2.5
 42
2.5
 43
2.5
 50
202.0704269558846
  0
INSERT
  5
3395
330
3231
100
AcDbEntity
  8
AM_5
100
AcDbBlockReference
  2
_OPEN30
 10
11.83372168252486
 20
32.51267577110247
 30
0.0
 41
2.5
 42
2.5
 43
2.5
 50
157.9294554624184
  0
MTEXT
  5
3396
330
3231
100
AcDbEntity
  8
AM_5
 62
     2
100
AcDbMText
 10
31.4992926918671
 20
-0.0000323212312517
 30
0.0
 40
3.2
 41
0.0
 71
     5
 72
     1
  1
140°
  7
ASAMI
 11
0.0000010260938763
 21
0.9999999999994738
 31
0.0
  0
POINT
  5
3397
330
3231
100
AcDbEntity
  8
DEFPOINTS
 62
     0
100
AcDbPoint
 10
31.76961844991731
 20
-13.70410151414895
 30
0.0
  0
POINT
  5
3398
330
3231
100
AcDbEntity
  8
DEFPOINTS
 62
     0
100
AcDbPoint
 10
0.0000000026871021
 20
0.0
 30
0.0
  0
POINT
  5
3399
330
3231
100
AcDbEntity
  8
DEFPOINTS
 62
     0
100
AcDbPoint
 10
0.0000000026871589
 20
0.0000000000000001
 30
0.0
  0
POINT
  5
339A
330
3231
100
AcDbEntity
  8
DEFPOINTS
 62
     0
100
AcDbPoint
 10
-0.714757332516264
 20
1.963779655178786
 30
0.0
  0
POINT
  5
339B
330
3231
100
AcDbEntity
  8
DEFPOINTS
 62
     0
100
AcDbPoint
 10
-0.7147729802135493
 20
-1.963810107397344
 30
0.0
  0
ENDBLK
  5
3240
330
3231
100
AcDbEntity
  8
0
100
AcDbBlockEnd
  0
ENDSEC
  0
SECTION
  2
ENTITIES
  0
LINE
  5
C9F
330
1F
100
AcDbEntity
  8
AM_7
100
AcDbLine
 10
-170.9999999973128
 20
-0.0000000000002726
 30
0.0
 11
1.555920027545218
 21
0.0000000000000025
 31
0.0
1001
GENIUS_GENODEF_13
1002
{
1000
HIER
1070
     0
1002
}
1002
{
1000
MANEDIT
1070
     0
1002
}
1002
{
1000
NOSEL
1070
     0
1002
}
1002
{
1000
BEHIND
1070
     0
1002
}
1002
{
1000
REACTOR
1002
}
1001
GENIUS_GENOBJ-N-CEN_13
1002
{
1000
OWNER
1000
GEN
1002
}
  0
DIMENSION
  5
CC6
330
1F
100
AcDbEntity
  8
AM_5
100
AcDbDimension
  2
*D5
 10
-1.999999997312473
 20
-30.50000305448099
 30
0.0
 11
-85.49999999731264
 21
-27.10000305448099
 31
0.0
 70
    32
  1
<>
  3
AM_JIS$0
100
AcDbAlignedDimension
 13
-168.9999999973128
 23
-6.000002054481103
 33
0.0
 14
-1.999999997312471
 24
-6.150000536593019
 34
0.0
 50
0.0000000000001132
100
AcDbRotatedDimension
1001
GENIUS_GENDTOL_13
1000

1000
h7
1000

1040
0.0
1001
ACAD
1000
DSTYLE
1002
{
1070
   271
1070
     0
1002
}
  0
DIMENSION
  5
DF5
330
1F
100
AcDbEntity
  8
AM_5
100
AcDbDimension
  2
*D6
 10
-1.999999997312472
 20
-20.50000305448087
 30
0.0
 11
-53.99999999731264
 21
-17.10000305448087
 31
0.0
 70
    32
  1
<>
  3
AM_JIS$0
100
AcDbAlignedDimension
 13
-105.9999999973127
 23
-6.500002054481134
 33
0.0
 14
-1.999999997312471
 24
-6.150000536593019
 34
0.0
 50
0.0000000000001527
100
AcDbRotatedDimension
1001
GENIUS_GENDTOL_13
1000

1000
h7
1000

1040
0.0
1001
ACAD
1000
DSTYLE
1002
{
1070
   271
1070
     0
1002
}
  0
TEXT
  5
19BD
330
1F
100
AcDbEntity
  8
AM_6
100
AcDbText
 10
-106.6904761877889
 20
-52.500003054481
 30
0.0
 40
5.0
  1
MDW123LHK
 50
0.0000000000001527
 72
     4
 11
-85.49999999731277
 21
-50.00000305448095
 31
0.0
100
AcDbText
  0
LINE
  5
1E25
330
1F
100
AcDbEntity
  8
AM_0
100
AcDbLine
 10
-105.9999999973128
 20
-6.500002054481149
 30
0.0
 11
-105.3937795856027
 21
-6.150000536592102
 31
0.0
  0
LINE
  5
1E26
330
1F
100
AcDbEntity
  8
AM_0
100
AcDbLine
 10
-105.3937812852594
 20
6.14999946340788
 30
0.0
 11
-106.0000192377597
 21
6.500011108476913
 31
0.0
  0
DIMENSION
  5
1FB6
330
1F
100
AcDbEntity
  8
AM_5
100
AcDbDimension
  2
*D7
 10
15.5559210275452
 20
6.14999946340671
 30
0.0
 11
15.5559210275452
 21
19.79761851102576
 31
0.0
 70
   160
  1
%%c<>
  3
AM_JIS$0
100
AcDbAlignedDimension
 13
-1.999999997312869
 23
-6.150000536593019
 33
0.0
 14
-1.999999997312861
 24
6.149999463406714
 34
0.0
 50
89.99999999999969
100
AcDbRotatedDimension
1001
ACAD
1000
DSTYLE
1002
{
1070
   271
1070
     1
1002
}
1001
GENIUS_GENDTOL_13
1000

1000
h7
1000

1040
0.0
  0
LINE
  5
1FD9
330
1F
100
AcDbEntity
  8
AM_0
100
AcDbLine
 10
-105.3937768678681
 20
-6.149998967507292
 30
0.0
 11
-105.3937812852594
 21
6.149999463407883
 31
0.0
  0
LINE
  5
21D7
330
1F
100
AcDbEntity
  8
AM_0
 48
0.5
100
AcDbLine
 10
-105.9999999973128
 20
-6.500002054481153
 30
0.0
 11
-105.9999999973128
 21
6.499999999999664
 31
0.0
  0
LINE
  5
21D8
330
1F
100
AcDbEntity
  8
AM_0
 48
0.5
100
AcDbLine
 10
-168.4999999973128
 20
6.499999999999726
 30
0.0
 11
-105.9999999973128
 21
6.499999999999695
 31
0.0
1001
GENIUS_GENODEF_13
1002
{
1000
HIER
1070
     0
1002
}
1002
{
1000
MANEDIT
1070
     0
1002
}
1002
{
1000
NOSEL
1070
     0
1002
}
1002
{
1000
BEHIND
1070
     0
1002
}
1002
{
1000
REACTOR
1002
}
1001
GENIUS_GENOBJ-N-CEN_13
1002
{
1000
OWNER
1000
GEN
1002
}
  0
LINE
  5
21D9
330
1F
100
AcDbEntity
  8
AM_0
 48
0.5
100
AcDbLine
 10
-168.4999999973128
 20
-6.500002054481103
 30
0.0
 11
-105.9999999973128
 21
-6.500002054481134
 31
0.0
1001
GENIUS_GENODEF_13
1002
{
1000
HIER
1070
     0
1002
}
1002
{
1000
MANEDIT
1070
     0
1002
}
1002
{
1000
NOSEL
1070
     0
1002
}
1002
{
1000
BEHIND
1070
     0
1002
}
1002
{
1000
REACTOR
1002
}
1001
GENIUS_GENOBJ-N-CEN_13
1002
{
1000
OWNER
1000
GEN
1002
}
  0
LINE
  5
21DC
330
1F
100
AcDbEntity
  8
AM_0
100
AcDbLine
 10
-168.4999999973133
 20
-6.500002054480569
 30
0.0
 11
-168.4999999973133
 21
6.499999999999223
 31
0.0
  0
LINE
  5
21DD
330
1F
100
AcDbEntity
  8
AM_0
 48
0.5
100
AcDbLine
 10
-168.9999999973128
 20
-6.0000020544811
 30
0.0
 11
-168.9999999973128
 21
5.999999999999737
 31
0.0
  0
DIMENSION
  5
2216
330
1F
100
AcDbEntity
  8
AM_5
100
AcDbDimension
  2
*D8
 10
-185.0000009973128
 20
-6.500002054481099
 30
0.0
 11
-188.4000009973128
 21
-0.0000010272409645
 31
0.0
 70
    32
  1
%%c<>
 51
359.9999999999998
  3
AM_JIS$0
100
AcDbAlignedDimension
 13
-168.4999999973133
 23
6.499999999999223
 33
0.0
 14
-168.4999999973128
 24
-6.500002054481103
 34
0.0
 50
269.9999999999999
100
AcDbRotatedDimension
1001
ACAD
1000
DSTYLE
1002
{
1070
   271
1070
     0
1002
}
1001
GENIUS_GENDTOL_13
1000

1000
h7
1000

1040
0.0
  0
ELLIPSE
  5
2694
330
1F
100
AcDbEntity
  8
AM_0
 48
0.5
100
AcDbEllipse
 10
7.708790705112372
 20
6.738403143387845
 30
0.0
 11
9.706495919543959
 21
0.0000000000009575
 31
0.0
210
0.0
220
0.0
230
1.0
 40
0.9899999999999973
 41
3.323896559076802
 42
3.661579236128986
  0
LINE
  5
2695
330
1F
100
AcDbEntity
  8
AM_0
 48
0.5
100
AcDbLine
 10
-1.836862647315818
 20
4.996270538370899
 30
0.0
 11
-1.999999997312861
 21
6.149999463406714
 31
0.0
  0
LINE
  5
2696
330
1F
100
AcDbEntity
  8
AM_0
 48
0.5
100
AcDbLine
 10
0.0000000026871589
 20
0.0000000000000001
 30
0.0
 11
-0.714757332516264
 21
1.963779655178785
 31
0.0
  0
ELLIPSE
  5
2697
330
1F
100
AcDbEntity
  8
AM_0
 48
0.5
100
AcDbEllipse
 10
7.708790705112502
 20
-6.738406538684553
 30
0.0
 11
-9.706495919543957
 21
0.0000000000014037
 31
0.0
210
0.0
220
0.0
230
1.0
 40
0.989999999999997
 41
-0.5199833380394914
 42
-0.1823047399519406
  0
LINE
  5
2698
330
1F
100
AcDbEntity
  8
AM_0
 48
0.5
100
AcDbLine
 10
-1.836855646704053
 20
-4.996239280637549
 30
0.0
 11
-1.999999997312869
 21
-6.150000536593019
 31
0.0
  0
LINE
  5
2699
330
1F
100
AcDbEntity
  8
AM_0
 48
0.5
100
AcDbLine
 10
0.0000000026871021
 20
0.0
 30
0.0
 11
-0.7147729802135493
 21
-1.963810107397344
 31
0.0
  0
LINE
  5
2CB4
330
1F
100
AcDbEntity
  8
AM_0
 48
0.5
100
AcDbLine
 10
-168.9999999973128
 20
5.999999999999726
 30
0.0
 11
-168.4999999973128
 21
6.499999999999726
 31
0.0
1001
GENIUS_GENFIL_13
1070
     0
1040
0.5
1040
0.5
1040
20.0
1040
0.0
1002
{
1002
}
1001
GENIUS_GENODEF_13
1002
{
1000
HIER
1070
     0
1002
}
1002
{
1000
MANEDIT
1070
     0
1002
}
1002
{
1000
NOSEL
1070
     0
1002
}
1002
{
1000
BEHIND
1070
     0
1002
}
1002
{
1000
REACTOR
1002
}
1001
GENIUS_GENOBJ-N-CHA_13
1002
{
1000
OWNER
1000
GEN
1002
}
  0
LINE
  5
2CB7
330
1F
100
AcDbEntity
  8
AM_0
 48
0.5
100
AcDbLine
 10
-168.4999999973128
 20
-6.500002054481103
 30
0.0
 11
-168.9999999973128
 21
-6.000002054481103
 31
0.0
1001
GENIUS_GENFIL_13
1070
     0
1040
0.5
1040
0.5
1040
20.0
1040
0.0
1002
{
1002
}
1001
GENIUS_GENODEF_13
1002
{
1000
HIER
1070
     0
1002
}
1002
{
1000
MANEDIT
1070
     0
1002
}
1002
{
1000
NOSEL
1070
     0
1002
}
1002
{
1000
BEHIND
1070
     0
1002
}
1002
{
1000
REACTOR
1002
}
1001
GENIUS_GENOBJ-N-CHA_13
1002
{
1000
OWNER
1000
GEN
1002
}
  0
LINE
  5
310C
330
1F
100
AcDbEntity
  8
AM_0
100
AcDbLine
 10
-99.79486288360304
 20
-6.150000536592131
 30
0.0
 11
-105.3937795856027
 21
-6.150000536592103
 31
0.0
  0
LINE
  5
310D
330
1F
100
AcDbEntity
  8
AM_11
 48
0.5
100
AcDbLine
 10
-99.79486288360304
 20
-6.150000536592131
 30
0.0
 11
-84.58569315757593
 21
-6.150000536592326
 31
0.0
  0
SPLINE
  5
310E
330
1F
100
AcDbEntity
  8
AM_0
100
AcDbSpline
210
0.0
220
0.0
230
1.0
 70
     8
 71
     3
 72
    13
 73
     9
 74
     0
 42
0.0000000001
 43
0.0000000001
 40
16.03460056234195
 40
16.03460056234195
 40
16.03460056234195
 40
16.03460056234195
 40
16.35212717791071
 40
17.38177067057215
 40
18.41822498539278
 40
19.46214186516937
 40
20.5139635832251
 40
21.34083983469381
 40
21.34083983469381
 40
21.34083983469381
 40
21.34083983469381
 10
-101.6736712445749
 20
-6.150000536592127
 30
0.0
 10
-99.97900364683943
 20
-6.111538289735022
 30
0.0
 10
-99.5289972308613
 20
-6.039391934911066
 30
0.0
 10
-98.73630717092176
 20
-5.862245873342322
 30
0.0
 10
-97.70977077939265
 20
-5.598835422803543
 30
0.0
 10
-96.68418804719983
 20
-5.303068375036619
 30
0.0
 10
-95.73518663470897
 20
-5.00076790634175
 30
0.0
 10
-95.12974044536417
 20
-4.792612520037567
 30
0.0
 10
-94.27748049265874
 20
-4.553829754143267
 30
0.0
  0
ELLIPSE
  5
310F
330
1F
100
AcDbEntity
  8
AM_0
 48
0.5
100
AcDbEllipse
 10
-101.458412383102
 20
-4.100000536592159
 30
0.0
 11
-1.484278670648078
 21
1.538346997087741
 31
0.0
210
0.0
220
0.0
230
1.0
 40
0.9201136051649585
 41
0.8574984649699587
 42
2.332463800334445
  0
SPLINE
  5
3110
330
1F
100
AcDbEntity
  8
AM_0
 48
0.5
100
AcDbSpline
210
0.0
220
0.0
230
1.0
 70
     8
 71
     3
 72
    26
 73
    22
 74
     0
 42
0.0000000001
 43
0.0000000001
 40
0.0
 40
0.0
 40
0.0
 40
0.0
 40
0.6738291229976858
 40
1.34855571764586
 40
2.025052638331105
 40
2.7041418300023
 40
3.386571335776987
 40
4.073000160460178
 40
4.763974215119558
 40
5.459920313469455
 40
6.161135349283505
 40
6.867779534345081
 40
7.579884616450838
 40
8.297322010138517
 40
9.01989019369366
 40
9.747205405079087
 40
10.47881203259601
 40
11.21414938923388
 40
11.95257396527625
 40
12.69337415957888
 40
13.41285713964268
 40
13.41285713964268
 40
13.41285713964268
 40
13.41285713964268
 10
-81.69278971364684
 20
-6.150000536592364
 30
0.0
 10
-82.0371217930184
 20
-6.14634143574467
 30
0.0
 10
-82.72624456696387
 20
-6.139018360500235
 30
0.0
 10
-83.75967794222162
 20
-6.079986147876264
 30
0.0
 10
-84.79306720710491
 20
-5.986140363699591
 30
0.0
 10
-85.82639250402676
 20
-5.854611880737699
 30
0.0
 10
-86.85964357587176
 20
-5.687183368900309
 30
0.0
 10
-87.89279983627052
 20
-5.484598576688835
 30
0.0
 10
-88.92586059790998
 20
-5.248226245562856
 30
0.0
 10
-89.95881881533861
 20
-4.97950198201501
 30
0.0
 10
-90.99167204654316
 20
-4.680093175201803
 30
0.0
 10
-92.02442879194434
 20
-4.351863370440691
 30
0.0
 10
-93.05708477213537
 20
-3.996839280976459
 30
0.0
 10
-94.08965168739944
 20
-3.617198712610484
 30
0.0
 10
-95.12214334386781
 20
-3.215320449401424
 30
0.0
 10
-96.15456197236708
 20
-2.793642388459301
 30
0.0
 10
-97.18691526903537
 20
-2.354784319052953
 30
0.0
 10
-98.33976492636345
 20
-2.023989077150587
 30
0.0
 10
-99.55640870156948
 20
-1.642817273661993
 30
0.0
 10
-100.9052579208706
 20
-1.298928497343372
 30
0.0
 10
-102.1215278485572
 20
-0.871445600337463
 30
0.0
 10
-104.0645422894497
 20
-0.1900810425786539
 30
0.0
  0
LINE
  5
3111
330
1F
100
AcDbEntity
  8
AM_0
 48
0.5
100
AcDbLine
 10
-88.40235914065281
 20
3.215214455055779
 30
0.0
 11
-104.0645422894497
 21
-0.1900810425786539
 31
0.0
  0
LINE
  5
3112
330
1F
100
AcDbEntity
  8
AM_0
100
AcDbLine
 10
-98.16602595541926
 20
6.149999463407842
 30
0.0
 11
-105.3937812852594
 21
6.14999946340788
 31
0.0
  0
LINE
  5
3113
330
1F
100
AcDbEntity
  8
AM_0
 48
0.5
100
AcDbLine
 10
-6.48485539850639
 20
6.149999463406766
 30
0.0
 11
-1.999999997312861
 21
6.149999463406714
 31
0.0
  0
LINE
  5
3114
330
1F
100
AcDbEntity
  8
AM_0
 48
0.5
100
AcDbLine
 10
0.0000000023582021
 20
0.0000000009038016
 30
0.0
 11
-3.957468224105793
 21
2.36141265615532
 31
0.0
  0
LINE
  5
3115
330
1F
100
AcDbEntity
  8
AM_0
 48
0.5
100
AcDbLine
 10
-6.484855398506553
 20
-6.150000536593233
 30
0.0
 11
-1.999999997312855
 21
-6.150000536593029
 31
0.0
  0
LINE
  5
3116
330
1F
100
AcDbEntity
  8
AM_11
 48
0.5
100
AcDbLine
 10
-25.95207905565006
 20
6.149999463407026
 30
0.0
 11
-6.48485539850639
 21
6.149999463406766
 31
0.0
  0
LINE
  5
3117
330
1F
100
AcDbEntity
  8
AM_11
 48
0.5
100
AcDbLine
 10
-25.95207905565024
 20
-6.150000536592974
 30
0.0
 11
-6.484855398506553
 21
-6.150000536593233
 31
0.0
  0
LINE
  5
3118
330
1F
100
AcDbEntity
  8
AM_11
 48
0.5
100
AcDbLine
 10
-62.74210344071477
 20
-6.150000536592615
 30
0.0
 11
-43.27487978357354
 21
-6.150874255703781
 31
0.0
  0
LINE
  5
3119
330
1F
100
AcDbEntity
  8
AM_11
 48
0.5
100
AcDbLine
 10
-60.21874589780921
 20
6.150873182518405
 30
0.0
 11
-47.79551010276121
 21
6.149999463407314
 31
0.0
  0
LINE
  5
311A
330
1F
100
AcDbEntity
  8
AM_0
 48
0.5
100
AcDbLine
 10
-47.79552686976645
 20
6.149999463407314
 30
0.0
 11
-25.95207905565006
 21
6.149999463407026
 31
0.0
  0
LINE
  5
311B
330
1F
100
AcDbEntity
  8
AM_0
 48
0.5
100
AcDbLine
 10
-43.27487978357353
 20
-6.150000536592873
 30
0.0
 11
-25.95207905565024
 21
-6.150000536592974
 31
0.0
  0
SPLINE
  5
311C
330
1F
100
AcDbEntity
  8
AM_0
100
AcDbSpline
210
0.0
220
0.0
230
1.0
 70
     8
 71
     3
 72
    23
 73
    19
 74
     0
 42
0.0000000001
 43
0.0000000001
 40
16.03460024169435
 40
16.03460024169435
 40
16.03460024169435
 40
16.03460024169435
 40
16.35212704903564
 40
17.38177054169784
 40
18.41822485651776
 40
19.46214173629503
 40
20.51396345435107
 40
21.57393551351153
 40
22.64208202342361
 40
23.7182574881101
 40
24.80209208578934
 40
25.89306333925047
 40
26.99048218457928
 40
28.09348763352352
 40
29.20111863782268
 40
30.31232390128032
 40
31.42594612798585
 40
32.5407912310448
 40
32.5407912310486
 40
32.5407912310486
 40
32.5407912310486
 10
-60.21874589780921
 20
6.150873182518407
 30
0.0
 10
-60.11257331883412
 20
6.13011186553104
 30
0.0
 10
-59.66256727522676
 20
6.039702173451666
 30
0.0
 10
-58.8698767831794
 20
5.862558180080621
 30
0.0
 10
-57.84334052083526
 20
5.59914699916572
 30
0.0
 10
-56.81775775365654
 20
5.303380149197
 30
0.0
 10
-55.79306787913966
 20
4.976969377845265
 30
0.0
 10
-54.76923452922509
 20
4.621734432468165
 30
0.0
 10
-53.74619852879895
 20
4.239705985820727
 30
0.0
 10
-52.72388863752258
 20
3.833107347636041
 30
0.0
 10
-51.70224676407619
 20
3.404241062295939
 30
0.0
 10
-50.68119099972623
 20
2.955602602786728
 30
0.0
 10
-49.66063859932109
 20
2.489799649668583
 30
0.0
 10
-48.64052156636512
 20
2.009510374644821
 30
0.0
 10
-47.62075454890511
 20
1.517527594076766
 30
0.0
 10
-46.6012430949181
 20
1.016724126456277
 30
0.0
 10
-45.58190418739226
 20
0.5100019922654196
 30
0.0
 10
-44.90252744509169
 20
0.1702725085703773
 30
0.0
 10
-44.56265380371292
 20
0.0003122685816303
 30
0.0
  0
SPLINE
  5
311D
330
1F
100
AcDbEntity
  8
AM_0
100
AcDbSpline
210
0.0
220
0.0
230
1.0
 70
     8
 71
     3
 72
    11
 73
     7
 74
     0
 42
0.0000000001
 43
0.0000000001
 40
11.27226913003534
 40
11.27226913003534
 40
11.27226913003534
 40
11.2722691300354
 40
12.28301561507924
 40
13.29510212255852
 40
14.30984805882082
 40
15.18258238371378
 40
15.18258238371378
 40
15.18258238371378
 40
15.18258238371378
 10
-62.74210344071719
 20
-6.150000536592616
 30
0.0
 10
-63.08512619543779
 20
-6.119900649414281
 30
0.0
 10
-63.7705246987355
 20
-6.047030132556116
 30
0.0
 10
-64.79508318358774
 20
-5.900032275573589
 30
0.0
 10
-65.7674072514918
 20
-5.724459453094379
 30
0.0
 10
-66.39624938433439
 20
-5.589491399072212
 30
0.0
 10
-66.68603774541161
 20
-5.522820908337246
 30
0.0
  0
SPLINE
  5
311E
330
1F
100
AcDbEntity
  8
AM_0
100
AcDbSpline
210
0.0
220
0.0
230
1.0
 70
     8
 71
     3
 72
    17
 73
    13
 74
     0
 42
0.0000000001
 43
0.0000000001
 40
1.580019955310467
 40
1.580019955310467
 40
1.580019955310467
 40
1.580019955310467
 40
2.030549285115227
 40
3.082371838836284
 40
4.126290986361125
 40
5.162752068350215
 40
6.192395305374981
 40
7.216039564037012
 40
8.234688489606833
 40
9.249433870634691
 40
10.26152376260694
 40
11.27226744710342
 40
11.27226744710342
 40
11.27226744710342
 40
11.27226744710352
 10
-53.00773220158312
 20
-4.538881633123459
 30
0.0
 10
-53.15394577469915
 20
-4.58562833779719
 30
0.0
 10
-53.64234823113981
 20
-4.738846906280273
 30
0.0
 10
-54.47617234302454
 20
-4.979175713201495
 30
0.0
 10
-55.50898685693444
 20
-5.248312095156197
 30
0.0
 10
-56.54208570371305
 20
-5.484578104832192
 30
0.0
 10
-57.57523188672017
 20
-5.687180307867465
 30
0.0
 10
-58.60849062915229
 20
-5.854644966052888
 30
0.0
 10
-59.64182075646597
 20
-5.986016432425898
 30
0.0
 10
-60.67521522718513
 20
-6.080443375926973
 30
0.0
 10
-61.70864858114612
 20
-6.137317959354812
 30
0.0
 10
-62.39777136592976
 20
-6.150000571783244
 30
0.0
 10
-62.74210344071714
 20
-6.150000536592616
 30
0.0
  0
SPLINE
  5
311F
330
1F
100
AcDbEntity
  8
AM_0
 48
0.5
100
AcDbSpline
210
0.0
220
0.0
230
1.0
 70
     8
 71
     3
 72
    17
 73
    13
 74
     0
 42
0.0000000001
 43
0.0000000001
 40
0.0
 40
0.0
 40
0.0
 40
0.0
 40
1.010743614677189
 40
2.022833924044153
 40
3.037578959561199
 40
4.056212747067873
 40
5.079857613375832
 40
6.109500119648989
 40
7.14596120163808
 40
8.18989512056258
 40
9.241717674284874
 40
9.693948937866434
 40
9.693948937866434
 40
9.693948937866434
 40
9.693948937866434
 10
-6.484855398506389
 20
6.149999463406766
 30
0.0
 10
-6.829187540500863
 20
6.146342999325739
 30
0.0
 10
-7.518310605787515
 20
6.139025199363723
 30
0.0
 10
-8.551743111048063
 20
6.079976835537833
 30
0.0
 10
-9.585133070492229
 20
5.986140975061631
 30
0.0
 10
-10.61845876187537
 20
5.854612268359614
 30
0.0
 10
-11.65170787858788
 20
5.687174546600298
 30
0.0
 10
-12.68486780051318
 20
5.484604110985263
 30
0.0
 10
-13.71792466090873
 20
5.248204974400969
 30
0.0
 10
-14.75091854652752
 20
4.979568636717154
 30
0.0
 10
-15.58477814763417
 20
4.737567903947495
 30
0.0
 10
-16.07446939549275
 20
4.586282644738344
 30
0.0
 10
-16.22144843583965
 20
4.5399752396424
 30
0.0
  0
SPLINE
  5
3120
330
1F
100
AcDbEntity
  8
AM_0
 48
0.5
100
AcDbSpline
210
0.0
220
0.0
230
1.0
 70
     8
 71
     3
 72
    16
 73
    12
 74
     0
 42
0.0000000001
 43
0.0000000001
 40
0.0
 40
0.0
 40
0.0
 40
0.0
 40
1.010743614677189
 40
2.022833924044153
 40
3.037578959561199
 40
4.056212747067873
 40
5.079857613375832
 40
6.109500119648989
 40
7.14596120163808
 40
8.18989512056258
 40
8.545190612624931
 40
8.545190612624931
 40
8.545190612624931
 40
8.545190612624931
 10
-6.484855398506389
 20
6.149999463406766
 30
0.0
 10
-6.829168397875558
 20
6.149962507138791
 30
0.0
 10
-7.518319503852399
 20
6.137343245283972
 30
0.0
 10
-8.551740710379579
 20
6.080428996993471
 30
0.0
 10
-9.585133748831442
 20
5.986019278520765
 30
0.0
 10
-10.61845845967338
 20
5.854644764778974
 30
0.0
 10
-11.65170840854856
 20
5.687167032866045
 30
0.0
 10
-12.68486596868555
 20
5.484601373436615
 30
0.0
 10
-13.71793152291381
 20
5.248223700587433
 30
0.0
 10
-14.52118787239213
 20
5.03925410661245
 30
0.0
 10
-14.98031277841853
 20
4.910732632251649
 30
0.0
 10
-15.09674429042314
 20
4.877566732983654
 30
0.0
  0
SPLINE
  5
3121
330
1F
100
AcDbEntity
  8
AM_0
 48
0.5
100
AcDbSpline
210
0.0
220
0.0
230
1.0
 70
     8
 71
     3
 72
    25
 73
    21
 74
     0
 42
0.0000000001
 43
0.0000000001
 40
6.846175049578289
 40
6.846175049578289
 40
6.846175049578289
 40
6.846175049578289
 40
7.604337694224321
 40
8.711974558287883
 40
9.814980593243754
 40
10.91239053451967
 40
12.0033633515982
 40
13.08720139956839
 40
14.16337181880432
 40
15.23152222380919
 40
16.29148850140128
 40
17.34331105512262
 40
18.38723020264746
 40
19.42369128463655
 40
20.45333379090873
 40
21.47697865721768
 40
22.49561244472435
 40
23.5103574802404
 40
24.52244778960836
 40
25.53320666051913
 40
25.53320666051913
 40
25.53320666051913
 40
25.53320666051913
 10
-7.69009882407639
 20
1.113189726539439
 30
0.0
 10
-7.924859511503303
 20
1.221172788804709
 30
0.0
 10
-8.503087626154695
 20
1.485833025484142
 30
0.0
 10
-9.425642476499556
 20
1.901444870189492
 30
0.0
 10
-10.45794478418804
 20
2.354785194510169
 30
0.0
 10
-11.49029900703004
 20
2.793641420185711
 30
0.0
 10
-12.52271401487226
 20
3.215315212343504
 30
0.0
 10
-13.55520131136573
 20
3.617205055277138
 30
0.0
 10
-14.58777044377484
 20
3.996832534468696
 30
0.0
 10
-15.62042619235083
 20
4.351864564280367
 30
0.0
 10
-16.65318127676337
 20
4.680091667006387
 30
0.0
 10
-17.68603429853882
 20
4.979501141720873
 30
0.0
 10
-18.7189926764437
 20
5.248224676436491
 30
0.0
 10
-19.75205276512038
 20
5.484599183094071
 30
0.0
 10
-20.78521052891407
 20
5.687175855085836
 30
0.0
 10
-21.8184602187874
 20
5.85461192026722
 30
0.0
 10
-22.85178575779006
 20
5.986141068531036
 30
0.0
 10
-23.88517575762592
 20
6.079976807713557
 30
0.0
 10
-24.91861344326132
 20
6.139025514126811
 30
0.0
 10
-25.60774171283034
 20
6.146343085787801
 30
0.0
 10
-25.95207905565006
 20
6.149999463407026
 30
0.0
  0
SPLINE
  5
3122
330
1F
100
AcDbEntity
  8
AM_0
 48
0.5
100
AcDbSpline
210
0.0
220
0.0
230
1.0
 70
     8
 71
     3
 72
    10
 73
     6
 74
     0
 42
0.0000000001
 43
0.0000000001
 40
0.0
 40
0.0
 40
0.0
 40
0.0
 40
2.69986029516136
 40
4.147722969032201
 40
6.285750005020438
 40
6.285750005020438
 40
6.285750005020438
 40
6.285750005020438
 10
-7.68993360083146
 20
1.113116681424245
 30
0.0
 10
-6.954418202726405
 20
0.5417391830088415
 30
0.0
 10
-5.824465621007816
 20
-0.3360527451190926
 30
0.0
 10
-3.152279554505601
 20
0.0889017049048812
 30
0.0
 10
-3.65552991615178
 20
1.520204522428987
 30
0.0
 10
-3.988045601144312
 20
2.392627672650193
 30
0.0
  0
SPLINE
  5
3123
330
1F
100
AcDbEntity
  8
AM_0
100
AcDbSpline
210
0.0
220
0.0
230
1.0
 70
     8
 71
     3
 72
    46
 73
    42
 74
     0
 42
0.0000000001
 43
0.0000000001
 40
0.0
 40
0.0
 40
0.0
 40
0.0
 40
1.348332046947657
 40
2.024828967632895
 40
2.703918159304097
 40
3.386347665078124
 40
4.072776489761952
 40
4.763750544421347
 40
5.459696642770596
 40
6.160921452191754
 40
6.867565637253344
 40
7.579665907256596
 40
8.297112853413899
 40
9.019671552060676
 40
9.746986763446127
 40
10.47859339096366
 40
11.21393074760089
 40
11.95235532364328
 40
12.69315551794651
 40
13.43556823304427
 40
14.1787950170388
 40
14.92202180103393
 40
15.66443451613169
 40
16.40523471043432
 40
17.14365928647669
 40
17.87899664311455
 40
18.61060327063121
 40
19.3379184820169
 40
20.06048192311554
 40
20.77792886927283
 40
21.49002913927608
 40
22.19667332433747
 40
22.89788836015233
 40
23.59383445850158
 40
24.28480851316097
 40
24.97123685067576
 40
25.65366676154838
 40
26.33276604526152
 40
27.00926273560555
 40
27.68398960851751
 40
28.357818684969
 40
28.357818684969
 40
28.357818684969
 40
28.357818684969
 10
-3.59194415764507
 20
-6.150000536593274
 30
0.0
 10
-4.28110060094781
 20
-6.135990361192638
 30
0.0
 10
-5.316026628842196
 20
-6.114950878331547
 30
0.0
 10
-6.692212899432815
 20
-5.985414647514481
 30
0.0
 10
-7.725549307297648
 20
-5.854807668685996
 30
0.0
 10
-8.758797389498637
 20
-5.687130493540053
 30
0.0
 10
-9.791954424106535
 20
-5.484612786208741
 30
0.0
 10
-10.82501510359103
 20
-5.248222753862121
 30
0.0
 10
-11.85797769773072
 20
-4.979500327501425
 30
0.0
 10
-12.8908376094772
 20
-4.680095502603966
 30
0.0
 10
-13.92359690326971
 20
-4.35186529892608
 30
0.0
 10
-14.9562528012998
 20
-3.996833699154871
 30
0.0
 10
-15.98882189373693
 20
-3.617206104600315
 30
0.0
 10
-17.02130919907332
 20
-3.215316288515256
 30
0.0
 10
-18.0537242119927
 20
-2.793642505652104
 30
0.0
 10
-19.08607840534205
 20
-2.354786215126615
 30
0.0
 10
-20.11838082672582
 20
-1.901446142704304
 30
0.0
 10
-21.15064152305112
 20
-1.436410568468952
 30
0.0
 10
-22.18287143922406
 20
-0.9625415138879693
 30
0.0
 10
-23.2150800047323
 20
-0.4827529405462977
 30
0.0
 10
-24.2472798933131
 20
-0.0000005366906759
 30
0.0
 10
-25.27947978166713
 20
0.482751867751588
 30
0.0
 10
-26.31168834785555
 20
0.9625404393341945
 30
0.0
 10
-27.34391826154235
 20
1.436409500343778
 30
0.0
 10
-28.37617896708635
 20
1.901445050737775
 30
0.0
 10
-29.40848135428809
 20
2.35478521156144
 30
0.0
 10
-30.44083567422508
 20
2.793641174705592
 30
0.0
 10
-31.47325246332494
 20
3.215317085256177
 30
0.0
 10
-32.5057437804089
 20
3.617203249968531
 30
0.0
 10
-33.53831471479105
 20
3.996832791123385
 30
0.0
 10
-34.57097058877794
 20
4.351864496535384
 30
0.0
 10
-35.60372564011263
 20
4.680091684058196
 30
0.0
 10
-36.6365786701259
 20
4.979501140494679
 30
0.0
 10
-37.66953704778156
 20
5.248224664615894
 30
0.0
 10
-38.70259712938479
 20
5.48459923108557
 30
0.0
 10
-39.73575492144021
 20
5.68717567653244
 30
0.0
 10
-40.76900959791017
 20
5.854613406522203
 30
0.0
 10
-41.80234068125447
 20
5.986139834150662
 30
0.0
 10
-42.83573569629004
 20
6.079977014592217
 30
0.0
 10
-43.86916822279595
 20
6.139025154718968
 30
0.0
 10
-44.55829128525559
 20
6.14634298445112
 30
0.0
 10
-44.90262342583737
 20
6.149999463407276
 30
0.0
  0
SPLINE
  5
3124
330
1F
100
AcDbEntity
  8
AM_0
100
AcDbSpline
210
0.0
220
0.0
230
1.0
 70
     8
 71
     3
 72
    55
 73
    51
 74
     0
 42
0.0000000001
 43
0.0000000001
 40
0.0
 40
0.0
 40
0.0
 40
0.0
 40
1.010743684496582
 40
2.022833576467832
 40
3.037578957496688
 40
4.056212745003489
 40
5.079857003664532
 40
6.109500240690281
 40
7.145961322679372
 40
8.189895241603872
 40
9.241717795325891
 40
10.30168407291828
 40
11.36983447792315
 40
12.44600489715814
 40
13.52984294512926
 40
14.62081576220742
 40
15.7182257034828
 40
16.82123173843959
 40
17.92886860250316
 40
19.0400688939571
 40
20.15368796660465
 40
21.26852814259644
 40
22.38336992938901
 40
23.49698739941135
 40
24.6081876908653
 40
25.71582455492886
 40
26.81883757994213
 40
27.91624752121713
 40
29.00722033829659
 40
30.09105838626677
 40
31.16722880550176
 40
32.23537921050758
 40
33.29534548809967
 40
34.347168041821
 40
35.39108718934584
 40
36.42754827133493
 40
37.45720575381954
 40
38.48085062012849
 40
39.49948440763516
 40
40.51422944315121
 40
41.52631975251916
 40
42.53706336719636
 40
43.54780698187354
 40
44.55989729124051
 40
45.57464232675757
 40
46.59327611426424
 40
47.6169209805722
 40
48.64656348684535
 40
49.68302456883444
 40
50.58557219878025
 40
50.58557219878025
 40
50.58557219878025
 40
50.58557219878025
 10
-6.484855398506553
 20
-6.150000536593233
 30
0.0
 10
-6.829187477836701
 20
-6.146341435586087
 30
0.0
 10
-7.518310251698941
 20
-6.139018360022559
 30
0.0
 10
-8.551743627579627
 20
-6.079986149796358
 30
0.0
 10
-9.585132890086011
 20
-5.98614035647046
 30
0.0
 10
-10.61845819594255
 20
-5.854611907899948
 30
0.0
 10
-11.65170923418934
 20
-5.687183266737047
 30
0.0
 10
-12.68486562109358
 20
-5.48459896146744
 30
0.0
 10
-13.71793081251757
 20
-5.24822367217858
 30
0.0
 10
-14.75089564726085
 20
-4.979504848045183
 30
0.0
 10
-15.7837530889503
 20
-4.680092406345872
 30
0.0
 10
-16.81650828580929
 20
-4.351865728026539
 30
0.0
 10
-17.84916400376218
 20
-3.996833582860239
 30
0.0
 10
-18.88173314501501
 20
-3.617206136134942
 30
0.0
 10
-19.91422043705392
 20
-3.215316279848368
 30
0.0
 10
-20.94663545386298
 20
-2.793642508491905
 30
0.0
 10
-21.97898964506439
 20
-2.354786212492388
 30
0.0
 10
-23.01129207114974
 20
-1.901446150432045
 30
0.0
 10
-24.04355275073168
 20
-1.43641054004618
 30
0.0
 10
-25.07578272943814
 20
-0.9625416202677302
 30
0.0
 10
-26.10799106090864
 20
-0.4827525424724314
 30
0.0
 10
-27.14019232152366
 20
-0.0000017914163611
 30
0.0
 10
-28.17238894841869
 20
0.4827576494540821
 30
0.0
 10
-29.20460073962652
 20
0.9625392556643689
 30
0.0
 10
-30.23682944403124
 20
1.436409609817061
 30
0.0
 10
-31.26909196412255
 20
1.901446991781324
 30
0.0
 10
-32.30139867269353
 20
2.354783184957974
 30
0.0
 10
-33.33375449322263
 20
2.793641706569527
 30
0.0
 10
-34.36616965907805
 20
3.215315135992036
 30
0.0
 10
-35.39865691354807
 20
3.617205076794536
 30
0.0
 10
-36.4312260574449
 20
3.996832524075151
 30
0.0
 10
-37.46388180170034
 20
4.351864584347912
 30
0.0
 10
-38.49663689196771
 20
4.680091597816878
 30
0.0
 10
-39.5294898948153
 20
4.979501395708166
 30
0.0
 10
-40.56244834186417
 20
5.248223739387722
 30
0.0
 10
-41.59551315007457
 20
5.484603781886281
 30
0.0
 10
-42.62867691406168
 20
5.687164949216059
 30
0.0
 10
-43.66193136587793
 20
5.854645413082783
 30
0.0
 10
-44.69525697805832
 20
5.986017951654236
 30
0.0
 10
-45.72864695859498
 20
6.080433636296556
 30
0.0
 10
-46.76207945824731
 20
6.137326065583227
 30
0.0
 10
-47.79553466695211
 20
6.156331943691405
 30
0.0
 10
-48.8289898741363
 20
6.137326065553452
 30
0.0
 10
-49.86242237835925
 20
6.080433636416138
 30
0.0
 10
-50.89581234206821
 20
5.986017951203757
 30
0.0
 10
-51.92913801733968
 20
5.854645414775824
 30
0.0
 10
-52.96238719466029
 20
5.687165759344363
 30
0.0
 10
-53.99554688837541
 20
5.484605852964849
 30
0.0
 10
-54.98164048168511
 20
5.258953896786097
 30
0.0
 10
-55.62142923497749
 20
5.09393248799265
 30
0.0
 10
-55.9182539269196
 20
5.013509505258486
 30
0.0
  0
SPLINE
  5
3125
330
1F
100
AcDbEntity
  8
AM_0
100
AcDbSpline
210
0.0
220
0.0
230
1.0
 70
     8
 71
     3
 72
    11
 73
     7
 74
     0
 42
0.0000000001
 43
0.0000000001
 40
11.27226913003534
 40
11.27226913003534
 40
11.27226913003534
 40
11.2722691300354
 40
12.28301561507924
 40
13.29510212255852
 40
14.30984805882082
 40
15.18258238371378
 40
15.18258238371378
 40
15.18258238371378
 40
15.18258238371378
 10
-25.9520790556502
 20
-6.150000536592974
 30
0.0
 10
-26.29510181037081
 20
-6.119900649414641
 30
0.0
 10
-26.98050031366853
 20
-6.047030132556477
 30
0.0
 10
-28.00505879852077
 20
-5.90003227557395
 30
0.0
 10
-28.97738286642482
 20
-5.724459453094738
 30
0.0
 10
-29.60622499926741
 20
-5.589491399072573
 30
0.0
 10
-29.89601336034463
 20
-5.522820908337608
 30
0.0
  0
SPLINE
  5
3126
330
1F
100
AcDbEntity
  8
AM_0
100
AcDbSpline
210
0.0
220
0.0
230
1.0
 70
     8
 71
     3
 72
    22
 73
    18
 74
     0
 42
0.0000000001
 43
0.0000000001
 40
17.17441611292
 40
17.17441611292
 40
17.17441611292
 40
17.17441611292
 40
17.38177636558528
 40
18.41823744757437
 40
19.46215659509824
 40
20.51397914882054
 40
21.57394542641293
 40
22.64209583141747
 40
23.71826625065247
 40
24.80210429862395
 40
25.8930771157021
 40
26.99048705697709
 40
28.09349309193389
 40
29.20112995599786
 40
30.31233024745139
 40
31.42594771747373
 40
32.5407895042663
 40
32.54078950426994
 40
32.54078950426994
 40
32.54078950426994
 10
-29.89646531637985
 20
-5.522745048134635
 30
0.0
 10
-29.9656654870178
 20
-5.508508401337517
 30
0.0
 10
-30.38048271757801
 20
-5.421791429592433
 30
0.0
 10
-31.14040450910643
 20
-5.247912614778375
 30
0.0
 10
-32.1733628084482
 20
-4.979189499057401
 30
0.0
 10
-33.20621585150758
 20
-4.679779910797166
 30
0.0
 10
-34.23897093016913
 20
-4.351552838887124
 30
0.0
 10
-35.27162668023522
 20
-3.996520800567901
 30
0.0
 10
-36.3041958125007
 20
-3.616893324272351
 30
0.0
 10
-37.33668310805088
 20
-3.215003478324376
 30
0.0
 10
-38.36909811984844
 20
-2.793329695382919
 30
0.0
 10
-39.40145232769379
 20
-2.354473435596103
 30
0.0
 10
-40.43375469179854
 20
-1.901133239376698
 30
0.0
 10
-41.46601560395498
 20
-1.436098132217132
 30
0.0
 10
-42.49824421425762
 20
-0.9622275536369702
 30
0.0
 10
-43.5304558142757
 20
-0.4824455412368855
 30
0.0
 10
-44.21846180710384
 20
-0.1606659227169952
 30
0.0
 10
-44.5626538037175
 20
0.00031226858384
 30
0.0
  0
SPLINE
  5
3127
330
1F
100
AcDbEntity
  8
AM_0
100
AcDbSpline
210
0.0
220
0.0
230
1.0
 70
     8
 71
     3
 72
    17
 73
    13
 74
     0
 42
0.0000000001
 43
0.0000000001
 40
1.580019955310467
 40
1.580019955310467
 40
1.580019955310467
 40
1.580019955310467
 40
2.030549285115227
 40
3.082371838836284
 40
4.126290986361125
 40
5.162752068350215
 40
6.192395305374981
 40
7.216039564037012
 40
8.234688489606833
 40
9.249433870634691
 40
10.26152376260694
 40
11.27226744710342
 40
11.27226744710342
 40
11.27226744710342
 40
11.27226744710352
 10
-16.21770781651611
 20
-4.538881633123819
 30
0.0
 10
-16.36392138963216
 20
-4.58562833779755
 30
0.0
 10
-16.85232384607282
 20
-4.738846906280635
 30
0.0
 10
-17.68614795795756
 20
-4.979175713201857
 30
0.0
 10
-18.71896247186746
 20
-5.248312095156555
 30
0.0
 10
-19.75206131864607
 20
-5.484578104832553
 30
0.0
 10
-20.78520750165318
 20
-5.687180307867824
 30
0.0
 10
-21.81846624408532
 20
-5.854644966053247
 30
0.0
 10
-22.85179637139901
 20
-5.98601643242626
 30
0.0
 10
-23.88519084211816
 20
-6.080443375927337
 30
0.0
 10
-24.91862419607915
 20
-6.137317959355174
 30
0.0
 10
-25.60774698086277
 20
-6.150000571783606
 30
0.0
 10
-25.95207905565015
 20
-6.150000536592974
 30
0.0
  0
ELLIPSE
  5
3128
330
1F
100
AcDbEntity
  8
AM_0
 48
0.5
100
AcDbEllipse
 10
3.604752156281508
 20
-9.719052226138069
 30
0.0
 11
-0.0008127476480792
 21
10.38687520929354
 31
0.0
210
0.0
220
0.0
230
0.9999999999999998
 40
0.9837385901000372
 41
0.3604668524516303
 42
0.6210096583471283
  0
ELLIPSE
  5
3129
330
1F
100
AcDbEntity
  8
AM_0
 48
0.5
100
AcDbEllipse
 10
-11.55835018082473
 20
10.32192901357726
 30
0.0
 11
0.0000000000114604
 21
14.82830159664111
 31
0.0
210
0.0
220
0.0
230
1.0
 40
0.997033618984828
 41
3.65217597881896
 42
3.740670756498458
  0
ELLIPSE
  5
312A
330
1F
100
AcDbEntity
  8
AM_0
 48
0.5
100
AcDbEllipse
 10
2.970343585382737
 20
7.383452832547237
 30
0.0
 11
-0.0000000000039352
 21
12.39498524665813
 31
0.0
210
0.0
220
0.0
230
1.0
 40
0.997033618984839
 41
2.101163880028661
 42
2.509284810223555
  0
ELLIPSE
  5
312B
330
1F
100
AcDbEntity
  8
AM_0
 48
0.5
100
AcDbEllipse
 10
-2.770880445808275
 20
-1.602779066714538
 30
0.0
 11
-0.8846047801315396
 21
0.5132623935184208
 31
0.0
210
0.0
220
0.0
230
1.0
 40
0.500740484320952
 41
4.485555960342949
 42
7.628996301672458
  0
ELLIPSE
  5
312C
330
1F
100
AcDbEntity
  8
AM_0
 48
0.5
100
AcDbEllipse
 10
-2.770880445808275
 20
-1.602779066714538
 30
0.0
 11
-0.1771188157434247
 21
1.009486000066641
 31
0.0
210
0.0
220
0.0
230
0.9999999999999998
 40
0.4986038296209426
 41
1.806536554388702
 42
4.941878444100677
  0
ELLIPSE
  5
312D
330
1F
100
AcDbEntity
  8
AM_0
 48
0.5
100
AcDbEllipse
 10
5.398105462287443
 20
-1.367060816439202
 30
0.0
 11
9.72764927497605
 21
1.278802522873781
 31
0.0
210
0.0
220
0.0
230
1.0
 40
0.658378716588218
 41
3.136801747019466
 42
3.766285851922725
  0
LINE
  5
312E
330
1F
100
AcDbEntity
  8
AM_11
 48
0.5
100
AcDbLine
 10
-98.16602595541926
 20
6.149999463407842
 30
0.0
 11
-84.58569315757578
 21
6.149999463407675
 31
0.0
  0
SPLINE
  5
312F
330
1F
100
AcDbEntity
  8
AM_0
100
AcDbSpline
210
0.0
220
0.0
230
1.0
 70
     8
 71
     3
 72
    23
 73
    19
 74
     0
 42
0.0000000001
 43
0.0000000001
 40
16.03460024169435
 40
16.03460024169435
 40
16.03460024169435
 40
16.03460024169435
 40
16.35212704903564
 40
17.38177054169784
 40
18.41822485651776
 40
19.46214173629503
 40
20.51396345435107
 40
21.57393551351153
 40
22.64208202342361
 40
23.7182574881101
 40
24.80209208578934
 40
25.89306333925047
 40
26.99048218457928
 40
28.09348763352352
 40
29.20111863782268
 40
30.31232390128032
 40
31.42594612798585
 40
32.5407912310448
 40
32.5407912310486
 40
32.5407912310486
 40
32.5407912310486
 10
-98.16602595541926
 20
6.149999463407842
 30
0.0
 10
-98.16602595541926
 20
6.149999463407842
 30
0.0
 10
-96.41109540879517
 20
5.997375785256714
 30
0.0
 10
-95.66004307098872
 20
5.862558180080977
 30
0.0
 10
-94.63350680864456
 20
5.599146999166078
 30
0.0
 10
-93.60792404146586
 20
5.303380149197356
 30
0.0
 10
-92.58323416694896
 20
4.97696937784562
 30
0.0
 10
-91.55940081703439
 20
4.621734432468521
 30
0.0
 10
-90.53636481660827
 20
4.239705985821085
 30
0.0
 10
-89.51405492533188
 20
3.833107347636397
 30
0.0
 10
-88.49241305188547
 20
3.404241062296295
 30
0.0
 10
-87.47135728753553
 20
2.955602602787086
 30
0.0
 10
-86.45080488713041
 20
2.489799649668941
 30
0.0
 10
-85.43068785417448
 20
2.009510374645178
 30
0.0
 10
-84.41092083671446
 20
1.517527594077122
 30
0.0
 10
-83.39140938272741
 20
1.016724126456633
 30
0.0
 10
-82.37207047520156
 20
0.5100019922657762
 30
0.0
 10
-81.692693732901
 20
0.170272508570734
 30
0.0
 10
-81.35282009152223
 20
0.000312268581987
 30
0.0
  0
SPLINE
  5
3130
330
1F
100
AcDbEntity
  8
AM_0
 48
0.5
100
AcDbSpline
210
0.0
220
0.0
230
1.0
 70
     8
 71
     3
 72
    22
 73
    18
 74
     0
 42
0.0000000001
 43
0.0000000001
 40
0.0
 40
0.0
 40
0.0
 40
0.0
 40
1.010743684496582
 40
2.022833993863546
 40
3.037578683882831
 40
4.056212471389632
 40
5.079857945358201
 40
6.109499720892564
 40
7.145961650132166
 40
8.189873411961459
 40
9.241710626092514
 40
10.30166235592959
 40
11.36982472628033
 40
12.44598212828784
 40
13.52983440361964
 40
14.62080578343036
 40
14.90544694398022
 40
14.90544694398022
 40
14.90544694398022
 40
14.90544694398022
 10
-84.58570095450831
 20
-6.150000536592327
 30
0.0
 10
-84.93003309963439
 20
-6.146342528749025
 30
0.0
 10
-85.61915614737129
 20
-6.139021639458593
 30
0.0
 10
-86.6525884404079
 20
-6.079972985130747
 30
0.0
 10
-87.68597882115075
 20
-5.986142991078278
 30
0.0
 10
-88.71930467646253
 20
-5.854614421257556
 30
0.0
 10
-89.75255290047726
 20
-5.687170159730865
 30
0.0
 10
-90.78571271404022
 20
-5.484602883402303
 30
0.0
 10
-91.81876897769326
 20
-5.248221962748796
 30
0.0
 10
-92.85172879509163
 20
-4.979493808624532
 30
0.0
 10
-93.88458286291202
 20
-4.680096314698608
 30
0.0
 10
-94.91733657874823
 20
-4.351851647844217
 30
0.0
 10
-95.94999660006717
 20
-3.996848578951848
 30
0.0
 10
-96.98256215121993
 20
-3.617197586237645
 30
0.0
 10
-98.0150525761058
 20
-3.215317218413463
 30
0.0
 10
-98.7910412854095
 20
-2.89839106653651
 30
0.0
 10
-99.22344927342333
 20
-2.717246265440745
 30
0.0
 10
-101.0361845794031
 20
-2.194426628272893
 30
0.0
  0
ELLIPSE
  5
3131
330
1F
100
AcDbEntity
  8
AM_0
 48
0.5
100
AcDbEllipse
 10
-101.8099026473727
 20
-3.946309357633984
 30
0.0
 11
1.242574100518015
 21
1.516389676469817
 31
0.0
210
0.0
220
0.0
230
0.9999999999999998
 40
0.773717815611906
 41
0.3442428526850669
 42
2.236188708525175
  0
SPLINE
  5
3132
330
1F
100
AcDbEntity
  8
AM_0
100
AcDbSpline
210
0.0
220
0.0
230
1.0
 70
     8
 71
     3
 72
    22
 73
    18
 74
     0
 42
0.0000000001
 43
0.0000000001
 40
17.17441611292
 40
17.17441611292
 40
17.17441611292
 40
17.17441611292
 40
17.38177636558528
 40
18.41823744757437
 40
19.46215659509824
 40
20.51397914882054
 40
21.57394542641293
 40
22.64209583141747
 40
23.71826625065247
 40
24.80210429862395
 40
25.8930771157021
 40
26.99048705697709
 40
28.09349309193389
 40
29.20112995599786
 40
30.31233024745139
 40
31.42594771747373
 40
32.5407895042663
 40
32.54078950426994
 40
32.54078950426994
 40
32.54078950426994
 10
-66.68648970144683
 20
-5.522745048134272
 30
0.0
 10
-66.75568987208477
 20
-5.508508401337158
 30
0.0
 10
-67.170507102645
 20
-5.421791429592071
 30
0.0
 10
-67.93042889417343
 20
-5.247912614778014
 30
0.0
 10
-68.9633871935152
 20
-4.97918949905704
 30
0.0
 10
-69.99624023657457
 20
-4.679779910796805
 30
0.0
 10
-71.02899531523611
 20
-4.351552838886764
 30
0.0
 10
-72.06165106530223
 20
-3.99652080056754
 30
0.0
 10
-73.0942201975677
 20
-3.61689332427199
 30
0.0
 10
-74.12670749311789
 20
-3.215003478324014
 30
0.0
 10
-75.15912250491547
 20
-2.793329695382559
 30
0.0
 10
-76.19147671276078
 20
-2.354473435595743
 30
0.0
 10
-77.22377907686549
 20
-1.901133239376337
 30
0.0
 10
-78.25603998902193
 20
-1.436098132216772
 30
0.0
 10
-79.28826859932462
 20
-0.9622275536366096
 30
0.0
 10
-80.3204801993427
 20
-0.4824455412365248
 30
0.0
 10
-81.00848619217085
 20
-0.1606659227166346
 30
0.0
 10
-81.3526781887845
 20
0.0003122685842005
 30
0.0
  0
SPLINE
  5
3133
330
1F
100
AcDbEntity
  8
AM_0
100
AcDbSpline
210
0.0
220
0.0
230
1.0
 70
     8
 71
     3
 72
    46
 73
    42
 74
     0
 42
0.0000000001
 43
0.0000000001
 40
0.0
 40
0.0
 40
0.0
 40
0.0
 40
1.348332046947654
 40
2.024828967632893
 40
2.703918159304094
 40
3.386347665078122
 40
4.072776489761951
 40
4.763750544421345
 40
5.459696642770595
 40
6.160921452191748
 40
6.867565637253344
 40
7.579665907256597
 40
8.297112853413899
 40
9.019671552060666
 40
9.746986763446125
 40
10.47859339096365
 40
11.21393074760088
 40
11.95235532364327
 40
12.69315551794651
 40
13.43556823304427
 40
14.1787950170388
 40
14.92202180103393
 40
15.66443451613169
 40
16.40523471043432
 40
17.14365928647669
 40
17.87899664311455
 40
18.61060327063121
 40
19.33791848201689
 40
20.06048192311554
 40
20.77792886927282
 40
21.49002913927608
 40
22.19667332433747
 40
22.89788836015233
 40
23.59383445850157
 40
24.28480851316097
 40
24.97123685067575
 40
25.65366676154837
 40
26.33276604526151
 40
27.00926273560554
 40
27.68398960851752
 40
28.35781868496899
 40
28.35781868496899
 40
28.35781868496899
 40
28.35781868496899
 10
-40.38196854271205
 20
-6.150000536592912
 30
0.0
 10
-41.07112498601479
 20
-6.13599036119228
 30
0.0
 10
-42.10605101390918
 20
-6.114950878331185
 30
0.0
 10
-43.48223728449979
 20
-5.98541464751412
 30
0.0
 10
-44.51557369236463
 20
-5.854807668685638
 30
0.0
 10
-45.54882177456562
 20
-5.68713049353969
 30
0.0
 10
-46.58197880917353
 20
-5.484612786208382
 30
0.0
 10
-47.61503948865803
 20
-5.248222753861759
 30
0.0
 10
-48.64800208279768
 20
-4.979500327501065
 30
0.0
 10
-49.68086199454419
 20
-4.680095502603599
 30
0.0
 10
-50.71362128833672
 20
-4.35186529892572
 30
0.0
 10
-51.74627718636678
 20
-3.996833699154508
 30
0.0
 10
-52.77884627880394
 20
-3.617206104599958
 30
0.0
 10
-53.81133358414031
 20
-3.215316288514888
 30
0.0
 10
-54.84374859705971
 20
-2.793642505651754
 30
0.0
 10
-55.87610279040907
 20
-2.354786215126246
 30
0.0
 10
-56.90840521179278
 20
-1.90144614270395
 30
0.0
 10
-57.94066590811809
 20
-1.436410568468584
 30
0.0
 10
-58.97289582429102
 20
-0.9625415138876125
 30
0.0
 10
-60.00510438979929
 20
-0.4827529405459367
 30
0.0
 10
-61.0373042783801
 20
-0.0000005366903139
 30
0.0
 10
-62.06950416673413
 20
0.4827518677519472
 30
0.0
 10
-63.10171273292256
 20
0.9625404393345553
 30
0.0
 10
-64.13394264660936
 20
1.436409500344139
 30
0.0
 10
-65.16620335215336
 20
1.901445050738134
 30
0.0
 10
-66.1985057393551
 20
2.354785211561801
 30
0.0
 10
-67.23086005929204
 20
2.793641174705953
 30
0.0
 10
-68.26327684839191
 20
3.215317085256537
 30
0.0
 10
-69.29576816547587
 20
3.617203249968892
 30
0.0
 10
-70.32833909985803
 20
3.996832791123744
 30
0.0
 10
-71.36099497384494
 20
4.351864496535747
 30
0.0
 10
-72.39375002517961
 20
4.680091684058558
 30
0.0
 10
-73.42660305519292
 20
4.97950114049504
 30
0.0
 10
-74.45956143284859
 20
5.248224664616254
 30
0.0
 10
-75.4926215144518
 20
5.484599231085928
 30
0.0
 10
-76.52577930650721
 20
5.687175676532802
 30
0.0
 10
-77.55903398297717
 20
5.854613406522562
 30
0.0
 10
-78.59236506632147
 20
5.986139834151024
 30
0.0
 10
-79.62576008135705
 20
6.079977014592579
 30
0.0
 10
-80.65919260786298
 20
6.139025154719328
 30
0.0
 10
-81.34831567032261
 20
6.146342984451482
 30
0.0
 10
-81.69264781090438
 20
6.149999463407636
 30
0.0
  0
LINE
  5
3134
330
1F
100
AcDbEntity
  8
AM_0
100
AcDbLine
 10
-84.58569315757578
 20
6.149999463407675
 30
0.0
 11
-60.21874589780921
 21
6.150873182518405
 31
0.0
  0
LINE
  5
3135
330
1F
100
AcDbEntity
  8
AM_0
 48
0.5
100
AcDbLine
 10
-84.5857009545441
 20
-6.150000536592244
 30
0.0
 11
-62.74210057255473
 21
-6.150000536592465
 31
0.0
  0
SPLINE
  5
3136
330
1F
100
AcDbEntity
  8
AM_0
100
AcDbSpline
210
0.0
220
0.0
230
1.0
 70
     8
 71
     3
 72
    55
 73
    51
 74
     0
 42
0.0000000001
 43
0.0000000001
 40
0.0
 40
0.0
 40
0.0
 40
0.0
 40
1.010743684496582
 40
2.022833576467832
 40
3.037578957496688
 40
4.056212745003489
 40
5.079857003664532
 40
6.109500240690281
 40
7.145961322679372
 40
8.189895241603872
 40
9.241717795325891
 40
10.30168407291828
 40
11.36983447792315
 40
12.44600489715814
 40
13.52984294512926
 40
14.62081576220742
 40
15.7182257034828
 40
16.82123173843959
 40
17.92886860250316
 40
19.0400688939571
 40
20.15368796660465
 40
21.26852814259644
 40
22.38336992938901
 40
23.49698739941135
 40
24.6081876908653
 40
25.71582455492886
 40
26.81883757994213
 40
27.91624752121713
 40
29.00722033829659
 40
30.09105838626677
 40
31.16722880550176
 40
32.23537921050758
 40
33.29534548809967
 40
34.347168041821
 40
35.39108718934584
 40
36.42754827133493
 40
37.45720575381954
 40
38.48085062012849
 40
39.49948440763516
 40
40.51422944315121
 40
41.52631975251916
 40
42.53706336719636
 40
43.54780698187354
 40
44.55989729124051
 40
45.57464232675757
 40
46.59327611426424
 40
47.6169209805722
 40
48.64656348684535
 40
49.68302456883444
 40
50.58557219878025
 40
50.58557219878025
 40
50.58557219878025
 40
50.58557219878025
 10
-43.27487978357353
 20
-6.150000536592875
 30
0.0
 10
-43.61921186290369
 20
-6.146341435585726
 30
0.0
 10
-44.30833463676592
 20
-6.139018360022197
 30
0.0
 10
-45.34176801264661
 20
-6.079986149795996
 30
0.0
 10
-46.37515727515299
 20
-5.986140356470098
 30
0.0
 10
-47.40848258100955
 20
-5.854611907899588
 30
0.0
 10
-48.44173361925633
 20
-5.687183266736688
 30
0.0
 10
-49.47489000616058
 20
-5.48459896146708
 30
0.0
 10
-50.50795519758454
 20
-5.24822367217822
 30
0.0
 10
-51.54092003232782
 20
-4.979504848044822
 30
0.0
 10
-52.57377747401729
 20
-4.680092406345511
 30
0.0
 10
-53.60653267087628
 20
-4.351865728026178
 30
0.0
 10
-54.63918838882917
 20
-3.996833582859877
 30
0.0
 10
-55.67175753008199
 20
-3.617206136134582
 30
0.0
 10
-56.70424482212093
 20
-3.215316279848007
 30
0.0
 10
-57.73665983892998
 20
-2.793642508491545
 30
0.0
 10
-58.7690140301314
 20
-2.354786212492029
 30
0.0
 10
-59.80131645621671
 20
-1.901446150431685
 30
0.0
 10
-60.83357713579868
 20
-1.43641054004582
 30
0.0
 10
-61.86580711450513
 20
-0.9625416202673696
 30
0.0
 10
-62.89801544597563
 20
-0.4827525424720708
 30
0.0
 10
-63.93021670659067
 20
-0.0000017914160006
 30
0.0
 10
-64.96241333348567
 20
0.4827576494544427
 30
0.0
 10
-65.99462512469353
 20
0.9625392556647298
 30
0.0
 10
-67.02685382909826
 20
1.436409609817421
 30
0.0
 10
-68.05911634918956
 20
1.901446991781685
 30
0.0
 10
-69.09142305776054
 20
2.354783184958335
 30
0.0
 10
-70.12377887828958
 20
2.793641706569887
 30
0.0
 10
-71.15619404414501
 20
3.215315135992395
 30
0.0
 10
-72.18868129861506
 20
3.617205076794897
 30
0.0
 10
-73.22125044251189
 20
3.996832524075512
 30
0.0
 10
-74.25390618676734
 20
4.351864584348272
 30
0.0
 10
-75.2866612770347
 20
4.68009159781724
 30
0.0
 10
-76.31951427988228
 20
4.979501395708529
 30
0.0
 10
-77.35247272693117
 20
5.248223739388084
 30
0.0
 10
-78.38553753514158
 20
5.484603781886643
 30
0.0
 10
-79.4187012991287
 20
5.68716494921642
 30
0.0
 10
-80.45195575094494
 20
5.854645413083143
 30
0.0
 10
-81.48528136312535
 20
5.986017951654595
 30
0.0
 10
-82.51867134366198
 20
6.080433636296915
 30
0.0
 10
-83.55210384331432
 20
6.137326065583587
 30
0.0
 10
-84.5855590520191
 20
6.156331943691764
 30
0.0
 10
-85.6190142592033
 20
6.137326065553811
 30
0.0
 10
-86.65244676342625
 20
6.080433636416501
 30
0.0
 10
-87.68583672713523
 20
5.986017951204119
 30
0.0
 10
-88.7191624024067
 20
5.854645414776187
 30
0.0
 10
-89.7524115797273
 20
5.687165759344723
 30
0.0
 10
-90.78557127344238
 20
5.484605852965208
 30
0.0
 10
-91.7716648667521
 20
5.258953896786457
 30
0.0
 10
-92.41145362004447
 20
5.093932487993011
 30
0.0
 10
-92.7082783119866
 20
5.013509505258847
 30
0.0
  0
DIMENSION
  5
3230
330
1F
100
AcDbEntity
  8
AM_5
100
AcDbDimension
  2
*D9
 10
-0.7147729802135493
 20
-1.963810107397344
 30
0.0
 11
31.4992926918671
 21
-0.0000323212313415
 31
0.0
 70
    34
  1
<>
 51
359.9999999999998
  3
AM_JIS$2
100
AcDb2LineAngularDimension
 13
0.0000000026871589
 23
0.0000000000000001
 33
0.0
 14
-0.714757332516264
 24
1.963779655178785
 34
0.0
 15
0.0000000026871021
 25
0.0
 35
0.0
 16
31.76961844991731
 26
-13.70410151414895
 36
0.0
1001
GENIUS_GENDTOL_13
1000

1000
h7
1000

1040
0.0
1001
ACAD
1000
DSTYLE
1002
{
1070
   271
1070
     0
1002
}
  0
ELLIPSE
  5
3332
330
1F
100
AcDbEntity
  8
AM_11
 48
0.5
100
AcDbEllipse
 10
-169.2742953900259
 20
-25.83924271717626
 30
0.0
 11
-28.85782559712684
 21
0.0000000000017703
 31
0.0
210
0.0
220
0.0
230
1.0
 40
0.9900000000000011
 41
4.271664206181739
 42
4.702883776251653
  0
ELLIPSE
  5
3333
330
1F
100
AcDbEntity
  8
AM_11
 48
0.5
100
AcDbEllipse
 10
-120.0319263483119
 20
-25.839242717176
 30
0.0
 11
-28.85782559712684
 21
0.0000000000017703
 31
0.0
210
0.0
220
0.0
230
1.0
 40
0.9900000000000011
 41
4.271664206181739
 42
5.153113667165048
  0
ELLIPSE
  5
3334
330
1F
100
AcDbEntity
  8
AM_11
 48
0.5
100
AcDbEllipse
 10
-144.6531384695241
 20
-25.83924271717582
 30
0.0
 11
-28.85782559712679
 21
0.0000000000015012
 31
0.0
210
0.0
220
0.0
230
1.0
 40
0.9900000000000032
 41
4.271664206181728
 42
5.153113667165039
  0
ELLIPSE
  5
3335
330
1F
100
AcDbEntity
  8
AM_11
 48
0.5
100
AcDbEllipse
 10
-169.2742953900254
 20
25.83926089152711
 30
0.0
 11
-28.85782559712688
 21
0.0000000000010911
 31
0.0
210
0.0
220
0.0
230
1.0
 40
0.9899999999999995
 41
1.580301530928017
 42
2.011520147323624
  0
ELLIPSE
  5
3336
330
1F
100
AcDbEntity
  8
AM_11
 48
0.5
100
AcDbEllipse
 10
-120.0319263483115
 20
25.83926089152738
 30
0.0
 11
-28.85782559712688
 21
0.0000000000010911
 31
0.0
210
0.0
220
0.0
230
1.0
 40
0.9899999999999995
 41
1.130070686340335
 42
2.011520147323624
  0
ELLIPSE
  5
3337
330
1F
100
AcDbEntity
  8
AM_11
 48
0.5
100
AcDbEllipse
 10
-144.6531384695236
 20
25.83926089152757
 30
0.0
 11
-28.85782559712687
 21
0.0000000000002773
 31
0.0
210
0.0
220
0.0
230
1.0
 40
0.9900000000000002
 41
1.130070686340306
 42
2.011520147323597
  0
ELLIPSE
  5
3338
330
1F
100
AcDbEntity
  8
AM_11
 48
0.5
100
AcDbEllipse
 10
-95.41076942780957
 20
-25.83924271717586
 30
0.0
 11
-28.85782559712679
 21
0.0000000000015012
 31
0.0
210
0.0
220
0.0
230
1.0
 40
0.9900000000000032
 41
4.271664206181728
 42
5.153113667165039
  0
ELLIPSE
  5
3339
330
1F
100
AcDbEntity
  8
AM_11
 48
0.5
100
AcDbEllipse
 10
-95.41076942780915
 20
25.83926089152753
 30
0.0
 11
-28.85782559712687
 21
0.0000000000002773
 31
0.0
210
0.0
220
0.0
230
1.0
 40
0.9900000000000002
 41
1.130070686340306
 42
2.011520147323597
  0
ELLIPSE
  5
333A
330
1F
100
AcDbEntity
  8
AM_11
 48
0.5
100
AcDbEllipse
 10
-70.78955730659744
 20
-25.83924271717604
 30
0.0
 11
-28.85782559712684
 21
0.0000000000017703
 31
0.0
210
0.0
220
0.0
230
1.0
 40
0.9900000000000011
 41
4.271664206181739
 42
5.153113667165048
  0
ELLIPSE
  5
333B
330
1F
100
AcDbEntity
  8
AM_11
 48
0.5
100
AcDbEllipse
 10
-70.78955730659702
 20
25.83926089152734
 30
0.0
 11
-28.85782559712688
 21
0.0000000000010911
 31
0.0
210
0.0
220
0.0
230
1.0
 40
0.9899999999999995
 41
1.130070686340335
 42
2.011520147323624
  0
ELLIPSE
  5
333C
330
1F
100
AcDbEntity
  8
AM_11
 48
0.5
100
AcDbEllipse
 10
-46.16840038609576
 20
-25.8392427171754
 30
0.0
 11
-28.85782559712679
 21
0.0000000000015012
 31
0.0
210
0.0
220
0.0
230
1.0
 40
0.9900000000000032
 41
4.271664206181728
 42
5.153113667165039
  0
ELLIPSE
  5
333D
330
1F
100
AcDbEntity
  8
AM_11
 48
0.5
100
AcDbEllipse
 10
-46.16840038609535
 20
25.83926089152798
 30
0.0
 11
-28.85782559712687
 21
0.0000000000002773
 31
0.0
210
0.0
220
0.0
230
1.0
 40
0.9900000000000002
 41
1.130070686340306
 42
2.011520147323597
  0
ELLIPSE
  5
333E
330
1F
100
AcDbEntity
  8
AM_11
 48
0.5
100
AcDbEllipse
 10
-21.5471882648832
 20
25.83926089152779
 30
0.0
 11
-28.85782559712688
 21
0.0000000000010911
 31
0.0
210
0.0
220
0.0
230
1.0
 40
0.9899999999999995
 41
1.130070686340335
 42
2.011520147323624
  0
ELLIPSE
  5
333F
330
1F
100
AcDbEntity
  8
AM_11
 48
0.5
100
AcDbEllipse
 10
-21.54718826488366
 20
-25.83924271717558
 30
0.0
 11
-28.85782559712684
 21
0.0000000000017703
 31
0.0
210
0.0
220
0.0
230
1.0
 40
0.9900000000000011
 41
4.271664206181739
 42
5.153113667165048
  0
ELLIPSE
  5
3340
330
1F
100
AcDbEntity
  8
AM_11
 48
0.5
100
AcDbEllipse
 10
3.074023856328921
 20
25.83926089152758
 30
0.0
 11
-28.85782559712738
 21
0.0000000000269591
 31
0.0
210
0.0
220
0.0
230
1.0
 40
0.9899999999999861
 41
1.130070686341231
 42
1.291800737381917
  0
VIEWPORT
  5
110
330
101
100
AcDbEntity
 67
     1
  8
0
100
AcDbViewport
 10
420.5
 20
297.0
 30
0.0
 40
948.9782706766916
 41
628.452
 68
     1
 69
     1
1001
ACAD
1000
MVIEW
1002
{
1070
    16
1010
0.0
1020
0.0
1030
0.0
1010
0.0
1020
0.0
1030
1.0
1040
0.0
1040
628.452
1040
420.5
1040
297.0
1040
50.0
1040
0.0
1040
0.0
1070
     0
1070
   100
1070
     1
1070
     1
1070
     0
1070
     0
1070
     0
1070
     0
1040
0.0
1040
0.0
1040
0.0
1040
10.0
1040
10.0
1040
10.0
1040
10.0
1070
     0
1002
{
1002
}
1002
}
  0
ENDSEC
  0
SECTION
  2
OBJECTS
  0
DICTIONARY
  5
C
330
0
100
AcDbDictionary
  3
ACAD_GROUP
350
D
  3
ACAD_LAYOUT
350
1A
  3
ACAD_MLINESTYLE
350
17
  3
ACAD_PLOTSETTINGS
350
19
  3
ACAD_PLOTSTYLENAME
350
E
  3
ACDBVARIABLEDICTIONARY
350
34
  3
ACMDICTIONARY
350
43
  3
AMG
350
2B
  3
AMGSNAPSETTINGS
350
6E
  3
DWGPROPS
350
335A
  3
ACDBHEADERROUNDTRIPXREC
350
3367
  0
DICTIONARY
  5
74
330
1F
100
AcDbDictionary
280
     1
  3
ACAD_INDEX
360
335C
  3
ACAD_LAYOUTSELFREF
360
338A
  0
DICTIONARY
  5
338F
330
101
100
AcDbDictionary
280
     1
  3
ACAD_LAYOUTSELFREF
360
3390
  0
DICTIONARY
  5
D
102
{ACAD_REACTORS
330
C
102
}
330
C
100
AcDbDictionary
  0
DICTIONARY
  5
1A
102
{ACAD_REACTORS
330
C
102
}
330
C
100
AcDbDictionary
  0
DICTIONARY
  5
17
102
{ACAD_REACTORS
330
C
102
}
330
C
100
AcDbDictionary
  3
STANDARD
350
18
  0
DICTIONARY
  5
19
102
{ACAD_REACTORS
330
C
102
}
330
C
100
AcDbDictionary
  0
ACDBDICTIONARYWDFLT
  5
E
102
{ACAD_REACTORS
330
C
102
}
330
C
100
AcDbDictionary
281
     1
  3
Normal
350
F
100
AcDbDictionaryWithDefault
340
F
  0
DICTIONARY
  5
34
102
{ACAD_REACTORS
330
C
102
}
330
C
100
AcDbDictionary
  3
INDEXCTL
350
35
  3
SORTENTS
350
B5E
  0
DICTIONARY
  5
43
102
{ACAD_REACTORS
330
C
102
}
330
C
100
AcDbDictionary
  3
ACMSTDDICTIONARY
350
260
  0
DICTIONARY
  5
2B
102
{ACAD_REACTORS
330
C
102
}
330
C
100
AcDbDictionary
  3
ACMGSETTINGS
350
2C
  0
DICTIONARY
  5
6E
102
{ACAD_REACTORS
330
C
102
}
330
C
100
AcDbDictionary
  0
XRECORD
  5
335A
102
{ACAD_REACTORS
330
C
102
}
330
C
100
AcDbXrecord
  1
DWGPROPS COOKIE
  2

  3

  4

  6

  7

  8

  9

300
AmdtFileType=82
301
=
302
=
303
=
304
=
305
=
306
=
307
=
308
=
309
=
 40
0.062398912037037
 41
2452800.443498622
 42
2452948.658179062
  1

 90
        1
  0
DICTIONARY
  5
3367
102
{ACAD_REACTORS
330
C
102
}
330
C
100
AcDbDictionary
  3
TSTACKALIGN
350
3368
  3
TSTACKSIZE
350
3369
  3
HYPERLINKBASE
350
336A
  3
STYLESHEET
350
336B
  3
LAYOUTDICT
350
336C
  3
PLOTSETDICT
350
336D
  3
PLOTSTYLNAMDICT
350
336E
  3
LWETCUNION
350
336F
  3
INSUNITS
350
3370
  3
CEPSNTYPE
350
3371
  3
FINGERPRINTGUID
350
3372
  3
VERSIONGUID
350
3373
  3
PSVPSCALE
350
3374
  3
DIMSTYLEDATA
350
3375
  3
PUCSORTHOREF
350
3376
  3
PUCSORTHOVIEW
350
3377
  3
PUCSBASE
350
3378
  3
PUCSORGTOP
350
3379
  3
PUCSORGBOTTOM
350
337A
  3
PUCSORGLEFT
350
337B
  3
PUCSORGRIGHT
350
337C
  3
PUCSORGFRONT
350
337D
  3
PUCSORGBACK
350
337E
  3
UCSORTHOREF
350
337F
  3
UCSORTHOVIEW
350
3380
  3
UCSBASE
350
3381
  3
UCSORGTOP
350
3382
  3
UCSORGBOTTOM
350
3383
  3
UCSORGLEFT
350
3384
  3
UCSORGRIGHT
350
3385
  3
UCSORGFRONT
350
3386
  3
UCSORGBACK
350
3387
  0
DICTIONARY
  5
335C
102
{ACAD_REACTORS
330
74
102
}
330
74
100
AcDbDictionary
  3
*A1
350
335D
  0
XRECORD
  5
338A
102
{ACAD_REACTORS
330
74
102
}
330
74
100
AcDbXrecord
340
1F
  0
XRECORD
  5
3390
102
{ACAD_REACTORS
330
338F
102
}
330
338F
100
AcDbXrecord
340
101
  0
MLINESTYLE
  5
18
102
{ACAD_REACTORS
330
17
102
}
330
17
100
AcDbMlineStyle
  2
STANDARD
 70
     0
  3

 62
   256
 51
90.0
 52
90.0
 71
     2
 49
0.5
 62
   256
  6
BYLAYER
 49
-0.5
 62
   256
  6
BYLAYER
  0
ACDBPLACEHOLDER
  5
F
102
{ACAD_REACTORS
330
E
102
}
330
E
100
AcDbPlaceHolder
280
     0
  0
DICTIONARYVAR
  5
35
102
{ACAD_REACTORS
330
34
102
}
330
34
100
DictionaryVariables
280
     0
  1
1
  0
DICTIONARYVAR
  5
B5E
102
{ACAD_REACTORS
330
34
102
}
330
34
100
DictionaryVariables
280
     0
  1
96
  0
DICTIONARY
  5
260
102
{ACAD_REACTORS
330
43
102
}
330
43
100
AcDbDictionary
  0
DICTIONARY
  5
2C
102
{ACAD_REACTORS
330
2B
102
}
330
2B
100
AcDbDictionary
  3
DWGSETTINGS
350
2D
  0
XRECORD
  5
3368
102
{ACAD_REACTORS
330
3367
102
}
330
3367
100
AcDbXrecord
 90
        1
  0
XRECORD
  5
3369
102
{ACAD_REACTORS
330
3367
102
}
330
3367
100
AcDbXrecord
 90
       70
  0
XRECORD
  5
336A
102
{ACAD_REACTORS
330
3367
102
}
330
3367
100
AcDbXrecord
  1

  0
XRECORD
  5
336B
102
{ACAD_REACTORS
330
3367
102
}
330
3367
100
AcDbXrecord
  1
ASAMI.ctb
  0
XRECORD
  5
336C
102
{ACAD_REACTORS
330
3367
102
}
330
3367
100
AcDbXrecord
340
1A
  0
XRECORD
  5
336D
102
{ACAD_REACTORS
330
3367
102
}
330
3367
100
AcDbXrecord
340
19
  0
XRECORD
  5
336E
102
{ACAD_REACTORS
330
3367
102
}
330
3367
100
AcDbXrecord
340
E
  0
XRECORD
  5
336F
102
{ACAD_REACTORS
330
3367
102
}
330
3367
100
AcDbXrecord
 90
    10781
  0
XRECORD
  5
3370
102
{ACAD_REACTORS
330
3367
102
}
330
3367
100
AcDbXrecord
 90
        4
  0
XRECORD
  5
3371
102
{ACAD_REACTORS
330
3367
102
}
330
3367
100
AcDbXrecord
 90
        0
  0
XRECORD
  5
3372
102
{ACAD_REACTORS
330
3367
102
}
330
3367
100
AcDbXrecord
  1
{AFB28963-8C59-40AE-9337-C84526B81ACE}
  0
XRECORD
  5
3373
102
{ACAD_REACTORS
330
3367
102
}
330
3367
100
AcDbXrecord
  1
{C6E749B3-C7E3-4B1F-839D-F5E01B2E0CA4}
  0
XRECORD
  5
3374
102
{ACAD_REACTORS
330
3367
102
}
330
3367
100
AcDbXrecord
 40
0.0
  0
XRECORD
  5
3375
102
{ACAD_REACTORS
330
3367
102
}
330
3367
100
AcDbXrecord
1000
DSTYLE
1002
{
1070
    79
 70
     2
1070
   341
340
59
1070
   342
340
59
1070
   371
 70
    -1
1070
   372
 70
    -1
1002
}
  0
XRECORD
  5
3376
102
{ACAD_REACTORS
330
3367
102
}
330
3367
100
AcDbXrecord
340
0
  0
XRECORD
  5
3377
102
{ACAD_REACTORS
330
3367
102
}
330
3367
100
AcDbXrecord
 70
     0
  0
XRECORD
  5
3378
102
{ACAD_REACTORS
330
3367
102
}
330
3367
100
AcDbXrecord
340
0
  0
XRECORD
  5
3379
102
{ACAD_REACTORS
330
3367
102
}
330
3367
100
AcDbXrecord
 10
0.0
 20
0.0
 30
0.0
  0
XRECORD
  5
337A
102
{ACAD_REACTORS
330
3367
102
}
330
3367
100
AcDbXrecord
 10
0.0
 20
0.0
 30
0.0
  0
XRECORD
  5
337B
102
{ACAD_REACTORS
330
3367
102
}
330
3367
100
AcDbXrecord
 10
0.0
 20
0.0
 30
0.0
  0
XRECORD
  5
337C
102
{ACAD_REACTORS
330
3367
102
}
330
3367
100
AcDbXrecord
 10
0.0
 20
0.0
 30
0.0
  0
XRECORD
  5
337D
102
{ACAD_REACTORS
330
3367
102
}
330
3367
100
AcDbXrecord
 10
0.0
 20
0.0
 30
0.0
  0
XRECORD
  5
337E
102
{ACAD_REACTORS
330
3367
102
}
330
3367
100
AcDbXrecord
 10
0.0
 20
0.0
 30
0.0
  0
XRECORD
  5
337F
102
{ACAD_REACTORS
330
3367
102
}
330
3367
100
AcDbXrecord
340
0
  0
XRECORD
  5
3380
102
{ACAD_REACTORS
330
3367
102
}
330
3367
100
AcDbXrecord
 70
     0
  0
XRECORD
  5
3381
102
{ACAD_REACTORS
330
3367
102
}
330
3367
100
AcDbXrecord
340
0
  0
XRECORD
  5
3382
102
{ACAD_REACTORS
330
3367
102
}
330
3367
100
AcDbXrecord
 10
0.0
 20
0.0
 30
0.0
  0
XRECORD
  5
3383
102
{ACAD_REACTORS
330
3367
102
}
330
3367
100
AcDbXrecord
 10
0.0
 20
0.0
 30
0.0
  0
XRECORD
  5
3384
102
{ACAD_REACTORS
330
3367
102
}
330
3367
100
AcDbXrecord
 10
0.0
 20
0.0
 30
0.0
  0
XRECORD
  5
3385
102
{ACAD_REACTORS
330
3367
102
}
330
3367
100
AcDbXrecord
 10
0.0
 20
0.0
 30
0.0
  0
XRECORD
  5
3386
102
{ACAD_REACTORS
330
3367
102
}
330
3367
100
AcDbXrecord
 10
0.0
 20
0.0
 30
0.0
  0
XRECORD
  5
3387
102
{ACAD_REACTORS
330
3367
102
}
330
3367
100
AcDbXrecord
 10
0.0
 20
0.0
 30
0.0
  0
LAYER_INDEX
  5
335D
102
{ACAD_REACTORS
330
335C
102
}
330
335C
100
AcDbIndex
 40
2453151.665753021
100
AcDbLayerIndex
  8
0
360
335E
 90
        0
  8
AM_0
360
335F
 90
       53
  8
AM_7
360
3360
 90
        1
  8
AM_11
360
3361
 90
       21
  8
AM_5
360
3362
 90
        5
  8
Defpoints
360
3363
 90
        0
  8
AM_6
360
3364
 90
        1
  8
AM_CL
360
3365
 90
        0
  0
XRECORD
  5
2D
102
{ACAD_REACTORS
330
2C
102
}
330
2C
100
AcDbXrecord
  1
VERSION
140
15.0
  1
PRODUCT
  2
AutoCAD Mechanical 2000
  0
IDBUFFER
  5
335E
330
0
100
AcDbIdBuffer
  0
IDBUFFER
  5
335F
330
0
100
AcDbIdBuffer
330
3132
330
3133
330
3134
330
3135
330
3136
330
1E25
330
1E26
330
1FD9
330
21D7
330
21D8
330
21D9
330
21DC
330
21DD
330
2694
330
2695
330
2696
330
2697
330
2698
330
2699
330
2CB4
330
2CB7
330
310C
330
310E
330
310F
330
3110
330
3111
330
3112
330
3113
330
3114
330
3115
330
311A
330
311B
330
311C
330
311D
330
311E
330
311F
330
3120
330
3121
330
3122
330
3123
330
3124
330
3125
330
3126
330
3127
330
3128
330
3129
330
312A
330
312B
330
312C
330
312D
330
312F
330
3130
330
3131
  0
IDBUFFER
  5
3360
330
0
100
AcDbIdBuffer
330
C9F
  0
IDBUFFER
  5
3361
330
0
100
AcDbIdBuffer
330
333C
330
333D
330
333E
330
333F
330
3340
330
310D
330
3116
330
3117
330
3118
330
3119
330
312E
330
3332
330
3333
330
3334
330
3335
330
3336
330
3337
330
3338
330
3339
330
333A
330
333B
  0
IDBUFFER
  5
3362
330
0
100
AcDbIdBuffer
330
CC6
330
DF5
330
1FB6
330
2216
330
3230
  0
IDBUFFER
  5
3363
330
0
100
AcDbIdBuffer
  0
IDBUFFER
  5
3364
330
0
100
AcDbIdBuffer
330
19BD
  0
IDBUFFER
  5
3365
330
0
100
AcDbIdBuffer
  0
ENDSEC
  0
EOF
