  0
SECTION
  2
HEADER
  9
$ACADVER
  1
AC1014
  9
$ACADMAINTVER
 70
     9
  9
$DWGCODEPAGE
  3
ANSI_932
  9
$INSBASE
 10
0.0
 20
0.0
 30
0.0
  9
$EXTMIN
 10
-190.300001
 20
-52.500003054481
 30
-0.00000001
  9
$EXTMAX
 10
35.45980634774036
 20
34.26098542274519
 30
0.00000001
  9
$LIMMIN
 10
-204.9481783985751
 20
-88.05709827321306
  9
$LIMMAX
 10
45.46559379740722
 20
54.22958895053546
  9
$ORTHOMODE
 70
     0
  9
$REGENMODE
 70
     1
  9
$FILLMODE
 70
     1
  9
$QTEXTMODE
 70
     0
  9
$MIRRTEXT
 70
     0
  9
$DRAGMODE
 70
     2
  9
$LTSCALE
 40
1.0
  9
$OSMODE
 70
    55
  9
$ATTMODE
 70
     1
  9
$TEXTSIZE
 40
2.5
  9
$TRACEWID
 40
1.0
  9
$TEXTSTYLE
  7
STANDARD
  9
$CLAYER
  8
AM_0
  9
$CELTYPE
  6
BYLAYER
  9
$CECOLOR
 62
   256
  9
$CELTSCALE
 40
1.0
  9
$DELOBJ
 70
     1
  9
$DISPSILH
 70
     0
  9
$DIMSCALE
 40
1.0
  9
$DIMASZ
 40
2.5
  9
$DIMEXO
 40
1.0
  9
$DIMDLI
 40
12.0
  9
$DIMRND
 40
0.0
  9
$DIMDLE
 40
0.0
  9
$DIMEXE
 40
1.0
  9
$DIMTP
 40
0.1
  9
$DIMTM
 40
0.1
  9
$DIMTXT
 40
3.2
  9
$DIMCEN
 40
0.0
  9
$DIMTSZ
 40
0.0
  9
$DIMTOL
 70
     0
  9
$DIMLIM
 70
     0
  9
$DIMTIH
 70
     0
  9
$DIMTOH
 70
     0
  9
$DIMSE1
 70
     0
  9
$DIMSE2
 70
     0
  9
$DIMTAD
 70
     3
  9
$DIMZIN
 70
     8
  9
$DIMBLK
  1
OPEN30
  9
$DIMASO
 70
     1
  9
$DIMSHO
 70
     1
  9
$DIMPOST
  1

  9
$DIMAPOST
  1
"
  9
$DIMALT
 70
     0
  9
$DIMALTD
 70
     2
  9
$DIMALTF
 40
0.0393701
  9
$DIMLFAC
 40
1.0
  9
$DIMTOFL
 70
     1
  9
$DIMTVP
 40
0.0
  9
$DIMTIX
 70
     0
  9
$DIMSOXD
 70
     0
  9
$DIMSAH
 70
     0
  9
$DIMBLK1
  1

  9
$DIMBLK2
  1

  9
$DIMSTYLE
  2
AM_JIS
  9
$DIMCLRD
 70
   256
  9
$DIMCLRE
 70
   256
  9
$DIMCLRT
 70
     2
  9
$DIMTFAC
 40
0.71
  9
$DIMGAP
 40
1.5
  9
$DIMJUST
 70
     0
  9
$DIMSD1
 70
     0
  9
$DIMSD2
 70
     0
  9
$DIMTOLJ
 70
     0
  9
$DIMTZIN
 70
     0
  9
$DIMALTZ
 70
     0
  9
$DIMALTTZ
 70
     0
  9
$DIMFIT
 70
     3
  9
$DIMUPT
 70
     0
  9
$DIMUNIT
 70
     2
  9
$DIMDEC
 70
     3
  9
$DIMTDEC
 70
     3
  9
$DIMALTU
 70
     2
  9
$DIMALTTD
 70
     2
  9
$DIMTXSTY
  7
ASAMI
  9
$DIMAUNIT
 70
     0
  9
$LUNITS
 70
     2
  9
$LUPREC
 70
     2
  9
$SKETCHINC
 40
1.0
  9
$FILLETRAD
 40
2.5
  9
$AUNITS
 70
     0
  9
$AUPREC
 70
     0
  9
$MENU
  1
.
  9
$ELEVATION
 40
0.0
  9
$PELEVATION
 40
0.0
  9
$THICKNESS
 40
0.0
  9
$LIMCHECK
 70
     0
  9
$BLIPMODE
 70
     0
  9
$CHAMFERA
 40
0.5
  9
$CHAMFERB
 40
0.5
  9
$CHAMFERC
 40
20.0
  9
$CHAMFERD
 40
0.0
  9
$SKPOLY
 70
     0
  9
$TDCREATE
 40
2452800.443498622
  9
$TDUPDATE
 40
2453151.665935856
  9
$TDINDWG
 40
0.0633143519
  9
$TDUSRTIMER
 40
0.0633143519
  9
$USRTIMER
 70
     1
  9
$ANGBASE
 50
0.0
  9
$ANGDIR
 70
     0
  9
$PDMODE
 70
     3
  9
$PDSIZE
 40
0.0
  9
$PLINEWID
 40
0.0
  9
$COORDS
 70
     1
  9
$SPLFRAME
 70
     0
  9
$SPLINETYPE
 70
     6
  9
$SPLINESEGS
 70
     8
  9
$ATTDIA
 70
     1
  9
$ATTREQ
 70
     1
  9
$HANDLING
 70
 12289
  9
$HANDSEED
  5
3428
  9
$SURFTAB1
 70
     6
  9
$SURFTAB2
 70
     6
  9
$SURFTYPE
 70
     6
  9
$SURFU
 70
     6
  9
$SURFV
 70
     6
  9
$UCSNAME
  2

  9
$UCSORG
 10
0.0
 20
0.0
 30
0.0
  9
$UCSXDIR
 10
1.0
 20
0.0000000000000027
 30
0.0
  9
$UCSYDIR
 10
-0.0000000000000027
 20
1.0
 30
0.0
  9
$PUCSNAME
  2

  9
$PUCSORG
 10
0.0
 20
0.0
 30
0.0
  9
$PUCSXDIR
 10
1.0
 20
0.0
 30
0.0
  9
$PUCSYDIR
 10
0.0
 20
1.0
 30
0.0
  9
$USERI1
 70
     0
  9
$USERI2
 70
     0
  9
$USERI3
 70
     0
  9
$USERI4
 70
     0
  9
$USERI5
 70
     0
  9
$USERR1
 40
0.0
  9
$USERR2
 40
0.0
  9
$USERR3
 40
0.0
  9
$USERR4
 40
0.0
  9
$USERR5
 40
0.0
  9
$WORLDVIEW
 70
     1
  9
$SHADEDGE
 70
     3
  9
$SHADEDIF
 70
    70
  9
$TILEMODE
 70
     1
  9
$MAXACTVP
 70
    64
  9
$PINSBASE
 10
0.0
 20
0.0
 30
0.0
  9
$PLIMCHECK
 70
     0
  9
$PEXTMIN
 10
1.000000000000000E+20
 20
1.000000000000000E+20
 30
1.000000000000000E+20
  9
$PEXTMAX
 10
-1.000000000000000E+20
 20
-1.000000000000000E+20
 30
-1.000000000000000E+20
  9
$PLIMMIN
 10
0.0
 20
0.0
  9
$PLIMMAX
 10
841.0
 20
594.0
  9
$UNITMODE
 70
     0
  9
$VISRETAIN
 70
     1
  9
$PLINEGEN
 70
     0
  9
$PSLTSCALE
 70
     0
  9
$TREEDEPTH
 70
  3020
  9
$PICKSTYLE
 70
     0
  9
$CMLSTYLE
  2
STANDARD
  9
$CMLJUST
 70
     0
  9
$CMLSCALE
 40
20.0
  9
$PROXYGRAPHICS
 70
     1
  9
$MEASUREMENT
 70
     1
  0
ENDSEC
  0
SECTION
  2
CLASSES
  0
CLASS
  1
ACDBDICTIONARYWDFLT
  2
AcDbDictionaryWithDefault
  3
AutoCAD 2000
 90
        0
280
     0
281
     0
  0
CLASS
  1
ACDBPLACEHOLDER
  2
AcDbPlaceHolder
  3
AutoCAD 2000
 90
        0
280
     0
281
     0
  0
CLASS
  1
LAYOUT
  2
AcDbLayout
  3
AutoCAD 2000
 90
        0
280
     0
281
     0
  0
CLASS
  1
AMGSETTINGSOBJ
  2
AmgSettingsObj
  3
"AcadM|Product Description: AutoCAD Mechanical 2000|Company: Autodesk"
 90
        0
280
     0
281
     0
  0
CLASS
  1
ACME_DOCUMENT
  2
AcMeDbDoc
  3
AcMeServices
 90
        0
280
     0
281
     0
  0
CLASS
  1
ACMESCOPE
  2
AcMeScope
  3
AcMeServices
 90
        0
280
     0
281
     0
  0
CLASS
  1
ACMECOMMANDHISTORY
  2
AcMeCommandHistory
  3
AcMeServices
 90
        0
280
     0
281
     0
  0
CLASS
  1
DICTIONARYVAR
  2
AcDbDictionaryVar
  3
AutoCAD 2000
 90
        0
280
     0
281
     0
  0
CLASS
  1
ACIMSYSVARMAN
  2
AcImSysVarManager
  3
AcMeServices
 90
        0
280
     0
281
     0
  0
CLASS
  1
ACIMREALSYSVAR
  2
AcImRealSysVar
  3
AcMeServices
 90
        0
280
     0
281
     0
  0
CLASS
  1
ACIMINTSYSVAR
  2
AcImIntSysVar
  3
AcMeServices
 90
        0
280
     0
281
     0
  0
CLASS
  1
ACMEDRAWINGMAN
  2
AcMeDrawingMan
  3
AcMeServices
 90
        0
280
     0
281
     0
  0
CLASS
  1
ACMEVIEW
  2
AcMeView
  3
AcMeServices
 90
        0
280
     0
281
     0
  0
CLASS
  1
ACDBENTITYCACHE
  2
AcMeEntityCache
  3
AcMeServices
 90
        0
280
     0
281
     0
  0
CLASS
  1
GSMANAGER
  2
AcMeGSManager
  3
AcMeServices
 90
        0
280
     0
281
     0
  0
CLASS
  1
AmdtInternalReactor
  2
AmdtInternalReactor
  3
AcMeServices
 90
        0
280
     0
281
     0
  0
CLASS
  1
ACMESTATEMGR
  2
AcMeStateMgr
  3
AcMeServices
 90
        0
280
     0
281
     0
  0
CLASS
  1
ACME_DATABASE
  2
AcMeDbDatabase
  3
AcMeServices
 90
        0
280
     0
281
     0
  0
CLASS
  1
ACRFINSADJUSTERMGR
  2
AcRfInsAdjusterMgr
  3
AcMeServices
 90
        0
280
     0
281
     0
  0
CLASS
  1
ACMDATADICTIONARY
  2
AcmDataDictionary
  3
"AcmSymBB|Product Description: AutoCAD Mechanical 2000|Company: Autodesk"
 90
        0
280
     0
281
     0
  0
CLASS
  1
ACMDATAENTRYBLOCK
  2
AcmDataEntryBlock
  3
"AcmSymBB|Product Description: AutoCAD Mechanical 2000|Company: Autodesk"
 90
        0
280
     0
281
     0
  0
CLASS
  1
AMGOBJPROPCFG
  2
AmgObjPropCfg
  3
"AmgLay|Product Description: AutoCAD Mechanical 2000|Company: Autodesk"
 90
        1
280
     0
281
     0
  0
CLASS
  1
ACAMGFILTERDAT
  2
AcAmgFilterDat
  3
"AcadM|Product Description: AutoCAD Mechanical 2000|Company: Autodesk"
 90
        0
280
     0
281
     0
  0
CLASS
  1
LAYER_INDEX
  2
AcDbLayerIndex
  3
AutoCAD 2000
 90
        0
280
     0
281
     0
  0
CLASS
  1
IDBUFFER
  2
AcDbIdBuffer
  3
AutoCAD 2000
 90
        0
280
     0
281
     0
  0
CLASS
  1
ACIMSTRSYSVAR
  2
AcImStrSysVar
  3
AcMeServices
 90
        0
280
     0
281
     0
  0
CLASS
  1
ACMSTANDARDJIS
  2
AcmStandardJIS
  3
"AcmSymBB|Product Description: AutoCAD Mechanical 2000|Company: Autodesk"
 90
        0
280
     0
281
     0
  0
CLASS
  1
ACMSURFSTANDARDJIS
  2
AcmSurfTextStdJIS
  3
"AcmSymBB|Product Description: AutoCAD Mechanical 2000|Company: Autodesk"
 90
        0
280
     0
281
     0
  0
CLASS
  1
ACMFCFSTANDARDJIS
  2
AcmFCFStdJIS
  3
"AcmSymBB|Product Description: AutoCAD Mechanical 2000|Company: Autodesk"
 90
        0
280
     0
281
     0
  0
CLASS
  1
ACMWELDSTANDARDJIS
  2
AcmWeldingStdJIS
  3
"AcmSymBB|Product Description: AutoCAD Mechanical 2000|Company: Autodesk"
 90
        0
280
     0
281
     0
  0
CLASS
  1
ACMIDSTANDARDJIS
  2
AcmIdStdJIS
  3
"AcmSymBB|Product Description: AutoCAD Mechanical 2000|Company: Autodesk"
 90
        0
280
     0
281
     0
  0
CLASS
  1
ACMDATUMSTANDARDJIS
  2
AcmDatumStdJIS
  3
"AcmSymBB|Product Description: AutoCAD Mechanical 2000|Company: Autodesk"
 90
        0
280
     0
281
     0
  0
CLASS
  1
ACMBOMSTANDARDJIS
  2
AcmBOMStdJIS
  3
"AcmSymBB|Product Description: AutoCAD Mechanical 2000|Company: Autodesk"
 90
        0
280
     0
281
     0
  0
CLASS
  1
ACMSTANDARDANSI
  2
AcmStandardANSI
  3
"AcmSymBB|Product Description: AutoCAD Mechanical 2000|Company: Autodesk"
 90
        0
280
     0
281
     0
  0
CLASS
  1
ACMSURFSTANDARDANSI
  2
AcmSurfTextStdANSI
  3
"AcmSymBB|Product Description: AutoCAD Mechanical 2000|Company: Autodesk"
 90
        0
280
     0
281
     0
  0
CLASS
  1
ACMFCFSTANDARDANSI
  2
AcmFCFStdANSI
  3
"AcmSymBB|Product Description: AutoCAD Mechanical 2000|Company: Autodesk"
 90
        0
280
     0
281
     0
  0
CLASS
  1
ACMWELDSTANDARDANSI
  2
AcmWeldingStdANSI
  3
"AcmSymBB|Product Description: AutoCAD Mechanical 2000|Company: Autodesk"
 90
        0
280
     0
281
     0
  0
CLASS
  1
ACMIDSTANDARDANSI
  2
AcmIdStdANSI
  3
"AcmSymBB|Product Description: AutoCAD Mechanical 2000|Company: Autodesk"
 90
        0
280
     0
281
     0
  0
CLASS
  1
ACMDATUMSTANDARDANSI
  2
AcmDatumStdANSI
  3
"AcmSymBB|Product Description: AutoCAD Mechanical 2000|Company: Autodesk"
 90
        0
280
     0
281
     0
  0
CLASS
  1
ACMBOMSTANDARDANSI
  2
AcmBOMStdANSI
  3
"AcmSymBB|Product Description: AutoCAD Mechanical 2000|Company: Autodesk"
 90
        0
280
     0
281
     0
  0
CLASS
  1
ACMSTANDARDBSI
  2
AcmStandardBSI
  3
"AcmSymBB|Product Description: AutoCAD Mechanical 2000|Company: Autodesk"
 90
        0
280
     0
281
     0
  0
CLASS
  1
ACMSURFSTANDARDBSI
  2
AcmSurfTextStdBSI
  3
"AcmSymBB|Product Description: AutoCAD Mechanical 2000|Company: Autodesk"
 90
        0
280
     0
281
     0
  0
CLASS
  1
ACMFCFSTANDARDBSI
  2
AcmFCFStdBSI
  3
"AcmSymBB|Product Description: AutoCAD Mechanical 2000|Company: Autodesk"
 90
        0
280
     0
281
     0
  0
CLASS
  1
ACMWELDSTANDARDBSI
  2
AcmWeldingStdBSI
  3
"AcmSymBB|Product Description: AutoCAD Mechanical 2000|Company: Autodesk"
 90
        0
280
     0
281
     0
  0
CLASS
  1
ACMIDSTANDARDBSI
  2
AcmIdStdBSI
  3
"AcmSymBB|Product Description: AutoCAD Mechanical 2000|Company: Autodesk"
 90
        0
280
     0
281
     0
  0
CLASS
  1
ACMDATUMSTANDARDBSI
  2
AcmDatumStdBSI
  3
"AcmSymBB|Product Description: AutoCAD Mechanical 2000|Company: Autodesk"
 90
        0
280
     0
281
     0
  0
CLASS
  1
ACMBOMSTANDARDBSI
  2
AcmBOMStdBSI
  3
"AcmSymBB|Product Description: AutoCAD Mechanical 2000|Company: Autodesk"
 90
        0
280
     0
281
     0
  0
CLASS
  1
LONG_TRANSACTION
  2
AcDbLongTransaction
  3
AutoCAD 2000
 90
        0
280
     0
281
     0
  0
CLASS
  1
LWPOLYLINE
  2
AcDbPolyline
  3
AutoCAD 2000
 90
        0
280
     0
281
     1
  0
CLASS
  1
HATCH
  2
AcDbHatch
  3
AutoCAD 2000
 90
        0
280
     0
281
     1
  0
CLASS
  1
XRECORD
  2
AcDbXrecord
  3
AutoCAD 2000
 90
        0
280
     0
281
     0
  0
ENDSEC
  0
SECTION
  2
TABLES
  0
TABLE
  2
VPORT
  5
8
330
0
100
AcDbSymbolTable
 70
     3
  0
VPORT
  5
33F2
330
8
100
AcDbSymbolTableRecord
100
AcDbViewportTableRecord
  2
*ACTIVE
 70
     0
 10
0.0
 20
0.0
 11
1.0
 21
1.0
 12
-73.2367067231325
 22
-9.119424378148778
 13
0.0
 23
0.0
 14
2.5
 24
2.5
 15
10.0
 25
10.0
 16
0.0
 26
0.0
 36
1.0
 17
0.0
 27
0.0
 37
0.0
 40
150.2539047810802
 41
1.56570841889117
 42
50.0
 43
0.0
 44
0.0
 50
0.0
 51
0.0
 71
     0
 72
   100
 73
     1
 74
     1
 75
     0
 76
     0
 77
     0
 78
     0
  0
ENDTAB
  0
TABLE
  2
LTYPE
  5
5
330
0
100
AcDbSymbolTable
 70
    10
  0
LTYPE
  5
14
330
5
100
AcDbSymbolTableRecord
100
AcDbLinetypeTableRecord
  2
BYBLOCK
 70
     0
  3

 72
    65
 73
     0
 40
0.0
  0
LTYPE
  5
15
330
5
100
AcDbSymbolTableRecord
100
AcDbLinetypeTableRecord
  2
BYLAYER
 70
     0
  3

 72
    65
 73
     0
 40
0.0
  0
LTYPE
  5
16
330
5
100
AcDbSymbolTableRecord
100
AcDbLinetypeTableRecord
  2
CONTINUOUS
 70
     0
  3
Solid line
 72
    65
 73
     0
 40
0.0
  0
LTYPE
  5
4B
330
5
100
AcDbSymbolTableRecord
100
AcDbLinetypeTableRecord
  2
AM_ISO02W050
 70
     0
  3
__ __ __ __ __ __ __ __ __ __ __ __ __ __ __
 72
    65
 73
     2
 40
7.5
 49
6.0
 74
     0
 49
-1.5
 74
     0
  0
LTYPE
  5
4C
330
5
100
AcDbSymbolTableRecord
100
AcDbLinetypeTableRecord
  2
AM_ISO08W050
 70
     0
  3
____ . ____ . ____ . ____ . ____ . ____ . ____
 72
    65
 73
     4
 40
18.0
 49
12.0
 74
     0
 49
-1.5
 74
     0
 49
3.0
 74
     0
 49
-1.5
 74
     0
  0
LTYPE
  5
4D
330
5
100
AcDbSymbolTableRecord
100
AcDbLinetypeTableRecord
  2
AM_ISO09W050
 70
     0
  3
_____ . . _____ . . _____ . . ____ .. ____
 72
    65
 73
     6
 40
22.5
 49
12.0
 74
     0
 49
-1.5
 74
     0
 49
3.0
 74
     0
 49
-1.5
 74
     0
 49
3.0
 74
     0
 49
-1.5
 74
     0
  0
LTYPE
  5
4E
330
5
100
AcDbSymbolTableRecord
100
AcDbLinetypeTableRecord
  2
AMCONSTR
 70
     0
  3
_______________________
 72
    65
 73
     2
 40
9999.0
 49
9999.0
 74
     0
 49
0.0
 74
     0
  0
LTYPE
  5
4F
330
5
100
AcDbSymbolTableRecord
100
AcDbLinetypeTableRecord
  2
AM_ISO02W050X2
 70
     0
  3
 _ _ _ _ _ _ _ _ _ _ _ _
 72
    65
 73
     2
 40
3.75
 49
3.0
 74
     0
 49
-0.75
 74
     0
  0
LTYPE
  5
50
330
5
100
AcDbSymbolTableRecord
100
AcDbLinetypeTableRecord
  2
AM_ISO08W050X2
 70
     0
  3
__ . __ . __ . __ . __ . __
 72
    65
 73
     4
 40
9.0
 49
6.0
 74
     0
 49
-0.75
 74
     0
 49
1.5
 74
     0
 49
-0.75
 74
     0
  0
LTYPE
  5
53
330
5
100
AcDbSymbolTableRecord
100
AcDbLinetypeTableRecord
  2
AMZIGZAG
 70
     0
  3
/\/-/\/-/\/-/\/-/\/-/\/
 72
    65
 73
     2
 40
11.00009999999999
 49
0.0001
 74
     4
 75
   135
340
52
 46
0.04
 50
0.0
 44
0.0
 45
0.0
 49
-11.0
 74
     0
  0
LTYPE
  5
166
330
5
100
AcDbSymbolTableRecord
100
AcDbLinetypeTableRecord
  2
ACJISTGL
 70
     0
  3
_ _ _ _ _
 72
    65
 73
     2
 40
3.0
 49
2.0
 74
     0
 49
-1.0
 74
     0
  0
LTYPE
  5
26A
330
5
100
AcDbSymbolTableRecord
100
AcDbLinetypeTableRecord
  2
ACJISTGB
 70
     0
  3
__ . . __ . .
 72
    65
 73
     6
 40
9.0
 49
4.0
 74
     0
 49
-1.0
 74
     0
 49
1.0
 74
     0
 49
-1.0
 74
     0
 49
1.0
 74
     0
 49
-1.0
 74
     0
  0
ENDTAB
  0
TABLE
  2
LAYER
  5
2
330
0
100
AcDbSymbolTable
 70
     8
  0
LAYER
  5
10
330
2
100
AcDbSymbolTableRecord
100
AcDbLayerTableRecord
  2
0
 70
     0
 62
     7
  6
CONTINUOUS
  0
LAYER
  5
3F9
330
2
100
AcDbSymbolTableRecord
100
AcDbLayerTableRecord
  2
AM_0
 70
     0
 62
     7
  6
CONTINUOUS
  0
LAYER
  5
C7C
330
2
100
AcDbSymbolTableRecord
100
AcDbLayerTableRecord
  2
AM_7
 70
     0
 62
     4
  6
AM_ISO08W050
  0
LAYER
  5
C97
330
2
100
AcDbSymbolTableRecord
100
AcDbLayerTableRecord
  2
AM_11
 70
     0
 62
     3
  6
AM_ISO09W050
  0
LAYER
  5
CC5
330
2
100
AcDbSymbolTableRecord
100
AcDbLayerTableRecord
  2
AM_5
 70
     0
 62
     3
  6
CONTINUOUS
  0
LAYER
  5
CC7
330
2
100
AcDbSymbolTableRecord
100
AcDbLayerTableRecord
  2
DEFPOINTS
 70
     0
 62
     7
  6
CONTINUOUS
  0
LAYER
  5
19BC
330
2
100
AcDbSymbolTableRecord
100
AcDbLayerTableRecord
  2
AM_6
 70
     0
 62
     2
  6
CONTINUOUS
  0
LAYER
  5
3263
330
2
100
AcDbSymbolTableRecord
100
AcDbLayerTableRecord
  2
AM_CL
 70
     0
 62
     1
  6
AMCONSTR
  0
ENDTAB
  0
TABLE
  2
STYLE
  5
3
330
0
100
AcDbSymbolTable
 70
     5
  0
STYLE
  5
11
330
3
100
AcDbSymbolTableRecord
100
AcDbTextStyleTableRecord
  2
STANDARD
 70
     0
 40
0.0
 41
1.0
 50
0.0
 71
     0
 42
2.5
  3
simplex.shx
  4
EXTFONT.SHX
  0
STYLE
  5
52
330
3
100
AcDbSymbolTableRecord
100
AcDbTextStyleTableRecord
  2

 70
     1
 40
0.0
 41
1.0
 50
0.0
 71
     0
 42
2.5
  3
ltypeshp.shx
  4

  0
STYLE
  5
6B
330
3
100
AcDbSymbolTableRecord
100
AcDbTextStyleTableRecord
  2
ASAMI
 70
     0
 40
0.0
 41
1.0
 50
0.0
 71
     0
 42
2.5
  3
simplex.shx
  4
EXTFONT.SHX
  0
STYLE
  5
262
330
3
100
AcDbSymbolTableRecord
100
AcDbTextStyleTableRecord
  2
ACJISTS
 70
     0
 40
1.0
 41
1.0
 50
0.0
 71
     0
 42
2.5
  3
simplex.shx
  4
bigfont.shx
  0
STYLE
  5
269
330
3
100
AcDbSymbolTableRecord
100
AcDbTextStyleTableRecord
  2
ACJISGDT
 70
     0
 40
0.0
 41
1.0
 50
0.0
 71
     0
 42
2.5
  3
amgdtans.shx
  4

  0
ENDTAB
  0
TABLE
  2
VIEW
  5
6
330
0
100
AcDbSymbolTable
 70
     0
  0
ENDTAB
  0
TABLE
  2
UCS
  5
7
330
0
100
AcDbSymbolTable
 70
     0
  0
ENDTAB
  0
TABLE
  2
APPID
  5
9
330
0
100
AcDbSymbolTable
 70
    16
  0
APPID
  5
12
330
9
100
AcDbSymbolTableRecord
100
AcDbRegAppTableRecord
  2
ACAD
 70
     0
  0
APPID
  5
30
330
9
100
AcDbSymbolTableRecord
100
AcDbRegAppTableRecord
  2
MCAD_NO_VIS
 70
     0
  0
APPID
  5
31
330
9
100
AcDbSymbolTableRecord
100
AcDbRegAppTableRecord
  2
ACAD_TEMP_GRAPHIC
 70
     0
  0
APPID
  5
2C2
330
9
100
AcDbSymbolTableRecord
100
AcDbRegAppTableRecord
  2
GENIUS_GENDTOL_13
 70
     0
  0
APPID
  5
339
330
9
100
AcDbSymbolTableRecord
100
AcDbRegAppTableRecord
  2
GENIUS_GENODEF_13
 70
     0
  0
APPID
  5
33A
330
9
100
AcDbSymbolTableRecord
100
AcDbRegAppTableRecord
  2
GENIUS_GENOBJ-N-RSBK_13
 70
     0
  0
APPID
  5
33B
330
9
100
AcDbSymbolTableRecord
100
AcDbRegAppTableRecord
  2
GENIUS_GENOBJ-N-LIB_13
 70
     0
  0
APPID
  5
33C
330
9
100
AcDbSymbolTableRecord
100
AcDbRegAppTableRecord
  2
GENIUS_GENSCALE_13
 70
     0
  0
APPID
  5
378
330
9
100
AcDbSymbolTableRecord
100
AcDbRegAppTableRecord
  2
GENIUS_GENDIMSH_14
 70
     0
  0
APPID
  5
C82
330
9
100
AcDbSymbolTableRecord
100
AcDbRegAppTableRecord
  2
GENIUS_GENOBJ-N-CRS_13
 70
     0
  0
APPID
  5
C83
330
9
100
AcDbSymbolTableRecord
100
AcDbRegAppTableRecord
  2
GENIUS_GENOENT_13
 70
     0
  0
APPID
  5
C84
330
9
100
AcDbSymbolTableRecord
100
AcDbRegAppTableRecord
  2
GENIUS_GENOREF_13
 70
     0
  0
APPID
  5
C85
330
9
100
AcDbSymbolTableRecord
100
AcDbRegAppTableRecord
  2
GENIUS_GENOLIS_13
 70
     0
  0
APPID
  5
CA0
330
9
100
AcDbSymbolTableRecord
100
AcDbRegAppTableRecord
  2
GENIUS_GENOBJ-N-CEN_13
 70
     0
  0
APPID
  5
1E1E
330
9
100
AcDbSymbolTableRecord
100
AcDbRegAppTableRecord
  2
GENIUS_GENFIL_13
 70
     0
  0
APPID
  5
1E1F
330
9
100
AcDbSymbolTableRecord
100
AcDbRegAppTableRecord
  2
GENIUS_GENOBJ-N-CHA_13
 70
     0
  0
ENDTAB
  0
TABLE
  2
DIMSTYLE
  5
A
330
0
100
AcDbSymbolTable
 70
     9
  0
DIMSTYLE
105
58
330
A
100
AcDbSymbolTableRecord
100
AcDbDimStyleTableRecord
  2
AM_JIS
 70
     0
  3

  4
"
  5
OPEN30
  6

  7

 40
1.0
 41
2.5
 42
1.0
 43
12.0
 44
1.0
 45
0.0
 46
0.0
 47
0.1
 48
0.1
140
3.2
141
0.0
142
0.0
143
0.0393701
144
1.0
145
0.0
146
0.71
147
1.5
 71
     0
 72
     0
 73
     0
 74
     0
 75
     0
 76
     0
 77
     3
 78
     8
170
     0
171
     2
172
     1
173
     0
174
     0
175
     0
176
   256
177
   256
178
     2
270
     2
271
     3
272
     3
273
     2
274
     2
340
6B
275
     0
280
     0
281
     0
282
     0
283
     0
284
     0
285
     0
286
     0
287
     3
288
     0
  0
DIMSTYLE
105
5F
330
A
100
AcDbSymbolTableRecord
100
AcDbDimStyleTableRecord
  2
AM_JIS$3
 70
     0
  3

  4
"
  5
OPEN30
  6

  7

 40
1.0
 41
2.5
 42
1.0
 43
10.0
 44
1.0
 45
0.0
 46
0.0
 47
0.1
 48
0.1
140
3.2
141
0.0
142
0.0
143
0.0393701
144
1.0
145
0.0
146
0.71
147
1.5
 71
     0
 72
     0
 73
     0
 74
     1
 75
     0
 76
     0
 77
     3
 78
     8
170
     0
171
     2
172
     0
173
     0
174
     0
175
     0
176
   256
177
   256
178
     2
270
     2
271
     2
272
     3
273
     2
274
     2
340
6B
275
     0
280
     0
281
     0
282
     0
283
     0
284
     0
285
     0
286
     0
287
     0
288
     1
  0
DIMSTYLE
105
60
330
A
100
AcDbSymbolTableRecord
100
AcDbDimStyleTableRecord
  2
AM_JIS$4
 70
     0
  3

  4
"
  5
OPEN30
  6

  7

 40
1.0
 41
2.5
 42
1.0
 43
10.0
 44
1.0
 45
0.0
 46
0.0
 47
0.1
 48
0.1
140
3.2
141
0.0
142
0.0
143
0.0393701
144
1.0
145
0.0
146
0.71
147
1.5
 71
     0
 72
     0
 73
     0
 74
     1
 75
     0
 76
     0
 77
     3
 78
     8
170
     0
171
     2
172
     0
173
     0
174
     0
175
     0
176
   256
177
   256
178
     2
270
     2
271
     2
272
     3
273
     2
274
     2
340
6B
275
     0
280
     0
281
     0
282
     0
283
     0
284
     0
285
     0
286
     0
287
     0
288
     1
  0
DIMSTYLE
105
61
330
A
100
AcDbSymbolTableRecord
100
AcDbDimStyleTableRecord
  2
AM_JIS$6
 70
     0
  3

  4
"
  5
OPEN30
  6

  7

 40
1.0
 41
2.5
 42
1.0
 43
10.0
 44
1.0
 45
0.0
 46
0.0
 47
0.1
 48
0.1
140
3.2
141
0.0
142
0.0
143
0.0393701
144
1.0
145
0.0
146
0.71
147
1.5
 71
     0
 72
     0
 73
     0
 74
     0
 75
     0
 76
     0
 77
     0
 78
     8
170
     0
171
     2
172
     1
173
     0
174
     0
175
     0
176
   256
177
   256
178
     2
270
     2
271
     2
272
     2
273
     2
274
     2
340
6B
275
     0
280
     0
281
     0
282
     0
283
     0
284
     0
285
     0
286
     0
287
     3
288
     0
  0
DIMSTYLE
105
62
330
A
100
AcDbSymbolTableRecord
100
AcDbDimStyleTableRecord
  2
AM_JIS$7
 70
     0
  3

  4
"
  5
OPEN30
  6

  7

 40
1.0
 41
2.5
 42
1.0
 43
10.0
 44
1.0
 45
0.0
 46
0.0
 47
0.1
 48
0.1
140
3.2
141
0.0
142
0.0
143
0.0393701
144
1.0
145
0.0
146
0.71
147
1.5
 71
     0
 72
     0
 73
     0
 74
     0
 75
     0
 76
     0
 77
     3
 78
     8
170
     0
171
     2
172
     1
173
     0
174
     0
175
     0
176
   256
177
   256
178
     2
270
     2
271
     2
272
     3
273
     2
274
     2
340
6B
275
     0
280
     0
281
     0
282
     0
283
     0
284
     0
285
     0
286
     0
287
     3
288
     0
  0
DIMSTYLE
105
63
330
A
100
AcDbSymbolTableRecord
100
AcDbDimStyleTableRecord
  2
AM_JIS$SF
 70
     0
  3

  4
"
  5
OPEN30
  6

  7

 40
1.0
 41
2.5
 42
1.0
 43
10.0
 44
1.0
 45
0.0
 46
0.0
 47
0.1
 48
0.1
140
3.2
141
0.0
142
0.0
143
0.0393701
144
1.0
145
0.0
146
0.71
147
1.5
 71
     0
 72
     0
 73
     0
 74
     0
 75
     1
 76
     1
 77
     3
 78
     8
170
     0
171
     2
172
     1
173
     0
174
     0
175
     0
176
   256
177
   256
178
     2
270
     2
271
     2
272
     2
273
     2
274
     2
340
6B
275
     0
280
     0
281
     0
282
     0
283
     0
284
     0
285
     0
286
     0
287
     3
288
     0
  0
DIMSTYLE
105
68
330
A
100
AcDbSymbolTableRecord
100
AcDbDimStyleTableRecord
  2
AM_JIS$SH
 70
     0
  3

  4
"
  5

  6
GENAXEH
  7
OPEN30
 40
1.0
 41
2.5
 42
1.0
 43
10.0
 44
1.0
 45
0.0
 46
0.0
 47
0.1
 48
0.1
140
3.2
141
0.0
142
0.0
143
0.0393701
144
2.0
145
0.0
146
0.71
147
1.5
 71
     0
 72
     0
 73
     0
 74
     0
 75
     1
 76
     1
 77
     3
 78
     8
170
     0
171
     2
172
     1
173
     1
174
     0
175
     0
176
   256
177
   256
178
     2
270
     2
271
     2
272
     2
273
     2
274
     2
340
6B
275
     0
280
     0
281
     0
282
     0
283
     0
284
     0
285
     0
286
     0
287
     3
288
     0
  0
DIMSTYLE
105
B34
102
{ACAD_REACTORS
330
32BA
102
}
330
A
100
AcDbSymbolTableRecord
100
AcDbDimStyleTableRecord
  2
AM_JIS$2
 70
     0
  3

  4
"
  5
OPEN30
  6

  7

 40
1.0
 41
2.5
 42
1.0
 43
12.0
 44
1.0
 45
0.0
 46
0.0
 47
0.1
 48
0.1
140
3.2
141
0.0
142
0.0
143
0.0393701
144
1.0
145
0.0
146
0.71
147
1.5
 71
     0
 72
     0
 73
     0
 74
     0
 75
     0
 76
     0
 77
     3
 78
     8
170
     0
171
     2
172
     1
173
     0
174
     0
175
     0
176
   256
177
   256
178
     2
270
     2
271
     3
272
     3
273
     2
274
     2
340
6B
275
     0
280
     0
281
     0
282
     0
283
     0
284
     0
285
     0
286
     0
287
     3
288
     0
  0
DIMSTYLE
105
BA5
102
{ACAD_REACTORS
330
CC6
330
DF5
330
1FB6
330
2216
102
}
330
A
100
AcDbSymbolTableRecord
100
AcDbDimStyleTableRecord
  2
AM_JIS$0
 70
     0
  3

  4
"
  5
OPEN30
  6

  7

 40
1.0
 41
2.5
 42
0.0
 43
10.0
 44
1.0
 45
0.0
 46
0.0
 47
0.1
 48
0.1000000001
140
3.799999999999999
141
0.0
142
0.0
143
0.0393701
144
1.0
145
0.0
146
0.71
147
1.5
 71
     0
 72
     0
 73
     0
 74
     0
 75
     0
 76
     0
 77
     3
 78
     1
170
     0
171
     2
172
     1
173
     0
174
     0
175
     0
176
     3
177
     3
178
     2
270
     2
271
     2
272
     2
273
     2
274
     2
340
11
275
     1
280
     0
281
     0
282
     0
283
     0
284
     8
285
     0
286
     0
287
     0
288
     0
  0
ENDTAB
  0
TABLE
  2
BLOCK_RECORD
  5
1
330
0
100
AcDbSymbolTable
 70
    10
  0
BLOCK_RECORD
  5
1F
102
{ACAD_XDICTIONARY
360
74
102
}
330
1
100
AcDbSymbolTableRecord
100
AcDbBlockTableRecord
  2
*MODEL_SPACE
  0
BLOCK_RECORD
  5
101
102
{ACAD_XDICTIONARY
360
341B
102
}
330
1
100
AcDbSymbolTableRecord
100
AcDbBlockTableRecord
  2
*PAPER_SPACE
  0
BLOCK_RECORD
  5
59
330
1
100
AcDbSymbolTableRecord
100
AcDbBlockTableRecord
  2
_OPEN30
  0
BLOCK_RECORD
  5
64
330
1
100
AcDbSymbolTableRecord
100
AcDbBlockTableRecord
  2
GENAXEH
  0
BLOCK_RECORD
  5
CC8
330
1
100
AcDbSymbolTableRecord
100
AcDbBlockTableRecord
  2
*D5
  0
BLOCK_RECORD
  5
DF6
330
1
100
AcDbSymbolTableRecord
100
AcDbBlockTableRecord
  2
*D6
  0
BLOCK_RECORD
  5
1FB7
330
1
100
AcDbSymbolTableRecord
100
AcDbBlockTableRecord
  2
*D7
  0
BLOCK_RECORD
  5
2217
330
1
100
AcDbSymbolTableRecord
100
AcDbBlockTableRecord
  2
*D8
  0
BLOCK_RECORD
  5
32BB
330
1
100
AcDbSymbolTableRecord
100
AcDbBlockTableRecord
  2
*D9
  0
ENDTAB
  0
ENDSEC
  0
SECTION
  2
BLOCKS
  0
BLOCK
  5
20
330
1F
100
AcDbEntity
  8
0
100
AcDbBlockBegin
  2
*MODEL_SPACE
 70
     0
 10
0.0
 20
0.0
 30
0.0
  3
*MODEL_SPACE
  1

  0
ENDBLK
  5
21
330
1F
100
AcDbEntity
  8
0
100
AcDbBlockEnd
  0
BLOCK
  5
103
330
101
100
AcDbEntity
 67
     1
  8
0
100
AcDbBlockBegin
  2
*PAPER_SPACE
 70
     0
 10
0.0
 20
0.0
 30
0.0
  3
*PAPER_SPACE
  1

  0
ENDBLK
  5
104
330
101
100
AcDbEntity
 67
     1
  8
0
100
AcDbBlockEnd
  0
BLOCK
  5
5D
330
59
100
AcDbEntity
  8
0
100
AcDbBlockBegin
  2
_OPEN30
 70
     0
 10
0.0
 20
0.0
 30
0.0
  3
_OPEN30
  1

  0
LINE
  5
5A
330
59
100
AcDbEntity
  8
0
 62
     0
100
AcDbLine
 10
-1.0
 20
0.26794919
 30
0.0
 11
0.0
 21
0.0
 31
0.0
  0
LINE
  5
5B
330
59
100
AcDbEntity
  8
0
 62
     0
100
AcDbLine
 10
0.0
 20
0.0
 30
0.0
 11
-1.0
 21
-0.26794919
 31
0.0
  0
LINE
  5
5C
330
59
100
AcDbEntity
  8
0
 62
     0
100
AcDbLine
 10
0.0
 20
0.0
 30
0.0
 11
-1.0
 21
0.0
 31
0.0
  0
ENDBLK
  5
5E
330
59
100
AcDbEntity
  8
0
100
AcDbBlockEnd
  0
BLOCK
  5
66
330
64
100
AcDbEntity
  8
0
100
AcDbBlockBegin
  2
GENAXEH
 70
     0
 10
0.0
 20
0.0
 30
0.0
  3
GENAXEH
  1

  0
LINE
  5
65
330
64
100
AcDbEntity
  8
0
100
AcDbLine
 10
-1.0
 20
0.0
 30
0.0
 11
1.0
 21
0.0
 31
0.0
  0
ENDBLK
  5
67
330
64
100
AcDbEntity
  8
0
100
AcDbBlockEnd
  0
BLOCK
  5
CD2
330
CC8
100
AcDbEntity
  8
0
100
AcDbBlockBegin
  2
*D5
 70
     1
 10
0.0
 20
0.0
 30
0.0
  3
*D5
  1

  0
LINE
  5
3285
330
CC8
100
AcDbEntity
  8
AM_5
 62
     3
100
AcDbLine
 10
-169.0
 20
-6.000002054481103
 30
0.0
 11
-169.0
 21
-31.50000305448099
 31
0.0
  0
LINE
  5
3286
330
CC8
100
AcDbEntity
  8
AM_5
 62
     3
100
AcDbLine
 10
-1.999999999999676
 20
-6.200000540955556
 30
0.0
 11
-1.999999999999678
 21
-31.50000305448099
 31
0.0
  0
LINE
  5
3287
330
CC8
100
AcDbEntity
  8
AM_5
 62
     3
100
AcDbLine
 10
-166.5
 20
-30.50000305448099
 30
0.0
 11
-4.499999999999678
 21
-30.50000305448099
 31
0.0
  0
INSERT
  5
3288
330
CC8
100
AcDbEntity
  8
AM_5
 62
     3
100
AcDbBlockReference
  2
_OPEN30
 10
-169.0
 20
-30.50000305448099
 30
0.0
 41
2.5
 42
2.5
 43
2.5
 50
180.0
  0
INSERT
  5
3289
330
CC8
100
AcDbEntity
  8
AM_5
 62
     3
100
AcDbBlockReference
  2
_OPEN30
 10
-1.999999999999678
 20
-30.50000305448099
 30
0.0
 41
2.5
 42
2.5
 43
2.5
  0
MTEXT
  5
328A
330
CC8
100
AcDbEntity
  8
AM_5
 62
     2
100
AcDbMText
 10
-85.49999999999984
 20
-27.10000305448099
 30
0.0
 40
3.799999999999999
 41
0.0
 71
     5
 72
     1
  1
167
1001
ACAD
1000
MTEXTBEGIN
1070
    73
1070
     1
1070
    44
1040
1.0
1070
    74
1070
     0
1000
MTEXTEND
  0
POINT
  5
328B
330
CC8
100
AcDbEntity
  8
DEFPOINTS
 62
     0
100
AcDbPoint
 10
-169.0
 20
-6.000002054481103
 30
0.0
  0
POINT
  5
328C
330
CC8
100
AcDbEntity
  8
DEFPOINTS
 62
     0
100
AcDbPoint
 10
-1.999999999999676
 20
-6.200000540955556
 30
0.0
  0
POINT
  5
328D
330
CC8
100
AcDbEntity
  8
DEFPOINTS
 62
     0
100
AcDbPoint
 10
-1.999999999999678
 20
-30.50000305448099
 30
0.0
  0
ENDBLK
  5
CD3
330
CC8
100
AcDbEntity
  8
0
100
AcDbBlockEnd
  0
BLOCK
  5
E00
330
DF6
100
AcDbEntity
  8
0
100
AcDbBlockBegin
  2
*D6
 70
     1
 10
0.0
 20
0.0
 30
0.0
  3
*D6
  1

  0
LINE
  5
327C
330
DF6
100
AcDbEntity
  8
AM_5
 62
     3
100
AcDbLine
 10
-105.9999999999999
 20
-6.500002054481134
 30
0.0
 11
-105.9999999999999
 21
-21.50000305448087
 31
0.0
  0
LINE
  5
327D
330
DF6
100
AcDbEntity
  8
AM_5
 62
     3
100
AcDbLine
 10
-1.999999999999676
 20
-6.200000540955556
 30
0.0
 11
-1.999999999999677
 21
-21.50000305448087
 31
0.0
  0
LINE
  5
327E
330
DF6
100
AcDbEntity
  8
AM_5
 62
     3
100
AcDbLine
 10
-103.4999999999999
 20
-20.50000305448087
 30
0.0
 11
-4.499999999999677
 21
-20.50000305448087
 31
0.0
  0
INSERT
  5
327F
330
DF6
100
AcDbEntity
  8
AM_5
 62
     3
100
AcDbBlockReference
  2
_OPEN30
 10
-105.9999999999999
 20
-20.50000305448087
 30
0.0
 41
2.5
 42
2.5
 43
2.5
 50
180.0
  0
INSERT
  5
3280
330
DF6
100
AcDbEntity
  8
AM_5
 62
     3
100
AcDbBlockReference
  2
_OPEN30
 10
-1.999999999999677
 20
-20.50000305448087
 30
0.0
 41
2.5
 42
2.5
 43
2.5
  0
MTEXT
  5
3281
330
DF6
100
AcDbEntity
  8
AM_5
 62
     2
100
AcDbMText
 10
-53.99999999999983
 20
-17.10000305448087
 30
0.0
 40
3.799999999999999
 41
0.0
 71
     5
 72
     1
  1
104
1001
ACAD
1000
MTEXTBEGIN
1070
    73
1070
     1
1070
    44
1040
1.0
1070
    74
1070
     0
1000
MTEXTEND
  0
POINT
  5
3282
330
DF6
100
AcDbEntity
  8
DEFPOINTS
 62
     0
100
AcDbPoint
 10
-105.9999999999999
 20
-6.500002054481134
 30
0.0
  0
POINT
  5
3283
330
DF6
100
AcDbEntity
  8
DEFPOINTS
 62
     0
100
AcDbPoint
 10
-1.999999999999676
 20
-6.200000540955556
 30
0.0
  0
POINT
  5
3284
330
DF6
100
AcDbEntity
  8
DEFPOINTS
 62
     0
100
AcDbPoint
 10
-1.999999999999677
 20
-20.50000305448087
 30
0.0
  0
ENDBLK
  5
E01
330
DF6
100
AcDbEntity
  8
0
100
AcDbBlockEnd
  0
BLOCK
  5
1FC3
330
1FB7
100
AcDbEntity
  8
0
100
AcDbBlockBegin
  2
*D7
 70
     1
 10
0.0
 20
0.0
 30
0.0
  3
*D7
  1

  0
LINE
  5
32A2
330
1FB7
100
AcDbEntity
  8
AM_5
 62
     3
100
AcDbLine
 10
-2.000000000000074
 20
-6.200000540955556
 30
0.0
 11
16.55592102485801
 21
-6.200000540955562
 31
0.0
  0
LINE
  5
32A3
330
1FB7
100
AcDbEntity
  8
AM_5
 62
     3
100
AcDbLine
 10
-2.000000000000032
 20
6.199999459044172
 30
0.0
 11
16.55592102485801
 21
6.199999459044167
 31
0.0
  0
LINE
  5
32A4
330
1FB7
100
AcDbEntity
  8
AM_5
 62
     3
100
AcDbLine
 10
15.55592102485801
 20
-8.700000540955562
 30
0.0
 11
15.55592102485801
 21
-11.20000054095556
 31
0.0
  0
LINE
  5
32A5
330
1FB7
100
AcDbEntity
  8
AM_5
 62
     3
100
AcDbLine
 10
15.55592102485801
 20
8.699999459044168
 30
0.0
 11
15.55592102485802
 21
28.67618993523464
 31
0.0
  0
LINE
  5
32A6
330
1FB7
100
AcDbEntity
  8
AM_5
 62
     3
100
AcDbLine
 10
15.55592102485801
 20
-6.200000540955562
 30
0.0
 11
15.55592102485801
 21
6.199999459044167
 31
0.0
  0
INSERT
  5
32A7
330
1FB7
100
AcDbEntity
  8
AM_5
 62
     3
100
AcDbBlockReference
  2
_OPEN30
 10
15.55592102485801
 20
-6.200000540955562
 30
0.0
 41
2.5
 42
2.5
 43
2.5
 50
90.0
  0
INSERT
  5
32A8
330
1FB7
100
AcDbEntity
  8
AM_5
 62
     3
100
AcDbBlockReference
  2
_OPEN30
 10
15.55592102485801
 20
6.199999459044167
 30
0.0
 41
2.5
 42
2.5
 43
2.5
 50
270.0
  0
MTEXT
  5
32A9
330
1FB7
100
AcDbEntity
  8
AM_5
 62
     2
100
AcDbMText
 10
12.15592102485802
 20
19.93809469713941
 30
0.0
 40
3.799999999999999
 41
0.0
 71
     5
 72
     1
  1
%%c12.4
 11
0.0000000000000001
 21
1.0
 31
0.0
1001
ACAD
1000
MTEXTBEGIN
1070
    73
1070
     1
1070
    44
1040
1.0
1070
    74
1070
     0
1000
MTEXTEND
  0
POINT
  5
32AA
330
1FB7
100
AcDbEntity
  8
DEFPOINTS
 62
     0
100
AcDbPoint
 10
-2.000000000000074
 20
-6.200000540955556
 30
0.0
  0
POINT
  5
32AB
330
1FB7
100
AcDbEntity
  8
DEFPOINTS
 62
     0
100
AcDbPoint
 10
-2.000000000000032
 20
6.199999459044172
 30
0.0
  0
POINT
  5
32AC
330
1FB7
100
AcDbEntity
  8
DEFPOINTS
 62
     0
100
AcDbPoint
 10
15.55592102485801
 20
6.199999459044167
 30
0.0
  0
ENDBLK
  5
1FC4
330
1FB7
100
AcDbEntity
  8
0
100
AcDbBlockEnd
  0
BLOCK
  5
2221
330
2217
100
AcDbEntity
  8
0
100
AcDbBlockBegin
  2
*D8
 70
     1
 10
0.0
 20
0.0
 30
0.0
  3
*D8
  1

  0
LINE
  5
328E
330
2217
100
AcDbEntity
  8
AM_5
 62
     3
100
AcDbLine
 10
-168.5000000000005
 20
6.499999999998699
 30
0.0
 11
-186.000001
 21
6.499999999998649
 31
0.0
  0
LINE
  5
328F
330
2217
100
AcDbEntity
  8
AM_5
 62
     3
100
AcDbLine
 10
-168.4999999999999
 20
-6.500002054481627
 30
0.0
 11
-186.0000009999999
 21
-6.500002054481677
 31
0.0
  0
LINE
  5
3290
330
2217
100
AcDbEntity
  8
AM_5
 62
     3
100
AcDbLine
 10
-185.000001
 20
3.999999999998653
 30
0.0
 11
-185.000001
 21
-4.000002054481673
 31
0.0
  0
INSERT
  5
3291
330
2217
100
AcDbEntity
  8
AM_5
 62
     3
100
AcDbBlockReference
  2
_OPEN30
 10
-185.000001
 20
6.499999999998653
 30
0.0
 41
2.5
 42
2.5
 43
2.5
 50
90.00000000000017
  0
INSERT
  5
3292
330
2217
100
AcDbEntity
  8
AM_5
 62
     3
100
AcDbBlockReference
  2
_OPEN30
 10
-185.0000009999999
 20
-6.500002054481673
 30
0.0
 41
2.5
 42
2.5
 43
2.5
 50
270.0000000000001
  0
MTEXT
  5
3293
330
2217
100
AcDbEntity
  8
AM_5
 62
     2
100
AcDbMText
 10
-188.400001
 20
-0.0000010272415127
 30
0.0
 40
3.799999999999999
 41
0.0
 71
     5
 72
     1
  1
%%c13
 11
-0.0000000000000028
 21
1.0
 31
0.0
1001
ACAD
1000
MTEXTBEGIN
1070
    73
1070
     1
1070
    44
1040
1.0
1070
    74
1070
     0
1000
MTEXTEND
  0
POINT
  5
3294
330
2217
100
AcDbEntity
  8
DEFPOINTS
 62
     0
100
AcDbPoint
 10
-168.5000000000004
 20
6.499999999999223
 30
0.0
  0
POINT
  5
3295
330
2217
100
AcDbEntity
  8
DEFPOINTS
 62
     0
100
AcDbPoint
 10
-168.5
 20
-6.500002054481103
 30
0.0
  0
POINT
  5
3296
330
2217
100
AcDbEntity
  8
DEFPOINTS
 62
     0
100
AcDbPoint
 10
-185.000001
 20
-6.500002054481099
 30
0.0
  0
ENDBLK
  5
2222
330
2217
100
AcDbEntity
  8
0
100
AcDbBlockEnd
  0
BLOCK
  5
32C9
330
32BB
100
AcDbEntity
  8
0
100
AcDbBlockBegin
  2
*D9
 70
     1
 10
0.0
 20
0.0
 30
0.0
  3
*D9
  1

  0
LINE
  5
341D
330
32BB
100
AcDbEntity
  8
AM_5
100
AcDbLine
 10
0.3420201408161114
 20
-0.9396926216993023
 30
0.0
 11
12.46998810118968
 21
-34.26101101357449
 31
0.0
  0
LINE
  5
341E
330
32BB
100
AcDbEntity
  8
AM_5
100
AcDbLine
 10
0.3420220692411027
 20
0.9396919198077714
 30
0.0
 11
12.47005841119142
 21
34.2609854227452
 31
0.0
  0
ARC
  5
341F
330
32BB
100
AcDbEntity
  8
AM_5
100
AcDbCircle
 10
-0.0000000000000284
 20
0.0000000000000001
 30
0.0
 40
35.45980634775897
100
AcDbArc
 50
294.0403245447228
 51
65.95955787357876
  0
INSERT
  5
3420
330
32BB
100
AcDbEntity
  8
AM_5
100
AcDbBlockReference
  2
_OPEN30
 10
12.12796796037354
 20
-33.32131839187519
 30
0.0
 41
2.5
 42
2.5
 43
2.5
 50
202.0201621958548
  0
INSERT
  5
3421
330
32BB
100
AcDbEntity
  8
AM_5
100
AcDbBlockReference
  2
_OPEN30
 10
12.12803634195029
 20
33.32129350293743
 30
0.0
 41
2.5
 42
2.5
 43
2.5
 50
157.9797202224467
  0
MTEXT
  5
3422
330
32BB
100
AcDbEntity
  8
AM_5
 62
     2
100
AcDbMText
 10
32.35980634774191
 20
-0.0000332041995302
 30
0.0
 40
3.2
 41
0.0
 71
     5
 72
     1
  1
140°
  7
ASAMI
 11
0.000001026093887
 21
0.9999999999994738
 31
0.0
  0
POINT
  5
3423
330
32BB
100
AcDbEntity
  8
DEFPOINTS
 62
     0
100
AcDbPoint
 10
32.55975571525849
 20
-14.044934103913
 30
0.0
  0
POINT
  5
3424
330
32BB
100
AcDbEntity
  8
DEFPOINTS
 62
     0
100
AcDbPoint
 10
-0.0000000000000284
 20
0.0000000000000001
 30
0.0
  0
POINT
  5
3425
330
32BB
100
AcDbEntity
  8
DEFPOINTS
 62
     0
100
AcDbPoint
 10
-0.0000000000000284
 20
0.0000000000000001
 30
0.0
  0
POINT
  5
3426
330
32BB
100
AcDbEntity
  8
DEFPOINTS
 62
     0
100
AcDbPoint
 10
-0.7147573352034514
 20
1.963779655178786
 30
0.0
  0
POINT
  5
3427
330
32BB
100
AcDbEntity
  8
DEFPOINTS
 62
     0
100
AcDbPoint
 10
-0.7147729829007366
 20
-1.963810107397344
 30
0.0
  0
ENDBLK
  5
32CA
330
32BB
100
AcDbEntity
  8
0
100
AcDbBlockEnd
  0
ENDSEC
  0
SECTION
  2
ENTITIES
  0
LINE
  5
C9F
330
1F
100
AcDbEntity
  8
AM_7
100
AcDbLine
 10
-171.0
 20
-0.0000000000002726
 30
0.0
 11
1.55592002485803
 21
0.0000000000000025
 31
0.0
1001
GENIUS_GENODEF_13
1002
{
1000
HIER
1070
     0
1002
}
1002
{
1000
MANEDIT
1070
     0
1002
}
1002
{
1000
NOSEL
1070
     0
1002
}
1002
{
1000
BEHIND
1070
     0
1002
}
1002
{
1000
REACTOR
1002
}
1001
GENIUS_GENOBJ-N-CEN_13
1002
{
1000
OWNER
1000
GEN
1002
}
  0
DIMENSION
  5
CC6
330
1F
100
AcDbEntity
  8
AM_5
100
AcDbDimension
  2
*D5
 10
-1.999999999999678
 20
-30.50000305448099
 30
0.0
 11
-85.49999999999984
 21
-27.10000305448099
 31
0.0
 70
    32
  1
<>
  3
AM_JIS$0
100
AcDbAlignedDimension
 13
-169.0
 23
-6.000002054481103
 33
0.0
 14
-1.999999999999676
 24
-6.200000540955556
 34
0.0
 50
0.0000000000001132
100
AcDbRotatedDimension
1001
GENIUS_GENDTOL_13
1000

1000
h7
1000

1040
0.0
1001
ACAD
1000
DSTYLE
1002
{
1070
   271
1070
     0
1002
}
  0
DIMENSION
  5
DF5
330
1F
100
AcDbEntity
  8
AM_5
100
AcDbDimension
  2
*D6
 10
-1.999999999999677
 20
-20.50000305448087
 30
0.0
 11
-53.99999999999983
 21
-17.10000305448087
 31
0.0
 70
    32
  1
<>
  3
AM_JIS$0
100
AcDbAlignedDimension
 13
-105.9999999999999
 23
-6.500002054481134
 33
0.0
 14
-1.999999999999676
 24
-6.200000540955556
 34
0.0
 50
0.0000000000001527
100
AcDbRotatedDimension
1001
GENIUS_GENDTOL_13
1000

1000
h7
1000

1040
0.0
1001
ACAD
1000
DSTYLE
1002
{
1070
   271
1070
     0
1002
}
  0
TEXT
  5
19BD
330
1F
100
AcDbEntity
  8
AM_6
100
AcDbText
 10
-106.6904761904761
 20
-52.500003054481
 30
0.0
 40
5.0
  1
MDW124LHK
 50
0.0000000000001527
 72
     4
 11
-85.49999999999995
 21
-50.00000305448095
 31
0.0
100
AcDbText
  0
LINE
  5
1E25
330
1F
100
AcDbEntity
  8
AM_0
100
AcDbLine
 10
-106.0
 20
-6.500002054481149
 30
0.0
 11
-105.480382136224
 21
-6.200000540954357
 31
0.0
  0
LINE
  5
1E26
330
1F
100
AcDbEntity
  8
AM_0
100
AcDbLine
 10
-105.4803838207694
 20
6.199999459045627
 30
0.0
 11
-106.0000192404469
 21
6.500011108476913
 31
0.0
  0
DIMENSION
  5
1FB6
330
1F
100
AcDbEntity
  8
AM_5
100
AcDbDimension
  2
*D7
 10
15.55592102485801
 20
6.199999459044167
 30
0.0
 11
15.55592102485801
 21
19.93809469713941
 31
0.0
 70
   160
  1
%%c<>
  3
AM_JIS$0
100
AcDbAlignedDimension
 13
-2.000000000000074
 23
-6.200000540955556
 33
0.0
 14
-2.000000000000032
 24
6.199999459044172
 34
0.0
 50
89.99999999999969
100
AcDbRotatedDimension
1001
ACAD
1000
DSTYLE
1002
{
1070
   271
1070
     1
1002
}
1001
GENIUS_GENDTOL_13
1000

1000
h7
1000

1040
0.0
  0
LINE
  5
1FD9
330
1F
100
AcDbEntity
  8
AM_0
100
AcDbLine
 10
-105.4803793674644
 20
-6.199998942410225
 30
0.0
 11
-105.4803838207694
 21
6.19999945904563
 31
0.0
  0
LINE
  5
21D7
330
1F
100
AcDbEntity
  8
AM_0
 48
0.5
100
AcDbLine
 10
-106.0
 20
-6.500002054481153
 30
0.0
 11
-106.0
 21
6.499999999999664
 31
0.0
  0
LINE
  5
21D8
330
1F
100
AcDbEntity
  8
AM_0
 48
0.5
100
AcDbLine
 10
-168.5
 20
6.499999999999726
 30
0.0
 11
-106.0
 21
6.499999999999695
 31
0.0
1001
GENIUS_GENODEF_13
1002
{
1000
HIER
1070
     0
1002
}
1002
{
1000
MANEDIT
1070
     0
1002
}
1002
{
1000
NOSEL
1070
     0
1002
}
1002
{
1000
BEHIND
1070
     0
1002
}
1002
{
1000
REACTOR
1002
}
1001
GENIUS_GENOBJ-N-CEN_13
1002
{
1000
OWNER
1000
GEN
1002
}
  0
LINE
  5
21D9
330
1F
100
AcDbEntity
  8
AM_0
 48
0.5
100
AcDbLine
 10
-168.5
 20
-6.500002054481103
 30
0.0
 11
-106.0
 21
-6.500002054481134
 31
0.0
1001
GENIUS_GENODEF_13
1002
{
1000
HIER
1070
     0
1002
}
1002
{
1000
MANEDIT
1070
     0
1002
}
1002
{
1000
NOSEL
1070
     0
1002
}
1002
{
1000
BEHIND
1070
     0
1002
}
1002
{
1000
REACTOR
1002
}
1001
GENIUS_GENOBJ-N-CEN_13
1002
{
1000
OWNER
1000
GEN
1002
}
  0
LINE
  5
21DC
330
1F
100
AcDbEntity
  8
AM_0
100
AcDbLine
 10
-168.5000000000005
 20
-6.500002054480569
 30
0.0
 11
-168.5000000000004
 21
6.499999999999223
 31
0.0
  0
LINE
  5
21DD
330
1F
100
AcDbEntity
  8
AM_0
 48
0.5
100
AcDbLine
 10
-169.0
 20
-6.0000020544811
 30
0.0
 11
-169.0
 21
5.999999999999737
 31
0.0
  0
DIMENSION
  5
2216
330
1F
100
AcDbEntity
  8
AM_5
100
AcDbDimension
  2
*D8
 10
-185.000001
 20
-6.500002054481099
 30
0.0
 11
-188.400001
 21
-0.0000010272409645
 31
0.0
 70
    32
  1
%%c<>
 51
359.9999999999998
  3
AM_JIS$0
100
AcDbAlignedDimension
 13
-168.5000000000004
 23
6.499999999999223
 33
0.0
 14
-168.5
 24
-6.500002054481103
 34
0.0
 50
269.9999999999999
100
AcDbRotatedDimension
1001
ACAD
1000
DSTYLE
1002
{
1070
   271
1070
     0
1002
}
1001
GENIUS_GENDTOL_13
1000

1000
h7
1000

1040
0.0
  0
ELLIPSE
  5
2694
330
1F
100
AcDbEntity
  8
AM_0
 48
0.5
100
AcDbEllipse
 10
7.708790702425185
 20
6.738403143387845
 30
0.0
 11
9.706495919543959
 21
0.0000000000009575
 31
0.0
210
0.0
220
0.0
230
1.0
 40
0.9899999999999973
 41
3.323896559076802
 42
3.661579236128986
  0
LINE
  5
2695
330
1F
100
AcDbEntity
  8
AM_0
 48
0.5
100
AcDbLine
 10
-1.836862650003006
 20
4.996270538370899
 30
0.0
 11
-2.000000000000032
 21
6.199999459044172
 31
0.0
  0
LINE
  5
2696
330
1F
100
AcDbEntity
  8
AM_0
 48
0.5
100
AcDbLine
 10
-0.0000000000000284
 20
0.0000000000000001
 30
0.0
 11
-0.7147573352034513
 21
1.963779655178785
 31
0.0
  0
ELLIPSE
  5
2697
330
1F
100
AcDbEntity
  8
AM_0
 48
0.5
100
AcDbEllipse
 10
7.708790702425314
 20
-6.738406538684553
 30
0.0
 11
-9.706495919543957
 21
0.0000000000014037
 31
0.0
210
0.0
220
0.0
230
1.0
 40
0.989999999999997
 41
-0.5199833380394914
 42
-0.1823047399519406
  0
LINE
  5
2698
330
1F
100
AcDbEntity
  8
AM_0
 48
0.5
100
AcDbLine
 10
-1.836855649391241
 20
-4.996239280637549
 30
0.0
 11
-2.000000000000074
 21
-6.200000540955556
 31
0.0
  0
LINE
  5
2699
330
1F
100
AcDbEntity
  8
AM_0
 48
0.5
100
AcDbLine
 10
-0.0000000000000284
 20
0.0000000000000001
 30
0.0
 11
-0.7147729829007366
 21
-1.963810107397344
 31
0.0
  0
LINE
  5
2CB4
330
1F
100
AcDbEntity
  8
AM_0
 48
0.5
100
AcDbLine
 10
-169.0
 20
5.999999999999726
 30
0.0
 11
-168.5
 21
6.499999999999726
 31
0.0
1001
GENIUS_GENFIL_13
1070
     0
1040
0.5
1040
0.5
1040
20.0
1040
0.0
1002
{
1002
}
1001
GENIUS_GENODEF_13
1002
{
1000
HIER
1070
     0
1002
}
1002
{
1000
MANEDIT
1070
     0
1002
}
1002
{
1000
NOSEL
1070
     0
1002
}
1002
{
1000
BEHIND
1070
     0
1002
}
1002
{
1000
REACTOR
1002
}
1001
GENIUS_GENOBJ-N-CHA_13
1002
{
1000
OWNER
1000
GEN
1002
}
  0
LINE
  5
2CB7
330
1F
100
AcDbEntity
  8
AM_0
 48
0.5
100
AcDbLine
 10
-168.5
 20
-6.500002054481103
 30
0.0
 11
-169.0
 21
-6.000002054481103
 31
0.0
1001
GENIUS_GENFIL_13
1070
     0
1040
0.5
1040
0.5
1040
20.0
1040
0.0
1002
{
1002
}
1001
GENIUS_GENODEF_13
1002
{
1000
HIER
1070
     0
1002
}
1002
{
1000
MANEDIT
1070
     0
1002
}
1002
{
1000
NOSEL
1070
     0
1002
}
1002
{
1000
BEHIND
1070
     0
1002
}
1002
{
1000
REACTOR
1002
}
1001
GENIUS_GENOBJ-N-CHA_13
1002
{
1000
OWNER
1000
GEN
1002
}
  0
SPLINE
  5
31F8
330
1F
100
AcDbEntity
  8
AM_0
100
AcDbSpline
210
0.0
220
0.0
230
1.0
 70
     8
 71
     3
 72
    46
 73
    42
 74
     0
 42
0.0000000001
 43
0.0000000001
 40
0.0
 40
0.0
 40
0.0
 40
0.0
 40
1.348332046947657
 40
2.024828967632895
 40
2.703918159304097
 40
3.386347665078124
 40
4.072776489761952
 40
4.763750544421347
 40
5.459696642770596
 40
6.160921452191754
 40
6.867565637253344
 40
7.579665907256596
 40
8.297112853413899
 40
9.019671552060676
 40
9.746986763446127
 40
10.47859339096366
 40
11.21393074760089
 40
11.95235532364328
 40
12.69315551794651
 40
13.43556823304427
 40
14.1787950170388
 40
14.92202180103393
 40
15.66443451613169
 40
16.40523471043432
 40
17.14365928647669
 40
17.87899664311455
 40
18.61060327063121
 40
19.3379184820169
 40
20.06048192311554
 40
20.77792886927283
 40
21.49002913927608
 40
22.19667332433747
 40
22.89788836015233
 40
23.59383445850158
 40
24.28480851316097
 40
24.97123685067576
 40
25.65366676154838
 40
26.33276604526152
 40
27.00926273560555
 40
27.68398960851751
 40
28.357818684969
 40
28.357818684969
 40
28.357818684969
 40
28.357818684969
 10
-3.591944160332273
 20
-6.200000540955811
 30
0.0
 10
-4.281100603635015
 20
-6.185876461690128
 30
0.0
 10
-5.316026631529399
 20
-6.164665926122846
 30
0.0
 10
-6.692212902120019
 20
-6.034076555217833
 30
0.0
 10
-7.725549309984852
 20
-5.902407731033016
 30
0.0
 10
-8.75879739218584
 20
-5.733367326820843
 30
0.0
 10
-9.791954426793736
 20
-5.52920313406407
 30
0.0
 10
-10.82501510627823
 20
-5.290891231535767
 30
0.0
 10
-11.85797770041792
 20
-5.019984070001405
 30
0.0
 10
-12.8908376121644
 20
-4.718145059535671
 30
0.0
 10
-13.92359690595691
 20
-4.387246317616499
 30
0.0
 10
-14.956252803987
 20
-4.029328282074788
 30
0.0
 10
-15.98882189642413
 20
-3.64661428431247
 30
0.0
 10
-17.02130920176052
 20
-3.241457071348668
 30
0.0
 10
-18.05372421467989
 20
-2.816355046348414
 30
0.0
 10
-19.08607840802924
 20
-2.373930818501577
 30
0.0
 10
-20.11838082941301
 20
-1.916905054433553
 30
0.0
 10
-21.15064152573832
 20
-1.448088703171895
 30
0.0
 10
-22.18287144191124
 20
-0.9703670546512265
 30
0.0
 10
-23.21508000741949
 20
-0.4866777612010833
 30
0.0
 10
-24.24727989600028
 20
-0.0000005410539496
 30
0.0
 10
-25.27947978435431
 20
0.4866766796845955
 30
0.0
 10
-26.31168835054274
 20
0.9703659713613724
 30
0.0
 10
-27.34391826422953
 20
1.448087626362907
 30
0.0
 10
-28.37617896977354
 20
1.916903953589377
 30
0.0
 10
-29.40848135697527
 20
2.373929806777465
 30
0.0
 10
-30.44083567691226
 20
2.816353704581329
 30
0.0
 10
-31.47325246601212
 20
3.241457874567287
 30
0.0
 10
-32.50574378309607
 20
3.646611406472427
 30
0.0
 10
-33.53831471747823
 20
4.029327366661064
 30
0.0
 10
-34.57097059146512
 20
4.38724550870243
 30
0.0
 10
-35.6037256427998
 20
4.718141209944943
 30
0.0
 10
-36.63657867281308
 20
5.01998488960449
 30
0.0
 10
-37.66953705046874
 20
5.290893157824254
 30
0.0
 10
-38.70259713207196
 20
5.529189468736776
 30
0.0
 10
-39.73575492412738
 20
5.733412877154761
 30
0.0
 10
-40.76900960059735
 20
5.902211889502168
 30
0.0
 10
-41.80234068394165
 20
6.034807637680454
 30
0.0
 10
-42.83573569897722
 20
6.12940772202804
 30
0.0
 10
-43.86916822548313
 20
6.188935928334686
 30
0.0
 10
-44.55829128794277
 20
6.196313252617508
 30
0.0
 10
-44.90262342852455
 20
6.199999459044853
 30
0.0
  0
LINE
  5
31F9
330
1F
100
AcDbEntity
  8
AM_0
100
AcDbLine
 10
-99.79486288629024
 20
-6.200000540954401
 30
0.0
 11
-105.480382136224
 21
-6.200000540954357
 31
0.0
  0
LINE
  5
31FA
330
1F
100
AcDbEntity
  8
AM_0
100
AcDbLine
 10
-98.16602595810643
 20
6.199999459045567
 30
0.0
 11
-105.4803838207694
 21
6.199999459045627
 31
0.0
  0
LINE
  5
31FB
330
1F
100
AcDbEntity
  8
AM_0
 48
0.5
100
AcDbLine
 10
-6.484855401193561
 20
6.199999459044236
 30
0.0
 11
-2.000000000000032
 21
6.199999459044172
 31
0.0
  0
LINE
  5
31FC
330
1F
100
AcDbEntity
  8
AM_0
 48
0.5
100
AcDbLine
 10
-0.0000000000000284
 20
0.0000000000000001
 30
0.0
 11
-3.957468226792974
 21
2.380611133034642
 31
0.0
  0
LINE
  5
31FD
330
1F
100
AcDbEntity
  8
AM_0
 48
0.5
100
AcDbLine
 10
-6.484855401193756
 20
-6.200000540955762
 30
0.0
 11
-2.000000000000059
 21
-6.200000540955569
 31
0.0
  0
LINE
  5
31FE
330
1F
100
AcDbEntity
  8
AM_11
 48
0.5
100
AcDbLine
 10
-25.95207905833723
 20
6.199999459044551
 30
0.0
 11
-6.484855401193561
 21
6.199999459044236
 31
0.0
  0
LINE
  5
31FF
330
1F
100
AcDbEntity
  8
AM_11
 48
0.5
100
AcDbLine
 10
-25.95207905833744
 20
-6.200000540955449
 30
0.0
 11
-6.484855401193756
 21
-6.200000540955762
 31
0.0
  0
LINE
  5
3200
330
1F
100
AcDbEntity
  8
AM_11
 48
0.5
100
AcDbLine
 10
-62.74210344340197
 20
-6.200000540954987
 30
0.0
 11
-43.27487978626074
 21
-6.200881363473615
 31
0.0
  0
LINE
  5
3201
330
1F
100
AcDbEntity
  8
AM_11
 48
0.5
100
AcDbLine
 10
-60.21874590049637
 20
6.20088028156343
 30
0.0
 11
-47.79551010544838
 21
6.199999459044899
 31
0.0
  0
LINE
  5
3202
330
1F
100
AcDbEntity
  8
AM_0
 48
0.5
100
AcDbLine
 10
-47.79552687245362
 20
6.199999459044899
 30
0.0
 11
-25.95207905833723
 21
6.199999459044551
 31
0.0
  0
LINE
  5
3203
330
1F
100
AcDbEntity
  8
AM_0
 48
0.5
100
AcDbLine
 10
-43.27487978626074
 20
-6.200000540955301
 30
0.0
 11
-25.95207905833744
 21
-6.200000540955449
 31
0.0
  0
SPLINE
  5
3205
330
1F
100
AcDbEntity
  8
AM_0
100
AcDbSpline
210
0.0
220
0.0
230
1.0
 70
     8
 71
     3
 72
    23
 73
    19
 74
     0
 42
0.0000000001
 43
0.0000000001
 40
16.03460024169435
 40
16.03460024169435
 40
16.03460024169435
 40
16.03460024169435
 40
16.35212704903564
 40
17.38177054169784
 40
18.41822485651776
 40
19.46214173629503
 40
20.51396345435107
 40
21.57393551351153
 40
22.64208202342361
 40
23.7182574881101
 40
24.80209208578934
 40
25.89306333925047
 40
26.99048218457928
 40
28.09348763352352
 40
29.20111863782268
 40
30.31232390128032
 40
31.42594612798585
 40
32.5407912310448
 40
32.5407912310486
 40
32.5407912310486
 40
32.5407912310486
 10
-60.21874590049637
 20
6.200880281563432
 30
0.0
 10
-60.1125733215213
 20
6.179950173381046
 30
0.0
 10
-59.66256727791393
 20
6.088805443154685
 30
0.0
 10
-58.86987678586658
 20
5.91022125471558
 30
0.0
 10
-57.84334052352242
 20
5.644668519484294
 30
0.0
 10
-56.81775775634371
 20
5.346497060979241
 30
0.0
 10
-55.79306788182684
 20
5.017432543518953
 30
0.0
 10
-54.76923453191226
 20
4.659309509155044
 30
0.0
 10
-53.74619853148613
 20
4.274175140177137
 30
0.0
 10
-52.72388864020975
 20
3.864270822007208
 30
0.0
 10
-51.70224676676337
 20
3.43191781890011
 30
0.0
 10
-50.68119100241341
 20
2.979631892240415
 30
0.0
 10
-49.66063860200828
 20
2.510041923243258
 30
0.0
 10
-48.64052156905231
 20
2.025847857365641
 30
0.0
 10
-47.62075455159229
 20
1.529865216792965
 30
0.0
 10
-46.60124309760528
 20
1.02499017626499
 30
0.0
 10
-45.58190419007945
 20
0.5141483499262364
 30
0.0
 10
-44.90252744777888
 20
0.1716568379084685
 30
0.0
 10
-44.56265380640011
 20
0.0003148073507064
 30
0.0
  0
SPLINE
  5
3206
330
1F
100
AcDbEntity
  8
AM_0
100
AcDbSpline
210
0.0
220
0.0
230
1.0
 70
     8
 71
     3
 72
    11
 73
     7
 74
     0
 42
0.0000000001
 43
0.0000000001
 40
11.27226913003534
 40
11.27226913003534
 40
11.27226913003534
 40
11.2722691300354
 40
12.28301561507924
 40
13.29510212255852
 40
14.30984805882082
 40
15.18258238371378
 40
15.18258238371378
 40
15.18258238371378
 40
15.18258238371378
 10
-62.74210344340439
 20
-6.200000540954989
 30
0.0
 10
-63.08512619812499
 20
-6.169655939246748
 30
0.0
 10
-63.7705247014227
 20
-6.096192979162092
 30
0.0
 10
-64.79508318627494
 20
-5.948000017651248
 30
0.0
 10
-65.767407254179
 20
-5.770999773851067
 30
0.0
 10
-66.39624938702159
 20
-5.634934418576685
 30
0.0
 10
-66.68603774809881
 20
-5.567721891331679
 30
0.0
  0
SPLINE
  5
3207
330
1F
100
AcDbEntity
  8
AM_0
100
AcDbSpline
210
0.0
220
0.0
230
1.0
 70
     8
 71
     3
 72
    17
 73
    13
 74
     0
 42
0.0000000001
 43
0.0000000001
 40
1.580019955310467
 40
1.580019955310467
 40
1.580019955310467
 40
1.580019955310467
 40
2.030549285115227
 40
3.082371838836284
 40
4.126290986361125
 40
5.162752068350215
 40
6.192395305374981
 40
7.216039564037012
 40
8.234688489606833
 40
9.249433870634691
 40
10.26152376260694
 40
11.27226744710342
 40
11.27226744710342
 40
11.27226744710342
 40
11.27226744710352
 10
-53.00773220427032
 20
-4.575783109815377
 30
0.0
 10
-53.15394577738635
 20
-4.62290986899865
 30
0.0
 10
-53.64234823382701
 20
-4.777374116900293
 30
0.0
 10
-54.47617234571175
 20
-5.01965681656071
 30
0.0
 10
-55.50898685962164
 20
-5.290981299181708
 30
0.0
 10
-56.54208570640025
 20
-5.529168170724985
 30
0.0
 10
-57.57523188940737
 20
-5.733417546142656
 30
0.0
 10
-58.60849063183949
 20
-5.902243705614137
 30
0.0
 10
-59.64182075915317
 20
-6.034683232689363
 30
0.0
 10
-60.67521522987234
 20
-6.129877874918086
 30
0.0
 10
-61.70864858383332
 20
-6.187214853333141
 30
0.0
 10
-62.39777136861696
 20
-6.20000057643172
 30
0.0
 10
-62.74210344340434
 20
-6.200000540954989
 30
0.0
  0
SPLINE
  5
3208
330
1F
100
AcDbEntity
  8
AM_0
 48
0.5
100
AcDbSpline
210
0.0
220
0.0
230
1.0
 70
     8
 71
     3
 72
    17
 73
    13
 74
     0
 42
0.0000000001
 43
0.0000000001
 40
0.0
 40
0.0
 40
0.0
 40
0.0
 40
1.010743614677189
 40
2.022833924044153
 40
3.037578959561199
 40
4.056212747067873
 40
5.079857613375832
 40
6.109500119648989
 40
7.14596120163808
 40
8.18989512056258
 40
9.241717674284874
 40
9.693948937866434
 40
9.693948937866434
 40
9.693948937866434
 40
9.693948937866434
 10
-6.48485540119356
 20
6.199999459044236
 30
0.0
 10
-6.829187543188035
 20
6.196313267612957
 30
0.0
 10
-7.518310608474687
 20
6.188935973342309
 30
0.0
 10
-8.551743113735234
 20
6.129407541517838
 30
0.0
 10
-9.585133073179401
 20
6.034808787867034
 30
0.0
 10
-10.61845876456254
 20
5.902210742086143
 30
0.0
 10
-11.65170788127505
 20
5.733411738036104
 30
0.0
 10
-12.68486780320035
 20
5.52919438831038
 30
0.0
 10
-13.7179246635959
 20
5.290873307526216
 30
0.0
 10
-14.7509185492147
 20
5.020052934576682
 30
0.0
 10
-15.58477815032134
 20
4.776084716174752
 30
0.0
 10
-16.07446939817992
 20
4.623569495508617
 30
0.0
 10
-16.22144843852683
 20
4.576885607444413
 30
0.0
  0
SPLINE
  5
3209
330
1F
100
AcDbEntity
  8
AM_0
 48
0.5
100
AcDbSpline
210
0.0
220
0.0
230
1.0
 70
     8
 71
     3
 72
    16
 73
    12
 74
     0
 42
0.0000000001
 43
0.0000000001
 40
0.0
 40
0.0
 40
0.0
 40
0.0
 40
1.010743614677189
 40
2.022833924044153
 40
3.037578959561199
 40
4.056212747067873
 40
5.079857613375832
 40
6.109500119648989
 40
7.14596120163808
 40
8.18989512056258
 40
8.545190612624931
 40
8.545190612624931
 40
8.545190612624931
 40
8.545190612624931
 10
-6.48485540119356
 20
6.199999459044236
 30
0.0
 10
-6.829168400562729
 20
6.199962202318799
 30
0.0
 10
-7.518319506539571
 20
6.187240344839145
 30
0.0
 10
-8.551740713066751
 20
6.129863379082871
 30
0.0
 10
-9.585133751518613
 20
6.034686101923397
 30
0.0
 10
-10.61845846236055
 20
5.902243502704035
 30
0.0
 10
-11.65170841123573
 20
5.73340416321458
 30
0.0
 10
-12.68486597137273
 20
5.529191628505239
 30
0.0
 10
-13.71793152560098
 20
5.290892185958099
 30
0.0
 10
-14.52118787507931
 20
5.080223652194703
 30
0.0
 10
-14.98031278110571
 20
4.95065728779845
 30
0.0
 10
-15.09674429311031
 20
4.917221747072992
 30
0.0
  0
SPLINE
  5
320A
330
1F
100
AcDbEntity
  8
AM_0
 48
0.5
100
AcDbSpline
210
0.0
220
0.0
230
1.0
 70
     8
 71
     3
 72
    25
 73
    21
 74
     0
 42
0.0000000001
 43
0.0000000001
 40
6.846175049578289
 40
6.846175049578289
 40
6.846175049578289
 40
6.846175049578289
 40
7.604337694224321
 40
8.711974558287883
 40
9.814980593243754
 40
10.91239053451967
 40
12.0033633515982
 40
13.08720139956839
 40
14.16337181880432
 40
15.23152222380919
 40
16.29148850140128
 40
17.34331105512262
 40
18.38723020264746
 40
19.42369128463655
 40
20.45333379090873
 40
21.47697865721768
 40
22.49561244472435
 40
23.5103574802404
 40
24.52244778960836
 40
25.53320666051913
 40
25.53320666051913
 40
25.53320666051913
 40
25.53320666051913
 10
-7.690098826763574
 20
1.122240049519455
 30
0.0
 10
-7.924859514190487
 20
1.231101022860053
 30
0.0
 10
-8.503087628841878
 20
1.497912968780784
 30
0.0
 10
-9.425642479186738
 20
1.916903771573172
 30
0.0
 10
-10.45794478687522
 20
2.373929789587515
 30
0.0
 10
-11.49029900971721
 20
2.81635395205717
 30
0.0
 10
-12.52271401755944
 20
3.24145598642763
 30
0.0
 10
-13.55520131405291
 20
3.646613226458289
 30
0.0
 10
-14.58777044646201
 20
4.0293271079197
 30
0.0
 10
-15.62042619503801
 20
4.387245576998135
 30
0.0
 10
-16.65318127945054
 20
4.71814119275445
 30
0.0
 10
-17.68603430122599
 20
5.019984890840602
 30
0.0
 10
-18.71899267913087
 20
5.290893169740902
 30
0.0
 10
-19.75205276780756
 20
5.529189420355051
 30
0.0
 10
-20.78521053160124
 20
5.73341305715976
 30
0.0
 10
-21.81846022147457
 20
5.90221039116376
 30
0.0
 10
-22.85178576047724
 20
6.03480888209639
 30
0.0
 10
-23.88517576031309
 20
6.129407513467389
 30
0.0
 10
-24.91861344594849
 20
6.188936290664493
 30
0.0
 10
-25.60774171551751
 20
6.196313354778014
 30
0.0
 10
-25.95207905833723
 20
6.199999459044551
 30
0.0
  0
SPLINE
  5
320B
330
1F
100
AcDbEntity
  8
AM_0
 48
0.5
100
AcDbSpline
210
0.0
220
0.0
230
1.0
 70
     8
 71
     3
 72
    10
 73
     6
 74
     0
 42
0.0000000001
 43
0.0000000001
 40
0.0
 40
0.0
 40
0.0
 40
0.0
 40
2.69986029516136
 40
4.147722969032201
 40
6.285750005020438
 40
6.285750005020438
 40
6.285750005020438
 40
6.285750005020438
 10
-7.689933603518645
 20
1.122166410541536
 30
0.0
 10
-6.954418205413591
 20
0.546143566610558
 30
0.0
 10
-5.824465623695004
 20
-0.3387848812582565
 30
0.0
 10
-3.152279557192788
 20
0.0896244829935472
 30
0.0
 10
-3.655529918838964
 20
1.532563908790208
 30
0.0
 10
-3.988045603831493
 20
2.412079930151425
 30
0.0
  0
SPLINE
  5
320C
330
1F
100
AcDbEntity
  8
AM_0
100
AcDbSpline
210
0.0
220
0.0
230
1.0
 70
     8
 71
     3
 72
    55
 73
    51
 74
     0
 42
0.0000000001
 43
0.0000000001
 40
0.0
 40
0.0
 40
0.0
 40
0.0
 40
1.010743684496582
 40
2.022833576467832
 40
3.037578957496688
 40
4.056212745003489
 40
5.079857003664532
 40
6.109500240690281
 40
7.145961322679372
 40
8.189895241603872
 40
9.241717795325891
 40
10.30168407291828
 40
11.36983447792315
 40
12.44600489715814
 40
13.52984294512926
 40
14.62081576220742
 40
15.7182257034828
 40
16.82123173843959
 40
17.92886860250316
 40
19.0400688939571
 40
20.15368796660465
 40
21.26852814259644
 40
22.38336992938901
 40
23.49698739941135
 40
24.6081876908653
 40
25.71582455492886
 40
26.81883757994213
 40
27.91624752121713
 40
29.00722033829659
 40
30.09105838626677
 40
31.16722880550176
 40
32.23537921050758
 40
33.29534548809967
 40
34.347168041821
 40
35.39108718934584
 40
36.42754827133493
 40
37.45720575381954
 40
38.48085062012849
 40
39.49948440763516
 40
40.51422944315121
 40
41.52631975251916
 40
42.53706336719636
 40
43.54780698187354
 40
44.55989729124051
 40
45.57464232675757
 40
46.59327611426424
 40
47.6169209805722
 40
48.64656348684535
 40
49.68302456883444
 40
50.58557219878025
 40
50.58557219878025
 40
50.58557219878025
 40
50.58557219878025
 10
-6.484855401193756
 20
-6.200000540955762
 30
0.0
 10
-6.829187480523905
 20
-6.196311691159939
 30
0.0
 10
-7.518310254386144
 20
-6.188929078396706
 30
0.0
 10
-8.55174363026683
 20
-6.129416931501997
 30
0.0
 10
-9.585132892773215
 20
-6.034808164246618
 30
0.0
 10
-10.61845819862976
 20
-5.902210378695853
 30
0.0
 10
-11.65170923687655
 20
-5.733420529068211
 30
0.0
 10
-12.68486562378078
 20
-5.529189196926491
 30
0.0
 10
-13.71793081520477
 20
-5.290892157318206
 30
0.0
 10
-14.75089564994805
 20
-5.019988627297544
 30
0.0
 10
-15.7837530916375
 20
-4.718141938104739
 30
0.0
 10
-16.81650828849648
 20
-4.387246750205572
 30
0.0
 10
-17.84916400644938
 20
-4.029328164834664
 30
0.0
 10
-18.88173314770221
 20
-3.646614316103468
 30
0.0
 10
-19.91422043974112
 20
-3.241457062611309
 30
0.0
 10
-20.94663545655017
 20
-2.816355049211295
 30
0.0
 10
-21.97898964775158
 20
-2.373930815845926
 30
0.0
 10
-23.01129207383693
 20
-1.916905062224113
 30
0.0
 10
-24.04355275341887
 20
-1.448088674518035
 30
0.0
 10
-25.07578273212534
 20
-0.9703671618958555
 30
0.0
 10
-26.10799106359583
 20
-0.4866773598908363
 30
0.0
 10
-27.14019232421085
 20
-0.0000018059806489
 30
0.0
 10
-28.17238895110588
 20
0.4866825083928087
 30
0.0
 10
-29.20460074231371
 20
0.9703647780682226
 30
0.0
 10
-30.23682944671842
 20
1.448087736726224
 30
0.0
 10
-31.26909196680973
 20
1.916905910413777
 30
0.0
 10
-32.30139867538072
 20
2.373927763697556
 30
0.0
 10
-33.33375449590981
 20
2.816354240769369
 30
0.0
 10
-34.36616966176523
 20
3.241455909455478
 30
0.0
 10
-35.39865691623525
 20
3.646613248150684
 30
0.0
 10
-36.43122606013208
 20
4.029327097441713
 30
0.0
 10
-37.46388180438751
 20
4.387245597228889
 30
0.0
 10
-38.49663689465488
 20
4.718141123002484
 30
0.0
 10
-39.52948989750247
 20
5.01998514689289
 30
0.0
 10
-40.56244834455134
 20
5.290892225073909
 30
0.0
 10
-41.59551315276174
 20
5.529194056535874
 30
0.0
 10
-42.62867691674886
 20
5.733402062624434
 30
0.0
 10
-43.66193136856511
 20
5.902244156278695
 30
0.0
 10
-44.6952569807455
 20
6.034684764269431
 30
0.0
 10
-45.72864696128216
 20
6.129868056103967
 30
0.0
 10
-46.76207946093448
 20
6.187223025466143
 30
0.0
 10
-47.79553466963928
 20
6.206383422908536
 30
0.0
 10
-48.82898987682348
 20
6.18722302543613
 30
0.0
 10
-49.86242238104642
 20
6.129868056224532
 30
0.0
 10
-50.89581234475538
 20
6.034684763815305
 30
0.0
 10
-51.92913802002685
 20
5.902244157985522
 30
0.0
 10
-52.96238719734747
 20
5.733402879339175
 30
0.0
 10
-53.99554689106259
 20
5.529196144452512
 30
0.0
 10
-54.98164048437228
 20
5.301709619524343
 30
0.0
 10
-55.62142923766465
 20
5.135346573261032
 30
0.0
 10
-55.91825392960678
 20
5.054269745138785
 30
0.0
  0
SPLINE
  5
320D
330
1F
100
AcDbEntity
  8
AM_0
100
AcDbSpline
210
0.0
220
0.0
230
1.0
 70
     8
 71
     3
 72
    11
 73
     7
 74
     0
 42
0.0000000001
 43
0.0000000001
 40
11.27226913003534
 40
11.27226913003534
 40
11.27226913003534
 40
11.2722691300354
 40
12.28301561507924
 40
13.29510212255852
 40
14.30984805882082
 40
15.18258238371378
 40
15.18258238371378
 40
15.18258238371378
 40
15.18258238371378
 10
-25.95207905833741
 20
-6.200000540955449
 30
0.0
 10
-26.29510181305801
 20
-6.169655939247209
 30
0.0
 10
-26.98050031635573
 20
-6.096192979162554
 30
0.0
 10
-28.00505880120797
 20
-5.948000017651712
 30
0.0
 10
-28.97738286911202
 20
-5.770999773851527
 30
0.0
 10
-29.60622500195461
 20
-5.63493441857715
 30
0.0
 10
-29.89601336303183
 20
-5.567721891332142
 30
0.0
  0
SPLINE
  5
320E
330
1F
100
AcDbEntity
  8
AM_0
100
AcDbSpline
210
0.0
220
0.0
230
1.0
 70
     8
 71
     3
 72
    22
 73
    18
 74
     0
 42
0.0000000001
 43
0.0000000001
 40
17.17441611292
 40
17.17441611292
 40
17.17441611292
 40
17.17441611292
 40
17.38177636558528
 40
18.41823744757437
 40
19.46215659509824
 40
20.51397914882054
 40
21.57394542641293
 40
22.64209583141747
 40
23.71826625065247
 40
24.80210429862395
 40
25.8930771157021
 40
26.99048705697709
 40
28.09349309193389
 40
29.20112995599786
 40
30.31233024745139
 40
31.42594771747373
 40
32.5407895042663
 40
32.54078950426994
 40
32.54078950426994
 40
32.54078950426994
 10
-29.89646531906705
 20
-5.567645414379552
 30
0.0
 10
-29.96566548970501
 20
-5.553293022486522
 30
0.0
 10
-30.38048272026521
 20
-5.465871034710989
 30
0.0
 10
-31.14040451179363
 20
-5.290578570996001
 30
0.0
 10
-32.1733628111354
 20
-5.019670714496806
 30
0.0
 10
-33.20621585419478
 20
-4.717826901941769
 30
0.0
 10
-34.23897093285634
 20
-4.386931317251969
 30
0.0
 10
-35.27162668292241
 20
-4.029012839596813
 30
0.0
 10
-36.30419581518789
 20
-3.646298961054955
 30
0.0
 10
-37.33668311073808
 20
-3.241141717985449
 30
0.0
 10
-38.36909812253564
 20
-2.816039692906254
 30
0.0
 10
-39.40145233038098
 20
-2.373615496047997
 30
0.0
 10
-40.43375469448573
 20
-1.9165896071764
 30
0.0
 10
-41.46601560664218
 20
-1.447773726787892
 30
0.0
 10
-42.49824421694482
 20
-0.9700505418778069
 30
0.0
 10
-43.53045581696289
 20
-0.4863678627102392
 30
0.0
 10
-44.21846180979104
 20
-0.1619721497308357
 30
0.0
 10
-44.56265380640469
 20
0.000314807352934
 30
0.0
  0
SPLINE
  5
320F
330
1F
100
AcDbEntity
  8
AM_0
100
AcDbSpline
210
0.0
220
0.0
230
1.0
 70
     8
 71
     3
 72
    17
 73
    13
 74
     0
 42
0.0000000001
 43
0.0000000001
 40
1.580019955310467
 40
1.580019955310467
 40
1.580019955310467
 40
1.580019955310467
 40
2.030549285115227
 40
3.082371838836284
 40
4.126290986361125
 40
5.162752068350215
 40
6.192395305374981
 40
7.216039564037012
 40
8.234688489606833
 40
9.249433870634691
 40
10.26152376260694
 40
11.27226744710342
 40
11.27226744710342
 40
11.27226744710342
 40
11.27226744710352
 10
-16.21770781920331
 20
-4.57578310981584
 30
0.0
 10
-16.36392139231936
 20
-4.622909868999112
 30
0.0
 10
-16.85232384876002
 20
-4.777374116900757
 30
0.0
 10
-17.68614796064476
 20
-5.019656816561174
 30
0.0
 10
-18.71896247455467
 20
-5.290981299182168
 30
0.0
 10
-19.75206132133327
 20
-5.529168170725447
 30
0.0
 10
-20.78520750434039
 20
-5.733417546143116
 30
0.0
 10
-21.81846624677252
 20
-5.902243705614597
 30
0.0
 10
-22.85179637408621
 20
-6.034683232689827
 30
0.0
 10
-23.88519084480536
 20
-6.129877874918552
 30
0.0
 10
-24.91862419876635
 20
-6.187214853333604
 30
0.0
 10
-25.60774698354997
 20
-6.200000576432185
 30
0.0
 10
-25.95207905833735
 20
-6.200000540955449
 30
0.0
  0
ELLIPSE
  5
3210
330
1F
100
AcDbEntity
  8
AM_0
 48
0.5
100
AcDbEllipse
 10
3.604752153594295
 20
-9.798068910903428
 30
0.0
 11
-0.0005489754745799
 21
10.47132135856333
 31
0.0
210
0.0
220
0.0
230
1.0
 40
0.9758052132395762
 41
0.3604926677047471
 42
0.6210354743078184
  0
ELLIPSE
  5
3211
330
1F
100
AcDbEntity
  8
AM_0
 48
0.5
100
AcDbEllipse
 10
-11.5583501835119
 20
10.4058471356389
 30
0.0
 11
0.0000000000064554
 21
14.9488568941748
 31
0.0
210
0.0
220
0.0
230
1.0
 40
0.9889930252833398
 41
3.652175978818616
 42
3.740670756498113
  0
ELLIPSE
  5
3212
330
1F
100
AcDbEntity
  8
AM_0
 48
0.5
100
AcDbEllipse
 10
2.970343582695569
 20
7.443480904356555
 30
0.0
 11
-0.0000000000000782
 21
12.49575748443582
 31
0.0
210
0.0
220
0.0
230
1.0
 40
0.988993025283349
 41
2.101163880028968
 42
2.509284810223864
  0
ELLIPSE
  5
3213
330
1F
100
AcDbEntity
  8
AM_0
 48
0.5
100
AcDbEllipse
 10
-2.770880448495466
 20
-1.615809790834161
 30
0.0
 11
-0.8833793463893226
 21
0.5195414800828563
 31
0.0
210
0.0
220
0.0
230
1.0
 40
0.5027358772692893
 41
4.490285498800862
 42
7.633725840130372
  0
ELLIPSE
  5
3214
330
1F
100
AcDbEntity
  8
AM_0
 48
0.5
100
AcDbEllipse
 10
-2.770880448495466
 20
-1.615809790834161
 30
0.0
 11
-0.1762093797384715
 21
1.017852353948552
 31
0.0
210
0.0
220
0.0
230
0.9999999999999998
 40
0.4948190016863368
 41
1.808342806933934
 42
4.943684696645908
  0
ELLIPSE
  5
3215
330
1F
100
AcDbEntity
  8
AM_0
 48
0.5
100
AcDbEllipse
 10
5.398105459600252
 20
-1.378175132020023
 30
0.0
 11
9.725530452894208
 21
1.305214307630454
 31
0.0
210
0.0
220
0.0
230
1.0
 40
0.6635450645196462
 41
3.134320699072772
 42
3.763804803976032
  0
LINE
  5
3216
330
1F
100
AcDbEntity
  8
AM_11
 48
0.5
100
AcDbLine
 10
-99.79486288629024
 20
-6.200000540954401
 30
0.0
 11
-84.58569316026313
 21
-6.200000540954638
 31
0.0
  0
LINE
  5
3217
330
1F
100
AcDbEntity
  8
AM_0
 48
0.5
100
AcDbLine
 10
-88.40235914334
 20
3.24135440997517
 30
0.0
 11
-104.0645422921368
 21
-0.1916264169082821
 31
0.0
  0
LINE
  5
3218
330
1F
100
AcDbEntity
  8
AM_11
 48
0.5
100
AcDbLine
 10
-98.16602595810643
 20
6.199999459045567
 30
0.0
 11
-84.58569316026297
 21
6.199999459045361
 31
0.0
  0
SPLINE
  5
3219
330
1F
100
AcDbEntity
  8
AM_0
100
AcDbSpline
210
0.0
220
0.0
230
1.0
 70
     8
 71
     3
 72
    13
 73
     9
 74
     0
 42
0.0000000001
 43
0.0000000001
 40
16.03460056234195
 40
16.03460056234195
 40
16.03460056234195
 40
16.03460056234195
 40
16.35212717791071
 40
17.38177067057215
 40
18.41822498539278
 40
19.46214186516937
 40
20.5139635832251
 40
21.34083983469381
 40
21.34083983469381
 40
21.34083983469381
 40
21.34083983469381
 10
-101.673671247262
 20
-6.200000540954391
 30
0.0
 10
-99.97900364952663
 20
-6.161225592903331
 30
0.0
 10
-99.5289972335485
 20
-6.088492682349101
 30
0.0
 10
-98.73630717360896
 20
-5.909906408897685
 30
0.0
 10
-97.70977078207986
 20
-5.644354409980545
 30
0.0
 10
-96.68418804988704
 20
-5.346182752069177
 30
0.0
 10
-95.73518663739617
 20
-5.041424555986548
 30
0.0
 10
-95.12974044805137
 20
-4.831576849468511
 30
0.0
 10
-94.27748049534594
 20
-4.590852760274259
 30
0.0
  0
ELLIPSE
  5
321A
330
1F
100
AcDbEntity
  8
AM_0
 48
0.5
100
AcDbEllipse
 10
-101.4584123857892
 20
-4.133333874287758
 30
0.0
 11
-1.41432637316946
 21
1.615415457328251
 31
0.0
210
0.0
220
0.0
230
1.0
 40
0.9194868031201689
 41
0.9057186587837108
 42
2.380683994148198
  0
SPLINE
  5
321B
330
1F
100
AcDbEntity
  8
AM_0
 48
0.5
100
AcDbSpline
210
0.0
220
0.0
230
1.0
 70
     8
 71
     3
 72
    26
 73
    22
 74
     0
 42
0.0000000001
 43
0.0000000001
 40
0.0
 40
0.0
 40
0.0
 40
0.0
 40
0.6738291229976858
 40
1.34855571764586
 40
2.025052638331105
 40
2.7041418300023
 40
3.386571335776987
 40
4.073000160460178
 40
4.763974215119558
 40
5.459920313469455
 40
6.161135349283505
 40
6.867779534345081
 40
7.579884616450838
 40
8.297322010138517
 40
9.01989019369366
 40
9.747205405079087
 40
10.47881203259601
 40
11.21414938923388
 40
11.95257396527625
 40
12.69337415957888
 40
13.41285713964268
 40
13.41285713964268
 40
13.41285713964268
 40
13.41285713964268
 10
-81.69278971633405
 20
-6.200000540954684
 30
0.0
 10
-82.0371217957056
 20
-6.196311691319609
 30
0.0
 10
-82.72624456965107
 20
-6.188929078878063
 30
0.0
 10
-83.75967794490883
 20
-6.12941692956609
 30
0.0
 10
-84.79306720979211
 20
-6.034808171534319
 30
0.0
 10
-85.82639250671396
 20
-5.902210351312572
 30
0.0
 10
-86.85964357855896
 20
-5.733420632061867
 30
0.0
 10
-87.89279983895772
 20
-5.529188809019403
 30
0.0
 10
-88.92586060059718
 20
-5.290894751624104
 30
0.0
 10
-89.95881881802581
 20
-5.019985737966109
 30
0.0
 10
-90.99167204923036
 20
-4.718142713211329
 30
0.0
 10
-92.02442879463154
 20
-4.387244373452157
 30
0.0
 10
-93.05708477482257
 20
-4.02933390927683
 30
0.0
 10
-94.08965169008665
 20
-3.64660683222495
 30
0.0
 10
-95.12214334655501
 20
-3.241461266062968
 30
0.0
 10
-96.15456197505428
 20
-2.816354928202614
 30
0.0
 10
-97.18691527172255
 20
-2.373928907012472
 30
0.0
 10
-98.33976492905064
 20
-2.040444272899514
 30
0.0
 10
-99.55640870425666
 20
-1.656173511658977
 30
0.0
 10
-100.9052579235578
 20
-1.309488891630445
 30
0.0
 10
-102.1215278512443
 20
-0.878530523917168
 30
0.0
 10
-104.0645422921368
 20
-0.1916264169082821
 30
0.0
  0
SPLINE
  5
321C
330
1F
100
AcDbEntity
  8
AM_0
100
AcDbSpline
210
0.0
220
0.0
230
1.0
 70
     8
 71
     3
 72
    23
 73
    19
 74
     0
 42
0.0000000001
 43
0.0000000001
 40
16.03460024169435
 40
16.03460024169435
 40
16.03460024169435
 40
16.03460024169435
 40
16.35212704903564
 40
17.38177054169784
 40
18.41822485651776
 40
19.46214173629503
 40
20.51396345435107
 40
21.57393551351153
 40
22.64208202342361
 40
23.7182574881101
 40
24.80209208578934
 40
25.89306333925047
 40
26.99048218457928
 40
28.09348763352352
 40
29.20111863782268
 40
30.31232390128032
 40
31.42594612798585
 40
32.5407912310448
 40
32.5407912310486
 40
32.5407912310486
 40
32.5407912310486
 10
-98.16602595810643
 20
6.199999459045567
 30
0.0
 10
-98.16602595810643
 20
6.199999459045567
 30
0.0
 10
-96.41109541148233
 20
6.046134937982637
 30
0.0
 10
-95.6600430736759
 20
5.910221254716039
 30
0.0
 10
-94.63350681133174
 20
5.644668519484755
 30
0.0
 10
-93.60792404415304
 20
5.346497060979698
 30
0.0
 10
-92.58323416963612
 20
5.017432543519409
 30
0.0
 10
-91.55940081972158
 20
4.659309509155502
 30
0.0
 10
-90.53636481929544
 20
4.274175140177596
 30
0.0
 10
-89.51405492801907
 20
3.864270822007664
 30
0.0
 10
-88.49241305457265
 20
3.431917818900568
 30
0.0
 10
-87.4713572902227
 20
2.979631892240874
 30
0.0
 10
-86.4508048898176
 20
2.510041923243717
 30
0.0
 10
-85.43068785686166
 20
2.0258478573661
 30
0.0
 10
-84.41092083940164
 20
1.529865216793423
 30
0.0
 10
-83.3914093854146
 20
1.024990176265448
 30
0.0
 10
-82.37207047788876
 20
0.5141483499266948
 30
0.0
 10
-81.69269373558819
 20
0.1716568379089269
 30
0.0
 10
-81.35282009420942
 20
0.0003148073511648
 30
0.0
  0
SPLINE
  5
321D
330
1F
100
AcDbEntity
  8
AM_0
 48
0.5
100
AcDbSpline
210
0.0
220
0.0
230
1.0
 70
     8
 71
     3
 72
    22
 73
    18
 74
     0
 42
0.0000000001
 43
0.0000000001
 40
0.0
 40
0.0
 40
0.0
 40
0.0
 40
1.010743684496582
 40
2.022833993863546
 40
3.037578683882831
 40
4.056212471389632
 40
5.079857945358201
 40
6.109499720892564
 40
7.145961650132166
 40
8.189873411961459
 40
9.241710626092514
 40
10.30166235592959
 40
11.36982472628033
 40
12.44598212828784
 40
13.52983440361964
 40
14.62080578343036
 40
14.90544694398022
 40
14.90544694398022
 40
14.90544694398022
 40
14.90544694398022
 10
-84.58570095719551
 20
-6.200000540954639
 30
0.0
 10
-84.93003310232159
 20
-6.196312793210172
 30
0.0
 10
-85.61915615005849
 20
-6.188932384494611
 30
0.0
 10
-86.6525884430951
 20
-6.129403659806373
 30
0.0
 10
-87.68597882383796
 20
-6.0348108202738
 30
0.0
 10
-88.71930467914973
 20
-5.902212912487054
 30
0.0
 10
-89.75255290316447
 20
-5.733407315500794
 30
0.0
 10
-90.78571271672743
 20
-5.529193150746793
 30
0.0
 10
-91.81876898038046
 20
-5.290890433990409
 30
0.0
 10
-92.85172879777883
 20
-5.019977498125295
 30
0.0
 10
-93.88458286559922
 20
-4.71814587823249
 30
0.0
 10
-94.91733658143543
 20
-4.387232555550013
 30
0.0
 10
-95.94999660275437
 20
-4.029343282845507
 30
0.0
 10
-96.98256215390713
 20
-3.646605696694601
 30
0.0
 10
-98.015052578793
 20
-3.241458008806804
 30
0.0
 10
-98.7910412880967
 20
-2.921955221548736
 30
0.0
 10
-99.22344927611053
 20
-2.739337698492842
 30
0.0
 10
-101.0361845820902
 20
-2.212267495169149
 30
0.0
  0
ELLIPSE
  5
321E
330
1F
100
AcDbEntity
  8
AM_0
 48
0.5
100
AcDbEllipse
 10
-101.80990265006
 20
-3.978393173549434
 30
0.0
 11
1.224593717514969
 21
1.543276184384165
 31
0.0
210
0.0
220
0.0
230
1.0
 40
0.7723910405282304
 41
0.3290394859827863
 42
2.220985341822894
  0
SPLINE
  5
321F
330
1F
100
AcDbEntity
  8
AM_0
100
AcDbSpline
210
0.0
220
0.0
230
1.0
 70
     8
 71
     3
 72
    22
 73
    18
 74
     0
 42
0.0000000001
 43
0.0000000001
 40
17.17441611292
 40
17.17441611292
 40
17.17441611292
 40
17.17441611292
 40
17.38177636558528
 40
18.41823744757437
 40
19.46215659509824
 40
20.51397914882054
 40
21.57394542641293
 40
22.64209583141747
 40
23.71826625065247
 40
24.80210429862395
 40
25.8930771157021
 40
26.99048705697709
 40
28.09349309193389
 40
29.20112995599786
 40
30.31233024745139
 40
31.42594771747373
 40
32.5407895042663
 40
32.54078950426994
 40
32.54078950426994
 40
32.54078950426994
 10
-66.68648970413403
 20
-5.567645414379086
 30
0.0
 10
-66.75568987477197
 20
-5.553293022486061
 30
0.0
 10
-67.17050710533221
 20
-5.465871034710525
 30
0.0
 10
-67.93042889686063
 20
-5.290578570995539
 30
0.0
 10
-68.9633871962024
 20
-5.019670714496342
 30
0.0
 10
-69.99624023926177
 20
-4.717826901941307
 30
0.0
 10
-71.02899531792331
 20
-4.386931317251506
 30
0.0
 10
-72.06165106798943
 20
-4.02901283959635
 30
0.0
 10
-73.09422020025491
 20
-3.646298961054493
 30
0.0
 10
-74.12670749580509
 20
-3.241141717984986
 30
0.0
 10
-75.15912250760267
 20
-2.816039692905792
 30
0.0
 10
-76.19147671544796
 20
-2.373615496047536
 30
0.0
 10
-77.22377907955269
 20
-1.916589607175937
 30
0.0
 10
-78.25603999170912
 20
-1.44777372678743
 30
0.0
 10
-79.28826860201181
 20
-0.9700505418773445
 30
0.0
 10
-80.32048020202989
 20
-0.4863678627097768
 30
0.0
 10
-81.00848619485804
 20
-0.1619721497303733
 30
0.0
 10
-81.35267819147168
 20
0.0003148073533963
 30
0.0
  0
SPLINE
  5
3220
330
1F
100
AcDbEntity
  8
AM_0
100
AcDbSpline
210
0.0
220
0.0
230
1.0
 70
     8
 71
     3
 72
    46
 73
    42
 74
     0
 42
0.0000000001
 43
0.0000000001
 40
0.0
 40
0.0
 40
0.0
 40
0.0
 40
1.348332046947654
 40
2.024828967632893
 40
2.703918159304094
 40
3.386347665078122
 40
4.072776489761951
 40
4.763750544421345
 40
5.459696642770595
 40
6.160921452191748
 40
6.867565637253344
 40
7.579665907256597
 40
8.297112853413899
 40
9.019671552060666
 40
9.746986763446125
 40
10.47859339096365
 40
11.21393074760088
 40
11.95235532364327
 40
12.69315551794651
 40
13.43556823304427
 40
14.1787950170388
 40
14.92202180103393
 40
15.66443451613169
 40
16.40523471043432
 40
17.14365928647669
 40
17.87899664311455
 40
18.61060327063121
 40
19.33791848201689
 40
20.06048192311554
 40
20.77792886927282
 40
21.49002913927608
 40
22.19667332433747
 40
22.89788836015233
 40
23.59383445850157
 40
24.28480851316097
 40
24.97123685067575
 40
25.65366676154837
 40
26.33276604526151
 40
27.00926273560554
 40
27.68398960851752
 40
28.35781868496899
 40
28.35781868496899
 40
28.35781868496899
 40
28.35781868496899
 10
-40.38196854539926
 20
-6.200000540955348
 30
0.0
 10
-41.071124988702
 20
-6.185876461689668
 30
0.0
 10
-42.10605101659638
 20
-6.164665926122383
 30
0.0
 10
-43.48223728718699
 20
-6.03407655521737
 30
0.0
 10
-44.51557369505183
 20
-5.902407731032556
 30
0.0
 10
-45.54882177725282
 20
-5.733367326820379
 30
0.0
 10
-46.58197881186073
 20
-5.529203134063609
 30
0.0
 10
-47.61503949134523
 20
-5.290891231535304
 30
0.0
 10
-48.64800208548488
 20
-5.019984070000942
 30
0.0
 10
-49.68086199723139
 20
-4.718145059535202
 30
0.0
 10
-50.71362129102392
 20
-4.387246317616037
 30
0.0
 10
-51.74627718905398
 20
-4.029328282074324
 30
0.0
 10
-52.77884628149113
 20
-3.646614284312011
 30
0.0
 10
-53.8113335868275
 20
-3.241457071348197
 30
0.0
 10
-54.8437485997469
 20
-2.816355046347963
 30
0.0
 10
-55.87610279309626
 20
-2.373930818501106
 30
0.0
 10
-56.90840521447999
 20
-1.916905054433098
 30
0.0
 10
-57.94066591080529
 20
-1.448088703171425
 30
0.0
 10
-58.9728958269782
 20
-0.9703670546507677
 30
0.0
 10
-60.00510439248648
 20
-0.4866777612006205
 30
0.0
 10
-61.03730428106729
 20
-0.0000005410534858
 30
0.0
 10
-62.06950416942131
 20
0.4866766796850567
 30
0.0
 10
-63.10171273560975
 20
0.970365971361835
 30
0.0
 10
-64.13394264929656
 20
1.44808762636337
 30
0.0
 10
-65.16620335484055
 20
1.916903953589838
 30
0.0
 10
-66.19850574204228
 20
2.373929806777929
 30
0.0
 10
-67.23086006197921
 20
2.816353704581792
 30
0.0
 10
-68.26327685107909
 20
3.241457874567749
 30
0.0
 10
-69.29576816816305
 20
3.64661140647289
 30
0.0
 10
-70.3283391025452
 20
4.029327366661524
 30
0.0
 10
-71.36099497653211
 20
4.387245508702895
 30
0.0
 10
-72.39375002786679
 20
4.718141209945406
 30
0.0
 10
-73.42660305788008
 20
5.019984889604953
 30
0.0
 10
-74.45956143553576
 20
5.290893157824715
 30
0.0
 10
-75.49262151713897
 20
5.529189468737235
 30
0.0
 10
-76.52577930919439
 20
5.733412877155225
 30
0.0
 10
-77.55903398566434
 20
5.902211889502628
 30
0.0
 10
-78.59236506900865
 20
6.034807637680917
 30
0.0
 10
-79.62576008404423
 20
6.129407722028505
 30
0.0
 10
-80.65919261055014
 20
6.188935928335149
 30
0.0
 10
-81.34831567300977
 20
6.196313252617972
 30
0.0
 10
-81.69264781359155
 20
6.199999459045316
 30
0.0
  0
LINE
  5
3221
330
1F
100
AcDbEntity
  8
AM_0
100
AcDbLine
 10
-84.58569316026297
 20
6.199999459045361
 30
0.0
 11
-60.21874590049637
 21
6.20088028156343
 31
0.0
  0
LINE
  5
3222
330
1F
100
AcDbEntity
  8
AM_0
 48
0.5
100
AcDbLine
 10
-84.5857009572313
 20
-6.200000540954555
 30
0.0
 11
-62.74210057524193
 21
-6.200000540954837
 31
0.0
  0
SPLINE
  5
3223
330
1F
100
AcDbEntity
  8
AM_0
100
AcDbSpline
210
0.0
220
0.0
230
1.0
 70
     8
 71
     3
 72
    55
 73
    51
 74
     0
 42
0.0000000001
 43
0.0000000001
 40
0.0
 40
0.0
 40
0.0
 40
0.0
 40
1.010743684496582
 40
2.022833576467832
 40
3.037578957496688
 40
4.056212745003489
 40
5.079857003664532
 40
6.109500240690281
 40
7.145961322679372
 40
8.189895241603872
 40
9.241717795325891
 40
10.30168407291828
 40
11.36983447792315
 40
12.44600489715814
 40
13.52984294512926
 40
14.62081576220742
 40
15.7182257034828
 40
16.82123173843959
 40
17.92886860250316
 40
19.0400688939571
 40
20.15368796660465
 40
21.26852814259644
 40
22.38336992938901
 40
23.49698739941135
 40
24.6081876908653
 40
25.71582455492886
 40
26.81883757994213
 40
27.91624752121713
 40
29.00722033829659
 40
30.09105838626677
 40
31.16722880550176
 40
32.23537921050758
 40
33.29534548809967
 40
34.347168041821
 40
35.39108718934584
 40
36.42754827133493
 40
37.45720575381954
 40
38.48085062012849
 40
39.49948440763516
 40
40.51422944315121
 40
41.52631975251916
 40
42.53706336719636
 40
43.54780698187354
 40
44.55989729124051
 40
45.57464232675757
 40
46.59327611426424
 40
47.6169209805722
 40
48.64656348684535
 40
49.68302456883444
 40
50.58557219878025
 40
50.58557219878025
 40
50.58557219878025
 40
50.58557219878025
 10
-43.27487978626074
 20
-6.200000540955302
 30
0.0
 10
-43.61921186559089
 20
-6.196311691159475
 30
0.0
 10
-44.30833463945313
 20
-6.188929078396241
 30
0.0
 10
-45.34176801533381
 20
-6.129416931501532
 30
0.0
 10
-46.37515727784019
 20
-6.034808164246153
 30
0.0
 10
-47.40848258369675
 20
-5.902210378695392
 30
0.0
 10
-48.44173362194354
 20
-5.733420529067751
 30
0.0
 10
-49.47489000884778
 20
-5.529189196926028
 30
0.0
 10
-50.50795520027175
 20
-5.290892157317745
 30
0.0
 10
-51.54092003501502
 20
-5.01998862729708
 30
0.0
 10
-52.57377747670449
 20
-4.718141938104277
 30
0.0
 10
-53.60653267356348
 20
-4.387246750205109
 30
0.0
 10
-54.63918839151636
 20
-4.0293281648342
 30
0.0
 10
-55.67175753276918
 20
-3.646614316103006
 30
0.0
 10
-56.70424482480812
 20
-3.241457062610846
 30
0.0
 10
-57.73665984161717
 20
-2.816355049210833
 30
0.0
 10
-58.76901403281859
 20
-2.373930815845464
 30
0.0
 10
-59.80131645890391
 20
-1.916905062223651
 30
0.0
 10
-60.83357713848587
 20
-1.448088674517573
 30
0.0
 10
-61.86580711719232
 20
-0.9703671618953933
 30
0.0
 10
-62.89801544866282
 20
-0.486677359890374
 30
0.0
 10
-63.93021670927785
 20
-0.0000018059801866
 30
0.0
 10
-64.96241333617286
 20
0.4866825083932712
 30
0.0
 10
-65.99462512738071
 20
0.9703647780686853
 30
0.0
 10
-67.02685383178544
 20
1.448087736726686
 30
0.0
 10
-68.05911635187675
 20
1.916905910414239
 30
0.0
 10
-69.09142306044772
 20
2.373927763698019
 30
0.0
 10
-70.12377888097676
 20
2.816354240769831
 30
0.0
 10
-71.15619404683219
 20
3.241455909455939
 30
0.0
 10
-72.18868130130224
 20
3.646613248151147
 30
0.0
 10
-73.22125044519906
 20
4.029327097442176
 30
0.0
 10
-74.25390618945451
 20
4.387245597229351
 30
0.0
 10
-75.28666127972186
 20
4.718141123002948
 30
0.0
 10
-76.31951428256946
 20
5.019985146893356
 30
0.0
 10
-77.35247272961834
 20
5.290892225074373
 30
0.0
 10
-78.38553753782875
 20
5.529194056536338
 30
0.0
 10
-79.41870130181587
 20
5.733402062624896
 30
0.0
 10
-80.45195575363212
 20
5.902244156279156
 30
0.0
 10
-81.48528136581253
 20
6.034684764269891
 30
0.0
 10
-82.51867134634917
 20
6.129868056104428
 30
0.0
 10
-83.55210384600148
 20
6.187223025466604
 30
0.0
 10
-84.58555905470626
 20
6.206383422908996
 30
0.0
 10
-85.61901426189049
 20
6.187223025436592
 30
0.0
 10
-86.65244676611342
 20
6.129868056224998
 30
0.0
 10
-87.6858367298224
 20
6.03468476381577
 30
0.0
 10
-88.71916240509387
 20
5.902244157985987
 30
0.0
 10
-89.75241158241447
 20
5.733402879339636
 30
0.0
 10
-90.78557127612956
 20
5.529196144452973
 30
0.0
 10
-91.77166486943926
 20
5.301709619524804
 30
0.0
 10
-92.41145362273163
 20
5.135346573261494
 30
0.0
 10
-92.70827831467377
 20
5.054269745139248
 30
0.0
  0
DIMENSION
  5
32BA
330
1F
100
AcDbEntity
  8
AM_5
100
AcDbDimension
  2
*D9
 10
-0.7147729829007366
 20
-1.963810107397344
 30
0.0
 11
32.35980634774191
 21
-0.000033204199626
 31
0.0
 70
    34
  1
<>
 51
359.9999999999998
  3
AM_JIS$2
100
AcDb2LineAngularDimension
 13
-0.0000000000000284
 23
0.0000000000000001
 33
0.0
 14
-0.7147573352034513
 24
1.963779655178785
 34
0.0
 15
-0.0000000000000284
 25
0.0000000000000001
 35
0.0
 16
32.55975571525849
 26
-14.044934103913
 36
0.0
1001
GENIUS_GENDTOL_13
1000

1000
h7
1000

1040
0.0
1001
ACAD
1000
DSTYLE
1002
{
1070
   271
1070
     0
1002
}
  0
ELLIPSE
  5
33BE
330
1F
100
AcDbEntity
  8
AM_11
 48
0.5
100
AcDbEllipse
 10
-169.274295392713
 20
-25.83924271717626
 30
0.0
 11
-28.85782559712684
 21
0.0000000000017703
 31
0.0
210
0.0
220
0.0
230
1.0
 40
0.9900000000000011
 41
4.271664206181739
 42
4.702883776251653
  0
ELLIPSE
  5
33BF
330
1F
100
AcDbEntity
  8
AM_11
 48
0.5
100
AcDbEllipse
 10
-120.0319263509991
 20
-25.839242717176
 30
0.0
 11
-28.85782559712684
 21
0.0000000000017703
 31
0.0
210
0.0
220
0.0
230
1.0
 40
0.9900000000000011
 41
4.271664206181739
 42
5.153113667165048
  0
ELLIPSE
  5
33C0
330
1F
100
AcDbEntity
  8
AM_11
 48
0.5
100
AcDbEllipse
 10
-144.6531384722112
 20
-25.83924271717582
 30
0.0
 11
-28.85782559712679
 21
0.0000000000015012
 31
0.0
210
0.0
220
0.0
230
1.0
 40
0.9900000000000032
 41
4.271664206181728
 42
5.153113667165039
  0
ELLIPSE
  5
33C1
330
1F
100
AcDbEntity
  8
AM_11
 48
0.5
100
AcDbEllipse
 10
-169.2742953927126
 20
25.83926089152711
 30
0.0
 11
-28.85782559712688
 21
0.0000000000010911
 31
0.0
210
0.0
220
0.0
230
1.0
 40
0.9899999999999995
 41
1.580301530928017
 42
2.011520147323624
  0
ELLIPSE
  5
33C2
330
1F
100
AcDbEntity
  8
AM_11
 48
0.5
100
AcDbEllipse
 10
-120.0319263509987
 20
25.83926089152738
 30
0.0
 11
-28.85782559712688
 21
0.0000000000010911
 31
0.0
210
0.0
220
0.0
230
1.0
 40
0.9899999999999995
 41
1.130070686340335
 42
2.011520147323624
  0
ELLIPSE
  5
33C3
330
1F
100
AcDbEntity
  8
AM_11
 48
0.5
100
AcDbEllipse
 10
-144.6531384722108
 20
25.83926089152757
 30
0.0
 11
-28.85782559712687
 21
0.0000000000002773
 31
0.0
210
0.0
220
0.0
230
1.0
 40
0.9900000000000002
 41
1.130070686340306
 42
2.011520147323597
  0
ELLIPSE
  5
33C4
330
1F
100
AcDbEntity
  8
AM_11
 48
0.5
100
AcDbEllipse
 10
-95.41076943049676
 20
-25.83924271717586
 30
0.0
 11
-28.85782559712679
 21
0.0000000000015012
 31
0.0
210
0.0
220
0.0
230
1.0
 40
0.9900000000000032
 41
4.271664206181728
 42
5.153113667165039
  0
ELLIPSE
  5
33C5
330
1F
100
AcDbEntity
  8
AM_11
 48
0.5
100
AcDbEllipse
 10
-95.41076943049633
 20
25.83926089152753
 30
0.0
 11
-28.85782559712687
 21
0.0000000000002773
 31
0.0
210
0.0
220
0.0
230
1.0
 40
0.9900000000000002
 41
1.130070686340306
 42
2.011520147323597
  0
ELLIPSE
  5
33C6
330
1F
100
AcDbEntity
  8
AM_11
 48
0.5
100
AcDbEllipse
 10
-70.78955730928463
 20
-25.83924271717604
 30
0.0
 11
-28.85782559712684
 21
0.0000000000017703
 31
0.0
210
0.0
220
0.0
230
1.0
 40
0.9900000000000011
 41
4.271664206181739
 42
5.153113667165048
  0
ELLIPSE
  5
33C7
330
1F
100
AcDbEntity
  8
AM_11
 48
0.5
100
AcDbEllipse
 10
-70.7895573092842
 20
25.83926089152734
 30
0.0
 11
-28.85782559712688
 21
0.0000000000010911
 31
0.0
210
0.0
220
0.0
230
1.0
 40
0.9899999999999995
 41
1.130070686340335
 42
2.011520147323624
  0
ELLIPSE
  5
33C8
330
1F
100
AcDbEntity
  8
AM_11
 48
0.5
100
AcDbEllipse
 10
-46.16840038878295
 20
-25.8392427171754
 30
0.0
 11
-28.85782559712679
 21
0.0000000000015012
 31
0.0
210
0.0
220
0.0
230
1.0
 40
0.9900000000000032
 41
4.271664206181728
 42
5.153113667165039
  0
ELLIPSE
  5
33C9
330
1F
100
AcDbEntity
  8
AM_11
 48
0.5
100
AcDbEllipse
 10
-46.16840038878254
 20
25.83926089152798
 30
0.0
 11
-28.85782559712687
 21
0.0000000000002773
 31
0.0
210
0.0
220
0.0
230
1.0
 40
0.9900000000000002
 41
1.130070686340306
 42
2.011520147323597
  0
ELLIPSE
  5
33CA
330
1F
100
AcDbEntity
  8
AM_11
 48
0.5
100
AcDbEllipse
 10
-21.54718826757039
 20
25.83926089152779
 30
0.0
 11
-28.85782559712688
 21
0.0000000000010911
 31
0.0
210
0.0
220
0.0
230
1.0
 40
0.9899999999999995
 41
1.130070686340335
 42
2.011520147323624
  0
ELLIPSE
  5
33CB
330
1F
100
AcDbEntity
  8
AM_11
 48
0.5
100
AcDbEllipse
 10
-21.54718826757084
 20
-25.83924271717558
 30
0.0
 11
-28.85782559712684
 21
0.0000000000017703
 31
0.0
210
0.0
220
0.0
230
1.0
 40
0.9900000000000011
 41
4.271664206181739
 42
5.153113667165048
  0
ELLIPSE
  5
33CC
330
1F
100
AcDbEntity
  8
AM_11
 48
0.5
100
AcDbEllipse
 10
3.074023853641733
 20
25.83926089152758
 30
0.0
 11
-28.85782559712738
 21
0.0000000000269591
 31
0.0
210
0.0
220
0.0
230
1.0
 40
0.9899999999999861
 41
1.130070686341231
 42
1.291800737381917
  0
VIEWPORT
  5
110
330
101
100
AcDbEntity
 67
     1
  8
0
100
AcDbViewport
 10
420.5
 20
297.0
 30
0.0
 40
948.9782706766916
 41
628.452
 68
     1
 69
     1
1001
ACAD
1000
MVIEW
1002
{
1070
    16
1010
0.0
1020
0.0
1030
0.0
1010
0.0
1020
0.0
1030
1.0
1040
0.0
1040
628.452
1040
420.5
1040
297.0
1040
50.0
1040
0.0
1040
0.0
1070
     0
1070
   100
1070
     1
1070
     1
1070
     0
1070
     0
1070
     0
1070
     0
1040
0.0
1040
0.0
1040
0.0
1040
10.0
1040
10.0
1040
10.0
1040
10.0
1070
     0
1002
{
1002
}
1002
}
  0
ENDSEC
  0
SECTION
  2
OBJECTS
  0
DICTIONARY
  5
C
330
0
100
AcDbDictionary
  3
ACAD_GROUP
350
D
  3
ACAD_LAYOUT
350
1A
  3
ACAD_MLINESTYLE
350
17
  3
ACAD_PLOTSETTINGS
350
19
  3
ACAD_PLOTSTYLENAME
350
E
  3
ACDBVARIABLEDICTIONARY
350
34
  3
ACMDICTIONARY
350
43
  3
AMG
350
2B
  3
AMGSNAPSETTINGS
350
6E
  3
DWGPROPS
350
33E6
  3
ACDBHEADERROUNDTRIPXREC
350
33F3
  0
DICTIONARY
  5
74
330
1F
100
AcDbDictionary
280
     1
  3
ACAD_INDEX
360
33E8
  3
ACAD_LAYOUTSELFREF
360
3416
  0
DICTIONARY
  5
341B
330
101
100
AcDbDictionary
280
     1
  3
ACAD_LAYOUTSELFREF
360
341C
  0
DICTIONARY
  5
D
102
{ACAD_REACTORS
330
C
102
}
330
C
100
AcDbDictionary
  0
DICTIONARY
  5
1A
102
{ACAD_REACTORS
330
C
102
}
330
C
100
AcDbDictionary
  0
DICTIONARY
  5
17
102
{ACAD_REACTORS
330
C
102
}
330
C
100
AcDbDictionary
  3
STANDARD
350
18
  0
DICTIONARY
  5
19
102
{ACAD_REACTORS
330
C
102
}
330
C
100
AcDbDictionary
  0
ACDBDICTIONARYWDFLT
  5
E
102
{ACAD_REACTORS
330
C
102
}
330
C
100
AcDbDictionary
281
     1
  3
Normal
350
F
100
AcDbDictionaryWithDefault
340
F
  0
DICTIONARY
  5
34
102
{ACAD_REACTORS
330
C
102
}
330
C
100
AcDbDictionary
  3
INDEXCTL
350
35
  3
SORTENTS
350
B5E
  0
DICTIONARY
  5
43
102
{ACAD_REACTORS
330
C
102
}
330
C
100
AcDbDictionary
  3
ACMSTDDICTIONARY
350
260
  0
DICTIONARY
  5
2B
102
{ACAD_REACTORS
330
C
102
}
330
C
100
AcDbDictionary
  3
ACMGSETTINGS
350
2C
  0
DICTIONARY
  5
6E
102
{ACAD_REACTORS
330
C
102
}
330
C
100
AcDbDictionary
  0
XRECORD
  5
33E6
102
{ACAD_REACTORS
330
C
102
}
330
C
100
AcDbXrecord
  1
DWGPROPS COOKIE
  2

  3

  4

  6

  7

  8

  9

300
AmdtFileType=82
301
=
302
=
303
=
304
=
305
=
306
=
307
=
308
=
309
=
 40
0.0631640740740741
 41
2452800.443498622
 42
2452948.658404039
  1

 90
        1
  0
DICTIONARY
  5
33F3
102
{ACAD_REACTORS
330
C
102
}
330
C
100
AcDbDictionary
  3
TSTACKALIGN
350
33F4
  3
TSTACKSIZE
350
33F5
  3
HYPERLINKBASE
350
33F6
  3
STYLESHEET
350
33F7
  3
LAYOUTDICT
350
33F8
  3
PLOTSETDICT
350
33F9
  3
PLOTSTYLNAMDICT
350
33FA
  3
LWETCUNION
350
33FB
  3
INSUNITS
350
33FC
  3
CEPSNTYPE
350
33FD
  3
FINGERPRINTGUID
350
33FE
  3
VERSIONGUID
350
33FF
  3
PSVPSCALE
350
3400
  3
DIMSTYLEDATA
350
3401
  3
PUCSORTHOREF
350
3402
  3
PUCSORTHOVIEW
350
3403
  3
PUCSBASE
350
3404
  3
PUCSORGTOP
350
3405
  3
PUCSORGBOTTOM
350
3406
  3
PUCSORGLEFT
350
3407
  3
PUCSORGRIGHT
350
3408
  3
PUCSORGFRONT
350
3409
  3
PUCSORGBACK
350
340A
  3
UCSORTHOREF
350
340B
  3
UCSORTHOVIEW
350
340C
  3
UCSBASE
350
340D
  3
UCSORGTOP
350
340E
  3
UCSORGBOTTOM
350
340F
  3
UCSORGLEFT
350
3410
  3
UCSORGRIGHT
350
3411
  3
UCSORGFRONT
350
3412
  3
UCSORGBACK
350
3413
  0
DICTIONARY
  5
33E8
102
{ACAD_REACTORS
330
74
102
}
330
74
100
AcDbDictionary
  3
*A1
350
33E9
  0
XRECORD
  5
3416
102
{ACAD_REACTORS
330
74
102
}
330
74
100
AcDbXrecord
340
1F
  0
XRECORD
  5
341C
102
{ACAD_REACTORS
330
341B
102
}
330
341B
100
AcDbXrecord
340
101
  0
MLINESTYLE
  5
18
102
{ACAD_REACTORS
330
17
102
}
330
17
100
AcDbMlineStyle
  2
STANDARD
 70
     0
  3

 62
   256
 51
90.0
 52
90.0
 71
     2
 49
0.5
 62
   256
  6
BYLAYER
 49
-0.5
 62
   256
  6
BYLAYER
  0
ACDBPLACEHOLDER
  5
F
102
{ACAD_REACTORS
330
E
102
}
330
E
100
AcDbPlaceHolder
280
     0
  0
DICTIONARYVAR
  5
35
102
{ACAD_REACTORS
330
34
102
}
330
34
100
DictionaryVariables
280
     0
  1
1
  0
DICTIONARYVAR
  5
B5E
102
{ACAD_REACTORS
330
34
102
}
330
34
100
DictionaryVariables
280
     0
  1
96
  0
DICTIONARY
  5
260
102
{ACAD_REACTORS
330
43
102
}
330
43
100
AcDbDictionary
  0
DICTIONARY
  5
2C
102
{ACAD_REACTORS
330
2B
102
}
330
2B
100
AcDbDictionary
  3
DWGSETTINGS
350
2D
  0
XRECORD
  5
33F4
102
{ACAD_REACTORS
330
33F3
102
}
330
33F3
100
AcDbXrecord
 90
        1
  0
XRECORD
  5
33F5
102
{ACAD_REACTORS
330
33F3
102
}
330
33F3
100
AcDbXrecord
 90
       70
  0
XRECORD
  5
33F6
102
{ACAD_REACTORS
330
33F3
102
}
330
33F3
100
AcDbXrecord
  1

  0
XRECORD
  5
33F7
102
{ACAD_REACTORS
330
33F3
102
}
330
33F3
100
AcDbXrecord
  1
ASAMI.ctb
  0
XRECORD
  5
33F8
102
{ACAD_REACTORS
330
33F3
102
}
330
33F3
100
AcDbXrecord
340
1A
  0
XRECORD
  5
33F9
102
{ACAD_REACTORS
330
33F3
102
}
330
33F3
100
AcDbXrecord
340
19
  0
XRECORD
  5
33FA
102
{ACAD_REACTORS
330
33F3
102
}
330
33F3
100
AcDbXrecord
340
E
  0
XRECORD
  5
33FB
102
{ACAD_REACTORS
330
33F3
102
}
330
33F3
100
AcDbXrecord
 90
    10781
  0
XRECORD
  5
33FC
102
{ACAD_REACTORS
330
33F3
102
}
330
33F3
100
AcDbXrecord
 90
        4
  0
XRECORD
  5
33FD
102
{ACAD_REACTORS
330
33F3
102
}
330
33F3
100
AcDbXrecord
 90
        0
  0
XRECORD
  5
33FE
102
{ACAD_REACTORS
330
33F3
102
}
330
33F3
100
AcDbXrecord
  1
{AFB28963-8C59-40AE-9337-C84526B81ACE}
  0
XRECORD
  5
33FF
102
{ACAD_REACTORS
330
33F3
102
}
330
33F3
100
AcDbXrecord
  1
{F391CB73-CAA8-462B-A2FA-F4D1EF6C3D9C}
  0
XRECORD
  5
3400
102
{ACAD_REACTORS
330
33F3
102
}
330
33F3
100
AcDbXrecord
 40
0.0
  0
XRECORD
  5
3401
102
{ACAD_REACTORS
330
33F3
102
}
330
33F3
100
AcDbXrecord
1000
DSTYLE
1002
{
1070
    79
 70
     2
1070
   341
340
59
1070
   342
340
59
1070
   371
 70
    -1
1070
   372
 70
    -1
1002
}
  0
XRECORD
  5
3402
102
{ACAD_REACTORS
330
33F3
102
}
330
33F3
100
AcDbXrecord
340
0
  0
XRECORD
  5
3403
102
{ACAD_REACTORS
330
33F3
102
}
330
33F3
100
AcDbXrecord
 70
     0
  0
XRECORD
  5
3404
102
{ACAD_REACTORS
330
33F3
102
}
330
33F3
100
AcDbXrecord
340
0
  0
XRECORD
  5
3405
102
{ACAD_REACTORS
330
33F3
102
}
330
33F3
100
AcDbXrecord
 10
0.0
 20
0.0
 30
0.0
  0
XRECORD
  5
3406
102
{ACAD_REACTORS
330
33F3
102
}
330
33F3
100
AcDbXrecord
 10
0.0
 20
0.0
 30
0.0
  0
XRECORD
  5
3407
102
{ACAD_REACTORS
330
33F3
102
}
330
33F3
100
AcDbXrecord
 10
0.0
 20
0.0
 30
0.0
  0
XRECORD
  5
3408
102
{ACAD_REACTORS
330
33F3
102
}
330
33F3
100
AcDbXrecord
 10
0.0
 20
0.0
 30
0.0
  0
XRECORD
  5
3409
102
{ACAD_REACTORS
330
33F3
102
}
330
33F3
100
AcDbXrecord
 10
0.0
 20
0.0
 30
0.0
  0
XRECORD
  5
340A
102
{ACAD_REACTORS
330
33F3
102
}
330
33F3
100
AcDbXrecord
 10
0.0
 20
0.0
 30
0.0
  0
XRECORD
  5
340B
102
{ACAD_REACTORS
330
33F3
102
}
330
33F3
100
AcDbXrecord
340
0
  0
XRECORD
  5
340C
102
{ACAD_REACTORS
330
33F3
102
}
330
33F3
100
AcDbXrecord
 70
     0
  0
XRECORD
  5
340D
102
{ACAD_REACTORS
330
33F3
102
}
330
33F3
100
AcDbXrecord
340
0
  0
XRECORD
  5
340E
102
{ACAD_REACTORS
330
33F3
102
}
330
33F3
100
AcDbXrecord
 10
0.0
 20
0.0
 30
0.0
  0
XRECORD
  5
340F
102
{ACAD_REACTORS
330
33F3
102
}
330
33F3
100
AcDbXrecord
 10
0.0
 20
0.0
 30
0.0
  0
XRECORD
  5
3410
102
{ACAD_REACTORS
330
33F3
102
}
330
33F3
100
AcDbXrecord
 10
0.0
 20
0.0
 30
0.0
  0
XRECORD
  5
3411
102
{ACAD_REACTORS
330
33F3
102
}
330
33F3
100
AcDbXrecord
 10
0.0
 20
0.0
 30
0.0
  0
XRECORD
  5
3412
102
{ACAD_REACTORS
330
33F3
102
}
330
33F3
100
AcDbXrecord
 10
0.0
 20
0.0
 30
0.0
  0
XRECORD
  5
3413
102
{ACAD_REACTORS
330
33F3
102
}
330
33F3
100
AcDbXrecord
 10
0.0
 20
0.0
 30
0.0
  0
LAYER_INDEX
  5
33E9
102
{ACAD_REACTORS
330
33E8
102
}
330
33E8
100
AcDbIndex
 40
2453151.665935856
100
AcDbLayerIndex
  8
0
360
33EA
 90
        0
  8
AM_0
360
33EB
 90
       53
  8
AM_7
360
33EC
 90
        1
  8
AM_11
360
33ED
 90
       21
  8
AM_5
360
33EE
 90
        5
  8
Defpoints
360
33EF
 90
        0
  8
AM_6
360
33F0
 90
        1
  8
AM_CL
360
33F1
 90
        0
  0
XRECORD
  5
2D
102
{ACAD_REACTORS
330
2C
102
}
330
2C
100
AcDbXrecord
  1
VERSION
140
15.0
  1
PRODUCT
  2
AutoCAD Mechanical 2000
  0
IDBUFFER
  5
33EA
330
0
100
AcDbIdBuffer
  0
IDBUFFER
  5
33EB
330
0
100
AcDbIdBuffer
330
321F
330
3220
330
3221
330
3222
330
3223
330
1E25
330
1E26
330
1FD9
330
21D7
330
21D8
330
21D9
330
21DC
330
21DD
330
2694
330
2695
330
2696
330
2697
330
2698
330
2699
330
2CB4
330
2CB7
330
31F8
330
31F9
330
31FA
330
31FB
330
31FC
330
31FD
330
3202
330
3203
330
3205
330
3206
330
3207
330
3208
330
3209
330
320A
330
320B
330
320C
330
320D
330
320E
330
320F
330
3210
330
3211
330
3212
330
3213
330
3214
330
3215
330
3217
330
3219
330
321A
330
321B
330
321C
330
321D
330
321E
  0
IDBUFFER
  5
33EC
330
0
100
AcDbIdBuffer
330
C9F
  0
IDBUFFER
  5
33ED
330
0
100
AcDbIdBuffer
330
33C8
330
33C9
330
33CA
330
33CB
330
33CC
330
31FE
330
31FF
330
3200
330
3201
330
3216
330
3218
330
33BE
330
33BF
330
33C0
330
33C1
330
33C2
330
33C3
330
33C4
330
33C5
330
33C6
330
33C7
  0
IDBUFFER
  5
33EE
330
0
100
AcDbIdBuffer
330
CC6
330
DF5
330
1FB6
330
2216
330
32BA
  0
IDBUFFER
  5
33EF
330
0
100
AcDbIdBuffer
  0
IDBUFFER
  5
33F0
330
0
100
AcDbIdBuffer
330
19BD
  0
IDBUFFER
  5
33F1
330
0
100
AcDbIdBuffer
  0
ENDSEC
  0
EOF
