  0
SECTION
  2
HEADER
  9
$ACADVER
  1
AC1014
  9
$ACADMAINTVER
 70
     9
  9
$DWGCODEPAGE
  3
ANSI_932
  9
$INSBASE
 10
0.0
 20
0.0
 30
0.0
  9
$EXTMIN
 10
-231.8192274839059
 20
-53.00000157670736
 30
-0.00000001
  9
$EXTMAX
 10
34.81148065593407
 20
33.65178411179107
 30
0.00000001
  9
$LIMMIN
 10
-236.9901510779113
 20
-83.09940426482228
  9
$LIMMAX
 10
47.49378994390508
 20
60.96314283494473
  9
$ORTHOMODE
 70
     0
  9
$REGENMODE
 70
     1
  9
$FILLMODE
 70
     1
  9
$QTEXTMODE
 70
     0
  9
$MIRRTEXT
 70
     0
  9
$DRAGMODE
 70
     2
  9
$LTSCALE
 40
1.0
  9
$OSMODE
 70
    55
  9
$ATTMODE
 70
     1
  9
$TEXTSIZE
 40
2.5
  9
$TRACEWID
 40
1.0
  9
$TEXTSTYLE
  7
STANDARD
  9
$CLAYER
  8
AM_0
  9
$CELTYPE
  6
BYLAYER
  9
$CECOLOR
 62
   256
  9
$CELTSCALE
 40
1.0
  9
$DELOBJ
 70
     1
  9
$DISPSILH
 70
     0
  9
$DIMSCALE
 40
1.0
  9
$DIMASZ
 40
2.5
  9
$DIMEXO
 40
1.0
  9
$DIMDLI
 40
12.0
  9
$DIMRND
 40
0.0
  9
$DIMDLE
 40
0.0
  9
$DIMEXE
 40
1.0
  9
$DIMTP
 40
0.1
  9
$DIMTM
 40
0.1
  9
$DIMTXT
 40
3.2
  9
$DIMCEN
 40
0.0
  9
$DIMTSZ
 40
0.0
  9
$DIMTOL
 70
     0
  9
$DIMLIM
 70
     0
  9
$DIMTIH
 70
     0
  9
$DIMTOH
 70
     0
  9
$DIMSE1
 70
     0
  9
$DIMSE2
 70
     0
  9
$DIMTAD
 70
     3
  9
$DIMZIN
 70
     8
  9
$DIMBLK
  1
OPEN30
  9
$DIMASO
 70
     1
  9
$DIMSHO
 70
     1
  9
$DIMPOST
  1

  9
$DIMAPOST
  1
"
  9
$DIMALT
 70
     0
  9
$DIMALTD
 70
     2
  9
$DIMALTF
 40
0.0393701
  9
$DIMLFAC
 40
1.0
  9
$DIMTOFL
 70
     1
  9
$DIMTVP
 40
0.0
  9
$DIMTIX
 70
     0
  9
$DIMSOXD
 70
     0
  9
$DIMSAH
 70
     0
  9
$DIMBLK1
  1

  9
$DIMBLK2
  1

  9
$DIMSTYLE
  2
AM_JIS
  9
$DIMCLRD
 70
   256
  9
$DIMCLRE
 70
   256
  9
$DIMCLRT
 70
     2
  9
$DIMTFAC
 40
0.71
  9
$DIMGAP
 40
1.5
  9
$DIMJUST
 70
     0
  9
$DIMSD1
 70
     0
  9
$DIMSD2
 70
     0
  9
$DIMTOLJ
 70
     0
  9
$DIMTZIN
 70
     0
  9
$DIMALTZ
 70
     0
  9
$DIMALTTZ
 70
     0
  9
$DIMFIT
 70
     3
  9
$DIMUPT
 70
     0
  9
$DIMUNIT
 70
     2
  9
$DIMDEC
 70
     3
  9
$DIMTDEC
 70
     3
  9
$DIMALTU
 70
     2
  9
$DIMALTTD
 70
     2
  9
$DIMTXSTY
  7
ASAMI
  9
$DIMAUNIT
 70
     0
  9
$LUNITS
 70
     2
  9
$LUPREC
 70
     2
  9
$SKETCHINC
 40
1.0
  9
$FILLETRAD
 40
2.5
  9
$AUNITS
 70
     0
  9
$AUPREC
 70
     0
  9
$MENU
  1
.
  9
$ELEVATION
 40
0.0
  9
$PELEVATION
 40
0.0
  9
$THICKNESS
 40
0.0
  9
$LIMCHECK
 70
     0
  9
$BLIPMODE
 70
     0
  9
$CHAMFERA
 40
1.0
  9
$CHAMFERB
 40
1.0
  9
$CHAMFERC
 40
20.0
  9
$CHAMFERD
 40
0.0
  9
$SKPOLY
 70
     0
  9
$TDCREATE
 40
2452800.443498622
  9
$TDUPDATE
 40
2453151.725591342
  9
$TDINDWG
 40
0.1802940509
  9
$TDUSRTIMER
 40
0.1802940509
  9
$USRTIMER
 70
     1
  9
$ANGBASE
 50
0.0
  9
$ANGDIR
 70
     0
  9
$PDMODE
 70
     0
  9
$PDSIZE
 40
0.0
  9
$PLINEWID
 40
0.0
  9
$COORDS
 70
     1
  9
$SPLFRAME
 70
     0
  9
$SPLINETYPE
 70
     6
  9
$SPLINESEGS
 70
     8
  9
$ATTDIA
 70
     1
  9
$ATTREQ
 70
     1
  9
$HANDLING
 70
 12289
  9
$HANDSEED
  5
6272
  9
$SURFTAB1
 70
     6
  9
$SURFTAB2
 70
     6
  9
$SURFTYPE
 70
     6
  9
$SURFU
 70
     6
  9
$SURFV
 70
     6
  9
$UCSNAME
  2

  9
$UCSORG
 10
0.0
 20
0.0
 30
0.0
  9
$UCSXDIR
 10
1.0
 20
0.000000000000002
 30
0.0
  9
$UCSYDIR
 10
-0.000000000000002
 20
1.0
 30
0.0
  9
$PUCSNAME
  2

  9
$PUCSORG
 10
0.0
 20
0.0
 30
0.0
  9
$PUCSXDIR
 10
1.0
 20
0.0
 30
0.0
  9
$PUCSYDIR
 10
0.0
 20
1.0
 30
0.0
  9
$USERI1
 70
     0
  9
$USERI2
 70
     0
  9
$USERI3
 70
     0
  9
$USERI4
 70
     0
  9
$USERI5
 70
     0
  9
$USERR1
 40
0.0
  9
$USERR2
 40
0.0
  9
$USERR3
 40
0.0
  9
$USERR4
 40
0.0
  9
$USERR5
 40
0.0
  9
$WORLDVIEW
 70
     1
  9
$SHADEDGE
 70
     3
  9
$SHADEDIF
 70
    70
  9
$TILEMODE
 70
     1
  9
$MAXACTVP
 70
    64
  9
$PINSBASE
 10
0.0
 20
0.0
 30
0.0
  9
$PLIMCHECK
 70
     0
  9
$PEXTMIN
 10
1.000000000000000E+20
 20
1.000000000000000E+20
 30
1.000000000000000E+20
  9
$PEXTMAX
 10
-1.000000000000000E+20
 20
-1.000000000000000E+20
 30
-1.000000000000000E+20
  9
$PLIMMIN
 10
0.0
 20
0.0
  9
$PLIMMAX
 10
841.0
 20
594.0
  9
$UNITMODE
 70
     0
  9
$VISRETAIN
 70
     1
  9
$PLINEGEN
 70
     0
  9
$PSLTSCALE
 70
     0
  9
$TREEDEPTH
 70
  3020
  9
$PICKSTYLE
 70
     0
  9
$CMLSTYLE
  2
STANDARD
  9
$CMLJUST
 70
     0
  9
$CMLSCALE
 40
20.0
  9
$PROXYGRAPHICS
 70
     1
  9
$MEASUREMENT
 70
     1
  0
ENDSEC
  0
SECTION
  2
CLASSES
  0
CLASS
  1
ACDBDICTIONARYWDFLT
  2
AcDbDictionaryWithDefault
  3
AutoCAD 2000
 90
        0
280
     0
281
     0
  0
CLASS
  1
ACDBPLACEHOLDER
  2
AcDbPlaceHolder
  3
AutoCAD 2000
 90
        0
280
     0
281
     0
  0
CLASS
  1
LAYOUT
  2
AcDbLayout
  3
AutoCAD 2000
 90
        0
280
     0
281
     0
  0
CLASS
  1
AMGSETTINGSOBJ
  2
AmgSettingsObj
  3
"AcadM|Product Description: AutoCAD Mechanical 2000|Company: Autodesk"
 90
        0
280
     0
281
     0
  0
CLASS
  1
ACME_DOCUMENT
  2
AcMeDbDoc
  3
AcMeServices
 90
        0
280
     0
281
     0
  0
CLASS
  1
ACMESCOPE
  2
AcMeScope
  3
AcMeServices
 90
        0
280
     0
281
     0
  0
CLASS
  1
ACMECOMMANDHISTORY
  2
AcMeCommandHistory
  3
AcMeServices
 90
        0
280
     0
281
     0
  0
CLASS
  1
DICTIONARYVAR
  2
AcDbDictionaryVar
  3
AutoCAD 2000
 90
        0
280
     0
281
     0
  0
CLASS
  1
ACIMSYSVARMAN
  2
AcImSysVarManager
  3
AcMeServices
 90
        0
280
     0
281
     0
  0
CLASS
  1
ACIMREALSYSVAR
  2
AcImRealSysVar
  3
AcMeServices
 90
        0
280
     0
281
     0
  0
CLASS
  1
ACIMINTSYSVAR
  2
AcImIntSysVar
  3
AcMeServices
 90
        0
280
     0
281
     0
  0
CLASS
  1
ACMEDRAWINGMAN
  2
AcMeDrawingMan
  3
AcMeServices
 90
        0
280
     0
281
     0
  0
CLASS
  1
ACMEVIEW
  2
AcMeView
  3
AcMeServices
 90
        0
280
     0
281
     0
  0
CLASS
  1
ACDBENTITYCACHE
  2
AcMeEntityCache
  3
AcMeServices
 90
        0
280
     0
281
     0
  0
CLASS
  1
GSMANAGER
  2
AcMeGSManager
  3
AcMeServices
 90
        0
280
     0
281
     0
  0
CLASS
  1
AmdtInternalReactor
  2
AmdtInternalReactor
  3
AcMeServices
 90
        0
280
     0
281
     0
  0
CLASS
  1
ACMESTATEMGR
  2
AcMeStateMgr
  3
AcMeServices
 90
        0
280
     0
281
     0
  0
CLASS
  1
ACME_DATABASE
  2
AcMeDbDatabase
  3
AcMeServices
 90
        0
280
     0
281
     0
  0
CLASS
  1
ACRFINSADJUSTERMGR
  2
AcRfInsAdjusterMgr
  3
AcMeServices
 90
        0
280
     0
281
     0
  0
CLASS
  1
ACMDATADICTIONARY
  2
AcmDataDictionary
  3
"AcmSymBB|Product Description: AutoCAD Mechanical 2000|Company: Autodesk"
 90
        0
280
     0
281
     0
  0
CLASS
  1
ACMDATAENTRYBLOCK
  2
AcmDataEntryBlock
  3
"AcmSymBB|Product Description: AutoCAD Mechanical 2000|Company: Autodesk"
 90
        0
280
     0
281
     0
  0
CLASS
  1
AMGOBJPROPCFG
  2
AmgObjPropCfg
  3
"AmgLay|Product Description: AutoCAD Mechanical 2000|Company: Autodesk"
 90
        1
280
     0
281
     0
  0
CLASS
  1
ACAMGFILTERDAT
  2
AcAmgFilterDat
  3
"AcadM|Product Description: AutoCAD Mechanical 2000|Company: Autodesk"
 90
        0
280
     0
281
     0
  0
CLASS
  1
LAYER_INDEX
  2
AcDbLayerIndex
  3
AutoCAD 2000
 90
        0
280
     0
281
     0
  0
CLASS
  1
IDBUFFER
  2
AcDbIdBuffer
  3
AutoCAD 2000
 90
        0
280
     0
281
     0
  0
CLASS
  1
ACIMSTRSYSVAR
  2
AcImStrSysVar
  3
AcMeServices
 90
        0
280
     0
281
     0
  0
CLASS
  1
ACMSTANDARDJIS
  2
AcmStandardJIS
  3
"AcmSymBB|Product Description: AutoCAD Mechanical 2000|Company: Autodesk"
 90
        0
280
     0
281
     0
  0
CLASS
  1
ACMSURFSTANDARDJIS
  2
AcmSurfTextStdJIS
  3
"AcmSymBB|Product Description: AutoCAD Mechanical 2000|Company: Autodesk"
 90
        0
280
     0
281
     0
  0
CLASS
  1
ACMFCFSTANDARDJIS
  2
AcmFCFStdJIS
  3
"AcmSymBB|Product Description: AutoCAD Mechanical 2000|Company: Autodesk"
 90
        0
280
     0
281
     0
  0
CLASS
  1
ACMWELDSTANDARDJIS
  2
AcmWeldingStdJIS
  3
"AcmSymBB|Product Description: AutoCAD Mechanical 2000|Company: Autodesk"
 90
        0
280
     0
281
     0
  0
CLASS
  1
ACMIDSTANDARDJIS
  2
AcmIdStdJIS
  3
"AcmSymBB|Product Description: AutoCAD Mechanical 2000|Company: Autodesk"
 90
        0
280
     0
281
     0
  0
CLASS
  1
ACMDATUMSTANDARDJIS
  2
AcmDatumStdJIS
  3
"AcmSymBB|Product Description: AutoCAD Mechanical 2000|Company: Autodesk"
 90
        0
280
     0
281
     0
  0
CLASS
  1
ACMBOMSTANDARDJIS
  2
AcmBOMStdJIS
  3
"AcmSymBB|Product Description: AutoCAD Mechanical 2000|Company: Autodesk"
 90
        0
280
     0
281
     0
  0
CLASS
  1
ACMSTANDARDANSI
  2
AcmStandardANSI
  3
"AcmSymBB|Product Description: AutoCAD Mechanical 2000|Company: Autodesk"
 90
        0
280
     0
281
     0
  0
CLASS
  1
ACMSURFSTANDARDANSI
  2
AcmSurfTextStdANSI
  3
"AcmSymBB|Product Description: AutoCAD Mechanical 2000|Company: Autodesk"
 90
        0
280
     0
281
     0
  0
CLASS
  1
ACMFCFSTANDARDANSI
  2
AcmFCFStdANSI
  3
"AcmSymBB|Product Description: AutoCAD Mechanical 2000|Company: Autodesk"
 90
        0
280
     0
281
     0
  0
CLASS
  1
ACMWELDSTANDARDANSI
  2
AcmWeldingStdANSI
  3
"AcmSymBB|Product Description: AutoCAD Mechanical 2000|Company: Autodesk"
 90
        0
280
     0
281
     0
  0
CLASS
  1
ACMIDSTANDARDANSI
  2
AcmIdStdANSI
  3
"AcmSymBB|Product Description: AutoCAD Mechanical 2000|Company: Autodesk"
 90
        0
280
     0
281
     0
  0
CLASS
  1
ACMDATUMSTANDARDANSI
  2
AcmDatumStdANSI
  3
"AcmSymBB|Product Description: AutoCAD Mechanical 2000|Company: Autodesk"
 90
        0
280
     0
281
     0
  0
CLASS
  1
ACMBOMSTANDARDANSI
  2
AcmBOMStdANSI
  3
"AcmSymBB|Product Description: AutoCAD Mechanical 2000|Company: Autodesk"
 90
        0
280
     0
281
     0
  0
CLASS
  1
ACMSTANDARDBSI
  2
AcmStandardBSI
  3
"AcmSymBB|Product Description: AutoCAD Mechanical 2000|Company: Autodesk"
 90
        0
280
     0
281
     0
  0
CLASS
  1
ACMSURFSTANDARDBSI
  2
AcmSurfTextStdBSI
  3
"AcmSymBB|Product Description: AutoCAD Mechanical 2000|Company: Autodesk"
 90
        0
280
     0
281
     0
  0
CLASS
  1
ACMFCFSTANDARDBSI
  2
AcmFCFStdBSI
  3
"AcmSymBB|Product Description: AutoCAD Mechanical 2000|Company: Autodesk"
 90
        0
280
     0
281
     0
  0
CLASS
  1
ACMWELDSTANDARDBSI
  2
AcmWeldingStdBSI
  3
"AcmSymBB|Product Description: AutoCAD Mechanical 2000|Company: Autodesk"
 90
        0
280
     0
281
     0
  0
CLASS
  1
ACMIDSTANDARDBSI
  2
AcmIdStdBSI
  3
"AcmSymBB|Product Description: AutoCAD Mechanical 2000|Company: Autodesk"
 90
        0
280
     0
281
     0
  0
CLASS
  1
ACMDATUMSTANDARDBSI
  2
AcmDatumStdBSI
  3
"AcmSymBB|Product Description: AutoCAD Mechanical 2000|Company: Autodesk"
 90
        0
280
     0
281
     0
  0
CLASS
  1
ACMBOMSTANDARDBSI
  2
AcmBOMStdBSI
  3
"AcmSymBB|Product Description: AutoCAD Mechanical 2000|Company: Autodesk"
 90
        0
280
     0
281
     0
  0
CLASS
  1
LONG_TRANSACTION
  2
AcDbLongTransaction
  3
AutoCAD 2000
 90
        0
280
     0
281
     0
  0
CLASS
  1
LWPOLYLINE
  2
AcDbPolyline
  3
AutoCAD 2000
 90
        0
280
     0
281
     1
  0
CLASS
  1
HATCH
  2
AcDbHatch
  3
AutoCAD 2000
 90
        0
280
     0
281
     1
  0
CLASS
  1
XRECORD
  2
AcDbXrecord
  3
AutoCAD 2000
 90
        0
280
     0
281
     0
  0
ENDSEC
  0
SECTION
  2
TABLES
  0
TABLE
  2
VPORT
  5
8
330
0
100
AcDbSymbolTable
 70
     3
  0
VPORT
  5
6247
330
8
100
AcDbSymbolTableRecord
100
AcDbViewportTableRecord
  2
*ACTIVE
 70
     0
 10
0.0
 20
0.0
 11
1.0
 21
1.0
 12
-30.82256977346219
 22
-12.95180627707699
 13
0.0
 23
0.0
 14
2.5
 24
2.5
 15
10.0
 25
10.0
 16
0.0
 26
0.0
 36
1.0
 17
0.0
 27
0.0
 37
0.0
 40
355.4761946322334
 41
1.56570841889117
 42
50.0
 43
0.0
 44
0.0
 50
0.0
 51
0.0
 71
     0
 72
   100
 73
     1
 74
     1
 75
     0
 76
     0
 77
     0
 78
     0
  0
ENDTAB
  0
TABLE
  2
LTYPE
  5
5
330
0
100
AcDbSymbolTable
 70
    10
  0
LTYPE
  5
14
330
5
100
AcDbSymbolTableRecord
100
AcDbLinetypeTableRecord
  2
BYBLOCK
 70
     0
  3

 72
    65
 73
     0
 40
0.0
  0
LTYPE
  5
15
330
5
100
AcDbSymbolTableRecord
100
AcDbLinetypeTableRecord
  2
BYLAYER
 70
     0
  3

 72
    65
 73
     0
 40
0.0
  0
LTYPE
  5
16
330
5
100
AcDbSymbolTableRecord
100
AcDbLinetypeTableRecord
  2
CONTINUOUS
 70
     0
  3
Solid line
 72
    65
 73
     0
 40
0.0
  0
LTYPE
  5
4B
330
5
100
AcDbSymbolTableRecord
100
AcDbLinetypeTableRecord
  2
AM_ISO02W050
 70
     0
  3
__ __ __ __ __ __ __ __ __ __ __ __ __ __ __
 72
    65
 73
     2
 40
7.5
 49
6.0
 74
     0
 49
-1.5
 74
     0
  0
LTYPE
  5
4C
330
5
100
AcDbSymbolTableRecord
100
AcDbLinetypeTableRecord
  2
AM_ISO08W050
 70
     0
  3
____ . ____ . ____ . ____ . ____ . ____ . ____
 72
    65
 73
     4
 40
18.0
 49
12.0
 74
     0
 49
-1.5
 74
     0
 49
3.0
 74
     0
 49
-1.5
 74
     0
  0
LTYPE
  5
4D
330
5
100
AcDbSymbolTableRecord
100
AcDbLinetypeTableRecord
  2
AM_ISO09W050
 70
     0
  3
_____ . . _____ . . _____ . . ____ .. ____
 72
    65
 73
     6
 40
22.5
 49
12.0
 74
     0
 49
-1.5
 74
     0
 49
3.0
 74
     0
 49
-1.5
 74
     0
 49
3.0
 74
     0
 49
-1.5
 74
     0
  0
LTYPE
  5
4E
330
5
100
AcDbSymbolTableRecord
100
AcDbLinetypeTableRecord
  2
AMCONSTR
 70
     0
  3
_______________________
 72
    65
 73
     2
 40
9999.0
 49
9999.0
 74
     0
 49
0.0
 74
     0
  0
LTYPE
  5
4F
330
5
100
AcDbSymbolTableRecord
100
AcDbLinetypeTableRecord
  2
AM_ISO02W050X2
 70
     0
  3
 _ _ _ _ _ _ _ _ _ _ _ _
 72
    65
 73
     2
 40
3.75
 49
3.0
 74
     0
 49
-0.75
 74
     0
  0
LTYPE
  5
50
330
5
100
AcDbSymbolTableRecord
100
AcDbLinetypeTableRecord
  2
AM_ISO08W050X2
 70
     0
  3
__ . __ . __ . __ . __ . __
 72
    65
 73
     4
 40
9.0
 49
6.0
 74
     0
 49
-0.75
 74
     0
 49
1.5
 74
     0
 49
-0.75
 74
     0
  0
LTYPE
  5
53
330
5
100
AcDbSymbolTableRecord
100
AcDbLinetypeTableRecord
  2
AMZIGZAG
 70
     0
  3
/\/-/\/-/\/-/\/-/\/-/\/
 72
    65
 73
     2
 40
11.00009999999999
 49
0.0001
 74
     4
 75
   135
340
52
 46
0.04
 50
0.0
 44
0.0
 45
0.0
 49
-11.0
 74
     0
  0
LTYPE
  5
166
330
5
100
AcDbSymbolTableRecord
100
AcDbLinetypeTableRecord
  2
ACJISTGL
 70
     0
  3
_ _ _ _ _
 72
    65
 73
     2
 40
3.0
 49
2.0
 74
     0
 49
-1.0
 74
     0
  0
LTYPE
  5
26A
330
5
100
AcDbSymbolTableRecord
100
AcDbLinetypeTableRecord
  2
ACJISTGB
 70
     0
  3
__ . . __ . .
 72
    65
 73
     6
 40
9.0
 49
4.0
 74
     0
 49
-1.0
 74
     0
 49
1.0
 74
     0
 49
-1.0
 74
     0
 49
1.0
 74
     0
 49
-1.0
 74
     0
  0
ENDTAB
  0
TABLE
  2
LAYER
  5
2
330
0
100
AcDbSymbolTable
 70
     7
  0
LAYER
  5
10
330
2
100
AcDbSymbolTableRecord
100
AcDbLayerTableRecord
  2
0
 70
     0
 62
     7
  6
CONTINUOUS
  0
LAYER
  5
3F9
330
2
100
AcDbSymbolTableRecord
100
AcDbLayerTableRecord
  2
AM_0
 70
     0
 62
     7
  6
CONTINUOUS
  0
LAYER
  5
C7C
330
2
100
AcDbSymbolTableRecord
100
AcDbLayerTableRecord
  2
AM_7
 70
     0
 62
     4
  6
AM_ISO08W050
  0
LAYER
  5
C97
330
2
100
AcDbSymbolTableRecord
100
AcDbLayerTableRecord
  2
AM_11
 70
     0
 62
     3
  6
AM_ISO09W050
  0
LAYER
  5
CC5
330
2
100
AcDbSymbolTableRecord
100
AcDbLayerTableRecord
  2
AM_5
 70
     0
 62
     3
  6
CONTINUOUS
  0
LAYER
  5
CC7
330
2
100
AcDbSymbolTableRecord
100
AcDbLayerTableRecord
  2
DEFPOINTS
 70
     0
 62
     7
  6
CONTINUOUS
  0
LAYER
  5
19BC
330
2
100
AcDbSymbolTableRecord
100
AcDbLayerTableRecord
  2
AM_6
 70
     0
 62
     2
  6
CONTINUOUS
  0
ENDTAB
  0
TABLE
  2
STYLE
  5
3
330
0
100
AcDbSymbolTable
 70
     5
  0
STYLE
  5
11
330
3
100
AcDbSymbolTableRecord
100
AcDbTextStyleTableRecord
  2
STANDARD
 70
     0
 40
0.0
 41
1.0
 50
0.0
 71
     0
 42
2.5
  3
simplex.shx
  4
EXTFONT.SHX
  0
STYLE
  5
52
330
3
100
AcDbSymbolTableRecord
100
AcDbTextStyleTableRecord
  2

 70
     1
 40
0.0
 41
1.0
 50
0.0
 71
     0
 42
2.5
  3
ltypeshp.shx
  4

  0
STYLE
  5
6B
330
3
100
AcDbSymbolTableRecord
100
AcDbTextStyleTableRecord
  2
ASAMI
 70
     0
 40
0.0
 41
1.0
 50
0.0
 71
     0
 42
2.5
  3
simplex.shx
  4
EXTFONT.SHX
  0
STYLE
  5
262
330
3
100
AcDbSymbolTableRecord
100
AcDbTextStyleTableRecord
  2
ACJISTS
 70
     0
 40
1.0
 41
1.0
 50
0.0
 71
     0
 42
2.5
  3
simplex.shx
  4
bigfont.shx
  0
STYLE
  5
269
330
3
100
AcDbSymbolTableRecord
100
AcDbTextStyleTableRecord
  2
ACJISGDT
 70
     0
 40
0.0
 41
1.0
 50
0.0
 71
     0
 42
2.5
  3
amgdtans.shx
  4

  0
ENDTAB
  0
TABLE
  2
VIEW
  5
6
330
0
100
AcDbSymbolTable
 70
     0
  0
ENDTAB
  0
TABLE
  2
UCS
  5
7
330
0
100
AcDbSymbolTable
 70
     0
  0
ENDTAB
  0
TABLE
  2
APPID
  5
9
330
0
100
AcDbSymbolTable
 70
    18
  0
APPID
  5
12
330
9
100
AcDbSymbolTableRecord
100
AcDbRegAppTableRecord
  2
ACAD
 70
     0
  0
APPID
  5
30
330
9
100
AcDbSymbolTableRecord
100
AcDbRegAppTableRecord
  2
MCAD_NO_VIS
 70
     0
  0
APPID
  5
31
330
9
100
AcDbSymbolTableRecord
100
AcDbRegAppTableRecord
  2
ACAD_TEMP_GRAPHIC
 70
     0
  0
APPID
  5
2C2
330
9
100
AcDbSymbolTableRecord
100
AcDbRegAppTableRecord
  2
GENIUS_GENDTOL_13
 70
     0
  0
APPID
  5
339
330
9
100
AcDbSymbolTableRecord
100
AcDbRegAppTableRecord
  2
GENIUS_GENODEF_13
 70
     0
  0
APPID
  5
33A
330
9
100
AcDbSymbolTableRecord
100
AcDbRegAppTableRecord
  2
GENIUS_GENOBJ-N-RSBK_13
 70
     0
  0
APPID
  5
33B
330
9
100
AcDbSymbolTableRecord
100
AcDbRegAppTableRecord
  2
GENIUS_GENOBJ-N-LIB_13
 70
     0
  0
APPID
  5
33C
330
9
100
AcDbSymbolTableRecord
100
AcDbRegAppTableRecord
  2
GENIUS_GENSCALE_13
 70
     0
  0
APPID
  5
378
330
9
100
AcDbSymbolTableRecord
100
AcDbRegAppTableRecord
  2
GENIUS_GENDIMSH_14
 70
     0
  0
APPID
  5
C82
330
9
100
AcDbSymbolTableRecord
100
AcDbRegAppTableRecord
  2
GENIUS_GENOBJ-N-CRS_13
 70
     0
  0
APPID
  5
C83
330
9
100
AcDbSymbolTableRecord
100
AcDbRegAppTableRecord
  2
GENIUS_GENOENT_13
 70
     0
  0
APPID
  5
C84
330
9
100
AcDbSymbolTableRecord
100
AcDbRegAppTableRecord
  2
GENIUS_GENOREF_13
 70
     0
  0
APPID
  5
C85
330
9
100
AcDbSymbolTableRecord
100
AcDbRegAppTableRecord
  2
GENIUS_GENOLIS_13
 70
     0
  0
APPID
  5
CA0
330
9
100
AcDbSymbolTableRecord
100
AcDbRegAppTableRecord
  2
GENIUS_GENOBJ-N-CEN_13
 70
     0
  0
APPID
  5
1B5D
330
9
100
AcDbSymbolTableRecord
100
AcDbRegAppTableRecord
  2
GENIUS_GENFIL_13
 70
     0
  0
APPID
  5
1B5E
330
9
100
AcDbSymbolTableRecord
100
AcDbRegAppTableRecord
  2
GENIUS_GENOBJ-N-CHA_13
 70
     0
  0
APPID
  5
1FBC
330
9
100
AcDbSymbolTableRecord
100
AcDbRegAppTableRecord
  2
GENIUS_GENREC_14
 70
     0
  0
APPID
  5
1FBD
330
9
100
AcDbSymbolTableRecord
100
AcDbRegAppTableRecord
  2
GENIUS_GENOBJ-N-REC_13
 70
     0
  0
ENDTAB
  0
TABLE
  2
DIMSTYLE
  5
A
330
0
100
AcDbSymbolTable
 70
     9
  0
DIMSTYLE
105
58
330
A
100
AcDbSymbolTableRecord
100
AcDbDimStyleTableRecord
  2
AM_JIS
 70
     0
  3

  4
"
  5
OPEN30
  6

  7

 40
1.0
 41
2.5
 42
1.0
 43
12.0
 44
1.0
 45
0.0
 46
0.0
 47
0.1
 48
0.1
140
3.2
141
0.0
142
0.0
143
0.0393701
144
1.0
145
0.0
146
0.71
147
1.5
 71
     0
 72
     0
 73
     0
 74
     0
 75
     0
 76
     0
 77
     3
 78
     8
170
     0
171
     2
172
     1
173
     0
174
     0
175
     0
176
   256
177
   256
178
     2
270
     2
271
     3
272
     3
273
     2
274
     2
340
6B
275
     0
280
     0
281
     0
282
     0
283
     0
284
     0
285
     0
286
     0
287
     3
288
     0
  0
DIMSTYLE
105
5F
330
A
100
AcDbSymbolTableRecord
100
AcDbDimStyleTableRecord
  2
AM_JIS$3
 70
     0
  3

  4
"
  5
OPEN30
  6

  7

 40
1.0
 41
2.5
 42
1.0
 43
10.0
 44
1.0
 45
0.0
 46
0.0
 47
0.1
 48
0.1
140
3.2
141
0.0
142
0.0
143
0.0393701
144
1.0
145
0.0
146
0.71
147
1.5
 71
     0
 72
     0
 73
     0
 74
     1
 75
     0
 76
     0
 77
     3
 78
     8
170
     0
171
     2
172
     0
173
     0
174
     0
175
     0
176
   256
177
   256
178
     2
270
     2
271
     2
272
     3
273
     2
274
     2
340
6B
275
     0
280
     0
281
     0
282
     0
283
     0
284
     0
285
     0
286
     0
287
     0
288
     1
  0
DIMSTYLE
105
60
330
A
100
AcDbSymbolTableRecord
100
AcDbDimStyleTableRecord
  2
AM_JIS$4
 70
     0
  3

  4
"
  5
OPEN30
  6

  7

 40
1.0
 41
2.5
 42
1.0
 43
10.0
 44
1.0
 45
0.0
 46
0.0
 47
0.1
 48
0.1
140
3.2
141
0.0
142
0.0
143
0.0393701
144
1.0
145
0.0
146
0.71
147
1.5
 71
     0
 72
     0
 73
     0
 74
     1
 75
     0
 76
     0
 77
     3
 78
     8
170
     0
171
     2
172
     0
173
     0
174
     0
175
     0
176
   256
177
   256
178
     2
270
     2
271
     2
272
     3
273
     2
274
     2
340
6B
275
     0
280
     0
281
     0
282
     0
283
     0
284
     0
285
     0
286
     0
287
     0
288
     1
  0
DIMSTYLE
105
61
330
A
100
AcDbSymbolTableRecord
100
AcDbDimStyleTableRecord
  2
AM_JIS$6
 70
     0
  3

  4
"
  5
OPEN30
  6

  7

 40
1.0
 41
2.5
 42
1.0
 43
10.0
 44
1.0
 45
0.0
 46
0.0
 47
0.1
 48
0.1
140
3.2
141
0.0
142
0.0
143
0.0393701
144
1.0
145
0.0
146
0.71
147
1.5
 71
     0
 72
     0
 73
     0
 74
     0
 75
     0
 76
     0
 77
     0
 78
     8
170
     0
171
     2
172
     1
173
     0
174
     0
175
     0
176
   256
177
   256
178
     2
270
     2
271
     2
272
     2
273
     2
274
     2
340
6B
275
     0
280
     0
281
     0
282
     0
283
     0
284
     0
285
     0
286
     0
287
     3
288
     0
  0
DIMSTYLE
105
62
330
A
100
AcDbSymbolTableRecord
100
AcDbDimStyleTableRecord
  2
AM_JIS$7
 70
     0
  3

  4
"
  5
OPEN30
  6

  7

 40
1.0
 41
2.5
 42
1.0
 43
10.0
 44
1.0
 45
0.0
 46
0.0
 47
0.1
 48
0.1
140
3.2
141
0.0
142
0.0
143
0.0393701
144
1.0
145
0.0
146
0.71
147
1.5
 71
     0
 72
     0
 73
     0
 74
     0
 75
     0
 76
     0
 77
     3
 78
     8
170
     0
171
     2
172
     1
173
     0
174
     0
175
     0
176
   256
177
   256
178
     2
270
     2
271
     2
272
     3
273
     2
274
     2
340
6B
275
     0
280
     0
281
     0
282
     0
283
     0
284
     0
285
     0
286
     0
287
     3
288
     0
  0
DIMSTYLE
105
63
330
A
100
AcDbSymbolTableRecord
100
AcDbDimStyleTableRecord
  2
AM_JIS$SF
 70
     0
  3

  4
"
  5
OPEN30
  6

  7

 40
1.0
 41
2.5
 42
1.0
 43
10.0
 44
1.0
 45
0.0
 46
0.0
 47
0.1
 48
0.1
140
3.2
141
0.0
142
0.0
143
0.0393701
144
1.0
145
0.0
146
0.71
147
1.5
 71
     0
 72
     0
 73
     0
 74
     0
 75
     1
 76
     1
 77
     3
 78
     8
170
     0
171
     2
172
     1
173
     0
174
     0
175
     0
176
   256
177
   256
178
     2
270
     2
271
     2
272
     2
273
     2
274
     2
340
6B
275
     0
280
     0
281
     0
282
     0
283
     0
284
     0
285
     0
286
     0
287
     3
288
     0
  0
DIMSTYLE
105
68
330
A
100
AcDbSymbolTableRecord
100
AcDbDimStyleTableRecord
  2
AM_JIS$SH
 70
     0
  3

  4
"
  5

  6
GENAXEH
  7
OPEN30
 40
1.0
 41
2.5
 42
1.0
 43
10.0
 44
1.0
 45
0.0
 46
0.0
 47
0.1
 48
0.1
140
3.2
141
0.0
142
0.0
143
0.0393701
144
2.0
145
0.0
146
0.71
147
1.5
 71
     0
 72
     0
 73
     0
 74
     0
 75
     1
 76
     1
 77
     3
 78
     8
170
     0
171
     2
172
     1
173
     1
174
     0
175
     0
176
   256
177
   256
178
     2
270
     2
271
     2
272
     2
273
     2
274
     2
340
6B
275
     0
280
     0
281
     0
282
     0
283
     0
284
     0
285
     0
286
     0
287
     3
288
     0
  0
DIMSTYLE
105
B34
102
{ACAD_REACTORS
330
5F4D
102
}
330
A
100
AcDbSymbolTableRecord
100
AcDbDimStyleTableRecord
  2
AM_JIS$2
 70
     0
  3

  4
"
  5
OPEN30
  6

  7

 40
1.0
 41
2.5
 42
1.0
 43
12.0
 44
1.0
 45
0.0
 46
0.0
 47
0.1
 48
0.1
140
3.2
141
0.0
142
0.0
143
0.0393701
144
1.0
145
0.0
146
0.71
147
1.5
 71
     0
 72
     0
 73
     0
 74
     0
 75
     0
 76
     0
 77
     3
 78
     8
170
     0
171
     2
172
     1
173
     0
174
     0
175
     0
176
   256
177
   256
178
     2
270
     2
271
     3
272
     3
273
     2
274
     2
340
6B
275
     0
280
     0
281
     0
282
     0
283
     0
284
     0
285
     0
286
     0
287
     3
288
     0
  0
DIMSTYLE
105
BA5
102
{ACAD_REACTORS
330
CC6
330
46D1
330
5686
330
5EC9
102
}
330
A
100
AcDbSymbolTableRecord
100
AcDbDimStyleTableRecord
  2
AM_JIS$0
 70
     0
  3

  4
"
  5
OPEN30
  6

  7

 40
1.0
 41
2.5
 42
0.0
 43
10.0
 44
1.0
 45
0.0
 46
0.0
 47
0.1
 48
0.1000000001
140
3.799999999999999
141
0.0
142
0.0
143
0.0393701
144
1.0
145
0.0
146
0.71
147
1.5
 71
     0
 72
     0
 73
     0
 74
     0
 75
     0
 76
     0
 77
     3
 78
     1
170
     0
171
     2
172
     1
173
     0
174
     0
175
     0
176
     3
177
     3
178
     2
270
     2
271
     2
272
     2
273
     2
274
     2
340
11
275
     1
280
     0
281
     0
282
     0
283
     0
284
     8
285
     0
286
     0
287
     0
288
     0
  0
ENDTAB
  0
TABLE
  2
BLOCK_RECORD
  5
1
330
0
100
AcDbSymbolTable
 70
    10
  0
BLOCK_RECORD
  5
1F
102
{ACAD_XDICTIONARY
360
74
102
}
330
1
100
AcDbSymbolTableRecord
100
AcDbBlockTableRecord
  2
*MODEL_SPACE
  0
BLOCK_RECORD
  5
101
102
{ACAD_XDICTIONARY
360
6270
102
}
330
1
100
AcDbSymbolTableRecord
100
AcDbBlockTableRecord
  2
*PAPER_SPACE
  0
BLOCK_RECORD
  5
59
330
1
100
AcDbSymbolTableRecord
100
AcDbBlockTableRecord
  2
_OPEN30
  0
BLOCK_RECORD
  5
64
330
1
100
AcDbSymbolTableRecord
100
AcDbBlockTableRecord
  2
GENAXEH
  0
BLOCK_RECORD
  5
CC8
330
1
100
AcDbSymbolTableRecord
100
AcDbBlockTableRecord
  2
*D5
  0
BLOCK_RECORD
  5
46D2
330
1
100
AcDbSymbolTableRecord
100
AcDbBlockTableRecord
  2
*D6
  0
BLOCK_RECORD
  5
5687
330
1
100
AcDbSymbolTableRecord
100
AcDbBlockTableRecord
  2
*D7
  0
BLOCK_RECORD
  5
5ECA
330
1
100
AcDbSymbolTableRecord
100
AcDbBlockTableRecord
  2
*D8
  0
BLOCK_RECORD
  5
5F4E
330
1
100
AcDbSymbolTableRecord
100
AcDbBlockTableRecord
  2
*D9
  0
ENDTAB
  0
ENDSEC
  0
SECTION
  2
BLOCKS
  0
BLOCK
  5
20
330
1F
100
AcDbEntity
  8
0
100
AcDbBlockBegin
  2
*MODEL_SPACE
 70
     0
 10
0.0
 20
0.0
 30
0.0
  3
*MODEL_SPACE
  1

  0
ENDBLK
  5
21
330
1F
100
AcDbEntity
  8
0
100
AcDbBlockEnd
  0
BLOCK
  5
103
330
101
100
AcDbEntity
 67
     1
  8
0
100
AcDbBlockBegin
  2
*PAPER_SPACE
 70
     0
 10
0.0
 20
0.0
 30
0.0
  3
*PAPER_SPACE
  1

  0
ENDBLK
  5
104
330
101
100
AcDbEntity
 67
     1
  8
0
100
AcDbBlockEnd
  0
BLOCK
  5
5D
330
59
100
AcDbEntity
  8
0
100
AcDbBlockBegin
  2
_OPEN30
 70
     0
 10
0.0
 20
0.0
 30
0.0
  3
_OPEN30
  1

  0
LINE
  5
5A
330
59
100
AcDbEntity
  8
0
 62
     0
100
AcDbLine
 10
-1.0
 20
0.26794919
 30
0.0
 11
0.0
 21
0.0
 31
0.0
  0
LINE
  5
5B
330
59
100
AcDbEntity
  8
0
 62
     0
100
AcDbLine
 10
0.0
 20
0.0
 30
0.0
 11
-1.0
 21
-0.26794919
 31
0.0
  0
LINE
  5
5C
330
59
100
AcDbEntity
  8
0
 62
     0
100
AcDbLine
 10
0.0
 20
0.0
 30
0.0
 11
-1.0
 21
0.0
 31
0.0
  0
ENDBLK
  5
5E
330
59
100
AcDbEntity
  8
0
100
AcDbBlockEnd
  0
BLOCK
  5
66
330
64
100
AcDbEntity
  8
0
100
AcDbBlockBegin
  2
GENAXEH
 70
     0
 10
0.0
 20
0.0
 30
0.0
  3
GENAXEH
  1

  0
LINE
  5
65
330
64
100
AcDbEntity
  8
0
100
AcDbLine
 10
-1.0
 20
0.0
 30
0.0
 11
1.0
 21
0.0
 31
0.0
  0
ENDBLK
  5
67
330
64
100
AcDbEntity
  8
0
100
AcDbBlockEnd
  0
BLOCK
  5
CD2
330
CC8
100
AcDbEntity
  8
0
100
AcDbBlockBegin
  2
*D5
 70
     1
 10
0.0
 20
0.0
 30
0.0
  3
*D5
  1

  0
LINE
  5
61FC
330
CC8
100
AcDbEntity
  8
AM_5
 62
     3
100
AcDbLine
 10
-207.9999999999944
 20
-5.500000576707726
 30
0.0
 11
-207.9999999999944
 21
-31.50000157670731
 31
0.0
  0
LINE
  5
61FD
330
CC8
100
AcDbEntity
  8
AM_5
 62
     3
100
AcDbLine
 10
-1.999999999993506
 20
-6.249999999998346
 30
0.0
 11
-1.999999999993508
 21
-31.5000015767073
 31
0.0
  0
LINE
  5
61FE
330
CC8
100
AcDbEntity
  8
AM_5
 62
     3
100
AcDbLine
 10
-205.4999999999944
 20
-30.5000015767073
 30
0.0
 11
-4.499999999993508
 21
-30.5000015767073
 31
0.0
  0
INSERT
  5
61FF
330
CC8
100
AcDbEntity
  8
AM_5
 62
     3
100
AcDbBlockReference
  2
_OPEN30
 10
-207.9999999999944
 20
-30.5000015767073
 30
0.0
 41
2.5
 42
2.5
 43
2.5
 50
180.0
  0
INSERT
  5
6200
330
CC8
100
AcDbEntity
  8
AM_5
 62
     3
100
AcDbBlockReference
  2
_OPEN30
 10
-1.999999999993508
 20
-30.5000015767073
 30
0.0
 41
2.5
 42
2.5
 43
2.5
  0
MTEXT
  5
6201
330
CC8
100
AcDbEntity
  8
AM_5
 62
     2
100
AcDbMText
 10
-104.9999999999939
 20
-27.10000157670731
 30
0.0
 40
3.799999999999999
 41
0.0
 71
     5
 72
     1
  1
206
1001
ACAD
1000
MTEXTBEGIN
1070
    73
1070
     1
1070
    44
1040
1.0
1070
    74
1070
     0
1000
MTEXTEND
  0
POINT
  5
6202
330
CC8
100
AcDbEntity
  8
DEFPOINTS
 62
     0
100
AcDbPoint
 10
-207.9999999999944
 20
-5.500000576707726
 30
0.0
  0
POINT
  5
6203
330
CC8
100
AcDbEntity
  8
DEFPOINTS
 62
     0
100
AcDbPoint
 10
-1.999999999993506
 20
-6.249999999998346
 30
0.0
  0
POINT
  5
6204
330
CC8
100
AcDbEntity
  8
DEFPOINTS
 62
     0
100
AcDbPoint
 10
-1.999999999993508
 20
-30.5000015767073
 30
0.0
  0
ENDBLK
  5
CD3
330
CC8
100
AcDbEntity
  8
0
100
AcDbBlockEnd
  0
BLOCK
  5
46DE
330
46D2
100
AcDbEntity
  8
0
100
AcDbBlockBegin
  2
*D6
 70
     1
 10
0.0
 20
0.0
 30
0.0
  3
*D6
  1

  0
LINE
  5
6219
330
46D2
100
AcDbEntity
  8
AM_5
 62
     3
100
AcDbLine
 10
-1.99999999999362
 20
-6.249999999998347
 30
0.0
 11
16.89166149231672
 21
-6.249999999998351
 31
0.0
  0
LINE
  5
621A
330
46D2
100
AcDbEntity
  8
AM_5
 62
     3
100
AcDbLine
 10
-1.999999999994315
 20
6.249999999999558
 30
0.0
 11
16.89166149231672
 21
6.249999999999554
 31
0.0
  0
LINE
  5
621B
330
46D2
100
AcDbEntity
  8
AM_5
 62
     3
100
AcDbLine
 10
15.89166149231672
 20
-8.749999999998351
 30
0.0
 11
15.89166149231672
 21
-11.24999999999835
 31
0.0
  0
LINE
  5
621C
330
46D2
100
AcDbEntity
  8
AM_5
 62
     3
100
AcDbLine
 10
15.89166149231672
 20
8.749999999999554
 30
0.0
 11
15.89166149231673
 21
28.54523809523765
 31
0.0
  0
LINE
  5
621D
330
46D2
100
AcDbEntity
  8
AM_5
 62
     3
100
AcDbLine
 10
15.89166149231672
 20
-6.249999999998351
 30
0.0
 11
15.89166149231672
 21
6.249999999999554
 31
0.0
  0
INSERT
  5
621E
330
46D2
100
AcDbEntity
  8
AM_5
 62
     3
100
AcDbBlockReference
  2
_OPEN30
 10
15.89166149231672
 20
-6.249999999998351
 30
0.0
 41
2.5
 42
2.5
 43
2.5
 50
90.0
  0
INSERT
  5
621F
330
46D2
100
AcDbEntity
  8
AM_5
 62
     3
100
AcDbBlockReference
  2
_OPEN30
 10
15.89166149231672
 20
6.249999999999554
 30
0.0
 41
2.5
 42
2.5
 43
2.5
 50
270.0
  0
MTEXT
  5
6220
330
46D2
100
AcDbEntity
  8
AM_5
 62
     2
100
AcDbMText
 10
12.49166149231672
 20
19.8976190476186
 30
0.0
 40
3.799999999999999
 41
0.0
 71
     5
 72
     1
  1
%%c12.5
 11
0.0000000000000001
 21
1.0
 31
0.0
1001
ACAD
1000
MTEXTBEGIN
1070
    73
1070
     1
1070
    44
1040
1.0
1070
    74
1070
     0
1000
MTEXTEND
  0
POINT
  5
6221
330
46D2
100
AcDbEntity
  8
DEFPOINTS
 62
     0
100
AcDbPoint
 10
-1.99999999999362
 20
-6.249999999998347
 30
0.0
  0
POINT
  5
6222
330
46D2
100
AcDbEntity
  8
DEFPOINTS
 62
     0
100
AcDbPoint
 10
-1.999999999994315
 20
6.249999999999558
 30
0.0
  0
POINT
  5
6223
330
46D2
100
AcDbEntity
  8
DEFPOINTS
 62
     0
100
AcDbPoint
 10
15.89166149231672
 20
6.249999999999554
 30
0.0
  0
ENDBLK
  5
46DF
330
46D2
100
AcDbEntity
  8
0
100
AcDbBlockEnd
  0
BLOCK
  5
5691
330
5687
100
AcDbEntity
  8
0
100
AcDbBlockBegin
  2
*D7
 70
     1
 10
0.0
 20
0.0
 30
0.0
  3
*D7
  1

  0
LINE
  5
61F3
330
5687
100
AcDbEntity
  8
AM_5
 62
     3
100
AcDbLine
 10
-144.9999999999942
 20
-6.500000576707677
 30
0.0
 11
-144.9999999999942
 21
-21.50000157670757
 31
0.0
  0
LINE
  5
61F4
330
5687
100
AcDbEntity
  8
AM_5
 62
     3
100
AcDbLine
 10
-1.999999999993388
 20
-6.24999999999835
 30
0.0
 11
-1.999999999993389
 21
-21.50000157670757
 31
0.0
  0
LINE
  5
61F5
330
5687
100
AcDbEntity
  8
AM_5
 62
     3
100
AcDbLine
 10
-142.4999999999942
 20
-20.50000157670757
 30
0.0
 11
-4.499999999993389
 21
-20.50000157670757
 31
0.0
  0
INSERT
  5
61F6
330
5687
100
AcDbEntity
  8
AM_5
 62
     3
100
AcDbBlockReference
  2
_OPEN30
 10
-144.9999999999942
 20
-20.50000157670757
 30
0.0
 41
2.5
 42
2.5
 43
2.5
 50
180.0
  0
INSERT
  5
61F7
330
5687
100
AcDbEntity
  8
AM_5
 62
     3
100
AcDbBlockReference
  2
_OPEN30
 10
-1.999999999993389
 20
-20.50000157670757
 30
0.0
 41
2.5
 42
2.5
 43
2.5
  0
MTEXT
  5
61F8
330
5687
100
AcDbEntity
  8
AM_5
 62
     2
100
AcDbMText
 10
-73.49999999999379
 20
-17.10000157670757
 30
0.0
 40
3.799999999999999
 41
0.0
 71
     5
 72
     1
  1
143
1001
ACAD
1000
MTEXTBEGIN
1070
    73
1070
     1
1070
    44
1040
1.0
1070
    74
1070
     0
1000
MTEXTEND
  0
POINT
  5
61F9
330
5687
100
AcDbEntity
  8
DEFPOINTS
 62
     0
100
AcDbPoint
 10
-144.9999999999942
 20
-6.500000576707677
 30
0.0
  0
POINT
  5
61FA
330
5687
100
AcDbEntity
  8
DEFPOINTS
 62
     0
100
AcDbPoint
 10
-1.999999999993388
 20
-6.24999999999835
 30
0.0
  0
POINT
  5
61FB
330
5687
100
AcDbEntity
  8
DEFPOINTS
 62
     0
100
AcDbPoint
 10
-1.999999999993389
 20
-20.50000157670757
 30
0.0
  0
ENDBLK
  5
5692
330
5687
100
AcDbEntity
  8
0
100
AcDbBlockEnd
  0
BLOCK
  5
5ED4
330
5ECA
100
AcDbEntity
  8
0
100
AcDbBlockBegin
  2
*D8
 70
     1
 10
0.0
 20
0.0
 30
0.0
  3
*D8
  1

  0
LINE
  5
6205
330
5ECA
100
AcDbEntity
  8
AM_5
 62
     3
100
AcDbLine
 10
-206.9999999999941
 20
6.499999423291871
 30
0.0
 11
-227.5192274839059
 21
6.499999423291831
 31
0.0
  0
LINE
  5
6206
330
5ECA
100
AcDbEntity
  8
AM_5
 62
     3
100
AcDbLine
 10
-206.9999999999955
 20
-6.500000576707076
 30
0.0
 11
-227.5192274839059
 21
-6.500000576707116
 31
0.0
  0
LINE
  5
6207
330
5ECA
100
AcDbEntity
  8
AM_5
 62
     3
100
AcDbLine
 10
-226.5192274839058
 20
3.999999423291833
 30
0.0
 11
-226.5192274839058
 21
-4.000000576707114
 31
0.0
  0
INSERT
  5
6208
330
5ECA
100
AcDbEntity
  8
AM_5
 62
     3
100
AcDbBlockReference
  2
_OPEN30
 10
-226.5192274839058
 20
6.499999423291833
 30
0.0
 41
2.5
 42
2.5
 43
2.5
 50
90.0000000000001
  0
INSERT
  5
6209
330
5ECA
100
AcDbEntity
  8
AM_5
 62
     3
100
AcDbBlockReference
  2
_OPEN30
 10
-226.5192274839058
 20
-6.500000576707114
 30
0.0
 41
2.5
 42
2.5
 43
2.5
 50
270.0000000000001
  0
MTEXT
  5
620A
330
5ECA
100
AcDbEntity
  8
AM_5
 62
     2
100
AcDbMText
 10
-229.9192274839059
 20
-0.0000005767076382
 30
0.0
 40
3.799999999999999
 41
0.0
 71
     5
 72
     1
  1
%%c13
 11
-0.000000000000002
 21
1.0
 31
0.0
1001
ACAD
1000
MTEXTBEGIN
1070
    73
1070
     1
1070
    44
1040
1.0
1070
    74
1070
     0
1000
MTEXTEND
  0
POINT
  5
620B
330
5ECA
100
AcDbEntity
  8
DEFPOINTS
 62
     0
100
AcDbPoint
 10
-206.9999999999941
 20
6.499999423292331
 30
0.0
  0
POINT
  5
620C
330
5ECA
100
AcDbEntity
  8
DEFPOINTS
 62
     0
100
AcDbPoint
 10
-206.9999999999955
 20
-6.500000576706616
 30
0.0
  0
POINT
  5
620D
330
5ECA
100
AcDbEntity
  8
DEFPOINTS
 62
     0
100
AcDbPoint
 10
-226.5192274839058
 20
-6.500000576706611
 30
0.0
  0
ENDBLK
  5
5ED5
330
5ECA
100
AcDbEntity
  8
0
100
AcDbBlockEnd
  0
BLOCK
  5
5F5C
330
5F4E
100
AcDbEntity
  8
0
100
AcDbBlockBegin
  2
*D9
 70
     1
 10
0.0
 20
0.0
 30
0.0
  3
*D9
  1

  0
LINE
  5
620E
330
5F4E
100
AcDbEntity
  8
AM_5
100
AcDbLine
 10
0.3420201433331599
 20
-0.9396926207863476
 30
0.0
 11
12.24824774665203
 21
-33.65178411179185
 31
0.0
  0
LINE
  5
620F
330
5F4E
100
AcDbEntity
  8
AM_5
100
AcDbLine
 10
0.3420201433331524
 20
0.9396926207854752
 30
0.0
 11
12.24824774665175
 21
33.65178411179107
 31
0.0
  0
ARC
  5
6210
330
5F4E
100
AcDbEntity
  8
AM_5
100
AcDbCircle
 10
0.0000000000074862
 20
-0.0000000000004376
 30
0.0
 40
34.81148065592653
100
AcDbArc
 50
294.1156033934453
 51
65.88439660655514
  0
INSERT
  5
6211
330
5F4E
100
AcDbEntity
  8
AM_5
100
AcDbBlockReference
  2
_OPEN30
 10
11.90622760332635
 20
-32.71209149100595
 30
0.0
 41
2.5
 42
2.5
 43
2.5
 50
202.0578016967227
  0
INSERT
  5
6212
330
5F4E
100
AcDbEntity
  8
AM_5
100
AcDbBlockReference
  2
_OPEN30
 10
11.90622760332609
 20
32.71209149100516
 30
0.0
 41
2.5
 42
2.5
 43
2.5
 50
157.9421983032776
  0
MTEXT
  5
6213
330
5F4E
100
AcDbEntity
  8
AM_5
 62
     2
100
AcDbMText
 10
31.71148065593401
 20
-0.0000000000003198
 30
0.0
 40
3.2
 41
0.0
 71
     5
 72
     1
  1
140°
  7
ASAMI
 11
-0.000000000000002
 21
1.0
 31
0.0
1001
ACAD
1000
MTEXTBEGIN
1070
    73
1070
     1
1070
    44
1040
1.0
1070
    74
1070
     0
1000
MTEXTEND
  0
POINT
  5
6214
330
5F4E
100
AcDbEntity
  8
DEFPOINTS
 62
     0
100
AcDbPoint
 10
31.96446224263033
 20
-13.7881231136764
 30
0.0
  0
POINT
  5
6215
330
5F4E
100
AcDbEntity
  8
DEFPOINTS
 62
     0
100
AcDbPoint
 10
0.0000000000074873
 20
-0.0000000000004406
 30
0.0
  0
POINT
  5
6216
330
5F4E
100
AcDbEntity
  8
DEFPOINTS
 62
     0
100
AcDbPoint
 10
0.0000000000074873
 20
-0.0000000000004346
 30
0.0
  0
POINT
  5
6217
330
5F4E
100
AcDbEntity
  8
DEFPOINTS
 62
     0
100
AcDbPoint
 10
-0.4675858707137144
 20
-1.284681621462971
 30
0.0
  0
POINT
  5
6218
330
5F4E
100
AcDbEntity
  8
DEFPOINTS
 62
     0
100
AcDbPoint
 10
-0.4675858707137197
 20
1.284681621462094
 30
0.0
  0
ENDBLK
  5
5F5D
330
5F4E
100
AcDbEntity
  8
0
100
AcDbBlockEnd
  0
ENDSEC
  0
SECTION
  2
ENTITIES
  0
LINE
  5
C1D
330
1F
100
AcDbEntity
  8
AM_0
 48
0.5
100
AcDbLine
 10
0.0000000000074873
 20
-0.0000000000004406
 30
0.0
 11
-0.4675858707137197
 21
1.284681621462094
 31
0.0
  0
LINE
  5
C9F
330
1F
100
AcDbEntity
  8
AM_7
100
AcDbLine
 10
-212.5192264839058
 20
-0.0000000000004733
 30
0.0
 11
0.8916604923167312
 21
0.000000000000002
 31
0.0
1001
GENIUS_GENODEF_13
1002
{
1000
HIER
1070
     0
1002
}
1002
{
1000
MANEDIT
1070
     0
1002
}
1002
{
1000
NOSEL
1070
     0
1002
}
1002
{
1000
BEHIND
1070
     0
1002
}
1002
{
1000
REACTOR
1002
}
1001
GENIUS_GENOBJ-N-CEN_13
1002
{
1000
OWNER
1000
GEN
1002
}
  0
DIMENSION
  5
CC6
330
1F
100
AcDbEntity
  8
AM_5
100
AcDbDimension
  2
*D5
 10
-1.999999999993508
 20
-30.5000015767073
 30
0.0
 11
-104.9999999999939
 21
-27.10000157670731
 31
0.0
 70
    32
  1
<>
  3
AM_JIS$0
100
AcDbAlignedDimension
 13
-207.9999999999944
 23
-5.500000576707726
 33
0.0
 14
-1.999999999993506
 24
-6.249999999998346
 34
0.0
 50
0.0000000000001132
100
AcDbRotatedDimension
1001
GENIUS_GENDTOL_13
1000

1000
h7
1000

1040
0.0
1001
ACAD
1000
DSTYLE
1002
{
1070
   271
1070
     0
1002
}
  0
TEXT
  5
19BD
330
1F
100
AcDbEntity
  8
AM_6
100
AcDbText
 10
-126.6666666666605
 20
-53.00000157670736
 30
0.0
 40
5.0
  1
MDW125DHK
 50
0.0000000000001527
 72
     4
 11
-104.9999999999939
 21
-50.5000015767073
 31
0.0
100
AcDbText
  0
LINE
  5
4347
330
1F
100
AcDbEntity
  8
AM_0
100
AcDbLine
 10
-144.9999999999942
 20
6.499999423292322
 30
0.0
 11
-144.9999999999942
 21
-6.500000576707676
 31
0.0
  0
LINE
  5
44BC
330
1F
100
AcDbEntity
  8
AM_0
100
AcDbLine
 10
-144.9999999999942
 20
6.499999423292322
 30
0.0
 11
-144.5669881873516
 21
6.249999936700831
 31
0.0
  0
LINE
  5
44BD
330
1F
100
AcDbEntity
  8
AM_0
100
AcDbLine
 10
-144.5669892748007
 20
6.250000245418028
 30
0.0
 11
-144.5669853910709
 21
-6.249945984054881
 31
0.0
  0
LINE
  5
44BE
330
1F
100
AcDbEntity
  8
AM_0
100
AcDbLine
 10
-144.5669864785031
 20
-6.250000103512042
 30
0.0
 11
-144.9999999999942
 21
-6.500000576707676
 31
0.0
  0
LINE
  5
4658
330
1F
100
AcDbEntity
  8
AM_0
 48
0.5
100
AcDbLine
 10
0.0000000000074873
 20
-0.0000000000004346
 30
0.0
 11
-0.4675858707137144
 21
-1.284681621462971
 31
0.0
  0
DIMENSION
  5
46D1
330
1F
100
AcDbEntity
  8
AM_5
100
AcDbDimension
  2
*D6
 10
15.89166149231672
 20
6.249999999999554
 30
0.0
 11
15.89166149231672
 21
19.8976190476186
 31
0.0
 70
   160
  1
%%c<>
  3
AM_JIS$0
100
AcDbAlignedDimension
 13
-1.99999999999362
 23
-6.249999999998347
 33
0.0
 14
-1.999999999994315
 24
6.249999999999558
 34
0.0
 50
89.99999999999982
100
AcDbRotatedDimension
1001
GENIUS_GENDTOL_13
1000

1000
h7
1000

1040
0.0
1001
ACAD
1000
DSTYLE
1002
{
1070
   271
1070
     1
1002
}
  0
DIMENSION
  5
5686
330
1F
100
AcDbEntity
  8
AM_5
100
AcDbDimension
  2
*D7
 10
-1.999999999993389
 20
-20.50000157670757
 30
0.0
 11
-73.49999999999379
 21
-17.10000157670757
 31
0.0
 70
    32
  1
<>
  3
AM_JIS$0
100
AcDbAlignedDimension
 13
-144.9999999999942
 23
-6.500000576707677
 33
0.0
 14
-1.999999999993388
 24
-6.24999999999835
 34
0.0
 50
0.0000000000000396
100
AcDbRotatedDimension
1001
GENIUS_GENDTOL_13
1000

1000
h7
1000

1040
0.0
1001
ACAD
1000
DSTYLE
1002
{
1070
   271
1070
     0
1002
}
  0
ELLIPSE
  5
5A65
330
1F
100
AcDbEntity
  8
AM_0
 48
0.5
100
AcDbEllipse
 10
6.701833967221945
 20
6.759335574332297
 30
0.0
 11
5.798970510512392
 21
7.052844885786647
 31
0.0
210
0.0
220
0.0
230
1.0
 40
0.8246504481934829
 41
2.332556185848364
 42
2.864353045639164
  0
LINE
  5
5A66
330
1F
100
AcDbEntity
  8
AM_0
 48
0.5
100
AcDbLine
 10
-1.509275873747839
 20
5.351942520043843
 30
0.0
 11
-1.999999999994315
 21
6.249999999999558
 31
0.0
  0
ELLIPSE
  5
5B41
330
1F
100
AcDbEntity
  8
AM_11
 48
0.5
100
AcDbEllipse
 10
-53.68181669792363
 20
-27.60603285268476
 30
0.0
 11
-31.39477729797321
 21
-0.0000000000000733
 31
0.0
210
0.0
220
0.0
230
1.0
 40
0.9722222222222219
 41
4.271664206181687
 42
5.153113667164993
  0
ELLIPSE
  5
5B42
330
1F
100
AcDbEntity
  8
AM_11
 48
0.5
100
AcDbEllipse
 10
-53.68181669792374
 20
27.60604365234025
 30
0.0
 11
31.3947772979732
 21
0.000000000000363
 31
0.0
210
0.0
220
0.0
230
1.0
 40
0.9722222222222224
 41
4.271663339930089
 42
5.153112800913382
  0
ELLIPSE
  5
5B43
330
1F
100
AcDbEntity
  8
AM_11
 48
0.5
100
AcDbEllipse
 10
-80.46753098363041
 20
-27.6060328526848
 30
0.0
 11
-31.3947772979732
 21
-0.0000000000001082
 31
0.0
210
0.0
220
0.0
230
1.0
 40
0.9722222222222224
 41
4.271664206181685
 42
5.153113667164992
  0
ELLIPSE
  5
5B44
330
1F
100
AcDbEntity
  8
AM_11
 48
0.5
100
AcDbEllipse
 10
-80.46753098363053
 20
27.60604365234018
 30
0.0
 11
-31.3947772979732
 21
-0.0000000000001221
 31
0.0
210
0.0
220
0.0
230
1.0
 40
0.9722222222222224
 41
1.130070686340304
 42
2.011520147323597
  0
ELLIPSE
  5
5B45
330
1F
100
AcDbEntity
  8
AM_11
 48
0.5
100
AcDbEllipse
 10
-26.89610241220937
 20
-27.6060328526847
 30
0.0
 11
31.3947772979732
 21
0.0000000000002026
 31
0.0
210
0.0
220
0.0
230
1.0
 40
0.9722222222222224
 41
1.130071552591889
 42
2.011521013575197
  0
ELLIPSE
  5
5B46
330
1F
100
AcDbEntity
  8
AM_11
 48
0.5
100
AcDbEllipse
 10
-26.89610241220949
 20
27.60604365234029
 30
0.0
 11
-31.39477729797321
 21
-0.0000000000000454
 31
0.0
210
0.0
220
0.0
230
1.0
 40
0.9722222222222219
 41
1.130070686340307
 42
2.011520147323599
  0
ELLIPSE
  5
5B47
330
1F
100
AcDbEntity
  8
AM_11
 48
0.5
100
AcDbEllipse
 10
-0.110388126495141
 20
27.60604365234035
 30
0.0
 11
-31.39477729797411
 21
0.0000000000126349
 31
0.0
210
0.0
220
0.0
230
1.0
 40
0.9722222222221985
 41
1.130070686340713
 42
1.291800737381399
  0
ELLIPSE
  5
5B49
330
1F
100
AcDbEntity
  8
AM_11
 48
0.5
100
AcDbEllipse
 10
-160.8246738407657
 20
-27.60603285268503
 30
0.0
 11
-31.3947772979732
 21
-0.0000000000001082
 31
0.0
210
0.0
220
0.0
230
1.0
 40
0.9722222222222224
 41
4.271664206181685
 42
5.153113667164992
  0
ELLIPSE
  5
5B4A
330
1F
100
AcDbEntity
  8
AM_11
 48
0.5
100
AcDbEllipse
 10
-160.8246738407657
 20
27.60604365233996
 30
0.0
 11
-31.3947772979732
 21
-0.0000000000001221
 31
0.0
210
0.0
220
0.0
230
1.0
 40
0.9722222222222224
 41
1.130070686340304
 42
2.011520147323597
  0
ELLIPSE
  5
5B4B
330
1F
100
AcDbEntity
  8
AM_11
 48
0.5
100
AcDbEllipse
 10
-134.0389595550589
 20
-27.60603285268498
 30
0.0
 11
-31.39477729797321
 21
-0.0000000000000733
 31
0.0
210
0.0
220
0.0
230
1.0
 40
0.9722222222222219
 41
4.271664206181687
 42
5.153113667164993
  0
ELLIPSE
  5
5B4C
330
1F
100
AcDbEntity
  8
AM_11
 48
0.5
100
AcDbEllipse
 10
-134.038959555059
 20
27.60604365234003
 30
0.0
 11
31.3947772979732
 21
0.000000000000363
 31
0.0
210
0.0
220
0.0
230
1.0
 40
0.9722222222222224
 41
4.271663339930089
 42
5.153112800913382
  0
ELLIPSE
  5
5B4D
330
1F
100
AcDbEntity
  8
AM_11
 48
0.5
100
AcDbEllipse
 10
-107.2532452693446
 20
-27.60603285268492
 30
0.0
 11
31.3947772979732
 21
0.0000000000002026
 31
0.0
210
0.0
220
0.0
230
1.0
 40
0.9722222222222224
 41
1.130071552591889
 42
2.011521013575197
  0
ELLIPSE
  5
5B4E
330
1F
100
AcDbEntity
  8
AM_11
 48
0.5
100
AcDbEllipse
 10
-107.2532452693447
 20
27.60604365234007
 30
0.0
 11
-31.39477729797321
 21
-0.0000000000000454
 31
0.0
210
0.0
220
0.0
230
1.0
 40
0.9722222222222219
 41
1.130070686340307
 42
2.011520147323599
  0
ELLIPSE
  5
5B53
330
1F
100
AcDbEntity
  8
AM_11
 48
0.5
100
AcDbEllipse
 10
-187.6104070982755
 20
-27.60603075280997
 30
0.0
 11
31.3947772979732
 21
0.0000000000002026
 31
0.0
210
0.0
220
0.0
230
1.0
 40
0.9722222222222224
 41
1.130071552591889
 42
2.011521013575197
  0
ELLIPSE
  5
5B54
330
1F
100
AcDbEntity
  8
AM_11
 48
0.5
100
AcDbEllipse
 10
-187.6104070982757
 20
27.60604575221503
 30
0.0
 11
-31.39477729797321
 21
-0.0000000000000454
 31
0.0
210
0.0
220
0.0
230
1.0
 40
0.9722222222222219
 41
1.130070686340307
 42
2.011520147323599
  0
LINE
  5
5EC4
330
1F
100
AcDbEntity
  8
AM_0
 48
0.5
100
AcDbLine
 10
-144.9999999999942
 20
-6.500000576707677
 30
0.0
 11
-206.9999999999945
 21
-6.500000576707669
 31
0.0
  0
LINE
  5
5EC7
330
1F
100
AcDbEntity
  8
AM_0
 48
0.5
100
AcDbLine
 10
-206.9999999999955
 20
-6.500000576706616
 30
0.0
 11
-206.9999999999941
 21
6.499999423292331
 31
0.0
  0
LINE
  5
5EC8
330
1F
100
AcDbEntity
  8
AM_0
 48
0.5
100
AcDbLine
 10
-207.9999999999945
 20
-5.500000576707669
 30
0.0
 11
-207.9999999999941
 21
5.499999423292332
 31
0.0
  0
DIMENSION
  5
5EC9
330
1F
100
AcDbEntity
  8
AM_5
100
AcDbDimension
  2
*D8
 10
-226.5192274839058
 20
-6.500000576706611
 30
0.0
 11
-229.9192274839059
 21
-0.0000005767071735
 31
0.0
 70
    32
  1
%%c<>
 51
359.9999999999998
  3
AM_JIS$0
100
AcDbAlignedDimension
 13
-206.9999999999941
 23
6.499999423292331
 33
0.0
 14
-206.9999999999955
 24
-6.500000576706616
 34
0.0
 50
270.0
100
AcDbRotatedDimension
1001
ACAD
1000
DSTYLE
1002
{
1070
   271
1070
     0
1002
}
1001
GENIUS_GENDTOL_13
1000

1000
h7
1000

1040
0.0
  0
LINE
  5
5ED6
330
1F
100
AcDbEntity
  8
AM_0
 48
0.5
100
AcDbLine
 10
-144.9999999999942
 20
6.499999423292321
 30
0.0
 11
-206.9999999999941
 21
6.499999423292332
 31
0.0
  0
LINE
  5
5EEB
330
1F
100
AcDbEntity
  8
AM_0
 48
0.5
100
AcDbLine
 10
-206.9999999999941
 20
6.499999423292332
 30
0.0
 11
-207.9999999999941
 21
5.499999423292332
 31
0.0
1001
GENIUS_GENFIL_13
1070
     0
1040
1.0
1040
1.0
1040
20.0
1040
0.0
1002
{
1002
}
1001
GENIUS_GENODEF_13
1002
{
1000
HIER
1070
     0
1002
}
1002
{
1000
MANEDIT
1070
     0
1002
}
1002
{
1000
NOSEL
1070
     0
1002
}
1002
{
1000
BEHIND
1070
     0
1002
}
1002
{
1000
REACTOR
1002
}
1001
GENIUS_GENOBJ-N-CHA_13
1002
{
1000
OWNER
1000
GEN
1002
}
  0
LINE
  5
5EEE
330
1F
100
AcDbEntity
  8
AM_0
 48
0.5
100
AcDbLine
 10
-207.9999999999945
 20
-5.500000576707669
 30
0.0
 11
-206.9999999999945
 21
-6.500000576707669
 31
0.0
1001
GENIUS_GENFIL_13
1070
     0
1040
1.0
1040
1.0
1040
20.0
1040
0.0
1002
{
1002
}
1001
GENIUS_GENODEF_13
1002
{
1000
HIER
1070
     0
1002
}
1002
{
1000
MANEDIT
1070
     0
1002
}
1002
{
1000
NOSEL
1070
     0
1002
}
1002
{
1000
BEHIND
1070
     0
1002
}
1002
{
1000
REACTOR
1002
}
1001
GENIUS_GENOBJ-N-CHA_13
1002
{
1000
OWNER
1000
GEN
1002
}
  0
ELLIPSE
  5
5F3E
330
1F
100
AcDbEntity
  8
AM_0
 48
0.5
100
AcDbEllipse
 10
6.701833967221975
 20
-6.759335574332268
 30
0.0
 11
5.798970510512423
 21
-7.052844885786621
 31
0.0
210
0.0
220
0.0
230
-1.0
 40
0.8246504481934829
 41
2.332556185848364
 42
2.864353045639164
  0
LINE
  5
5F3F
330
1F
100
AcDbEntity
  8
AM_0
 48
0.5
100
AcDbLine
 10
-1.509275873747815
 20
-5.35194252004385
 30
0.0
 11
-1.999999999994287
 21
-6.249999999999568
 31
0.0
  0
DIMENSION
  5
5F4D
330
1F
100
AcDbEntity
  8
AM_5
100
AcDbDimension
  2
*D9
 10
-0.4675858707137197
 20
1.284681621462094
 30
0.0
 11
31.71148065593401
 21
-0.000000000000389
 31
0.0
 70
    34
  1
<>
 51
359.9999999999998
  3
AM_JIS$2
100
AcDb2LineAngularDimension
 13
0.0000000000074873
 23
-0.0000000000004346
 33
0.0
 14
-0.4675858707137144
 24
-1.284681621462971
 34
0.0
 15
0.0000000000074873
 25
-0.0000000000004406
 35
0.0
 16
31.96446224263033
 26
-13.7881231136764
 36
0.0
1001
ACAD
1000
DSTYLE
1002
{
1070
   179
1070
     3
1002
}
1001
GENIUS_GENDTOL_13
1000

1000
h7
1000

1040
0.0
  0
ELLIPSE
  5
6042
330
1F
100
AcDbEntity
  8
AM_11
 48
0.5
100
AcDbEllipse
 10
-214.396120548542
 20
-27.6060070558591
 30
0.0
 11
31.3947772979732
 21
0.0000000000002026
 31
0.0
210
0.0
220
0.0
230
1.0
 40
0.9722222222222224
 41
1.130071552591889
 42
1.365627965499083
  0
ELLIPSE
  5
6043
330
1F
100
AcDbEntity
  8
AM_11
 48
0.5
100
AcDbEllipse
 10
-214.3961205485421
 20
27.60606944916589
 30
0.0
 11
-31.39477729797321
 21
-0.0000000000000454
 31
0.0
210
0.0
220
0.0
230
1.0
 40
0.9722222222222219
 41
1.775964688090704
 42
2.011520147323599
  0
ELLIPSE
  5
6092
330
1F
100
AcDbEntity
  8
AM_0
 48
0.5
100
AcDbEllipse
 10
-22.46446028458867
 20
91.36575872317301
 30
0.0
 11
-0.0000000107738882
 21
94.09472706936941
 31
0.0
210
0.0
220
0.0
230
1.0
 40
0.9985528219964725
 41
3.355641727154225
 42
3.383020221508482
  0
ELLIPSE
  5
6093
330
1F
100
AcDbEntity
  8
AM_0
 48
0.5
100
AcDbEllipse
 10
-3.232701892098716
 20
-0.9023839665860363
 30
0.0
 11
-1.479938137518836
 21
0.4341430053808783
 31
0.0
210
0.0
220
0.0
230
1.0
 40
0.361510373473473
 41
4.308457325594566
 42
7.451897666924077
  0
ELLIPSE
  5
6094
330
1F
100
AcDbEntity
  8
AM_0
 48
0.5
100
AcDbEllipse
 10
-3.129810176619172
 20
-1.131650158281874
 30
0.0
 11
0.5881097773766501
 21
0.5881097773766501
 31
0.0
210
0.0
220
0.0
230
1.0
 40
1.0
 41
2.468466412673489
 42
6.220372693303645
  0
LINE
  5
6095
330
1F
100
AcDbEntity
  8
AM_0
100
AcDbLine
 10
-139.999999999995
 20
-6.249910866528054
 30
0.0
 11
-144.5669853910709
 21
-6.249945984054881
 31
0.0
  0
SPLINE
  5
6096
330
1F
100
AcDbEntity
  8
AM_0
100
AcDbSpline
210
0.0
220
0.0
230
1.0
 70
     8
 71
     3
 72
    15
 73
    11
 74
     0
 42
0.0000000001
 43
0.0000000001
 40
10.33335958186913
 40
10.33335958186913
 40
10.33335958186913
 40
10.33335958186913
 40
10.37139106676736
 40
11.27458944007584
 40
12.18373345430765
 40
13.09824173870457
 40
14.01741343450111
 40
14.9404441545541
 40
15.86644439743314
 40
16.55140071192301
 40
16.55140071192301
 40
16.55140071192301
 40
16.55140071192301
 10
-132.0647984287863
 20
2.852202404399481
 30
0.0
 10
-132.3437996314978
 20
2.769722256455672
 30
0.0
 10
-132.7482736430083
 20
2.631439513024006
 30
0.0
 10
-133.5404717815594
 20
2.352481932837314
 30
0.0
 10
-134.7002558640623
 20
1.923951665699968
 30
0.0
 10
-135.8599716236832
 20
1.477959500531828
 30
0.0
 10
-137.0196292242296
 20
1.017248044818122
 30
0.0
 10
-138.1792399520959
 20
0.5446509165301828
 30
0.0
 10
-139.2373248040057
 20
0.1052262087552346
 30
0.0
 10
-139.6390377782159
 20
-0.0924455374203459
 30
0.0
 10
-139.9999999999943
 20
-0.2946198320677431
 30
0.0
  0
ELLIPSE
  5
6097
330
1F
100
AcDbEntity
  8
AM_0
100
AcDbEllipse
 10
-139.5043335329297
 20
-4.059468167386237
 30
0.0
 11
0.0000000000029164
 21
0.5053578302082506
 31
0.0
210
0.0
220
0.0
230
1.0
 40
0.9808842030071787
 41
1.581988331610343
 42
2.197008321695819
  0
ELLIPSE
  5
6098
330
1F
100
AcDbEntity
  8
AM_0
100
AcDbEllipse
 10
-139.5569665682093
 20
-4.092815017254187
 30
0.0
 11
-0.0000000000014394
 21
0.4525154635346498
 31
0.0
210
0.0
220
0.0
230
1.0
 40
0.9808842030071623
 41
0.8505161907419944
 42
1.509564580580609
  0
ELLIPSE
  5
6099
330
1F
100
AcDbEntity
  8
AM_0
100
AcDbEllipse
 10
-138.5031292668497
 20
-3.265323092361287
 30
0.0
 11
-0.0000000000454273
 21
1.798397866885172
 31
0.0
210
0.0
220
0.0
230
1.0
 40
0.9808842030067266
 41
2.222165445268725
 42
2.552396541789967
  0
ELLIPSE
  5
609A
330
1F
100
AcDbEntity
  8
AM_0
100
AcDbEllipse
 10
-138.9240409815277
 20
-4.689606169490779
 30
0.0
 11
-0.0000000000176949
 21
1.33134504429699
 31
0.0
210
0.0
220
0.0
230
1.0
 40
0.9808842030065076
 41
0.4426332494662426
 42
0.8332770159474232
  0
ELLIPSE
  5
609B
330
1F
100
AcDbEntity
  8
AM_0
100
AcDbEllipse
 10
-138.6629156181265
 20
-5.148081199144145
 30
0.0
 11
-0.0000000000032705
 21
1.860185246714452
 31
0.0
210
0.0
220
0.0
230
1.0
 40
0.9808842030065402
 41
0.1000113452943512
 42
0.4663880400686109
  0
ELLIPSE
  5
609C
330
1F
100
AcDbEntity
  8
AM_0
100
AcDbEllipse
 10
-137.7815963501817
 20
-11.74406459585891
 30
0.0
 11
-0.0000000000009325
 21
8.516173553342548
 31
0.0
210
0.0
220
0.0
230
1.0
 40
0.9808842030066969
 41
-0.0436708493382938
 42
0.1276600234896947
  0
ELLIPSE
  5
609D
330
1F
100
AcDbEntity
  8
AM_0
100
AcDbEllipse
 10
-137.6833552814744
 20
-6.92087698184006
 30
0.0
 11
0.0000000000037769
 21
3.694864836718908
 31
0.0
210
0.0
220
0.0
230
1.0
 40
0.9808842030065616
 41
-0.2681948460321499
 42
-0.0735832027599113
  0
LINE
  5
609E
330
1F
100
AcDbEntity
  8
AM_11
100
AcDbLine
 10
-123.3983102445925
 20
-6.249999836043152
 30
0.0
 11
-140.0144717800235
 21
-6.249910866527905
 31
0.0
  0
ELLIPSE
  5
609F
330
1F
100
AcDbEntity
  8
AM_0
100
AcDbEllipse
 10
-136.7426669799862
 20
-2.015918435267656
 30
0.0
 11
0.0000000000016356
 21
3.529932437465884
 31
0.0
210
0.0
220
0.0
230
1.0
 40
0.9808842030066228
 41
2.945609816912151
 42
3.137891475663556
  0
ELLIPSE
  5
60A0
330
1F
100
AcDbEntity
  8
AM_0
100
AcDbEllipse
 10
-135.8227684235782
 20
3.549690334880142
 30
0.0
 11
0.0000000000242333
 21
9.173085579127796
 31
0.0
210
0.0
220
0.0
230
1.0
 40
0.9808842030064644
 41
2.80609707523104
 42
2.963480633384877
  0
ELLIPSE
  5
60A1
330
1F
100
AcDbEntity
  8
AM_0
100
AcDbEllipse
 10
-136.6187023449303
 20
0.7673088535659788
 30
0.0
 11
-0.0000000000009811
 21
6.314675404771259
 31
0.0
210
0.0
220
0.0
230
1.0
 40
0.9808842030064466
 41
3.119508111767773
 42
3.205549794956034
  0
ELLIPSE
  5
60A2
330
1F
100
AcDbEntity
  8
AM_0
100
AcDbEllipse
 10
-137.9190361451877
 20
-2.427133490197635
 30
0.0
 11
0.000000000026369
 21
2.826312022706245
 31
0.0
210
0.0
220
0.0
230
1.0
 40
0.9808842030064235
 41
2.542031073043727
 42
2.823851770178184
  0
SPLINE
  5
60A3
330
1F
100
AcDbEntity
  8
AM_0
100
AcDbSpline
210
0.0
220
0.0
230
1.0
 70
     8
 71
     3
 72
    22
 73
    18
 74
     0
 42
0.0000000001
 43
0.0000000001
 40
17.17441611292
 40
17.17441611292
 40
17.17441611292
 40
17.17441611292
 40
17.38177636558528
 40
18.41823744757437
 40
19.46215659509824
 40
20.51397914882054
 40
21.57394542641293
 40
22.64209583141747
 40
23.71826625065247
 40
24.80210429862395
 40
25.8930771157021
 40
26.99048705697709
 40
28.09349309193389
 40
29.20112995599786
 40
30.31233024745139
 40
31.42594771747373
 40
32.5407895042663
 40
32.54078950426994
 40
32.54078950426994
 40
32.54078950426994
 10
-109.005918265927
 20
-5.653302621493877
 30
0.0
 10
-109.0836556635899
 20
-5.638834484504938
 30
0.0
 10
-109.5496489077129
 20
-5.550707480698947
 30
0.0
 10
-110.4033222723317
 20
-5.374001368083041
 30
0.0
 10
-111.5637166665185
 20
-5.100908770805616
 30
0.0
 10
-112.7239928189523
 20
-4.796630733955782
 30
0.0
 10
-113.8841589211178
 20
-4.463066636486227
 30
0.0
 10
-115.044213440516
 20
-4.102261719495144
 30
0.0
 10
-116.2041706560733
 20
-3.71646143870697
 30
0.0
 10
-117.3640359387172
 20
-3.308036798515936
 30
0.0
 10
-118.52382001996
 20
-2.879506531299006
 30
0.0
 10
-119.6835357958652
 20
-2.433514397369303
 30
0.0
 10
-120.843193332066
 20
-1.972802815845515
 30
0.0
 10
-122.0028043023906
 20
-1.500206162228069
 30
0.0
 10
-123.1623789857807
 20
-1.018630370988074
 30
0.0
 10
-124.321934560327
 20
-0.5310470250530265
 30
0.0
 10
-124.8915068355932
 20
-0.3054283875575893
 30
0.0
 10
-125.5126602501275
 20
0.0000001639564005
 30
0.0
  0
SPLINE
  5
60A4
330
1F
100
AcDbEntity
  8
AM_0
100
AcDbSpline
210
0.0
220
0.0
230
1.0
 70
     8
 71
     3
 72
    19
 73
    15
 74
     0
 42
0.0000000001
 43
0.0000000001
 40
1.479671614733745
 40
1.479671614733745
 40
1.479671614733745
 40
1.479671614733745
 40
2.022833576467832
 40
3.037578957496688
 40
4.056212745003489
 40
5.079857003664532
 40
6.109500240690281
 40
7.145961322679372
 40
8.189895241603872
 40
9.241717795325891
 40
10.30168407291828
 40
11.36983447792315
 40
12.44600489715814
 40
13.01371853178965
 40
13.01371853178965
 40
13.01371853178965
 40
13.01371853178965
 10
-123.3983102445925
 20
-6.249999836043152
 30
0.0
 10
-123.6058820453432
 20
-6.239856892734298
 30
0.0
 10
-124.200933731983
 20
-6.204919468912035
 30
0.0
 10
-125.1830652881502
 20
-6.124232648935828
 30
0.0
 10
-126.3438719664559
 20
-5.990565526404811
 30
0.0
 10
-127.5045952147549
 20
-5.820414468312439
 30
0.0
 10
-128.6652121345724
 20
-5.614536109298597
 30
0.0
 10
-129.8257266081206
 20
-5.374317319370901
 30
0.0
 10
-130.9861283439815
 20
-5.101229083462964
 30
0.0
 10
-132.1464094377045
 20
-4.796948146776672
 30
0.0
 10
-133.3065756726493
 20
-4.463384449297662
 30
0.0
 10
-134.4666301559727
 20
-4.102579423722152
 30
0.0
 10
-135.441131130466
 20
-3.778461678698163
 30
0.0
 10
-135.9987350587703
 20
-3.5567475534803
 30
0.0
 10
-136.7229648441673
 20
-3.358100543763404
 30
0.0
  0
SPLINE
  5
60A5
330
1F
100
AcDbEntity
  8
AM_0
100
AcDbSpline
210
0.0
220
0.0
230
1.0
 70
     8
 71
     3
 72
    14
 73
    10
 74
     0
 42
0.0000000001
 43
0.0000000001
 40
1.580019955310467
 40
1.580019955310467
 40
1.580019955310467
 40
1.580019955310467
 40
2.030549285115227
 40
3.082371838836284
 40
4.126290986361125
 40
5.162752068350215
 40
6.192395305374981
 40
7.216039564037012
 40
8.092146932806128
 40
8.092146932806128
 40
8.092146932806128
 40
8.092146932806128
 10
-132.6344121082561
 20
-4.654329189346778
 30
0.0
 10
-132.7986640540569
 20
-4.701836003039593
 30
0.0
 10
-133.3473207354756
 20
-4.85754593035981
 30
0.0
 10
-134.2840137518204
 20
-5.101782522759414
 30
0.0
 10
-135.4442466217625
 20
-5.375295106046706
 30
0.0
 10
-136.6047989027274
 20
-5.615402839457271
 30
0.0
 10
-137.7654043597927
 20
-5.821299387257329
 30
0.0
 10
-138.8722769018098
 20
-5.983590135193113
 30
0.0
 10
-139.6530914939527
 20
-6.172345994758702
 30
0.0
 10
-139.9999999999949
 20
-6.249910866528053
 30
0.0
  0
SPLINE
  5
60A6
330
1F
100
AcDbEntity
  8
AM_0
100
AcDbSpline
210
0.0
220
0.0
230
1.0
 70
     8
 71
     3
 72
    25
 73
    21
 74
     0
 42
0.0000000001
 43
0.0000000001
 40
1.163660092745933
 40
1.163660092745933
 40
1.163660092745933
 40
1.163660092745933
 40
1.685415058684573
 40
2.531036209541122
 40
3.379897699130124
 40
4.232934581347659
 40
5.09097061220244
 40
5.954688180526682
 40
6.824620803463244
 40
7.701151815239697
 40
8.58445704656667
 40
9.47458238407075
 40
10.37139106676736
 40
11.27458944007584
 40
12.18373345430765
 40
13.09824173870457
 40
14.01741343450111
 40
14.9404441545541
 40
15.86644439743314
 40
16.55140071192301
 40
16.55140071192301
 40
16.55140071192301
 40
16.55140071192301
 10
-119.434080436498
 20
-6.249999836043211
 30
0.0
 10
-119.673421936379
 20
-6.240540604738698
 30
0.0
 10
-120.3002927284783
 20
-6.209814641024043
 30
0.0
 10
-121.3140005981012
 20
-6.123495139834249
 30
0.0
 10
-122.4748197480702
 20
-5.990764470293099
 30
0.0
 10
-123.6355396756358
 20
-5.820360837014691
 30
0.0
 10
-124.7961573230642
 20
-5.614550158832464
 30
0.0
 10
-125.9566667280349
 20
-5.374316386122474
 30
0.0
 10
-127.1170659468689
 20
-5.101224489414449
 30
0.0
 10
-128.2773498153799
 20
-4.796951293380441
 30
0.0
 10
-129.4375206526972
 20
-4.463384013219974
 30
0.0
 10
-130.5975753383137
 20
-4.102579541907784
 30
0.0
 10
-131.757532509129
 20
-3.716779140937682
 30
0.0
 10
-132.9173978027665
 20
-3.308354531095162
 30
0.0
 10
-134.0771818852695
 20
-2.879824263957793
 30
0.0
 10
-135.2368976448903
 20
-2.433832098789621
 30
0.0
 10
-136.3965552454367
 20
-1.973120643075872
 30
0.0
 10
-137.556165973303
 20
-1.500523514787909
 30
0.0
 10
-138.6142508252129
 20
-1.061098807012933
 30
0.0
 10
-139.1814742839721
 20
-0.7792368992872988
 30
0.0
 10
-139.9999999999949
 20
-0.2946198320673861
 30
0.0
  0
SPLINE
  5
60A7
330
1F
100
AcDbEntity
  8
AM_0
100
AcDbSpline
210
0.0
220
0.0
230
1.0
 70
     8
 71
     3
 72
    11
 73
     7
 74
     0
 42
0.0000000001
 43
0.0000000001
 40
11.27226913003534
 40
11.27226913003534
 40
11.27226913003534
 40
11.2722691300354
 40
12.28301561507924
 40
13.29510212255852
 40
14.30984805882082
 40
15.18258238371378
 40
15.18258238371378
 40
15.18258238371378
 40
15.18258238371378
 10
-70.24697344262763
 20
-6.24999507924315
 30
0.0
 10
-70.61529258379905
 20
-6.219405763004989
 30
0.0
 10
-71.35123614620315
 20
-6.145350359693813
 30
0.0
 10
-72.45135121445276
 20
-5.995962293654607
 30
0.0
 10
-73.49537981227091
 20
-5.817534628533413
 30
0.0
 10
-74.17059622609051
 20
-5.680371972006788
 30
0.0
 10
-74.48175517634834
 20
-5.612617408251728
 30
0.0
  0
LINE
  5
60A8
330
1F
100
AcDbEntity
  8
AM_11
 48
0.5
100
AcDbLine
 10
-104.5526971898833
 20
-6.250555037943394
 30
0.0
 11
-88.87948160557902
 21
-6.249672267048113
 31
0.0
  0
LINE
  5
60A9
330
1F
100
AcDbEntity
  8
AM_0
100
AcDbLine
 10
-104.5526971898833
 20
-6.250555037943394
 30
0.0
 11
-123.3983102445925
 21
-6.249999836043152
 31
0.0
  0
SPLINE
  5
60AA
330
1F
100
AcDbEntity
  8
AM_0
100
AcDbSpline
210
0.0
220
0.0
230
1.0
 70
     8
 71
     3
 72
    15
 73
    11
 74
     0
 42
0.0000000001
 43
0.0000000001
 40
4.116313036328508
 40
4.116313036328508
 40
4.116313036328508
 40
4.116313036328508
 40
4.126290986361125
 40
5.162752068350215
 40
6.192395305374981
 40
7.216039564037012
 40
8.234688489606833
 40
9.249433870634691
 40
10.26152376260694
 40
11.27226744710342
 40
11.27226744710342
 40
11.27226744710342
 40
11.27226744710352
 10
-96.44302555692863
 20
-5.367217866525128
 30
0.0
 10
-96.44673507471152
 20
-5.368039475539427
 30
0.0
 10
-96.83578508194525
 20
-5.45415513918392
 30
0.0
 10
-97.61050657158536
 20
-5.614437983785537
 30
0.0
 10
-98.77111202865064
 20
-5.820334531585601
 30
0.0
 10
-99.93184393160044
 20
-5.990522192343145
 30
0.0
 10
-101.0926560261866
 20
-6.124029780120589
 30
0.0
 10
-102.253540402226
 20
-6.219992121076963
 30
0.0
 10
-103.361596344445
 20
-6.223888991077844
 30
0.0
 10
-104.0312384336728
 20
-6.229923275033896
 30
0.0
 10
-104.5526971898832
 20
-6.25055503794339
 30
0.0
  0
SPLINE
  5
60AB
330
1F
100
AcDbEntity
  8
AM_0
100
AcDbSpline
210
0.0
220
0.0
230
1.0
 70
     8
 71
     3
 72
    11
 73
     7
 74
     0
 42
0.0000000001
 43
0.0000000001
 40
11.27226913003534
 40
11.27226913003534
 40
11.27226913003534
 40
11.2722691300354
 40
12.28301561507924
 40
13.29510212255852
 40
14.30984805882082
 40
15.18258238371378
 40
15.18258238371378
 40
15.18258238371378
 40
15.18258238371378
 10
-104.5526971898833
 20
-6.25055503794339
 30
0.0
 10
-104.9607621553515
 20
-6.260090976246982
 30
0.0
 10
-105.7307182915455
 20
-6.186035572935836
 30
0.0
 10
-106.8816765858897
 20
-6.036647506896674
 30
0.0
 10
-107.9739563017772
 20
-5.858219841775524
 30
0.0
 10
-108.6803787064803
 20
-5.72105718524893
 30
0.0
 10
-109.005918265927
 20
-5.653302621493877
 30
0.0
  0
SPLINE
  5
60AC
330
1F
100
AcDbEntity
  8
AM_0
100
AcDbSpline
210
0.0
220
0.0
230
1.0
 70
     8
 71
     3
 72
    22
 73
    18
 74
     0
 42
0.0000000001
 43
0.0000000001
 40
17.17441611292
 40
17.17441611292
 40
17.17441611292
 40
17.17441611292
 40
17.38177636558528
 40
18.41823744757437
 40
19.46215659509824
 40
20.51397914882054
 40
21.57394542641293
 40
22.64209583141747
 40
23.71826625065247
 40
24.80210429862395
 40
25.8930771157021
 40
26.99048705697709
 40
28.09349309193389
 40
29.20112995599786
 40
30.31233024745139
 40
31.42594771747373
 40
32.5407895042663
 40
32.54078950426994
 40
32.54078950426994
 40
32.54078950426994
 10
-74.48224046210987
 20
-5.612540314549518
 30
0.0
 10
-74.55654383431334
 20
-5.598072177560573
 30
0.0
 10
-75.00195197123847
 20
-5.509945173754575
 30
0.0
 10
-75.81791457943669
 20
-5.33323906113862
 30
0.0
 10
-76.92704891074157
 20
-5.060146463861159
 30
0.0
 10
-78.03607022358625
 20
-4.75586842701127
 30
0.0
 10
-79.14498634759907
 20
-4.422304329541669
 30
0.0
 10
-80.25379581797903
 20
-4.061499412550537
 30
0.0
 10
-81.36251228288475
 20
-3.675699131762323
 30
0.0
 10
-82.47114087598532
 20
-3.267274491571239
 30
0.0
 10
-83.57969185473137
 20
-2.838744224354265
 30
0.0
 10
-84.68817754550705
 20
-2.39275209042452
 30
0.0
 10
-85.7966075692993
 20
-1.932040508900682
 30
0.0
 10
-86.90499308424834
 20
-1.459443855283187
 30
0.0
 10
-88.01334391522706
 20
-0.9778680640431353
 30
0.0
 10
-89.12167648148919
 20
-0.4902847181080394
 30
0.0
 10
-89.86041982405728
 20
-0.1632729106690911
 30
0.0
 10
-90.22999443345616
 20
0.0003228121976281
 30
0.0
  0
LINE
  5
60AD
330
1F
100
AcDbEntity
  8
AM_0
 48
0.5
100
AcDbLine
 10
-88.87948160557902
 20
-6.249672267048113
 30
0.0
 11
-70.24697344262922
 21
-6.249995079243025
 31
0.0
  0
ELLIPSE
  5
60AE
330
1F
100
AcDbEntity
  8
AM_0
 48
0.5
100
AcDbEllipse
 10
-25.21567105610257
 20
68.94357269706453
 30
0.0
 11
-17.23741640165679
 21
71.30776469451368
 31
0.0
210
0.0
220
0.0
230
1.0
 40
0.8560853009678497
 41
3.146242966307058
 42
3.208151747851597
  0
ELLIPSE
  5
60AF
330
1F
100
AcDbEntity
  8
AM_0
 48
0.5
100
AcDbEllipse
 10
-3.312152013764389
 20
-2.007219495370037
 30
0.0
 11
-5.369754026287807
 21
3.758786952614066
 31
0.0
210
0.0
220
0.0
230
1.0
 40
0.4918638621557165
 41
1.020920841642384
 42
2.135540388785135
  0
ELLIPSE
  5
60B0
330
1F
100
AcDbEntity
  8
AM_0
 48
0.5
100
AcDbEllipse
 10
1.11658491440201
 20
7.503514442237175
 30
0.0
 11
14.70130179206828
 21
5.006970060317429
 31
0.0
210
0.0
220
0.0
230
1.0
 40
0.6164312269746878
 41
3.130443010304192
 42
3.878648724444388
  0
LINE
  5
60B1
330
1F
100
AcDbEntity
  8
AM_0
 48
0.5
100
AcDbLine
 10
0.0000000000074067
 20
-0.0000000000004406
 30
0.0
 11
-6.647667474726185
 21
1.631038198555624
 31
0.0
  0
SPLINE
  5
60B2
330
1F
100
AcDbEntity
  8
AM_0
 48
0.5
100
AcDbSpline
210
0.0
220
0.0
230
1.0
 70
     8
 71
     3
 72
    10
 73
     6
 74
     0
 42
0.0000000001
 43
0.0000000001
 40
0.0
 40
0.0
 40
0.0
 40
0.0
 40
2.69986029516136
 40
4.147722969032201
 40
6.201687855798567
 40
6.201687855798567
 40
6.201687855798567
 40
6.201687855798567
 10
-13.61821522790704
 20
2.597895379893777
 30
0.0
 10
-11.05030233988038
 20
-0.1454825978401796
 30
0.0
 10
-9.395026400082359
 20
-1.037547565449915
 30
0.0
 10
-5.532871590953833
 20
-0.6114588013309803
 30
0.0
 10
-6.184804411725773
 20
0.7813589764886397
 30
0.0
 10
-6.647667474726181
 20
1.631038198555624
 30
0.0
  0
LINE
  5
60B3
330
1F
100
AcDbEntity
  8
AM_11
 48
0.5
100
AcDbLine
 10
-30.74384703161728
 20
-6.249995079245332
 30
0.0
 11
-12.74119762718068
 21
-6.250000000000363
 31
0.0
  0
LINE
  5
60B4
330
1F
100
AcDbEntity
  8
AM_11
 48
0.5
100
AcDbLine
 10
-70.24697344262502
 20
-6.249995079243148
 30
0.0
 11
-49.34412953587197
 21
-6.250883005170104
 31
0.0
  0
LINE
  5
60B5
330
1F
100
AcDbEntity
  8
AM_0
 48
0.5
100
AcDbLine
 10
-49.34412953587197
 20
-6.249995079244383
 30
0.0
 11
-30.74385011129466
 21
-6.249995079245352
 31
0.0
  0
LINE
  5
60B6
330
1F
100
AcDbEntity
  8
AM_0
 48
0.5
100
AcDbLine
 10
-12.74119762718068
 20
-6.250000000000363
 30
0.0
 11
-1.997105643988547
 21
-6.249999999999901
 31
0.0
  0
SPLINE
  5
60B7
330
1F
100
AcDbEntity
  8
AM_0
100
AcDbSpline
210
0.0
220
0.0
230
1.0
 70
     8
 71
     3
 72
    22
 73
    18
 74
     0
 42
0.0000000001
 43
0.0000000001
 40
17.17441611292
 40
17.17441611292
 40
17.17441611292
 40
17.17441611292
 40
17.38177636558528
 40
18.41823744757437
 40
19.46215659509824
 40
20.51397914882054
 40
21.57394542641293
 40
22.64209583141747
 40
23.71826625065247
 40
24.80210429862395
 40
25.8930771157021
 40
26.99048705697709
 40
28.09349309193389
 40
29.20112995599786
 40
30.31233024745139
 40
31.42594771747373
 40
32.5407895042663
 40
32.54078950426994
 40
32.54078950426994
 40
32.54078950426994
 10
-34.97911713077678
 20
-5.612540314551715
 30
0.0
 10
-35.05342050298029
 20
-5.59807217756277
 30
0.0
 10
-35.4988286399054
 20
-5.509945173756775
 30
0.0
 10
-36.31479124810359
 20
-5.333239061140819
 30
0.0
 10
-37.42392557940848
 20
-5.060146463863355
 30
0.0
 10
-38.53294689225323
 20
-4.755868427013474
 30
0.0
 10
-39.6418630162661
 20
-4.422304329543868
 30
0.0
 10
-40.75067248664603
 20
-4.061499412552737
 30
0.0
 10
-41.85938895155185
 20
-3.675699131764523
 30
0.0
 10
-42.96801754465247
 20
-3.26727449157344
 30
0.0
 10
-44.07656852339856
 20
-2.838744224356462
 30
0.0
 10
-45.18505421417422
 20
-2.392752090426719
 30
0.0
 10
-46.29348423796638
 20
-1.932040508902882
 30
0.0
 10
-47.40186975291534
 20
-1.459443855285386
 30
0.0
 10
-48.51022058389408
 20
-0.9778680640453327
 30
0.0
 10
-49.6185531501562
 20
-0.4902847181102377
 30
0.0
 10
-50.35729649272429
 20
-0.1632729106712898
 30
0.0
 10
-50.72687110212318
 20
0.0003228121954294
 30
0.0
  0
SPLINE
  5
60B8
330
1F
100
AcDbEntity
  8
AM_0
100
AcDbSpline
210
0.0
220
0.0
230
1.0
 70
     8
 71
     3
 72
    17
 73
    13
 74
     0
 42
0.0000000001
 43
0.0000000001
 40
1.580019955310467
 40
1.580019955310467
 40
1.580019955310467
 40
1.580019955310467
 40
2.030549285115227
 40
3.082371838836284
 40
4.126290986361125
 40
5.162752068350215
 40
6.192395305374981
 40
7.216039564037012
 40
8.234688489606833
 40
9.249433870634691
 40
10.26152376260694
 40
11.27226744710342
 40
11.27226744710342
 40
11.27226744710342
 40
11.27226744710352
 10
-20.29161274423867
 20
-4.612679120435717
 30
0.0
 10
-20.44860891121763
 20
-4.660185934128524
 30
0.0
 10
-20.97302885370434
 20
-4.815895861448709
 30
0.0
 10
-21.86834374623246
 20
-5.060132453848283
 30
0.0
 10
-22.97732368857612
 20
-5.333645037135523
 30
0.0
 10
-24.08660893205964
 20
-5.573752770546042
 30
0.0
 10
-25.19594500260577
 20
-5.779649318346062
 30
0.0
 10
-26.30540193332861
 20
-5.949836979103556
 30
0.0
 10
-27.41493551324719
 20
-6.083344566880957
 30
0.0
 10
-28.52453818160819
 20
-6.179306907837278
 30
0.0
 10
-29.63418260067534
 20
-6.237106281239507
 30
0.0
 10
-30.37412509358623
 20
-6.249995115008199
 30
0.0
 10
-30.74385011129457
 20
-6.249995079245353
 30
0.0
  0
SPLINE
  5
60B9
330
1F
100
AcDbEntity
  8
AM_0
100
AcDbSpline
210
0.0
220
0.0
230
1.0
 70
     8
 71
     3
 72
    11
 73
     7
 74
     0
 42
0.0000000001
 43
0.0000000001
 40
11.27226913003534
 40
11.27226913003534
 40
11.27226913003534
 40
11.2722691300354
 40
12.28301561507924
 40
13.29510212255852
 40
14.30984805882082
 40
15.18258238371378
 40
15.18258238371378
 40
15.18258238371378
 40
15.18258238371378
 10
-30.74385011129463
 20
-6.249995079245353
 30
0.0
 10
-31.11216925246601
 20
-6.219405763007187
 30
0.0
 10
-31.84811281487013
 20
-6.145350359696013
 30
0.0
 10
-32.94822788311973
 20
-5.995962293656806
 30
0.0
 10
-33.99225648093787
 20
-5.817534628535612
 30
0.0
 10
-34.66747289475744
 20
-5.68037197200899
 30
0.0
 10
-34.97863184501525
 20
-5.612617408253925
 30
0.0
  0
SPLINE
  5
60BA
330
1F
100
AcDbEntity
  8
AM_0
100
AcDbSpline
210
0.0
220
0.0
230
1.0
 70
     8
 71
     3
 72
    17
 73
    13
 74
     0
 42
0.0000000001
 43
0.0000000001
 40
1.580019955310467
 40
1.580019955310467
 40
1.580019955310467
 40
1.580019955310467
 40
2.030549285115227
 40
3.082371838836284
 40
4.126290986361125
 40
5.162752068350215
 40
6.192395305374981
 40
7.216039564037012
 40
8.234688489606833
 40
9.249433870634691
 40
10.26152376260694
 40
11.27226744710342
 40
11.27226744710342
 40
11.27226744710342
 40
11.27226744710352
 10
-59.79473607557174
 20
-4.612679120433515
 30
0.0
 10
-59.95173224255068
 20
-4.660185934126324
 30
0.0
 10
-60.47615218503739
 20
-4.81589586144651
 30
0.0
 10
-61.37146707756547
 20
-5.060132453846083
 30
0.0
 10
-62.48044701990916
 20
-5.333645037133324
 30
0.0
 10
-63.58973226339265
 20
-5.573752770543846
 30
0.0
 10
-64.69906833393881
 20
-5.779649318343864
 30
0.0
 10
-65.80852526466166
 20
-5.949836979101354
 30
0.0
 10
-66.9180588445802
 20
-6.083344566878757
 30
0.0
 10
-68.02766151294119
 20
-6.179306907835081
 30
0.0
 10
-69.1373059320083
 20
-6.237106281237307
 30
0.0
 10
-69.8772484249192
 20
-6.249995115006
 30
0.0
 10
-70.24697344262756
 20
-6.24999507924315
 30
0.0
  0
LINE
  5
60BB
330
1F
100
AcDbEntity
  8
AM_11
 48
0.5
100
AcDbLine
 10
-30.74385011126973
 20
6.250004920754444
 30
0.0
 11
-9.841006204543933
 21
6.250004920753366
 31
0.0
  0
LINE
  5
60BC
330
1F
100
AcDbEntity
  8
AM_11
 48
0.5
100
AcDbLine
 10
-67.537529622117
 20
6.250892846682558
 30
0.0
 11
-54.19813602320409
 21
6.250004920756033
 31
0.0
  0
LINE
  5
60BD
330
1F
100
AcDbEntity
  8
AM_0
 48
0.5
100
AcDbLine
 10
-54.1981540267006
 20
6.250004920756033
 30
0.0
 11
-30.74385011129409
 21
6.250004920754649
 31
0.0
  0
LINE
  5
60BE
330
1F
100
AcDbEntity
  8
AM_0
100
AcDbLine
 10
-1.999999999994315
 20
6.249999999999562
 30
0.0
 11
-9.841495807779974
 21
6.249999999999626
 31
0.0
  0
SPLINE
  5
60BF
330
1F
100
AcDbEntity
  8
AM_0
100
AcDbSpline
210
0.0
220
0.0
230
1.0
 70
     8
 71
     3
 72
    52
 73
    48
 74
     0
 42
0.0000000001
 43
0.0000000001
 40
3.537595802313026
 40
3.537595802313026
 40
3.537595802313026
 40
3.537595802313026
 40
4.056212745003489
 40
5.079857003664532
 40
6.109500240690281
 40
7.145961322679372
 40
8.189895241603872
 40
9.241717795325891
 40
10.30168407291828
 40
11.36983447792315
 40
12.44600489715814
 40
13.52984294512926
 40
14.62081576220742
 40
15.7182257034828
 40
16.82123173843959
 40
17.92886860250316
 40
19.0400688939571
 40
20.15368796660465
 40
21.26852814259644
 40
22.38336992938901
 40
23.49698739941135
 40
24.6081876908653
 40
25.71582455492886
 40
26.81883757994213
 40
27.91624752121713
 40
29.00722033829659
 40
30.09105838626677
 40
31.16722880550176
 40
32.23537921050758
 40
33.29534548809967
 40
34.347168041821
 40
35.39108718934584
 40
36.42754827133493
 40
37.45720575381954
 40
38.48085062012849
 40
39.49948440763516
 40
40.51422944315121
 40
41.52631975251916
 40
42.53706336719636
 40
43.54780698187354
 40
44.55989729124051
 40
45.57464232675757
 40
46.59327611426424
 40
47.6169209805722
 40
48.64656348684535
 40
49.68302456883444
 40
50.58557219878025
 40
50.58557219878025
 40
50.58557219878025
 40
50.58557219878025
 10
-12.74119762718068
 20
-6.250000000000363
 30
0.0
 10
-13.90094860440351
 20
-6.085358390450847
 30
0.0
 10
-14.46002866657522
 20
-5.922107883644202
 30
0.0
 10
-15.38889228826754
 20
-5.779652325327437
 30
0.0
 10
-16.49823931520232
 20
-5.573773966313555
 30
0.0
 10
-17.60748842140007
 20
-5.333555176385803
 30
0.0
 10
-18.71662977006295
 20
-5.060466940477825
 30
0.0
 10
-19.82565580591696
 20
-4.756186003791479
 30
0.0
 10
-20.93457205684379
 20
-4.422622306312437
 30
0.0
 10
-22.04338149274233
 20
-4.06181728073687
 30
0.0
 10
-23.15209796729827
 20
-3.676017029999734
 30
0.0
 10
-24.26072655662864
 20
-3.267592379301941
 30
0.0
 10
-25.36927754075578
 20
-2.839062123858333
 30
0.0
 10
-26.47776321366011
 20
-2.393069953127064
 30
0.0
 10
-27.58619330400373
 20
-1.932358507943737
 30
0.0
 10
-28.69457856922696
 20
-1.459761342917398
 30
0.0
 10
-29.80293086952304
 20
-0.9781872374514456
 30
0.0
 10
-30.91125992619687
 20
-0.4905967112366601
 30
0.0
 10
-32.01958139057141
 20
0.0000036455276907
 30
0.0
 10
-33.12789787950993
 20
0.4906128334042079
 30
0.0
 10
-34.23623065106117
 20
0.9781957665447952
 30
0.0
 10
-35.34458158308153
 20
1.459771329708152
 30
0.0
 10
-36.45296882454333
 20
1.93237029511904
 30
0.0
 10
-37.56140351318667
 20
2.393077808509996
 30
0.0
 10
-38.66989093557428
 20
2.839072241042111
 30
0.0
 10
-39.7784420797393
 20
3.26760214899187
 30
0.0
 10
-40.88707062873026
 20
3.67602688557983
 30
0.0
 10
-41.99578710612517
 20
4.061827136881318
 30
0.0
 10
-43.10459657026595
 20
4.422632076182949
 30
0.0
 10
-44.21351270674054
 20
4.756196114261221
 30
0.0
 10
-45.32253397640801
 20
5.060474364150799
 30
0.0
 10
-46.43166846631275
 20
5.333566176833318
 30
0.0
 10
-47.54091716103663
 20
5.573789797258738
 30
0.0
 10
-48.65027210908099
 20
5.779644642106122
 30
0.0
 10
-49.75972443277427
 20
5.949848365547968
 30
0.0
 10
-50.86925316458877
 20
6.083357042958028
 30
0.0
 10
-51.97885101163647
 20
6.179307941984828
 30
0.0
 10
-53.08849451339359
 20
6.23712545142256
 30
0.0
 10
-54.19816239889364
 20
6.256440368199206
 30
0.0
 10
-55.307830282761
 20
6.237125451392403
 30
0.0
 10
-56.41747378942575
 20
6.179307942106564
 30
0.0
 10
-57.52707161840477
 20
6.083357042500541
 30
0.0
 10
-58.63660041796304
 20
5.949848367268946
 30
0.0
 10
-59.74604707819037
 20
5.779645465407756
 30
0.0
 10
-60.85539765579851
 20
5.573791902013998
 30
0.0
 10
-61.91421121963408
 20
5.344470808336454
 30
0.0
 10
-62.60118151796219
 20
5.176766124603306
 30
0.0
 10
-62.91989569686158
 20
5.095035451092996
 30
0.0
  0
SPLINE
  5
60C0
330
1F
100
AcDbEntity
  8
AM_0
100
AcDbSpline
210
0.0
220
0.0
230
1.0
 70
     8
 71
     3
 72
    23
 73
    19
 74
     0
 42
0.0000000001
 43
0.0000000001
 40
16.03460024169435
 40
16.03460024169435
 40
16.03460024169435
 40
16.03460024169435
 40
16.35212704903564
 40
17.38177054169784
 40
18.41822485651776
 40
19.46214173629503
 40
20.51396345435107
 40
21.57393551351153
 40
22.64208202342361
 40
23.7182574881101
 40
24.80209208578934
 40
25.89306333925047
 40
26.99048218457928
 40
28.09348763352352
 40
29.20111863782268
 40
30.31232390128032
 40
31.42594612798585
 40
32.5407912310448
 40
32.5407912310486
 40
32.5407912310486
 40
32.5407912310486
 10
-67.53752962211696
 20
6.250892846682556
 30
0.0
 10
-67.42352729263327
 20
6.229793947305148
 30
0.0
 10
-66.9403353258543
 20
6.137914178931777
 30
0.0
 10
-66.08918747275225
 20
5.957889795424576
 30
0.0
 10
-64.98694877480985
 20
5.690195505876866
 30
0.0
 10
-63.88573388801584
 20
5.389619438835434
 30
0.0
 10
-62.78547774070439
 20
5.057901175266542
 30
0.0
 10
-61.68614128283507
 20
4.696890051915779
 30
0.0
 10
-60.5876609753952
 20
4.308649760607362
 30
0.0
 10
-59.48996032439146
 20
3.895439762452138
 30
0.0
 10
-58.39297695453024
 20
3.459600041578002
 30
0.0
 10
-57.29662291667711
 20
3.003666647767775
 30
0.0
 10
-56.20080936359734
 20
2.53028966289156
 30
0.0
 10
-55.10546328435943
 20
2.042190806160044
 30
0.0
 10
-54.01049303268711
 20
1.542208305582702
 30
0.0
 10
-52.91579719114526
 20
1.033261692147194
 30
0.0
 10
-51.8212866205906
 20
0.5183001736604992
 30
0.0
 10
-51.09180889699248
 20
0.1730466333199764
 30
0.0
 10
-50.72687110211826
 20
0.0003228121931839
 30
0.0
  0
SPLINE
  5
60C1
330
1F
100
AcDbEntity
  8
AM_0
100
AcDbSpline
210
0.0
220
0.0
230
1.0
 70
     8
 71
     3
 72
    42
 73
    38
 74
     0
 42
0.0000000001
 43
0.0000000001
 40
1.278384351700087
 40
1.278384351700087
 40
1.278384351700087
 40
1.278384351700087
 40
1.527291183660732
 40
1.786406454158005
 40
2.047386241038974
 40
2.310345544571907
 40
2.575337113970003
 40
2.842374715221223
 40
3.111417320030211
 40
3.382376832022752
 40
3.655120036292296
 40
3.929472521611371
 40
4.205224030350333
 40
4.482133246366229
 40
4.759933319229942
 40
5.038338087391601
 40
5.317048131389549
 40
5.595758175387723
 40
5.874162943549383
 40
6.151963016412869
 40
6.428872232428759
 40
6.704623741167955
 40
6.978976226486705
 40
7.251719430756336
 40
7.522680721168327
 40
7.791723325977311
 40
8.058760927228529
 40
8.32375249662655
 40
8.586708135057122
 40
8.84768792193809
 40
9.106803192435362
 40
9.364213819003406
 40
9.620125035580644
 40
9.87478726697307
 40
10.12847352585208
 40
10.38149610319407
 40
10.63418200686337
 40
10.63418200686337
 40
10.63418200686337
 40
10.63418200686337
 10
-9.393714969571218
 20
-6.249995079246724
 30
0.0
 10
-12.3974771366077
 20
-5.893002695814383
 30
0.0
 10
-13.12998326048275
 20
-5.755285235734346
 30
0.0
 10
-14.50123318110017
 20
-5.33355424313751
 30
0.0
 10
-15.610372123925
 20
-5.060462346429433
 30
0.0
 10
-16.71940081199163
 20
-4.756189150395375
 30
0.0
 10
-17.82832146198244
 20
-4.422621870234877
 30
0.0
 10
-18.93713109123803
 20
-4.06181739892262
 30
0.0
 10
-20.04584751337835
 20
-3.676016997952492
 30
0.0
 10
-21.15447611698684
 20
-3.2675923881099
 30
0.0
 10
-22.26302709693745
 20
-2.839062120972504
 30
0.0
 10
-23.37151277214811
 20
-2.393069955804266
 30
0.0
 10
-24.47994285744344
 20
-1.932358500090489
 30
0.0
 10
-25.58832814064476
 20
-1.45976137180247
 30
0.0
 10
-26.69668037379576
 20
-0.978187129342079
 30
0.0
 10
-27.80500968176657
 20
-0.4905971157834155
 30
0.0
 10
-28.91332967292555
 20
0.0000049206552762
 30
0.0
 10
-30.021649663841
 20
0.4906069576901459
 30
0.0
 10
-31.12997897254214
 20
0.9781969694611415
 30
0.0
 10
-32.23833120302368
 20
1.459771218454674
 30
0.0
 10
-33.34671649612349
 20
1.932368322513662
 30
0.0
 10
-34.45514654471605
 20
2.393079868066219
 30
0.0
 10
-35.5636323558496
 20
2.839071700529838
 30
0.0
 10
-36.67218524296604
 20
3.26760412995122
 30
0.0
 10
-37.78081815417044
 20
3.676025029049192
 30
0.0
 10
-38.88953655409093
 20
4.061827408271652
 30
0.0
 10
-39.9983461575303
 20
4.422631986942442
 30
0.0
 10
-41.10726225220108
 20
4.756196201904694
 30
0.0
 10
-42.21628355103761
 20
5.060474104787353
 30
0.0
 10
-43.32541796643168
 20
5.333567117105708
 30
0.0
 10
-44.43466158598235
 20
5.57378517246112
 30
0.0
 10
-45.54401012169189
 20
5.779655543850273
 30
0.0
 10
-46.6534626866061
 20
5.949815838555363
 30
0.0
 10
-47.76299729305825
 20
6.083480907283526
 30
0.0
 10
-48.87260054587656
 20
6.178843895537188
 30
0.0
 10
-49.98224407646752
 20
6.238852168023773
 30
0.0
 10
-50.7221868675318
 20
6.246288986857302
 30
0.0
 10
-51.09191195588657
 20
6.250004920755853
 30
0.0
  0
SPLINE
  5
60C2
330
1F
100
AcDbEntity
  8
AM_0
 48
0.5
100
AcDbSpline
210
0.0
220
0.0
230
1.0
 70
     8
 71
     3
 72
    20
 73
    16
 74
     0
 42
0.0000000001
 43
0.0000000001
 40
12.04260318190555
 40
12.04260318190555
 40
12.04260318190555
 40
12.04260318190555
 40
13.08720139956839
 40
14.16337181880432
 40
15.23152222380919
 40
16.29148850140128
 40
17.34331105512262
 40
18.38723020264746
 40
19.42369128463655
 40
20.45333379090873
 40
21.47697865721768
 40
22.49561244472435
 40
23.5103574802404
 40
24.52244778960836
 40
25.53320666051913
 40
25.53320666051913
 40
25.53320666051913
 40
25.53320666051913
 10
-13.61821522790702
 20
2.597895379893721
 30
0.0
 10
-15.05508566221779
 20
3.03388656283818
 30
0.0
 10
-16.10144672888607
 20
3.373959473847041
 30
0.0
 10
-18.54147481598299
 20
4.061827147442772
 30
0.0
 10
-19.65028428476292
 20
4.422632055788018
 30
0.0
 10
-20.75920041495089
 20
4.756196184574676
 30
0.0
 10
-21.86822170494211
 20
5.060474106032536
 30
0.0
 10
-22.9773561206038
 20
5.333567129117572
 30
0.0
 10
-24.08659974774956
 20
5.573785123688327
 30
0.0
 10
-25.19594825311319
 20
5.779655725306032
 30
0.0
 10
-26.30539546369167
 20
5.94981432813269
 30
0.0
 10
-27.4149241169319
 20
6.083482161734182
 30
0.0
 10
-28.52452198470205
 20
6.178843685293708
 30
0.0
 10
-29.63417105488514
 20
6.238852533274706
 30
0.0
 10
-30.37411943705969
 20
6.24628908984079
 30
0.0
 10
-30.7438501112941
 20
6.250004920754644
 30
0.0
  0
SPLINE
  5
60C3
330
1F
100
AcDbEntity
  8
AM_0
 48
0.5
100
AcDbSpline
210
0.0
220
0.0
230
1.0
 70
     8
 71
     3
 72
    17
 73
    13
 74
     0
 42
0.0000000001
 43
0.0000000001
 40
0.0
 40
0.0
 40
0.0
 40
0.0
 40
1.010743614677189
 40
2.022833924044153
 40
3.037578959561199
 40
4.056212747067873
 40
5.079857613375832
 40
6.109500119648989
 40
7.14596120163808
 40
8.18989512056258
 40
9.241717674284874
 40
9.693948937866434
 40
9.693948937866434
 40
9.693948937866434
 40
9.693948937866434
 10
-9.841006204538405
 20
6.250004920753421
 30
0.0
 10
-10.21073129441007
 20
6.246289001971908
 30
0.0
 10
-10.95067408850984
 20
6.238852213392652
 30
0.0
 10
-12.0603175962887
 20
6.178843713569648
 30
0.0
 10
-13.16991542068847
 20
6.083482066744288
 30
0.0
 10
-14.27944423754655
 20
5.949814681884569
 30
0.0
 10
-15.38889083269619
 20
5.779654395543848
 30
0.0
 10
-16.49824165534397
 20
5.573790131707484
 30
0.0
 10
-17.60748181613739
 20
5.333547106723497
 30
0.0
 10
-18.7166543580473
 20
5.060542698508289
 30
0.0
 10
-19.61200735696792
 20
4.814606994474127
 30
0.0
 10
-20.13781113344715
 20
4.660861812351029
 30
0.0
 10
-20.29562921742488
 20
4.613801441318569
 30
0.0
  0
LINE
  5
60C4
330
1F
100
AcDbEntity
  8
AM_11
 48
0.5
100
AcDbLine
 10
-108.0631299284848
 20
6.250004920758612
 30
0.0
 11
-93.70142972546535
 21
6.250004920758231
 31
0.0
  0
LINE
  5
60C5
330
1F
100
AcDbEntity
  8
AM_0
100
AcDbLine
 10
-139.9999999999943
 20
6.250000565068164
 30
0.0
 11
-139.7710094476968
 21
5.994351257904017
 31
0.0
  0
LINE
  5
60C6
330
1F
100
AcDbEntity
  8
AM_0
100
AcDbLine
 10
-139.9999999999943
 20
6.250000565068164
 30
0.0
 11
-144.5669892748007
 21
6.250000245418029
 31
0.0
  0
LINE
  5
60C7
330
1F
100
AcDbEntity
  8
AM_11
100
AcDbLine
 10
-133.204561428286
 20
6.2500049207586
 30
0.0
 11
-139.9999999999943
 21
6.250000565068164
 31
0.0
  0
LINE
  5
60C8
330
1F
100
AcDbEntity
  8
AM_0
100
AcDbLine
 10
-108.0631299284848
 20
6.250004920758612
 30
0.0
 11
-133.204561428286
 21
6.2500049207586
 31
0.0
  0
SPLINE
  5
60C9
330
1F
100
AcDbEntity
  8
AM_0
100
AcDbSpline
210
0.0
220
0.0
230
1.0
 70
     8
 71
     3
 72
    23
 73
    19
 74
     0
 42
0.0000000001
 43
0.0000000001
 40
16.03460024169435
 40
16.03460024169435
 40
16.03460024169435
 40
16.03460024169435
 40
16.35212704903564
 40
17.38177054169784
 40
18.41822485651776
 40
19.46214173629503
 40
20.51396345435107
 40
21.57393551351153
 40
22.64208202342361
 40
23.7182574881101
 40
24.80209208578934
 40
25.89306333925047
 40
26.99048218457928
 40
28.09348763352352
 40
29.20111863782268
 40
30.31232390128032
 40
31.42594612798585
 40
32.5407912310448
 40
32.5407912310486
 40
32.5407912310486
 40
32.5407912310486
 10
-108.0631299284848
 20
6.250004920758612
 30
0.0
 10
-106.9338328645222
 20
6.160664456447261
 30
0.0
 10
-106.3962813033507
 20
6.079106933778128
 30
0.0
 10
-105.592463171517
 20
5.957889795426772
 30
0.0
 10
-104.4902244735745
 20
5.690195505879058
 30
0.0
 10
-103.3890095867805
 20
5.389619438837624
 30
0.0
 10
-102.2887534394691
 20
5.057901175268737
 30
0.0
 10
-101.1894169815998
 20
4.696890051917973
 30
0.0
 10
-100.0909366741601
 20
4.308649760609555
 30
0.0
 10
-98.99323602315639
 20
3.895439762454333
 30
0.0
 10
-97.89625265329526
 20
3.459600041580197
 30
0.0
 10
-96.79989861544207
 20
3.003666647769972
 30
0.0
 10
-95.70408506236232
 20
2.530289662893755
 30
0.0
 10
-94.60873898312426
 20
2.04219080616224
 30
0.0
 10
-93.51376873145195
 20
1.542208305584898
 30
0.0
 10
-92.41907288991006
 20
1.03326169214939
 30
0.0
 10
-91.3245623193554
 20
0.5183001736626946
 30
0.0
 10
-90.59508459575726
 20
0.1730466333221712
 30
0.0
 10
-90.23014680088309
 20
0.0003228121953787
 30
0.0
  0
SPLINE
  5
60CA
330
1F
100
AcDbEntity
  8
AM_0
100
AcDbSpline
210
0.0
220
0.0
230
1.0
 70
     8
 71
     3
 72
    53
 73
    49
 74
     0
 42
0.0000000001
 43
0.0000000001
 40
0.0
 40
0.0
 40
0.0
 40
0.0
 40
1.010743684496582
 40
2.022833576467832
 40
3.037578957496688
 40
4.056212745003489
 40
5.079857003664532
 40
6.109500240690281
 40
7.145961322679372
 40
8.189895241603872
 40
9.241717795325891
 40
10.30168407291828
 40
11.36983447792315
 40
12.44600489715814
 40
13.52984294512926
 40
14.62081576220742
 40
15.7182257034828
 40
16.82123173843959
 40
17.92886860250316
 40
19.0400688939571
 40
20.15368796660465
 40
21.26852814259644
 40
22.38336992938901
 40
23.49698739941135
 40
24.6081876908653
 40
25.71582455492886
 40
26.81883757994213
 40
27.91624752121713
 40
29.00722033829659
 40
30.09105838626677
 40
31.16722880550176
 40
32.23537921050758
 40
33.29534548809967
 40
34.347168041821
 40
35.39108718934584
 40
36.42754827133493
 40
37.45720575381954
 40
38.48085062012849
 40
39.49948440763516
 40
40.51422944315121
 40
41.52631975251916
 40
42.53706336719636
 40
43.54780698187354
 40
44.55989729124051
 40
45.57464232675757
 40
46.59327611426424
 40
47.6169209805722
 40
47.97411149222054
 40
47.97411149222054
 40
47.97411149222054
 40
47.97411149222054
 10
-88.84740523463682
 20
-6.249995079243864
 30
0.0
 10
-89.21713025722294
 20
-6.246276480659346
 30
0.0
 10
-89.95707273840702
 20
-6.238834330696382
 30
0.0
 10
-91.06671718101038
 20
-6.178842247133109
 30
0.0
 10
-92.17631425707635
 20
-6.08347050594821
 30
0.0
 10
-93.28584265997697
 20
-5.949803383417149
 30
0.0
 10
-94.39529131836543
 20
-5.77965232532472
 30
0.0
 10
-95.50463834530019
 20
-5.573773966310835
 30
0.0
 10
-96.61388745149794
 20
-5.333555176383082
 30
0.0
 10
-97.72302880016079
 20
-5.060466940475109
 30
0.0
 10
-98.83205483601479
 20
-4.756186003788763
 30
0.0
 10
-99.94097108694166
 20
-4.422622306309716
 30
0.0
 10
-101.0497805228401
 20
-4.061817280734152
 30
0.0
 10
-102.1584969973961
 20
-3.676017029997016
 30
0.0
 10
-103.2671255867265
 20
-3.267592379299223
 30
0.0
 10
-104.3756765708536
 20
-2.839062123855617
 30
0.0
 10
-105.4841622437578
 20
-2.393069953124346
 30
0.0
 10
-106.5925923341014
 20
-1.932358507941019
 30
0.0
 10
-107.7009775993247
 20
-1.459761342914682
 30
0.0
 10
-108.8093298996208
 20
-0.9781872374487273
 30
0.0
 10
-109.9176589562946
 20
-0.4905967112339422
 30
0.0
 10
-111.0259804206692
 20
0.0000036455304087
 30
0.0
 10
-112.1342969096077
 20
0.490612833406926
 30
0.0
 10
-113.242629681159
 20
0.9781957665475141
 30
0.0
 10
-114.3509806131794
 20
1.459771329710872
 30
0.0
 10
-115.4593678546412
 20
1.932370295121756
 30
0.0
 10
-116.5678025432845
 20
2.393077808512716
 30
0.0
 10
-117.6762899656722
 20
2.839072241044832
 30
0.0
 10
-118.7848411098372
 20
3.267602148994588
 30
0.0
 10
-119.8934696588281
 20
3.676026885582545
 30
0.0
 10
-121.002186136223
 20
4.061827136884034
 30
0.0
 10
-122.1109956003637
 20
4.422632076185674
 30
0.0
 10
-123.2199117368382
 20
4.756196114263944
 30
0.0
 10
-124.3289330065058
 20
5.060474364153516
 30
0.0
 10
-125.4380674964105
 20
5.333566176836038
 30
0.0
 10
-126.5473161911343
 20
5.573789797261459
 30
0.0
 10
-127.6566711391787
 20
5.779644642108844
 30
0.0
 10
-128.766123462872
 20
5.949848365550685
 30
0.0
 10
-129.8756521946865
 20
6.083357042960749
 30
0.0
 10
-130.9852500417343
 20
6.179307941987553
 30
0.0
 10
-132.0948935434913
 20
6.237125451425274
 30
0.0
 10
-133.2045614289913
 20
6.256440368201926
 30
0.0
 10
-134.3142293128588
 20
6.23712545139512
 30
0.0
 10
-135.4238728195235
 20
6.179307942109289
 30
0.0
 10
-136.5334706485025
 20
6.083357042503259
 30
0.0
 10
-137.6429994480607
 20
5.949848367271671
 30
0.0
 10
-138.5095851816169
 20
5.816903348957271
 30
0.0
 10
-139.0063199874756
 20
5.729978964303489
 30
0.0
 10
-139.394234648372
 20
5.646525631441192
 30
0.0
  0
SPLINE
  5
60CB
330
1F
100
AcDbEntity
  8
AM_0
100
AcDbSpline
210
0.0
220
0.0
230
1.0
 70
     8
 71
     3
 72
    20
 73
    16
 74
     0
 42
0.0000000001
 43
0.0000000001
 40
19.06958205160103
 40
19.06958205160103
 40
19.06958205160103
 40
19.06958205160103
 40
19.46214173629503
 40
20.51396345435107
 40
21.57393551351153
 40
22.64208202342361
 40
23.7182574881101
 40
24.80209208578934
 40
25.89306333925047
 40
26.99048218457928
 40
28.09348763352352
 40
29.20111863782268
 40
30.31232390128032
 40
31.42594612798585
 40
32.5407912310448
 40
32.5407912310486
 40
32.5407912310486
 40
32.5407912310486
 10
-139.7710094476968
 20
5.994351257904017
 30
0.0
 10
-139.3675867878029
 20
5.634631088255034
 30
0.0
 10
-139.1300720140205
 20
5.320828194707926
 30
0.0
 10
-138.2106199974163
 20
5.057578527028016
 30
0.0
 10
-137.0529961931796
 20
4.696567403677309
 30
0.0
 10
-135.8962739328789
 20
4.308327112368934
 30
0.0
 10
-134.7403726667724
 20
3.895117114213768
 30
0.0
 10
-133.5852267123988
 20
3.459277393339678
 30
0.0
 10
-132.4307434575182
 20
3.003343999529509
 30
0.0
 10
-131.276829344173
 20
2.529967014653346
 30
0.0
 10
-130.1234074903568
 20
2.041868157921878
 30
0.0
 10
-128.9703813906642
 20
1.541885657344581
 30
0.0
 10
-127.8176442504588
 20
1.032939043909129
 30
0.0
 10
-126.6651022043972
 20
0.5179775254224902
 30
0.0
 10
-125.8969472219505
 20
0.1727239850819972
 30
0.0
 10
-125.5126602501249
 20
0.0000001639552249
 30
0.0
  0
SPLINE
  5
60CC
330
1F
100
AcDbEntity
  8
AM_0
100
AcDbSpline
210
0.0
220
0.0
230
1.0
 70
     8
 71
     3
 72
    55
 73
    51
 74
     0
 42
0.0000000001
 43
0.0000000001
 40
0.0
 40
0.0
 40
0.0
 40
0.0
 40
1.010743684496582
 40
2.022833576467832
 40
3.037578957496688
 40
4.056212745003489
 40
5.079857003664532
 40
6.109500240690281
 40
7.145961322679372
 40
8.189895241603872
 40
9.241717795325891
 40
10.30168407291828
 40
11.36983447792315
 40
12.44600489715814
 40
13.52984294512926
 40
14.62081576220742
 40
15.7182257034828
 40
16.82123173843959
 40
17.92886860250316
 40
19.0400688939571
 40
20.15368796660465
 40
21.26852814259644
 40
22.38336992938901
 40
23.49698739941135
 40
24.6081876908653
 40
25.71582455492886
 40
26.81883757994213
 40
27.91624752121713
 40
29.00722033829659
 40
30.09105838626677
 40
31.16722880550176
 40
32.23537921050758
 40
33.29534548809967
 40
34.347168041821
 40
35.39108718934584
 40
36.42754827133493
 40
37.45720575381954
 40
38.48085062012849
 40
39.49948440763516
 40
40.51422944315121
 40
41.52631975251916
 40
42.53706336719636
 40
43.54780698187354
 40
44.55989729124051
 40
45.57464232675757
 40
46.59327611426424
 40
47.6169209805722
 40
48.64656348684535
 40
49.68302456883444
 40
50.58557219878025
 40
50.58557219878025
 40
50.58557219878025
 40
50.58557219878025
 10
-49.34412953587198
 20
-6.249995079244383
 30
0.0
 10
-49.71385455845812
 20
-6.246276480659863
 30
0.0
 10
-50.45379703964218
 20
-6.238834330696905
 30
0.0
 10
-51.56344148224557
 20
-6.178842247133631
 30
0.0
 10
-52.67303855831149
 20
-6.083470505948731
 30
0.0
 10
-53.78256696121211
 20
-5.949803383417668
 30
0.0
 10
-54.89201561960059
 20
-5.77965232532524
 30
0.0
 10
-56.00136264653535
 20
-5.573773966311354
 30
0.0
 10
-57.1106117527331
 20
-5.3335551763836
 30
0.0
 10
-58.21975310139595
 20
-5.060466940475626
 30
0.0
 10
-59.32877913724997
 20
-4.756186003789282
 30
0.0
 10
-60.43769538817684
 20
-4.422622306310235
 30
0.0
 10
-61.54650482407537
 20
-4.061817280734672
 30
0.0
 10
-62.65522129863131
 20
-3.676017029997536
 30
0.0
 10
-63.76384988796173
 20
-3.267592379299743
 30
0.0
 10
-64.87240087208885
 20
-2.839062123856135
 30
0.0
 10
-65.98088654499308
 20
-2.393069953124865
 30
0.0
 10
-67.08931663533665
 20
-1.932358507941539
 30
0.0
 10
-68.19770190055987
 20
-1.459761342915202
 30
0.0
 10
-69.30605420085602
 20
-0.9781872374492465
 30
0.0
 10
-70.41438325752989
 20
-0.4905967112344617
 30
0.0
 10
-71.52270472190441
 20
0.0000036455298894
 30
0.0
 10
-72.63102121084291
 20
0.4906128334064065
 30
0.0
 10
-73.73935398239422
 20
0.9781957665469949
 30
0.0
 10
-74.84770491441459
 20
1.459771329710352
 30
0.0
 10
-75.95609215587646
 20
1.932370295121238
 30
0.0
 10
-77.06452684451976
 20
2.393077808512198
 30
0.0
 10
-78.17301426690732
 20
2.839072241044312
 30
0.0
 10
-79.28156541107235
 20
3.267602148994068
 30
0.0
 10
-80.39019396006329
 20
3.676026885582025
 30
0.0
 10
-81.49891043745821
 20
4.061827136883516
 30
0.0
 10
-82.60771990159895
 20
4.422632076185156
 30
0.0
 10
-83.71663603807341
 20
4.756196114263425
 30
0.0
 10
-84.82565730774091
 20
5.060474364152998
 30
0.0
 10
-85.93479179764564
 20
5.333566176835519
 30
0.0
 10
-87.04404049236954
 20
5.573789797260937
 30
0.0
 10
-88.15339544041387
 20
5.779644642108324
 30
0.0
 10
-89.26284776410723
 20
5.949848365550166
 30
0.0
 10
-90.37237649592167
 20
6.083357042960233
 30
0.0
 10
-91.48197434296944
 20
6.179307941987034
 30
0.0
 10
-92.59161784472652
 20
6.237125451424755
 30
0.0
 10
-93.70128573022654
 20
6.256440368201405
 30
0.0
 10
-94.81095361409391
 20
6.237125451394599
 30
0.0
 10
-95.92059712075863
 20
6.179307942108769
 30
0.0
 10
-97.03019494973771
 20
6.08335704250274
 30
0.0
 10
-98.13972374929596
 20
5.94984836727115
 30
0.0
 10
-99.2491704095233
 20
5.779645465409958
 30
0.0
 10
-100.3585209871314
 20
5.573791902016198
 30
0.0
 10
-101.417334550967
 20
5.344470808338652
 30
0.0
 10
-102.1043048492952
 20
5.176766124605507
 30
0.0
 10
-102.4230190281946
 20
5.09503545109519
 30
0.0
  0
SPLINE
  5
60CD
330
1F
100
AcDbEntity
  8
AM_0
100
AcDbSpline
210
0.0
220
0.0
230
1.0
 70
     8
 71
     3
 72
    46
 73
    42
 74
     0
 42
0.0000000001
 43
0.0000000001
 40
0.0
 40
0.0
 40
0.0
 40
0.0
 40
0.5056245176053715
 40
0.759310862862336
 40
1.013969309739036
 40
1.269880374404297
 40
1.527291183660732
 40
1.786406454158005
 40
2.047386241038974
 40
2.310345544571907
 40
2.575337113970003
 40
2.842374715221223
 40
3.111417320030211
 40
3.382376832022752
 40
3.655120036292296
 40
3.929472521611371
 40
4.205224030350333
 40
4.482133246366229
 40
4.759933319229942
 40
5.038338087391601
 40
5.317048131389549
 40
5.595758175387723
 40
5.874162943549382
 40
6.151963016412868
 40
6.428872232428759
 40
6.704623741167953
 40
6.978976226486702
 40
7.251719430756334
 40
7.522680721168324
 40
7.791723325977308
 40
8.058760927228528
 40
8.323752496626548
 40
8.586708135057122
 40
8.84768792193809
 40
9.106803192435362
 40
9.364213819003406
 40
9.620125035580642
 40
9.874787266973068
 40
10.12847352585207
 40
10.38149610319407
 40
10.63418200686337
 40
10.63418200686337
 40
10.63418200686337
 40
10.63418200686337
 10
-85.74115479190171
 20
-6.249995079244046
 30
0.0
 10
-86.48113342549622
 20
-6.235757096113287
 30
0.0
 10
-87.59238059649057
 20
-6.214375507839767
 30
0.0
 10
-89.0700544192917
 20
-6.082732996846742
 30
0.0
 10
-90.1795947429238
 20
-5.950002327305552
 30
0.0
 10
-91.28904022727137
 20
-5.779598694027106
 30
0.0
 10
-92.39838794967504
 20
-5.573788015844821
 30
0.0
 10
-93.50763221119803
 20
-5.333554243134791
 30
0.0
 10
-94.61677115402292
 20
-5.060462346426721
 30
0.0
 10
-95.7257998420895
 20
-4.756189150392658
 30
0.0
 10
-96.83472049208029
 20
-4.422621870232156
 30
0.0
 10
-97.94353012133591
 20
-4.0618173989199
 30
0.0
 10
-99.05224654347618
 20
-3.67601699794977
 30
0.0
 10
-100.1608751470846
 20
-3.267592388107182
 30
0.0
 10
-101.2694261270353
 20
-2.839062120969783
 30
0.0
 10
-102.3779118022459
 20
-2.393069955801548
 30
0.0
 10
-103.4863418875412
 20
-1.932358500087771
 30
0.0
 10
-104.5947271707425
 20
-1.459761371799753
 30
0.0
 10
-105.7030794038935
 20
-0.9781871293393608
 30
0.0
 10
-106.8114087118643
 20
-0.4905971157806976
 30
0.0
 10
-107.9197287030234
 20
0.0000049206579931
 30
0.0
 10
-109.0280486939388
 20
0.4906069576928659
 30
0.0
 10
-110.13637800264
 20
0.9781969694638579
 30
0.0
 10
-111.2447302331216
 20
1.459771218457394
 30
0.0
 10
-112.3531155262214
 20
1.932368322516378
 30
0.0
 10
-113.4615455748139
 20
2.393079868068941
 30
0.0
 10
-114.5700313859475
 20
2.839071700532558
 30
0.0
 10
-115.6785842730639
 20
3.267604129953936
 30
0.0
 10
-116.7872171842683
 20
3.676025029051912
 30
0.0
 10
-117.8959355841887
 20
4.061827408274372
 30
0.0
 10
-119.0047451876281
 20
4.422631986945157
 30
0.0
 10
-120.1136612822987
 20
4.756196201907415
 30
0.0
 10
-121.2226825811353
 20
5.060474104790068
 30
0.0
 10
-122.3318169965293
 20
5.333567117108424
 30
0.0
 10
-123.44106061608
 20
5.573785172463839
 30
0.0
 10
-124.5504091517897
 20
5.779655543852986
 30
0.0
 10
-125.6598617167038
 20
5.949815838558081
 30
0.0
 10
-126.769396323156
 20
6.083480907286241
 30
0.0
 10
-127.8789995759742
 20
6.178843895539912
 30
0.0
 10
-128.9886431065653
 20
6.238852168026495
 30
0.0
 10
-129.7285858976295
 20
6.246288986860013
 30
0.0
 10
-130.0983109859843
 20
6.250004920758567
 30
0.0
  0
SPLINE
  5
60CE
330
1F
100
AcDbEntity
  8
AM_0
100
AcDbSpline
210
0.0
220
0.0
230
1.0
 70
     8
 71
     3
 72
    46
 73
    42
 74
     0
 42
0.0000000001
 43
0.0000000001
 40
0.0
 40
0.0
 40
0.0
 40
0.0
 40
0.5056245176053715
 40
0.759310862862336
 40
1.013969309739036
 40
1.269880374404297
 40
1.527291183660732
 40
1.786406454158005
 40
2.047386241038974
 40
2.310345544571907
 40
2.575337113970003
 40
2.842374715221223
 40
3.111417320030211
 40
3.382376832022752
 40
3.655120036292296
 40
3.929472521611371
 40
4.205224030350333
 40
4.482133246366229
 40
4.759933319229942
 40
5.038338087391601
 40
5.317048131389549
 40
5.595758175387723
 40
5.874162943549382
 40
6.151963016412868
 40
6.428872232428759
 40
6.704623741167953
 40
6.978976226486702
 40
7.251719430756334
 40
7.522680721168324
 40
7.791723325977308
 40
8.058760927228528
 40
8.323752496626548
 40
8.586708135057122
 40
8.84768792193809
 40
9.106803192435362
 40
9.364213819003406
 40
9.620125035580642
 40
9.874787266973068
 40
10.12847352585207
 40
10.38149610319407
 40
10.63418200686337
 40
10.63418200686337
 40
10.63418200686337
 40
10.63418200686337
 10
-46.23787909313683
 20
-6.249995079244563
 30
0.0
 10
-46.97785772673138
 20
-6.235757096113808
 30
0.0
 10
-48.08910489772571
 20
-6.214375507840283
 30
0.0
 10
-49.56677872052686
 20
-6.082732996847263
 30
0.0
 10
-50.67631904415897
 20
-5.95000232730607
 30
0.0
 10
-51.78576452850654
 20
-5.779598694027621
 30
0.0
 10
-52.89511225091021
 20
-5.573788015845341
 30
0.0
 10
-54.0043565124332
 20
-5.333554243135309
 30
0.0
 10
-55.11349545525803
 20
-5.060462346427239
 30
0.0
 10
-56.22252414332465
 20
-4.756189150393176
 30
0.0
 10
-57.3314447933155
 20
-4.422621870232675
 30
0.0
 10
-58.44025442257111
 20
-4.061817398920418
 30
0.0
 10
-59.5489708447114
 20
-3.676016997950288
 30
0.0
 10
-60.65759944831992
 20
-3.267592388107701
 30
0.0
 10
-61.76615042827054
 20
-2.839062120970302
 30
0.0
 10
-62.87463610348111
 20
-2.393069955802068
 30
0.0
 10
-63.98306618877641
 20
-1.932358500088291
 30
0.0
 10
-65.09145147197767
 20
-1.459761371800272
 30
0.0
 10
-66.19980370512877
 20
-0.9781871293398801
 30
0.0
 10
-67.30813301309956
 20
-0.4905971157812166
 30
0.0
 10
-68.41645300425859
 20
0.0000049206574738
 30
0.0
 10
-69.52477299517401
 20
0.4906069576923464
 30
0.0
 10
-70.63310230387519
 20
0.9781969694633383
 30
0.0
 10
-71.74145453435677
 20
1.459771218456874
 30
0.0
 10
-72.84983982745666
 20
1.932368322515859
 30
0.0
 10
-73.9582698760491
 20
2.393079868068423
 30
0.0
 10
-75.06675568718269
 20
2.83907170053204
 30
0.0
 10
-76.17530857429909
 20
3.267604129953418
 30
0.0
 10
-77.28394148550347
 20
3.676025029051392
 30
0.0
 10
-78.39265988542391
 20
4.061827408273851
 30
0.0
 10
-79.50146948886331
 20
4.42263198694464
 30
0.0
 10
-80.61038558353393
 20
4.756196201906896
 30
0.0
 10
-81.7194068823705
 20
5.060474104789549
 30
0.0
 10
-82.82854129776458
 20
5.333567117107905
 30
0.0
 10
-83.93778491731525
 20
5.57378517246332
 30
0.0
 10
-85.04713345302482
 20
5.779655543852467
 30
0.0
 10
-86.15658601793901
 20
5.949815838557563
 30
0.0
 10
-87.26612062439112
 20
6.083480907285722
 30
0.0
 10
-88.37572387720941
 20
6.178843895539393
 30
0.0
 10
-89.4853674078004
 20
6.238852168025972
 30
0.0
 10
-90.22531019886466
 20
6.246288986859493
 30
0.0
 10
-90.5950352872195
 20
6.250004920758046
 30
0.0
  0
LINE
  5
60CF
330
1F
100
AcDbEntity
  8
AM_0
100
AcDbLine
 10
-93.70142972546535
 20
6.250004920758231
 30
0.0
 11
-67.537529622117
 21
6.250892846682558
 31
0.0
  0
VIEWPORT
  5
110
330
101
100
AcDbEntity
 67
     1
  8
0
100
AcDbViewport
 10
420.5
 20
297.0
 30
0.0
 40
948.9782706766916
 41
628.452
 68
     1
 69
     1
1001
ACAD
1000
MVIEW
1002
{
1070
    16
1010
0.0
1020
0.0
1030
0.0
1010
0.0
1020
0.0
1030
1.0
1040
0.0
1040
628.452
1040
420.5
1040
297.0
1040
50.0
1040
0.0
1040
0.0
1070
     0
1070
   100
1070
     1
1070
     1
1070
     0
1070
     0
1070
     0
1070
     0
1040
0.0
1040
0.0
1040
0.0
1040
10.0
1040
10.0
1040
10.0
1040
10.0
1070
     0
1002
{
1002
}
1002
}
  0
ENDSEC
  0
SECTION
  2
OBJECTS
  0
DICTIONARY
  5
C
330
0
100
AcDbDictionary
  3
ACAD_GROUP
350
D
  3
ACAD_LAYOUT
350
1A
  3
ACAD_MLINESTYLE
350
17
  3
ACAD_PLOTSETTINGS
350
19
  3
ACAD_PLOTSTYLENAME
350
E
  3
ACDBVARIABLEDICTIONARY
350
34
  3
ACMDICTIONARY
350
43
  3
AMG
350
2B
  3
AMGSNAPSETTINGS
350
6E
  3
DWGPROPS
350
623C
  3
ACDBHEADERROUNDTRIPXREC
350
6248
  0
DICTIONARY
  5
74
330
1F
100
AcDbDictionary
280
     1
  3
ACAD_INDEX
360
623E
  3
ACAD_LAYOUTSELFREF
360
626B
  0
DICTIONARY
  5
6270
330
101
100
AcDbDictionary
280
     1
  3
ACAD_LAYOUTSELFREF
360
6271
  0
DICTIONARY
  5
D
102
{ACAD_REACTORS
330
C
102
}
330
C
100
AcDbDictionary
  0
DICTIONARY
  5
1A
102
{ACAD_REACTORS
330
C
102
}
330
C
100
AcDbDictionary
  0
DICTIONARY
  5
17
102
{ACAD_REACTORS
330
C
102
}
330
C
100
AcDbDictionary
  3
STANDARD
350
18
  0
DICTIONARY
  5
19
102
{ACAD_REACTORS
330
C
102
}
330
C
100
AcDbDictionary
  0
ACDBDICTIONARYWDFLT
  5
E
102
{ACAD_REACTORS
330
C
102
}
330
C
100
AcDbDictionary
281
     1
  3
Normal
350
F
100
AcDbDictionaryWithDefault
340
F
  0
DICTIONARY
  5
34
102
{ACAD_REACTORS
330
C
102
}
330
C
100
AcDbDictionary
  3
INDEXCTL
350
35
  3
SORTENTS
350
B5E
  0
DICTIONARY
  5
43
102
{ACAD_REACTORS
330
C
102
}
330
C
100
AcDbDictionary
  3
ACMSTDDICTIONARY
350
260
  0
DICTIONARY
  5
2B
102
{ACAD_REACTORS
330
C
102
}
330
C
100
AcDbDictionary
  3
ACMGSETTINGS
350
2C
  0
DICTIONARY
  5
6E
102
{ACAD_REACTORS
330
C
102
}
330
C
100
AcDbDictionary
  0
XRECORD
  5
623C
102
{ACAD_REACTORS
330
C
102
}
330
C
100
AcDbXrecord
  1
DWGPROPS COOKIE
  2

  3

  4

  6

  7

  8

  9

300
AmdtFileType=82
301
=
302
=
303
=
304
=
305
=
306
=
307
=
308
=
309
=
 40
0.1801171875
 41
2452800.443498622
 42
2452946.586221423
  1

 90
        1
  0
DICTIONARY
  5
6248
102
{ACAD_REACTORS
330
C
102
}
330
C
100
AcDbDictionary
  3
TSTACKALIGN
350
6249
  3
TSTACKSIZE
350
624A
  3
HYPERLINKBASE
350
624B
  3
STYLESHEET
350
624C
  3
LAYOUTDICT
350
624D
  3
PLOTSETDICT
350
624E
  3
PLOTSTYLNAMDICT
350
624F
  3
LWETCUNION
350
6250
  3
INSUNITS
350
6251
  3
CEPSNTYPE
350
6252
  3
FINGERPRINTGUID
350
6253
  3
VERSIONGUID
350
6254
  3
PSVPSCALE
350
6255
  3
DIMSTYLEDATA
350
6256
  3
PUCSORTHOREF
350
6257
  3
PUCSORTHOVIEW
350
6258
  3
PUCSBASE
350
6259
  3
PUCSORGTOP
350
625A
  3
PUCSORGBOTTOM
350
625B
  3
PUCSORGLEFT
350
625C
  3
PUCSORGRIGHT
350
625D
  3
PUCSORGFRONT
350
625E
  3
PUCSORGBACK
350
625F
  3
UCSORTHOREF
350
6260
  3
UCSORTHOVIEW
350
6261
  3
UCSBASE
350
6262
  3
UCSORGTOP
350
6263
  3
UCSORGBOTTOM
350
6264
  3
UCSORGLEFT
350
6265
  3
UCSORGRIGHT
350
6266
  3
UCSORGFRONT
350
6267
  3
UCSORGBACK
350
6268
  0
DICTIONARY
  5
623E
102
{ACAD_REACTORS
330
74
102
}
330
74
100
AcDbDictionary
  3
*A1
350
623F
  0
XRECORD
  5
626B
102
{ACAD_REACTORS
330
74
102
}
330
74
100
AcDbXrecord
340
1F
  0
XRECORD
  5
6271
102
{ACAD_REACTORS
330
6270
102
}
330
6270
100
AcDbXrecord
340
101
  0
MLINESTYLE
  5
18
102
{ACAD_REACTORS
330
17
102
}
330
17
100
AcDbMlineStyle
  2
STANDARD
 70
     0
  3

 62
   256
 51
90.0
 52
90.0
 71
     2
 49
0.5
 62
   256
  6
BYLAYER
 49
-0.5
 62
   256
  6
BYLAYER
  0
ACDBPLACEHOLDER
  5
F
102
{ACAD_REACTORS
330
E
102
}
330
E
100
AcDbPlaceHolder
280
     0
  0
DICTIONARYVAR
  5
35
102
{ACAD_REACTORS
330
34
102
}
330
34
100
DictionaryVariables
280
     0
  1
1
  0
DICTIONARYVAR
  5
B5E
102
{ACAD_REACTORS
330
34
102
}
330
34
100
DictionaryVariables
280
     0
  1
96
  0
DICTIONARY
  5
260
102
{ACAD_REACTORS
330
43
102
}
330
43
100
AcDbDictionary
  0
DICTIONARY
  5
2C
102
{ACAD_REACTORS
330
2B
102
}
330
2B
100
AcDbDictionary
  3
DWGSETTINGS
350
2D
  0
XRECORD
  5
6249
102
{ACAD_REACTORS
330
6248
102
}
330
6248
100
AcDbXrecord
 90
        1
  0
XRECORD
  5
624A
102
{ACAD_REACTORS
330
6248
102
}
330
6248
100
AcDbXrecord
 90
       70
  0
XRECORD
  5
624B
102
{ACAD_REACTORS
330
6248
102
}
330
6248
100
AcDbXrecord
  1

  0
XRECORD
  5
624C
102
{ACAD_REACTORS
330
6248
102
}
330
6248
100
AcDbXrecord
  1
ASAMI.ctb
  0
XRECORD
  5
624D
102
{ACAD_REACTORS
330
6248
102
}
330
6248
100
AcDbXrecord
340
1A
  0
XRECORD
  5
624E
102
{ACAD_REACTORS
330
6248
102
}
330
6248
100
AcDbXrecord
340
19
  0
XRECORD
  5
624F
102
{ACAD_REACTORS
330
6248
102
}
330
6248
100
AcDbXrecord
340
E
  0
XRECORD
  5
6250
102
{ACAD_REACTORS
330
6248
102
}
330
6248
100
AcDbXrecord
 90
    10781
  0
XRECORD
  5
6251
102
{ACAD_REACTORS
330
6248
102
}
330
6248
100
AcDbXrecord
 90
        4
  0
XRECORD
  5
6252
102
{ACAD_REACTORS
330
6248
102
}
330
6248
100
AcDbXrecord
 90
        0
  0
XRECORD
  5
6253
102
{ACAD_REACTORS
330
6248
102
}
330
6248
100
AcDbXrecord
  1
{AFB28963-8C59-40AE-9337-C84526B81ACE}
  0
XRECORD
  5
6254
102
{ACAD_REACTORS
330
6248
102
}
330
6248
100
AcDbXrecord
  1
{344FCF5B-6974-4D69-B2B7-F8D6FB14FE4C}
  0
XRECORD
  5
6255
102
{ACAD_REACTORS
330
6248
102
}
330
6248
100
AcDbXrecord
 40
0.0
  0
XRECORD
  5
6256
102
{ACAD_REACTORS
330
6248
102
}
330
6248
100
AcDbXrecord
1000
DSTYLE
1002
{
1070
    79
 70
     2
1070
   341
340
59
1070
   342
340
59
1070
   371
 70
    -1
1070
   372
 70
    -1
1002
}
  0
XRECORD
  5
6257
102
{ACAD_REACTORS
330
6248
102
}
330
6248
100
AcDbXrecord
340
0
  0
XRECORD
  5
6258
102
{ACAD_REACTORS
330
6248
102
}
330
6248
100
AcDbXrecord
 70
     0
  0
XRECORD
  5
6259
102
{ACAD_REACTORS
330
6248
102
}
330
6248
100
AcDbXrecord
340
0
  0
XRECORD
  5
625A
102
{ACAD_REACTORS
330
6248
102
}
330
6248
100
AcDbXrecord
 10
0.0
 20
0.0
 30
0.0
  0
XRECORD
  5
625B
102
{ACAD_REACTORS
330
6248
102
}
330
6248
100
AcDbXrecord
 10
0.0
 20
0.0
 30
0.0
  0
XRECORD
  5
625C
102
{ACAD_REACTORS
330
6248
102
}
330
6248
100
AcDbXrecord
 10
0.0
 20
0.0
 30
0.0
  0
XRECORD
  5
625D
102
{ACAD_REACTORS
330
6248
102
}
330
6248
100
AcDbXrecord
 10
0.0
 20
0.0
 30
0.0
  0
XRECORD
  5
625E
102
{ACAD_REACTORS
330
6248
102
}
330
6248
100
AcDbXrecord
 10
0.0
 20
0.0
 30
0.0
  0
XRECORD
  5
625F
102
{ACAD_REACTORS
330
6248
102
}
330
6248
100
AcDbXrecord
 10
0.0
 20
0.0
 30
0.0
  0
XRECORD
  5
6260
102
{ACAD_REACTORS
330
6248
102
}
330
6248
100
AcDbXrecord
340
0
  0
XRECORD
  5
6261
102
{ACAD_REACTORS
330
6248
102
}
330
6248
100
AcDbXrecord
 70
     0
  0
XRECORD
  5
6262
102
{ACAD_REACTORS
330
6248
102
}
330
6248
100
AcDbXrecord
340
0
  0
XRECORD
  5
6263
102
{ACAD_REACTORS
330
6248
102
}
330
6248
100
AcDbXrecord
 10
0.0
 20
0.0
 30
0.0
  0
XRECORD
  5
6264
102
{ACAD_REACTORS
330
6248
102
}
330
6248
100
AcDbXrecord
 10
0.0
 20
0.0
 30
0.0
  0
XRECORD
  5
6265
102
{ACAD_REACTORS
330
6248
102
}
330
6248
100
AcDbXrecord
 10
0.0
 20
0.0
 30
0.0
  0
XRECORD
  5
6266
102
{ACAD_REACTORS
330
6248
102
}
330
6248
100
AcDbXrecord
 10
0.0
 20
0.0
 30
0.0
  0
XRECORD
  5
6267
102
{ACAD_REACTORS
330
6248
102
}
330
6248
100
AcDbXrecord
 10
0.0
 20
0.0
 30
0.0
  0
XRECORD
  5
6268
102
{ACAD_REACTORS
330
6248
102
}
330
6248
100
AcDbXrecord
 10
0.0
 20
0.0
 30
0.0
  0
LAYER_INDEX
  5
623F
102
{ACAD_REACTORS
330
623E
102
}
330
623E
100
AcDbIndex
 40
2453151.725591342
100
AcDbLayerIndex
  8
0
360
6240
 90
        0
  8
AM_0
360
6241
 90
       70
  8
AM_7
360
6242
 90
        1
  8
AM_11
360
6243
 90
       25
  8
AM_5
360
6244
 90
        5
  8
Defpoints
360
6245
 90
        0
  8
AM_6
360
6246
 90
        1
  0
XRECORD
  5
2D
102
{ACAD_REACTORS
330
2C
102
}
330
2C
100
AcDbXrecord
  1
VERSION
140
15.0
  1
PRODUCT
  2
AutoCAD Mechanical 2000
  0
IDBUFFER
  5
6240
330
0
100
AcDbIdBuffer
  0
IDBUFFER
  5
6241
330
0
100
AcDbIdBuffer
330
60B6
330
60B7
330
60B8
330
60B9
330
60BA
330
60BD
330
60BE
330
60BF
330
60C0
330
60C1
330
60C2
330
60C3
330
60C5
330
60C6
330
60C8
330
60C9
330
60CA
330
60CB
330
60CC
330
60CD
330
60CE
330
60CF
330
C1D
330
4347
330
44BC
330
44BD
330
44BE
330
4658
330
5A65
330
5A66
330
5EC4
330
5EC7
330
5EC8
330
5ED6
330
5EEB
330
5EEE
330
5F3E
330
5F3F
330
6092
330
6093
330
6094
330
6095
330
6096
330
6097
330
6098
330
6099
330
609A
330
609B
330
609C
330
609D
330
609F
330
60A0
330
60A1
330
60A2
330
60A3
330
60A4
330
60A5
330
60A6
330
60A7
330
60A9
330
60AA
330
60AB
330
60AC
330
60AD
330
60AE
330
60AF
330
60B0
330
60B1
330
60B2
330
60B5
  0
IDBUFFER
  5
6242
330
0
100
AcDbIdBuffer
330
C9F
  0
IDBUFFER
  5
6243
330
0
100
AcDbIdBuffer
330
6043
330
609E
330
60A8
330
60B3
330
60B4
330
60BB
330
60BC
330
60C4
330
60C7
330
5B41
330
5B42
330
5B43
330
5B44
330
5B45
330
5B46
330
5B47
330
5B49
330
5B4A
330
5B4B
330
5B4C
330
5B4D
330
5B4E
330
5B53
330
5B54
330
6042
  0
IDBUFFER
  5
6244
330
0
100
AcDbIdBuffer
330
CC6
330
46D1
330
5686
330
5EC9
330
5F4D
  0
IDBUFFER
  5
6245
330
0
100
AcDbIdBuffer
  0
IDBUFFER
  5
6246
330
0
100
AcDbIdBuffer
330
19BD
  0
ENDSEC
  0
EOF
