  0
SECTION
  2
HEADER
  9
$ACADVER
  1
AC1014
  9
$ACADMAINTVER
 70
     9
  9
$DWGCODEPAGE
  3
ANSI_932
  9
$INSBASE
 10
0.0
 20
0.0
 30
0.0
  9
$EXTMIN
 10
-190.3000009972994
 20
-52.500003054481
 30
-0.00000001
  9
$EXTMAX
 10
36.45843671179931
 20
35.19939030418968
 30
0.00000001
  9
$LIMMIN
 10
-204.9481783985751
 20
-88.05709827321306
  9
$LIMMAX
 10
45.46559379740722
 20
54.22958895053546
  9
$ORTHOMODE
 70
     0
  9
$REGENMODE
 70
     1
  9
$FILLMODE
 70
     1
  9
$QTEXTMODE
 70
     0
  9
$MIRRTEXT
 70
     0
  9
$DRAGMODE
 70
     2
  9
$LTSCALE
 40
1.0
  9
$OSMODE
 70
    55
  9
$ATTMODE
 70
     1
  9
$TEXTSIZE
 40
2.5
  9
$TRACEWID
 40
1.0
  9
$TEXTSTYLE
  7
STANDARD
  9
$CLAYER
  8
AM_0
  9
$CELTYPE
  6
BYLAYER
  9
$CECOLOR
 62
   256
  9
$CELTSCALE
 40
1.0
  9
$DELOBJ
 70
     1
  9
$DISPSILH
 70
     0
  9
$DIMSCALE
 40
1.0
  9
$DIMASZ
 40
2.5
  9
$DIMEXO
 40
1.0
  9
$DIMDLI
 40
12.0
  9
$DIMRND
 40
0.0
  9
$DIMDLE
 40
0.0
  9
$DIMEXE
 40
1.0
  9
$DIMTP
 40
0.1
  9
$DIMTM
 40
0.1
  9
$DIMTXT
 40
3.2
  9
$DIMCEN
 40
0.0
  9
$DIMTSZ
 40
0.0
  9
$DIMTOL
 70
     0
  9
$DIMLIM
 70
     0
  9
$DIMTIH
 70
     0
  9
$DIMTOH
 70
     0
  9
$DIMSE1
 70
     0
  9
$DIMSE2
 70
     0
  9
$DIMTAD
 70
     3
  9
$DIMZIN
 70
     8
  9
$DIMBLK
  1
OPEN30
  9
$DIMASO
 70
     1
  9
$DIMSHO
 70
     1
  9
$DIMPOST
  1

  9
$DIMAPOST
  1
"
  9
$DIMALT
 70
     0
  9
$DIMALTD
 70
     2
  9
$DIMALTF
 40
0.0393701
  9
$DIMLFAC
 40
1.0
  9
$DIMTOFL
 70
     1
  9
$DIMTVP
 40
0.0
  9
$DIMTIX
 70
     0
  9
$DIMSOXD
 70
     0
  9
$DIMSAH
 70
     0
  9
$DIMBLK1
  1

  9
$DIMBLK2
  1

  9
$DIMSTYLE
  2
AM_JIS
  9
$DIMCLRD
 70
   256
  9
$DIMCLRE
 70
   256
  9
$DIMCLRT
 70
     2
  9
$DIMTFAC
 40
0.71
  9
$DIMGAP
 40
1.5
  9
$DIMJUST
 70
     0
  9
$DIMSD1
 70
     0
  9
$DIMSD2
 70
     0
  9
$DIMTOLJ
 70
     0
  9
$DIMTZIN
 70
     0
  9
$DIMALTZ
 70
     0
  9
$DIMALTTZ
 70
     0
  9
$DIMFIT
 70
     3
  9
$DIMUPT
 70
     0
  9
$DIMUNIT
 70
     2
  9
$DIMDEC
 70
     3
  9
$DIMTDEC
 70
     3
  9
$DIMALTU
 70
     2
  9
$DIMALTTD
 70
     2
  9
$DIMTXSTY
  7
ASAMI
  9
$DIMAUNIT
 70
     0
  9
$LUNITS
 70
     2
  9
$LUPREC
 70
     2
  9
$SKETCHINC
 40
1.0
  9
$FILLETRAD
 40
2.5
  9
$AUNITS
 70
     0
  9
$AUPREC
 70
     0
  9
$MENU
  1
.
  9
$ELEVATION
 40
0.0
  9
$PELEVATION
 40
0.0
  9
$THICKNESS
 40
0.0
  9
$LIMCHECK
 70
     0
  9
$BLIPMODE
 70
     0
  9
$CHAMFERA
 40
0.5
  9
$CHAMFERB
 40
0.5
  9
$CHAMFERC
 40
20.0
  9
$CHAMFERD
 40
0.0
  9
$SKPOLY
 70
     0
  9
$TDCREATE
 40
2452800.443498622
  9
$TDUPDATE
 40
2453151.666657789
  9
$TDINDWG
 40
0.0735762269
  9
$TDUSRTIMER
 40
0.0735762269
  9
$USRTIMER
 70
     1
  9
$ANGBASE
 50
0.0
  9
$ANGDIR
 70
     0
  9
$PDMODE
 70
     3
  9
$PDSIZE
 40
0.0
  9
$PLINEWID
 40
0.0
  9
$COORDS
 70
     1
  9
$SPLFRAME
 70
     0
  9
$SPLINETYPE
 70
     6
  9
$SPLINESEGS
 70
     8
  9
$ATTDIA
 70
     1
  9
$ATTREQ
 70
     1
  9
$HANDLING
 70
 12289
  9
$HANDSEED
  5
36E9
  9
$SURFTAB1
 70
     6
  9
$SURFTAB2
 70
     6
  9
$SURFTYPE
 70
     6
  9
$SURFU
 70
     6
  9
$SURFV
 70
     6
  9
$UCSNAME
  2

  9
$UCSORG
 10
0.0
 20
0.0
 30
0.0
  9
$UCSXDIR
 10
1.0
 20
0.0000000000000027
 30
0.0
  9
$UCSYDIR
 10
-0.0000000000000027
 20
1.0
 30
0.0
  9
$PUCSNAME
  2

  9
$PUCSORG
 10
0.0
 20
0.0
 30
0.0
  9
$PUCSXDIR
 10
1.0
 20
0.0
 30
0.0
  9
$PUCSYDIR
 10
0.0
 20
1.0
 30
0.0
  9
$USERI1
 70
     0
  9
$USERI2
 70
     0
  9
$USERI3
 70
     0
  9
$USERI4
 70
     0
  9
$USERI5
 70
     0
  9
$USERR1
 40
0.0
  9
$USERR2
 40
0.0
  9
$USERR3
 40
0.0
  9
$USERR4
 40
0.0
  9
$USERR5
 40
0.0
  9
$WORLDVIEW
 70
     1
  9
$SHADEDGE
 70
     3
  9
$SHADEDIF
 70
    70
  9
$TILEMODE
 70
     1
  9
$MAXACTVP
 70
    64
  9
$PINSBASE
 10
0.0
 20
0.0
 30
0.0
  9
$PLIMCHECK
 70
     0
  9
$PEXTMIN
 10
1.000000000000000E+20
 20
1.000000000000000E+20
 30
1.000000000000000E+20
  9
$PEXTMAX
 10
-1.000000000000000E+20
 20
-1.000000000000000E+20
 30
-1.000000000000000E+20
  9
$PLIMMIN
 10
0.0
 20
0.0
  9
$PLIMMAX
 10
841.0
 20
594.0
  9
$UNITMODE
 70
     0
  9
$VISRETAIN
 70
     1
  9
$PLINEGEN
 70
     0
  9
$PSLTSCALE
 70
     0
  9
$TREEDEPTH
 70
  3020
  9
$PICKSTYLE
 70
     0
  9
$CMLSTYLE
  2
STANDARD
  9
$CMLJUST
 70
     0
  9
$CMLSCALE
 40
20.0
  9
$PROXYGRAPHICS
 70
     1
  9
$MEASUREMENT
 70
     1
  0
ENDSEC
  0
SECTION
  2
CLASSES
  0
CLASS
  1
ACDBDICTIONARYWDFLT
  2
AcDbDictionaryWithDefault
  3
AutoCAD 2000
 90
        0
280
     0
281
     0
  0
CLASS
  1
ACDBPLACEHOLDER
  2
AcDbPlaceHolder
  3
AutoCAD 2000
 90
        0
280
     0
281
     0
  0
CLASS
  1
LAYOUT
  2
AcDbLayout
  3
AutoCAD 2000
 90
        0
280
     0
281
     0
  0
CLASS
  1
AMGSETTINGSOBJ
  2
AmgSettingsObj
  3
"AcadM|Product Description: AutoCAD Mechanical 2000|Company: Autodesk"
 90
        0
280
     0
281
     0
  0
CLASS
  1
ACME_DOCUMENT
  2
AcMeDbDoc
  3
AcMeServices
 90
        0
280
     0
281
     0
  0
CLASS
  1
ACMESCOPE
  2
AcMeScope
  3
AcMeServices
 90
        0
280
     0
281
     0
  0
CLASS
  1
ACMECOMMANDHISTORY
  2
AcMeCommandHistory
  3
AcMeServices
 90
        0
280
     0
281
     0
  0
CLASS
  1
DICTIONARYVAR
  2
AcDbDictionaryVar
  3
AutoCAD 2000
 90
        0
280
     0
281
     0
  0
CLASS
  1
ACIMSYSVARMAN
  2
AcImSysVarManager
  3
AcMeServices
 90
        0
280
     0
281
     0
  0
CLASS
  1
ACIMREALSYSVAR
  2
AcImRealSysVar
  3
AcMeServices
 90
        0
280
     0
281
     0
  0
CLASS
  1
ACIMINTSYSVAR
  2
AcImIntSysVar
  3
AcMeServices
 90
        0
280
     0
281
     0
  0
CLASS
  1
ACMEDRAWINGMAN
  2
AcMeDrawingMan
  3
AcMeServices
 90
        0
280
     0
281
     0
  0
CLASS
  1
ACMEVIEW
  2
AcMeView
  3
AcMeServices
 90
        0
280
     0
281
     0
  0
CLASS
  1
ACDBENTITYCACHE
  2
AcMeEntityCache
  3
AcMeServices
 90
        0
280
     0
281
     0
  0
CLASS
  1
GSMANAGER
  2
AcMeGSManager
  3
AcMeServices
 90
        0
280
     0
281
     0
  0
CLASS
  1
AmdtInternalReactor
  2
AmdtInternalReactor
  3
AcMeServices
 90
        0
280
     0
281
     0
  0
CLASS
  1
ACMESTATEMGR
  2
AcMeStateMgr
  3
AcMeServices
 90
        0
280
     0
281
     0
  0
CLASS
  1
ACME_DATABASE
  2
AcMeDbDatabase
  3
AcMeServices
 90
        0
280
     0
281
     0
  0
CLASS
  1
ACRFINSADJUSTERMGR
  2
AcRfInsAdjusterMgr
  3
AcMeServices
 90
        0
280
     0
281
     0
  0
CLASS
  1
ACMDATADICTIONARY
  2
AcmDataDictionary
  3
"AcmSymBB|Product Description: AutoCAD Mechanical 2000|Company: Autodesk"
 90
        0
280
     0
281
     0
  0
CLASS
  1
ACMDATAENTRYBLOCK
  2
AcmDataEntryBlock
  3
"AcmSymBB|Product Description: AutoCAD Mechanical 2000|Company: Autodesk"
 90
        0
280
     0
281
     0
  0
CLASS
  1
AMGOBJPROPCFG
  2
AmgObjPropCfg
  3
"AmgLay|Product Description: AutoCAD Mechanical 2000|Company: Autodesk"
 90
        1
280
     0
281
     0
  0
CLASS
  1
ACAMGFILTERDAT
  2
AcAmgFilterDat
  3
"AcadM|Product Description: AutoCAD Mechanical 2000|Company: Autodesk"
 90
        0
280
     0
281
     0
  0
CLASS
  1
LAYER_INDEX
  2
AcDbLayerIndex
  3
AutoCAD 2000
 90
        0
280
     0
281
     0
  0
CLASS
  1
IDBUFFER
  2
AcDbIdBuffer
  3
AutoCAD 2000
 90
        0
280
     0
281
     0
  0
CLASS
  1
ACIMSTRSYSVAR
  2
AcImStrSysVar
  3
AcMeServices
 90
        0
280
     0
281
     0
  0
CLASS
  1
ACMSTANDARDJIS
  2
AcmStandardJIS
  3
"AcmSymBB|Product Description: AutoCAD Mechanical 2000|Company: Autodesk"
 90
        0
280
     0
281
     0
  0
CLASS
  1
ACMSURFSTANDARDJIS
  2
AcmSurfTextStdJIS
  3
"AcmSymBB|Product Description: AutoCAD Mechanical 2000|Company: Autodesk"
 90
        0
280
     0
281
     0
  0
CLASS
  1
ACMFCFSTANDARDJIS
  2
AcmFCFStdJIS
  3
"AcmSymBB|Product Description: AutoCAD Mechanical 2000|Company: Autodesk"
 90
        0
280
     0
281
     0
  0
CLASS
  1
ACMWELDSTANDARDJIS
  2
AcmWeldingStdJIS
  3
"AcmSymBB|Product Description: AutoCAD Mechanical 2000|Company: Autodesk"
 90
        0
280
     0
281
     0
  0
CLASS
  1
ACMIDSTANDARDJIS
  2
AcmIdStdJIS
  3
"AcmSymBB|Product Description: AutoCAD Mechanical 2000|Company: Autodesk"
 90
        0
280
     0
281
     0
  0
CLASS
  1
ACMDATUMSTANDARDJIS
  2
AcmDatumStdJIS
  3
"AcmSymBB|Product Description: AutoCAD Mechanical 2000|Company: Autodesk"
 90
        0
280
     0
281
     0
  0
CLASS
  1
ACMBOMSTANDARDJIS
  2
AcmBOMStdJIS
  3
"AcmSymBB|Product Description: AutoCAD Mechanical 2000|Company: Autodesk"
 90
        0
280
     0
281
     0
  0
CLASS
  1
ACMSTANDARDANSI
  2
AcmStandardANSI
  3
"AcmSymBB|Product Description: AutoCAD Mechanical 2000|Company: Autodesk"
 90
        0
280
     0
281
     0
  0
CLASS
  1
ACMSURFSTANDARDANSI
  2
AcmSurfTextStdANSI
  3
"AcmSymBB|Product Description: AutoCAD Mechanical 2000|Company: Autodesk"
 90
        0
280
     0
281
     0
  0
CLASS
  1
ACMFCFSTANDARDANSI
  2
AcmFCFStdANSI
  3
"AcmSymBB|Product Description: AutoCAD Mechanical 2000|Company: Autodesk"
 90
        0
280
     0
281
     0
  0
CLASS
  1
ACMWELDSTANDARDANSI
  2
AcmWeldingStdANSI
  3
"AcmSymBB|Product Description: AutoCAD Mechanical 2000|Company: Autodesk"
 90
        0
280
     0
281
     0
  0
CLASS
  1
ACMIDSTANDARDANSI
  2
AcmIdStdANSI
  3
"AcmSymBB|Product Description: AutoCAD Mechanical 2000|Company: Autodesk"
 90
        0
280
     0
281
     0
  0
CLASS
  1
ACMDATUMSTANDARDANSI
  2
AcmDatumStdANSI
  3
"AcmSymBB|Product Description: AutoCAD Mechanical 2000|Company: Autodesk"
 90
        0
280
     0
281
     0
  0
CLASS
  1
ACMBOMSTANDARDANSI
  2
AcmBOMStdANSI
  3
"AcmSymBB|Product Description: AutoCAD Mechanical 2000|Company: Autodesk"
 90
        0
280
     0
281
     0
  0
CLASS
  1
ACMSTANDARDBSI
  2
AcmStandardBSI
  3
"AcmSymBB|Product Description: AutoCAD Mechanical 2000|Company: Autodesk"
 90
        0
280
     0
281
     0
  0
CLASS
  1
ACMSURFSTANDARDBSI
  2
AcmSurfTextStdBSI
  3
"AcmSymBB|Product Description: AutoCAD Mechanical 2000|Company: Autodesk"
 90
        0
280
     0
281
     0
  0
CLASS
  1
ACMFCFSTANDARDBSI
  2
AcmFCFStdBSI
  3
"AcmSymBB|Product Description: AutoCAD Mechanical 2000|Company: Autodesk"
 90
        0
280
     0
281
     0
  0
CLASS
  1
ACMWELDSTANDARDBSI
  2
AcmWeldingStdBSI
  3
"AcmSymBB|Product Description: AutoCAD Mechanical 2000|Company: Autodesk"
 90
        0
280
     0
281
     0
  0
CLASS
  1
ACMIDSTANDARDBSI
  2
AcmIdStdBSI
  3
"AcmSymBB|Product Description: AutoCAD Mechanical 2000|Company: Autodesk"
 90
        0
280
     0
281
     0
  0
CLASS
  1
ACMDATUMSTANDARDBSI
  2
AcmDatumStdBSI
  3
"AcmSymBB|Product Description: AutoCAD Mechanical 2000|Company: Autodesk"
 90
        0
280
     0
281
     0
  0
CLASS
  1
ACMBOMSTANDARDBSI
  2
AcmBOMStdBSI
  3
"AcmSymBB|Product Description: AutoCAD Mechanical 2000|Company: Autodesk"
 90
        0
280
     0
281
     0
  0
CLASS
  1
LONG_TRANSACTION
  2
AcDbLongTransaction
  3
AutoCAD 2000
 90
        0
280
     0
281
     0
  0
CLASS
  1
LWPOLYLINE
  2
AcDbPolyline
  3
AutoCAD 2000
 90
        0
280
     0
281
     1
  0
CLASS
  1
HATCH
  2
AcDbHatch
  3
AutoCAD 2000
 90
        0
280
     0
281
     1
  0
CLASS
  1
XRECORD
  2
AcDbXrecord
  3
AutoCAD 2000
 90
        0
280
     0
281
     0
  0
ENDSEC
  0
SECTION
  2
TABLES
  0
TABLE
  2
VPORT
  5
8
330
0
100
AcDbSymbolTable
 70
     3
  0
VPORT
  5
36B3
330
8
100
AcDbSymbolTableRecord
100
AcDbViewportTableRecord
  2
*ACTIVE
 70
     0
 10
0.0
 20
0.0
 11
1.0
 21
1.0
 12
-72.71166031322007
 22
-8.652633030054317
 13
0.0
 23
0.0
 14
2.5
 24
2.5
 15
10.0
 25
10.0
 16
0.0
 26
0.0
 36
1.0
 17
0.0
 27
0.0
 37
0.0
 40
150.9278031447664
 41
1.56570841889117
 42
50.0
 43
0.0
 44
0.0
 50
0.0
 51
0.0
 71
     0
 72
   100
 73
     1
 74
     1
 75
     0
 76
     0
 77
     0
 78
     0
  0
ENDTAB
  0
TABLE
  2
LTYPE
  5
5
330
0
100
AcDbSymbolTable
 70
    10
  0
LTYPE
  5
14
330
5
100
AcDbSymbolTableRecord
100
AcDbLinetypeTableRecord
  2
BYBLOCK
 70
     0
  3

 72
    65
 73
     0
 40
0.0
  0
LTYPE
  5
15
330
5
100
AcDbSymbolTableRecord
100
AcDbLinetypeTableRecord
  2
BYLAYER
 70
     0
  3

 72
    65
 73
     0
 40
0.0
  0
LTYPE
  5
16
330
5
100
AcDbSymbolTableRecord
100
AcDbLinetypeTableRecord
  2
CONTINUOUS
 70
     0
  3
Solid line
 72
    65
 73
     0
 40
0.0
  0
LTYPE
  5
4B
330
5
100
AcDbSymbolTableRecord
100
AcDbLinetypeTableRecord
  2
AM_ISO02W050
 70
     0
  3
__ __ __ __ __ __ __ __ __ __ __ __ __ __ __
 72
    65
 73
     2
 40
7.5
 49
6.0
 74
     0
 49
-1.5
 74
     0
  0
LTYPE
  5
4C
330
5
100
AcDbSymbolTableRecord
100
AcDbLinetypeTableRecord
  2
AM_ISO08W050
 70
     0
  3
____ . ____ . ____ . ____ . ____ . ____ . ____
 72
    65
 73
     4
 40
18.0
 49
12.0
 74
     0
 49
-1.5
 74
     0
 49
3.0
 74
     0
 49
-1.5
 74
     0
  0
LTYPE
  5
4D
330
5
100
AcDbSymbolTableRecord
100
AcDbLinetypeTableRecord
  2
AM_ISO09W050
 70
     0
  3
_____ . . _____ . . _____ . . ____ .. ____
 72
    65
 73
     6
 40
22.5
 49
12.0
 74
     0
 49
-1.5
 74
     0
 49
3.0
 74
     0
 49
-1.5
 74
     0
 49
3.0
 74
     0
 49
-1.5
 74
     0
  0
LTYPE
  5
4E
330
5
100
AcDbSymbolTableRecord
100
AcDbLinetypeTableRecord
  2
AMCONSTR
 70
     0
  3
_______________________
 72
    65
 73
     2
 40
9999.0
 49
9999.0
 74
     0
 49
0.0
 74
     0
  0
LTYPE
  5
4F
330
5
100
AcDbSymbolTableRecord
100
AcDbLinetypeTableRecord
  2
AM_ISO02W050X2
 70
     0
  3
 _ _ _ _ _ _ _ _ _ _ _ _
 72
    65
 73
     2
 40
3.75
 49
3.0
 74
     0
 49
-0.75
 74
     0
  0
LTYPE
  5
50
330
5
100
AcDbSymbolTableRecord
100
AcDbLinetypeTableRecord
  2
AM_ISO08W050X2
 70
     0
  3
__ . __ . __ . __ . __ . __
 72
    65
 73
     4
 40
9.0
 49
6.0
 74
     0
 49
-0.75
 74
     0
 49
1.5
 74
     0
 49
-0.75
 74
     0
  0
LTYPE
  5
53
330
5
100
AcDbSymbolTableRecord
100
AcDbLinetypeTableRecord
  2
AMZIGZAG
 70
     0
  3
/\/-/\/-/\/-/\/-/\/-/\/
 72
    65
 73
     2
 40
11.00009999999999
 49
0.0001
 74
     4
 75
   135
340
52
 46
0.04
 50
0.0
 44
0.0
 45
0.0
 49
-11.0
 74
     0
  0
LTYPE
  5
166
330
5
100
AcDbSymbolTableRecord
100
AcDbLinetypeTableRecord
  2
ACJISTGL
 70
     0
  3
_ _ _ _ _
 72
    65
 73
     2
 40
3.0
 49
2.0
 74
     0
 49
-1.0
 74
     0
  0
LTYPE
  5
26A
330
5
100
AcDbSymbolTableRecord
100
AcDbLinetypeTableRecord
  2
ACJISTGB
 70
     0
  3
__ . . __ . .
 72
    65
 73
     6
 40
9.0
 49
4.0
 74
     0
 49
-1.0
 74
     0
 49
1.0
 74
     0
 49
-1.0
 74
     0
 49
1.0
 74
     0
 49
-1.0
 74
     0
  0
ENDTAB
  0
TABLE
  2
LAYER
  5
2
330
0
100
AcDbSymbolTable
 70
     8
  0
LAYER
  5
10
330
2
100
AcDbSymbolTableRecord
100
AcDbLayerTableRecord
  2
0
 70
     0
 62
     7
  6
CONTINUOUS
  0
LAYER
  5
3F9
330
2
100
AcDbSymbolTableRecord
100
AcDbLayerTableRecord
  2
AM_0
 70
     0
 62
     7
  6
CONTINUOUS
  0
LAYER
  5
C7C
330
2
100
AcDbSymbolTableRecord
100
AcDbLayerTableRecord
  2
AM_7
 70
     0
 62
     4
  6
AM_ISO08W050
  0
LAYER
  5
C97
330
2
100
AcDbSymbolTableRecord
100
AcDbLayerTableRecord
  2
AM_11
 70
     0
 62
     3
  6
AM_ISO09W050
  0
LAYER
  5
CC5
330
2
100
AcDbSymbolTableRecord
100
AcDbLayerTableRecord
  2
AM_5
 70
     0
 62
     3
  6
CONTINUOUS
  0
LAYER
  5
CC7
330
2
100
AcDbSymbolTableRecord
100
AcDbLayerTableRecord
  2
DEFPOINTS
 70
     0
 62
     7
  6
CONTINUOUS
  0
LAYER
  5
19BC
330
2
100
AcDbSymbolTableRecord
100
AcDbLayerTableRecord
  2
AM_6
 70
     0
 62
     2
  6
CONTINUOUS
  0
LAYER
  5
352B
330
2
100
AcDbSymbolTableRecord
100
AcDbLayerTableRecord
  2
AM_CL
 70
     0
 62
     1
  6
AMCONSTR
  0
ENDTAB
  0
TABLE
  2
STYLE
  5
3
330
0
100
AcDbSymbolTable
 70
     5
  0
STYLE
  5
11
330
3
100
AcDbSymbolTableRecord
100
AcDbTextStyleTableRecord
  2
STANDARD
 70
     0
 40
0.0
 41
1.0
 50
0.0
 71
     0
 42
2.5
  3
simplex.shx
  4
EXTFONT.SHX
  0
STYLE
  5
52
330
3
100
AcDbSymbolTableRecord
100
AcDbTextStyleTableRecord
  2

 70
     1
 40
0.0
 41
1.0
 50
0.0
 71
     0
 42
2.5
  3
ltypeshp.shx
  4

  0
STYLE
  5
6B
330
3
100
AcDbSymbolTableRecord
100
AcDbTextStyleTableRecord
  2
ASAMI
 70
     0
 40
0.0
 41
1.0
 50
0.0
 71
     0
 42
2.5
  3
simplex.shx
  4
EXTFONT.SHX
  0
STYLE
  5
262
330
3
100
AcDbSymbolTableRecord
100
AcDbTextStyleTableRecord
  2
ACJISTS
 70
     0
 40
1.0
 41
1.0
 50
0.0
 71
     0
 42
2.5
  3
simplex.shx
  4
bigfont.shx
  0
STYLE
  5
269
330
3
100
AcDbSymbolTableRecord
100
AcDbTextStyleTableRecord
  2
ACJISGDT
 70
     0
 40
0.0
 41
1.0
 50
0.0
 71
     0
 42
2.5
  3
amgdtans.shx
  4

  0
ENDTAB
  0
TABLE
  2
VIEW
  5
6
330
0
100
AcDbSymbolTable
 70
     0
  0
ENDTAB
  0
TABLE
  2
UCS
  5
7
330
0
100
AcDbSymbolTable
 70
     0
  0
ENDTAB
  0
TABLE
  2
APPID
  5
9
330
0
100
AcDbSymbolTable
 70
    16
  0
APPID
  5
12
330
9
100
AcDbSymbolTableRecord
100
AcDbRegAppTableRecord
  2
ACAD
 70
     0
  0
APPID
  5
30
330
9
100
AcDbSymbolTableRecord
100
AcDbRegAppTableRecord
  2
MCAD_NO_VIS
 70
     0
  0
APPID
  5
31
330
9
100
AcDbSymbolTableRecord
100
AcDbRegAppTableRecord
  2
ACAD_TEMP_GRAPHIC
 70
     0
  0
APPID
  5
2C2
330
9
100
AcDbSymbolTableRecord
100
AcDbRegAppTableRecord
  2
GENIUS_GENDTOL_13
 70
     0
  0
APPID
  5
339
330
9
100
AcDbSymbolTableRecord
100
AcDbRegAppTableRecord
  2
GENIUS_GENODEF_13
 70
     0
  0
APPID
  5
33A
330
9
100
AcDbSymbolTableRecord
100
AcDbRegAppTableRecord
  2
GENIUS_GENOBJ-N-RSBK_13
 70
     0
  0
APPID
  5
33B
330
9
100
AcDbSymbolTableRecord
100
AcDbRegAppTableRecord
  2
GENIUS_GENOBJ-N-LIB_13
 70
     0
  0
APPID
  5
33C
330
9
100
AcDbSymbolTableRecord
100
AcDbRegAppTableRecord
  2
GENIUS_GENSCALE_13
 70
     0
  0
APPID
  5
378
330
9
100
AcDbSymbolTableRecord
100
AcDbRegAppTableRecord
  2
GENIUS_GENDIMSH_14
 70
     0
  0
APPID
  5
C82
330
9
100
AcDbSymbolTableRecord
100
AcDbRegAppTableRecord
  2
GENIUS_GENOBJ-N-CRS_13
 70
     0
  0
APPID
  5
C83
330
9
100
AcDbSymbolTableRecord
100
AcDbRegAppTableRecord
  2
GENIUS_GENOENT_13
 70
     0
  0
APPID
  5
C84
330
9
100
AcDbSymbolTableRecord
100
AcDbRegAppTableRecord
  2
GENIUS_GENOREF_13
 70
     0
  0
APPID
  5
C85
330
9
100
AcDbSymbolTableRecord
100
AcDbRegAppTableRecord
  2
GENIUS_GENOLIS_13
 70
     0
  0
APPID
  5
CA0
330
9
100
AcDbSymbolTableRecord
100
AcDbRegAppTableRecord
  2
GENIUS_GENOBJ-N-CEN_13
 70
     0
  0
APPID
  5
1E1E
330
9
100
AcDbSymbolTableRecord
100
AcDbRegAppTableRecord
  2
GENIUS_GENFIL_13
 70
     0
  0
APPID
  5
1E1F
330
9
100
AcDbSymbolTableRecord
100
AcDbRegAppTableRecord
  2
GENIUS_GENOBJ-N-CHA_13
 70
     0
  0
ENDTAB
  0
TABLE
  2
DIMSTYLE
  5
A
330
0
100
AcDbSymbolTable
 70
     9
  0
DIMSTYLE
105
58
330
A
100
AcDbSymbolTableRecord
100
AcDbDimStyleTableRecord
  2
AM_JIS
 70
     0
  3

  4
"
  5
OPEN30
  6

  7

 40
1.0
 41
2.5
 42
1.0
 43
12.0
 44
1.0
 45
0.0
 46
0.0
 47
0.1
 48
0.1
140
3.2
141
0.0
142
0.0
143
0.0393701
144
1.0
145
0.0
146
0.71
147
1.5
 71
     0
 72
     0
 73
     0
 74
     0
 75
     0
 76
     0
 77
     3
 78
     8
170
     0
171
     2
172
     1
173
     0
174
     0
175
     0
176
   256
177
   256
178
     2
270
     2
271
     3
272
     3
273
     2
274
     2
340
6B
275
     0
280
     0
281
     0
282
     0
283
     0
284
     0
285
     0
286
     0
287
     3
288
     0
  0
DIMSTYLE
105
5F
330
A
100
AcDbSymbolTableRecord
100
AcDbDimStyleTableRecord
  2
AM_JIS$3
 70
     0
  3

  4
"
  5
OPEN30
  6

  7

 40
1.0
 41
2.5
 42
1.0
 43
10.0
 44
1.0
 45
0.0
 46
0.0
 47
0.1
 48
0.1
140
3.2
141
0.0
142
0.0
143
0.0393701
144
1.0
145
0.0
146
0.71
147
1.5
 71
     0
 72
     0
 73
     0
 74
     1
 75
     0
 76
     0
 77
     3
 78
     8
170
     0
171
     2
172
     0
173
     0
174
     0
175
     0
176
   256
177
   256
178
     2
270
     2
271
     2
272
     3
273
     2
274
     2
340
6B
275
     0
280
     0
281
     0
282
     0
283
     0
284
     0
285
     0
286
     0
287
     0
288
     1
  0
DIMSTYLE
105
60
330
A
100
AcDbSymbolTableRecord
100
AcDbDimStyleTableRecord
  2
AM_JIS$4
 70
     0
  3

  4
"
  5
OPEN30
  6

  7

 40
1.0
 41
2.5
 42
1.0
 43
10.0
 44
1.0
 45
0.0
 46
0.0
 47
0.1
 48
0.1
140
3.2
141
0.0
142
0.0
143
0.0393701
144
1.0
145
0.0
146
0.71
147
1.5
 71
     0
 72
     0
 73
     0
 74
     1
 75
     0
 76
     0
 77
     3
 78
     8
170
     0
171
     2
172
     0
173
     0
174
     0
175
     0
176
   256
177
   256
178
     2
270
     2
271
     2
272
     3
273
     2
274
     2
340
6B
275
     0
280
     0
281
     0
282
     0
283
     0
284
     0
285
     0
286
     0
287
     0
288
     1
  0
DIMSTYLE
105
61
330
A
100
AcDbSymbolTableRecord
100
AcDbDimStyleTableRecord
  2
AM_JIS$6
 70
     0
  3

  4
"
  5
OPEN30
  6

  7

 40
1.0
 41
2.5
 42
1.0
 43
10.0
 44
1.0
 45
0.0
 46
0.0
 47
0.1
 48
0.1
140
3.2
141
0.0
142
0.0
143
0.0393701
144
1.0
145
0.0
146
0.71
147
1.5
 71
     0
 72
     0
 73
     0
 74
     0
 75
     0
 76
     0
 77
     0
 78
     8
170
     0
171
     2
172
     1
173
     0
174
     0
175
     0
176
   256
177
   256
178
     2
270
     2
271
     2
272
     2
273
     2
274
     2
340
6B
275
     0
280
     0
281
     0
282
     0
283
     0
284
     0
285
     0
286
     0
287
     3
288
     0
  0
DIMSTYLE
105
62
330
A
100
AcDbSymbolTableRecord
100
AcDbDimStyleTableRecord
  2
AM_JIS$7
 70
     0
  3

  4
"
  5
OPEN30
  6

  7

 40
1.0
 41
2.5
 42
1.0
 43
10.0
 44
1.0
 45
0.0
 46
0.0
 47
0.1
 48
0.1
140
3.2
141
0.0
142
0.0
143
0.0393701
144
1.0
145
0.0
146
0.71
147
1.5
 71
     0
 72
     0
 73
     0
 74
     0
 75
     0
 76
     0
 77
     3
 78
     8
170
     0
171
     2
172
     1
173
     0
174
     0
175
     0
176
   256
177
   256
178
     2
270
     2
271
     2
272
     3
273
     2
274
     2
340
6B
275
     0
280
     0
281
     0
282
     0
283
     0
284
     0
285
     0
286
     0
287
     3
288
     0
  0
DIMSTYLE
105
63
330
A
100
AcDbSymbolTableRecord
100
AcDbDimStyleTableRecord
  2
AM_JIS$SF
 70
     0
  3

  4
"
  5
OPEN30
  6

  7

 40
1.0
 41
2.5
 42
1.0
 43
10.0
 44
1.0
 45
0.0
 46
0.0
 47
0.1
 48
0.1
140
3.2
141
0.0
142
0.0
143
0.0393701
144
1.0
145
0.0
146
0.71
147
1.5
 71
     0
 72
     0
 73
     0
 74
     0
 75
     1
 76
     1
 77
     3
 78
     8
170
     0
171
     2
172
     1
173
     0
174
     0
175
     0
176
   256
177
   256
178
     2
270
     2
271
     2
272
     2
273
     2
274
     2
340
6B
275
     0
280
     0
281
     0
282
     0
283
     0
284
     0
285
     0
286
     0
287
     3
288
     0
  0
DIMSTYLE
105
68
330
A
100
AcDbSymbolTableRecord
100
AcDbDimStyleTableRecord
  2
AM_JIS$SH
 70
     0
  3

  4
"
  5

  6
GENAXEH
  7
OPEN30
 40
1.0
 41
2.5
 42
1.0
 43
10.0
 44
1.0
 45
0.0
 46
0.0
 47
0.1
 48
0.1
140
3.2
141
0.0
142
0.0
143
0.0393701
144
2.0
145
0.0
146
0.71
147
1.5
 71
     0
 72
     0
 73
     0
 74
     0
 75
     1
 76
     1
 77
     3
 78
     8
170
     0
171
     2
172
     1
173
     1
174
     0
175
     0
176
   256
177
   256
178
     2
270
     2
271
     2
272
     2
273
     2
274
     2
340
6B
275
     0
280
     0
281
     0
282
     0
283
     0
284
     0
285
     0
286
     0
287
     3
288
     0
  0
DIMSTYLE
105
B34
102
{ACAD_REACTORS
330
3582
102
}
330
A
100
AcDbSymbolTableRecord
100
AcDbDimStyleTableRecord
  2
AM_JIS$2
 70
     0
  3

  4
"
  5
OPEN30
  6

  7

 40
1.0
 41
2.5
 42
1.0
 43
12.0
 44
1.0
 45
0.0
 46
0.0
 47
0.1
 48
0.1
140
3.2
141
0.0
142
0.0
143
0.0393701
144
1.0
145
0.0
146
0.71
147
1.5
 71
     0
 72
     0
 73
     0
 74
     0
 75
     0
 76
     0
 77
     3
 78
     8
170
     0
171
     2
172
     1
173
     0
174
     0
175
     0
176
   256
177
   256
178
     2
270
     2
271
     3
272
     3
273
     2
274
     2
340
6B
275
     0
280
     0
281
     0
282
     0
283
     0
284
     0
285
     0
286
     0
287
     3
288
     0
  0
DIMSTYLE
105
BA5
102
{ACAD_REACTORS
330
CC6
330
DF5
330
1FB6
330
2216
102
}
330
A
100
AcDbSymbolTableRecord
100
AcDbDimStyleTableRecord
  2
AM_JIS$0
 70
     0
  3

  4
"
  5
OPEN30
  6

  7

 40
1.0
 41
2.5
 42
0.0
 43
10.0
 44
1.0
 45
0.0
 46
0.0
 47
0.1
 48
0.1000000001
140
3.799999999999999
141
0.0
142
0.0
143
0.0393701
144
1.0
145
0.0
146
0.71
147
1.5
 71
     0
 72
     0
 73
     0
 74
     0
 75
     0
 76
     0
 77
     3
 78
     1
170
     0
171
     2
172
     1
173
     0
174
     0
175
     0
176
     3
177
     3
178
     2
270
     2
271
     2
272
     2
273
     2
274
     2
340
11
275
     1
280
     0
281
     0
282
     0
283
     0
284
     8
285
     0
286
     0
287
     0
288
     0
  0
ENDTAB
  0
TABLE
  2
BLOCK_RECORD
  5
1
330
0
100
AcDbSymbolTable
 70
    10
  0
BLOCK_RECORD
  5
1F
102
{ACAD_XDICTIONARY
360
74
102
}
330
1
100
AcDbSymbolTableRecord
100
AcDbBlockTableRecord
  2
*MODEL_SPACE
  0
BLOCK_RECORD
  5
101
102
{ACAD_XDICTIONARY
360
36DC
102
}
330
1
100
AcDbSymbolTableRecord
100
AcDbBlockTableRecord
  2
*PAPER_SPACE
  0
BLOCK_RECORD
  5
59
330
1
100
AcDbSymbolTableRecord
100
AcDbBlockTableRecord
  2
_OPEN30
  0
BLOCK_RECORD
  5
64
330
1
100
AcDbSymbolTableRecord
100
AcDbBlockTableRecord
  2
GENAXEH
  0
BLOCK_RECORD
  5
CC8
330
1
100
AcDbSymbolTableRecord
100
AcDbBlockTableRecord
  2
*D5
  0
BLOCK_RECORD
  5
DF6
330
1
100
AcDbSymbolTableRecord
100
AcDbBlockTableRecord
  2
*D6
  0
BLOCK_RECORD
  5
1FB7
330
1
100
AcDbSymbolTableRecord
100
AcDbBlockTableRecord
  2
*D7
  0
BLOCK_RECORD
  5
2217
330
1
100
AcDbSymbolTableRecord
100
AcDbBlockTableRecord
  2
*D8
  0
BLOCK_RECORD
  5
3583
330
1
100
AcDbSymbolTableRecord
100
AcDbBlockTableRecord
  2
*D9
  0
ENDTAB
  0
ENDSEC
  0
SECTION
  2
BLOCKS
  0
BLOCK
  5
20
330
1F
100
AcDbEntity
  8
0
100
AcDbBlockBegin
  2
*MODEL_SPACE
 70
     0
 10
0.0
 20
0.0
 30
0.0
  3
*MODEL_SPACE
  1

  0
ENDBLK
  5
21
330
1F
100
AcDbEntity
  8
0
100
AcDbBlockEnd
  0
BLOCK
  5
103
330
101
100
AcDbEntity
 67
     1
  8
0
100
AcDbBlockBegin
  2
*PAPER_SPACE
 70
     0
 10
0.0
 20
0.0
 30
0.0
  3
*PAPER_SPACE
  1

  0
ENDBLK
  5
104
330
101
100
AcDbEntity
 67
     1
  8
0
100
AcDbBlockEnd
  0
BLOCK
  5
5D
330
59
100
AcDbEntity
  8
0
100
AcDbBlockBegin
  2
_OPEN30
 70
     0
 10
0.0
 20
0.0
 30
0.0
  3
_OPEN30
  1

  0
LINE
  5
5A
330
59
100
AcDbEntity
  8
0
 62
     0
100
AcDbLine
 10
-1.0
 20
0.26794919
 30
0.0
 11
0.0
 21
0.0
 31
0.0
  0
LINE
  5
5B
330
59
100
AcDbEntity
  8
0
 62
     0
100
AcDbLine
 10
0.0
 20
0.0
 30
0.0
 11
-1.0
 21
-0.26794919
 31
0.0
  0
LINE
  5
5C
330
59
100
AcDbEntity
  8
0
 62
     0
100
AcDbLine
 10
0.0
 20
0.0
 30
0.0
 11
-1.0
 21
0.0
 31
0.0
  0
ENDBLK
  5
5E
330
59
100
AcDbEntity
  8
0
100
AcDbBlockEnd
  0
BLOCK
  5
66
330
64
100
AcDbEntity
  8
0
100
AcDbBlockBegin
  2
GENAXEH
 70
     0
 10
0.0
 20
0.0
 30
0.0
  3
GENAXEH
  1

  0
LINE
  5
65
330
64
100
AcDbEntity
  8
0
100
AcDbLine
 10
-1.0
 20
0.0
 30
0.0
 11
1.0
 21
0.0
 31
0.0
  0
ENDBLK
  5
67
330
64
100
AcDbEntity
  8
0
100
AcDbBlockEnd
  0
BLOCK
  5
CD2
330
CC8
100
AcDbEntity
  8
0
100
AcDbBlockBegin
  2
*D5
 70
     1
 10
0.0
 20
0.0
 30
0.0
  3
*D5
  1

  0
LINE
  5
354D
330
CC8
100
AcDbEntity
  8
AM_5
 62
     3
100
AcDbLine
 10
-168.9999999972994
 20
-6.000002054481103
 30
0.0
 11
-168.9999999972994
 21
-31.50000305448099
 31
0.0
  0
LINE
  5
354E
330
CC8
100
AcDbEntity
  8
AM_5
 62
     3
100
AcDbLine
 10
-1.999999997298348
 20
-6.400000558405727
 30
0.0
 11
-1.999999997298349
 21
-31.50000305448099
 31
0.0
  0
LINE
  5
354F
330
CC8
100
AcDbEntity
  8
AM_5
 62
     3
100
AcDbLine
 10
-166.4999999972994
 20
-30.50000305448099
 30
0.0
 11
-4.499999997298349
 21
-30.50000305448099
 31
0.0
  0
INSERT
  5
3550
330
CC8
100
AcDbEntity
  8
AM_5
 62
     3
100
AcDbBlockReference
  2
_OPEN30
 10
-168.9999999972994
 20
-30.50000305448099
 30
0.0
 41
2.5
 42
2.5
 43
2.5
 50
180.0
  0
INSERT
  5
3551
330
CC8
100
AcDbEntity
  8
AM_5
 62
     3
100
AcDbBlockReference
  2
_OPEN30
 10
-1.999999997298349
 20
-30.50000305448099
 30
0.0
 41
2.5
 42
2.5
 43
2.5
  0
MTEXT
  5
3552
330
CC8
100
AcDbEntity
  8
AM_5
 62
     2
100
AcDbMText
 10
-85.49999999729889
 20
-27.10000305448099
 30
0.0
 40
3.799999999999999
 41
0.0
 71
     5
 72
     1
  1
167
1001
ACAD
1000
MTEXTBEGIN
1070
    73
1070
     1
1070
    44
1040
1.0
1070
    74
1070
     0
1000
MTEXTEND
  0
POINT
  5
3553
330
CC8
100
AcDbEntity
  8
DEFPOINTS
 62
     0
100
AcDbPoint
 10
-168.9999999972994
 20
-6.000002054481103
 30
0.0
  0
POINT
  5
3554
330
CC8
100
AcDbEntity
  8
DEFPOINTS
 62
     0
100
AcDbPoint
 10
-1.999999997298348
 20
-6.400000558405727
 30
0.0
  0
POINT
  5
3555
330
CC8
100
AcDbEntity
  8
DEFPOINTS
 62
     0
100
AcDbPoint
 10
-1.999999997298349
 20
-30.50000305448099
 30
0.0
  0
ENDBLK
  5
CD3
330
CC8
100
AcDbEntity
  8
0
100
AcDbBlockEnd
  0
BLOCK
  5
E00
330
DF6
100
AcDbEntity
  8
0
100
AcDbBlockBegin
  2
*D6
 70
     1
 10
0.0
 20
0.0
 30
0.0
  3
*D6
  1

  0
LINE
  5
3544
330
DF6
100
AcDbEntity
  8
AM_5
 62
     3
100
AcDbLine
 10
-105.9999999972994
 20
-6.500002054481134
 30
0.0
 11
-105.9999999972994
 21
-21.50000305448087
 31
0.0
  0
LINE
  5
3545
330
DF6
100
AcDbEntity
  8
AM_5
 62
     3
100
AcDbLine
 10
-1.999999997298348
 20
-6.400000558405727
 30
0.0
 11
-1.999999997298349
 21
-21.50000305448087
 31
0.0
  0
LINE
  5
3546
330
DF6
100
AcDbEntity
  8
AM_5
 62
     3
100
AcDbLine
 10
-103.4999999972994
 20
-20.50000305448087
 30
0.0
 11
-4.499999997298349
 21
-20.50000305448087
 31
0.0
  0
INSERT
  5
3547
330
DF6
100
AcDbEntity
  8
AM_5
 62
     3
100
AcDbBlockReference
  2
_OPEN30
 10
-105.9999999972994
 20
-20.50000305448087
 30
0.0
 41
2.5
 42
2.5
 43
2.5
 50
180.0
  0
INSERT
  5
3548
330
DF6
100
AcDbEntity
  8
AM_5
 62
     3
100
AcDbBlockReference
  2
_OPEN30
 10
-1.999999997298349
 20
-20.50000305448087
 30
0.0
 41
2.5
 42
2.5
 43
2.5
  0
MTEXT
  5
3549
330
DF6
100
AcDbEntity
  8
AM_5
 62
     2
100
AcDbMText
 10
-53.99999999729888
 20
-17.10000305448087
 30
0.0
 40
3.799999999999999
 41
0.0
 71
     5
 72
     1
  1
104
1001
ACAD
1000
MTEXTBEGIN
1070
    73
1070
     1
1070
    44
1040
1.0
1070
    74
1070
     0
1000
MTEXTEND
  0
POINT
  5
354A
330
DF6
100
AcDbEntity
  8
DEFPOINTS
 62
     0
100
AcDbPoint
 10
-105.9999999972994
 20
-6.500002054481134
 30
0.0
  0
POINT
  5
354B
330
DF6
100
AcDbEntity
  8
DEFPOINTS
 62
     0
100
AcDbPoint
 10
-1.999999997298348
 20
-6.400000558405727
 30
0.0
  0
POINT
  5
354C
330
DF6
100
AcDbEntity
  8
DEFPOINTS
 62
     0
100
AcDbPoint
 10
-1.999999997298349
 20
-20.50000305448087
 30
0.0
  0
ENDBLK
  5
E01
330
DF6
100
AcDbEntity
  8
0
100
AcDbBlockEnd
  0
BLOCK
  5
1FC3
330
1FB7
100
AcDbEntity
  8
0
100
AcDbBlockBegin
  2
*D7
 70
     1
 10
0.0
 20
0.0
 30
0.0
  3
*D7
  1

  0
LINE
  5
356A
330
1FB7
100
AcDbEntity
  8
AM_5
 62
     3
100
AcDbLine
 10
-1.999999997298746
 20
-6.400000558405727
 30
0.0
 11
16.55592102755859
 21
-6.400000558405731
 31
0.0
  0
LINE
  5
356B
330
1FB7
100
AcDbEntity
  8
AM_5
 62
     3
100
AcDbLine
 10
-1.999999997299391
 20
6.399999441594006
 30
0.0
 11
16.55592102755859
 21
6.399999441594001
 31
0.0
  0
LINE
  5
356C
330
1FB7
100
AcDbEntity
  8
AM_5
 62
     3
100
AcDbLine
 10
15.55592102755858
 20
-8.900000558405732
 30
0.0
 11
15.55592102755858
 21
-11.40000055840573
 31
0.0
  0
LINE
  5
356D
330
1FB7
100
AcDbEntity
  8
AM_5
 62
     3
100
AcDbLine
 10
15.55592102755859
 20
8.899999441594001
 30
0.0
 11
15.55592102755859
 21
28.6952375368321
 31
0.0
  0
LINE
  5
356E
330
1FB7
100
AcDbEntity
  8
AM_5
 62
     3
100
AcDbLine
 10
15.55592102755858
 20
-6.400000558405731
 30
0.0
 11
15.55592102755859
 21
6.399999441594001
 31
0.0
  0
INSERT
  5
356F
330
1FB7
100
AcDbEntity
  8
AM_5
 62
     3
100
AcDbBlockReference
  2
_OPEN30
 10
15.55592102755858
 20
-6.400000558405731
 30
0.0
 41
2.5
 42
2.5
 43
2.5
 50
90.0
  0
INSERT
  5
3570
330
1FB7
100
AcDbEntity
  8
AM_5
 62
     3
100
AcDbBlockReference
  2
_OPEN30
 10
15.55592102755859
 20
6.399999441594001
 30
0.0
 41
2.5
 42
2.5
 43
2.5
 50
270.0
  0
MTEXT
  5
3571
330
1FB7
100
AcDbEntity
  8
AM_5
 62
     2
100
AcDbMText
 10
12.15592102755859
 20
20.04761848921305
 30
0.0
 40
3.799999999999999
 41
0.0
 71
     5
 72
     1
  1
%%c12.8
 11
0.0000000000000001
 21
1.0
 31
0.0
1001
ACAD
1000
MTEXTBEGIN
1070
    73
1070
     1
1070
    44
1040
1.0
1070
    74
1070
     0
1000
MTEXTEND
  0
POINT
  5
3572
330
1FB7
100
AcDbEntity
  8
DEFPOINTS
 62
     0
100
AcDbPoint
 10
-1.999999997298746
 20
-6.400000558405727
 30
0.0
  0
POINT
  5
3573
330
1FB7
100
AcDbEntity
  8
DEFPOINTS
 62
     0
100
AcDbPoint
 10
-1.999999997299391
 20
6.399999441594006
 30
0.0
  0
POINT
  5
3574
330
1FB7
100
AcDbEntity
  8
DEFPOINTS
 62
     0
100
AcDbPoint
 10
15.55592102755859
 20
6.399999441594001
 30
0.0
  0
ENDBLK
  5
1FC4
330
1FB7
100
AcDbEntity
  8
0
100
AcDbBlockEnd
  0
BLOCK
  5
2221
330
2217
100
AcDbEntity
  8
0
100
AcDbBlockBegin
  2
*D8
 70
     1
 10
0.0
 20
0.0
 30
0.0
  3
*D8
  1

  0
LINE
  5
3556
330
2217
100
AcDbEntity
  8
AM_5
 62
     3
100
AcDbLine
 10
-168.4999999972999
 20
6.499999999998699
 30
0.0
 11
-186.0000009972994
 21
6.499999999998649
 31
0.0
  0
LINE
  5
3557
330
2217
100
AcDbEntity
  8
AM_5
 62
     3
100
AcDbLine
 10
-168.4999999972994
 20
-6.500002054481627
 30
0.0
 11
-186.0000009972994
 21
-6.500002054481677
 31
0.0
  0
LINE
  5
3558
330
2217
100
AcDbEntity
  8
AM_5
 62
     3
100
AcDbLine
 10
-185.0000009972994
 20
3.999999999998653
 30
0.0
 11
-185.0000009972994
 21
-4.000002054481673
 31
0.0
  0
INSERT
  5
3559
330
2217
100
AcDbEntity
  8
AM_5
 62
     3
100
AcDbBlockReference
  2
_OPEN30
 10
-185.0000009972994
 20
6.499999999998653
 30
0.0
 41
2.5
 42
2.5
 43
2.5
 50
90.00000000000017
  0
INSERT
  5
355A
330
2217
100
AcDbEntity
  8
AM_5
 62
     3
100
AcDbBlockReference
  2
_OPEN30
 10
-185.0000009972994
 20
-6.500002054481673
 30
0.0
 41
2.5
 42
2.5
 43
2.5
 50
270.0000000000001
  0
MTEXT
  5
355B
330
2217
100
AcDbEntity
  8
AM_5
 62
     2
100
AcDbMText
 10
-188.4000009972994
 20
-0.0000010272415127
 30
0.0
 40
3.799999999999999
 41
0.0
 71
     5
 72
     1
  1
%%c13
 11
-0.0000000000000028
 21
1.0
 31
0.0
1001
ACAD
1000
MTEXTBEGIN
1070
    73
1070
     1
1070
    44
1040
1.0
1070
    74
1070
     0
1000
MTEXTEND
  0
POINT
  5
355C
330
2217
100
AcDbEntity
  8
DEFPOINTS
 62
     0
100
AcDbPoint
 10
-168.4999999972999
 20
6.499999999999223
 30
0.0
  0
POINT
  5
355D
330
2217
100
AcDbEntity
  8
DEFPOINTS
 62
     0
100
AcDbPoint
 10
-168.4999999972994
 20
-6.500002054481103
 30
0.0
  0
POINT
  5
355E
330
2217
100
AcDbEntity
  8
DEFPOINTS
 62
     0
100
AcDbPoint
 10
-185.0000009972994
 20
-6.500002054481099
 30
0.0
  0
ENDBLK
  5
2222
330
2217
100
AcDbEntity
  8
0
100
AcDbBlockEnd
  0
BLOCK
  5
3591
330
3583
100
AcDbEntity
  8
0
100
AcDbBlockBegin
  2
*D9
 70
     1
 10
0.0
 20
0.0
 30
0.0
  3
*D9
  1

  0
LINE
  5
36DE
330
3583
100
AcDbEntity
  8
AM_5
100
AcDbLine
 10
0.3420201435166844
 20
-0.9396926216993024
 30
0.0
 11
12.81153980070541
 21
-35.19941659594823
 31
0.0
  0
LINE
  5
36DF
330
3583
100
AcDbEntity
  8
AM_5
100
AcDbLine
 10
0.3420220719415723
 20
0.9396919198079448
 30
0.0
 11
12.81161203648916
 21
35.19939030418969
 31
0.0
  0
ARC
  5
36E0
330
3583
100
AcDbEntity
  8
AM_5
100
AcDbCircle
 10
0.0000000027004887
 20
0.0000000000001562
 30
0.0
 40
36.45843670911789
100
AcDbArc
 50
293.9296122947355
 51
66.07027012356889
  0
INSERT
  5
36E1
330
3583
100
AcDbEntity
  8
AM_5
100
AcDbBlockReference
  2
_OPEN30
 10
12.46951965988927
 20
-34.25972397424893
 30
0.0
 41
2.5
 42
2.5
 43
2.5
 50
201.9648060708611
  0
INSERT
  5
36E2
330
3583
100
AcDbEntity
  8
AM_5
100
AcDbBlockReference
  2
_OPEN30
 10
12.46958996724807
 20
34.25969838438191
 30
0.0
 41
2.5
 42
2.5
 43
2.5
 50
158.0350763474433
  0
MTEXT
  5
36E3
330
3583
100
AcDbEntity
  8
AM_5
 62
     2
100
AcDbMText
 10
33.35843671180082
 20
-0.0000342288870376
 30
0.0
 40
3.2
 41
0.0
 71
     5
 72
     1
  1
140°
  7
ASAMI
 11
0.000001026093863
 21
0.9999999999994738
 31
0.0
  0
POINT
  5
36E4
330
3583
100
AcDbEntity
  8
DEFPOINTS
 62
     0
100
AcDbPoint
 10
33.47671392965409
 20
-14.44047201187211
 30
0.0
  0
POINT
  5
36E5
330
3583
100
AcDbEntity
  8
DEFPOINTS
 62
     0
100
AcDbPoint
 10
0.0000000027004887
 20
0.0000000000001562
 30
0.0
  0
POINT
  5
36E6
330
3583
100
AcDbEntity
  8
DEFPOINTS
 62
     0
100
AcDbPoint
 10
0.0000000027005456
 20
0.0000000000000001
 30
0.0
  0
POINT
  5
36E7
330
3583
100
AcDbEntity
  8
DEFPOINTS
 62
     0
100
AcDbPoint
 10
-0.7147573325028774
 20
1.963779655178786
 30
0.0
  0
POINT
  5
36E8
330
3583
100
AcDbEntity
  8
DEFPOINTS
 62
     0
100
AcDbPoint
 10
-0.7147729802001626
 20
-1.963810107397345
 30
0.0
  0
ENDBLK
  5
3592
330
3583
100
AcDbEntity
  8
0
100
AcDbBlockEnd
  0
ENDSEC
  0
SECTION
  2
ENTITIES
  0
LINE
  5
C9F
330
1F
100
AcDbEntity
  8
AM_7
100
AcDbLine
 10
-170.9999999972994
 20
-0.0000000000002726
 30
0.0
 11
1.555920027558604
 21
0.0000000000000025
 31
0.0
1001
GENIUS_GENODEF_13
1002
{
1000
HIER
1070
     0
1002
}
1002
{
1000
MANEDIT
1070
     0
1002
}
1002
{
1000
NOSEL
1070
     0
1002
}
1002
{
1000
BEHIND
1070
     0
1002
}
1002
{
1000
REACTOR
1002
}
1001
GENIUS_GENOBJ-N-CEN_13
1002
{
1000
OWNER
1000
GEN
1002
}
  0
DIMENSION
  5
CC6
330
1F
100
AcDbEntity
  8
AM_5
100
AcDbDimension
  2
*D5
 10
-1.999999997298349
 20
-30.50000305448099
 30
0.0
 11
-85.49999999729889
 21
-27.10000305448099
 31
0.0
 70
    32
  1
<>
  3
AM_JIS$0
100
AcDbAlignedDimension
 13
-168.9999999972994
 23
-6.000002054481103
 33
0.0
 14
-1.999999997298348
 24
-6.400000558405727
 34
0.0
 50
0.0000000000001132
100
AcDbRotatedDimension
1001
GENIUS_GENDTOL_13
1000

1000
h7
1000

1040
0.0
1001
ACAD
1000
DSTYLE
1002
{
1070
   271
1070
     0
1002
}
  0
DIMENSION
  5
DF5
330
1F
100
AcDbEntity
  8
AM_5
100
AcDbDimension
  2
*D6
 10
-1.999999997298349
 20
-20.50000305448087
 30
0.0
 11
-53.99999999729888
 21
-17.10000305448087
 31
0.0
 70
    32
  1
<>
  3
AM_JIS$0
100
AcDbAlignedDimension
 13
-105.9999999972994
 23
-6.500002054481134
 33
0.0
 14
-1.999999997298348
 24
-6.400000558405727
 34
0.0
 50
0.0000000000001527
100
AcDbRotatedDimension
1001
GENIUS_GENDTOL_13
1000

1000
h7
1000

1040
0.0
1001
ACAD
1000
DSTYLE
1002
{
1070
   271
1070
     0
1002
}
  0
TEXT
  5
19BD
330
1F
100
AcDbEntity
  8
AM_6
100
AcDbText
 10
-106.6904761877755
 20
-52.500003054481
 30
0.0
 40
5.0
  1
MDW128LHK
 50
0.0000000000001527
 72
     4
 11
-85.49999999729939
 21
-50.00000305448095
 31
0.0
100
AcDbText
  0
LINE
  5
1E25
330
1F
100
AcDbEntity
  8
AM_0
100
AcDbLine
 10
-105.9999999972994
 20
-6.500002054481149
 30
0.0
 11
-105.8267894034251
 21
-6.399998871481325
 31
0.0
  0
LINE
  5
1E26
330
1F
100
AcDbEntity
  8
AM_0
100
AcDbLine
 10
-105.82679394936
 20
6.39999944159664
 30
0.0
 11
-106.0000192377463
 21
6.500011108476913
 31
0.0
  0
DIMENSION
  5
1FB6
330
1F
100
AcDbEntity
  8
AM_5
100
AcDbDimension
  2
*D7
 10
15.55592102755859
 20
6.399999441594001
 30
0.0
 11
15.55592102755859
 21
20.04761848921305
 31
0.0
 70
   160
  1
%%c<>
  3
AM_JIS$0
100
AcDbAlignedDimension
 13
-1.999999997298746
 23
-6.400000558405727
 33
0.0
 14
-1.999999997299391
 24
6.399999441594006
 34
0.0
 50
89.99999999999969
100
AcDbRotatedDimension
1001
ACAD
1000
DSTYLE
1002
{
1070
   271
1070
     1
1002
}
1001
GENIUS_GENDTOL_13
1000

1000
h7
1000

1040
0.0
  0
LINE
  5
1FD9
330
1F
100
AcDbEntity
  8
AM_0
100
AcDbLine
 10
-105.8267894034251
 20
-6.399998871481313
 30
0.0
 11
-105.8267899116871
 21
-4.984769556741884
 31
0.0
  0
LINE
  5
21D7
330
1F
100
AcDbEntity
  8
AM_0
 48
0.5
100
AcDbLine
 10
-105.9999999972994
 20
-6.500002054481153
 30
0.0
 11
-105.9999999972994
 21
6.499999999999664
 31
0.0
  0
LINE
  5
21D8
330
1F
100
AcDbEntity
  8
AM_0
 48
0.5
100
AcDbLine
 10
-168.4999999972994
 20
6.499999999999726
 30
0.0
 11
-105.9999999972994
 21
6.499999999999695
 31
0.0
1001
GENIUS_GENODEF_13
1002
{
1000
HIER
1070
     0
1002
}
1002
{
1000
MANEDIT
1070
     0
1002
}
1002
{
1000
NOSEL
1070
     0
1002
}
1002
{
1000
BEHIND
1070
     0
1002
}
1002
{
1000
REACTOR
1002
}
1001
GENIUS_GENOBJ-N-CEN_13
1002
{
1000
OWNER
1000
GEN
1002
}
  0
LINE
  5
21D9
330
1F
100
AcDbEntity
  8
AM_0
 48
0.5
100
AcDbLine
 10
-168.4999999972994
 20
-6.500002054481103
 30
0.0
 11
-105.9999999972994
 21
-6.500002054481134
 31
0.0
1001
GENIUS_GENODEF_13
1002
{
1000
HIER
1070
     0
1002
}
1002
{
1000
MANEDIT
1070
     0
1002
}
1002
{
1000
NOSEL
1070
     0
1002
}
1002
{
1000
BEHIND
1070
     0
1002
}
1002
{
1000
REACTOR
1002
}
1001
GENIUS_GENOBJ-N-CEN_13
1002
{
1000
OWNER
1000
GEN
1002
}
  0
LINE
  5
21DC
330
1F
100
AcDbEntity
  8
AM_0
100
AcDbLine
 10
-168.4999999972999
 20
-6.500002054480569
 30
0.0
 11
-168.4999999972999
 21
6.499999999999223
 31
0.0
  0
LINE
  5
21DD
330
1F
100
AcDbEntity
  8
AM_0
 48
0.5
100
AcDbLine
 10
-168.9999999972994
 20
-6.0000020544811
 30
0.0
 11
-168.9999999972994
 21
5.999999999999737
 31
0.0
  0
DIMENSION
  5
2216
330
1F
100
AcDbEntity
  8
AM_5
100
AcDbDimension
  2
*D8
 10
-185.0000009972994
 20
-6.500002054481099
 30
0.0
 11
-188.4000009972994
 21
-0.0000010272409645
 31
0.0
 70
    32
  1
%%c<>
 51
359.9999999999998
  3
AM_JIS$0
100
AcDbAlignedDimension
 13
-168.4999999972999
 23
6.499999999999223
 33
0.0
 14
-168.4999999972994
 24
-6.500002054481103
 34
0.0
 50
269.9999999999999
100
AcDbRotatedDimension
1001
ACAD
1000
DSTYLE
1002
{
1070
   271
1070
     0
1002
}
1001
GENIUS_GENDTOL_13
1000

1000
h7
1000

1040
0.0
  0
ELLIPSE
  5
2694
330
1F
100
AcDbEntity
  8
AM_0
 48
0.5
100
AcDbEllipse
 10
7.708790705125759
 20
6.738403143387845
 30
0.0
 11
9.706495919543959
 21
0.0000000000009575
 31
0.0
210
0.0
220
0.0
230
1.0
 40
0.9899999999999973
 41
3.323896559076802
 42
3.661579236128986
  0
LINE
  5
2695
330
1F
100
AcDbEntity
  8
AM_0
 48
0.5
100
AcDbLine
 10
-1.836862647302432
 20
4.996270538370899
 30
0.0
 11
-1.999999997299391
 21
6.399999441594006
 31
0.0
  0
LINE
  5
2696
330
1F
100
AcDbEntity
  8
AM_0
 48
0.5
100
AcDbLine
 10
0.0000000027005456
 20
0.0000000000000001
 30
0.0
 11
-0.7147573325028774
 21
1.963779655178785
 31
0.0
  0
ELLIPSE
  5
2697
330
1F
100
AcDbEntity
  8
AM_0
 48
0.5
100
AcDbEllipse
 10
7.708790705125888
 20
-6.738406538684553
 30
0.0
 11
-9.706495919543957
 21
0.0000000000014037
 31
0.0
210
0.0
220
0.0
230
1.0
 40
0.989999999999997
 41
-0.5199833380394914
 42
-0.1823047399519406
  0
LINE
  5
2698
330
1F
100
AcDbEntity
  8
AM_0
 48
0.5
100
AcDbLine
 10
-1.836855646690667
 20
-4.996239280637549
 30
0.0
 11
-1.999999997298746
 21
-6.400000558405727
 31
0.0
  0
LINE
  5
2699
330
1F
100
AcDbEntity
  8
AM_0
 48
0.5
100
AcDbLine
 10
0.0000000027004887
 20
0.0000000000001562
 30
0.0
 11
-0.7147729802001626
 21
-1.963810107397344
 31
0.0
  0
LINE
  5
2CB4
330
1F
100
AcDbEntity
  8
AM_0
 48
0.5
100
AcDbLine
 10
-168.9999999972994
 20
5.999999999999726
 30
0.0
 11
-168.4999999972994
 21
6.499999999999726
 31
0.0
1001
GENIUS_GENFIL_13
1070
     0
1040
0.5
1040
0.5
1040
20.0
1040
0.0
1002
{
1002
}
1001
GENIUS_GENODEF_13
1002
{
1000
HIER
1070
     0
1002
}
1002
{
1000
MANEDIT
1070
     0
1002
}
1002
{
1000
NOSEL
1070
     0
1002
}
1002
{
1000
BEHIND
1070
     0
1002
}
1002
{
1000
REACTOR
1002
}
1001
GENIUS_GENOBJ-N-CHA_13
1002
{
1000
OWNER
1000
GEN
1002
}
  0
LINE
  5
2CB7
330
1F
100
AcDbEntity
  8
AM_0
 48
0.5
100
AcDbLine
 10
-168.4999999972994
 20
-6.500002054481103
 30
0.0
 11
-168.9999999972994
 21
-6.000002054481103
 31
0.0
1001
GENIUS_GENFIL_13
1070
     0
1040
0.5
1040
0.5
1040
20.0
1040
0.0
1002
{
1002
}
1001
GENIUS_GENODEF_13
1002
{
1000
HIER
1070
     0
1002
}
1002
{
1000
MANEDIT
1070
     0
1002
}
1002
{
1000
NOSEL
1070
     0
1002
}
1002
{
1000
BEHIND
1070
     0
1002
}
1002
{
1000
REACTOR
1002
}
1001
GENIUS_GENOBJ-N-CHA_13
1002
{
1000
OWNER
1000
GEN
1002
}
  0
LINE
  5
3388
330
1F
100
AcDbEntity
  8
AM_0
100
AcDbLine
 10
-105.8267917054723
 20
0.009933010609677
 30
0.0
 11
-105.8267940003851
 21
6.399999471055952
 31
0.0
  0
LINE
  5
3389
330
1F
100
AcDbEntity
  8
AM_0
100
AcDbLine
 10
-105.8267903679594
 20
-3.681434729559668
 30
0.0
 11
-105.8267917547962
 21
-0.1244249796962874
 31
0.0
  0
ELLIPSE
  5
34C2
330
1F
100
AcDbEntity
  8
AM_0
 48
0.5
100
AcDbEllipse
 10
-104.3099026473593
 20
-4.1067284372112
 30
0.0
 11
1.154340732848679
 21
1.646345292434945
 31
0.0
210
0.0
220
0.0
230
1.0
 40
0.7654331466710933
 41
0.2717567622563548
 42
2.163702618096467
  0
ELLIPSE
  5
34C3
330
1F
100
AcDbEntity
  8
AM_0
 48
0.5
100
AcDbEllipse
 10
-103.9584123830886
 20
-4.266667225070118
 30
0.0
 11
-1.140557701527575
 21
1.871871538197954
 31
0.0
210
0.0
220
0.0
230
1.0
 40
0.9106488426137799
 41
1.07694247533759
 42
2.551907810702092
  0
LINE
  5
34C4
330
1F
100
AcDbEntity
  8
AM_0
100
AcDbLine
 10
-99.79486288358971
 20
-6.400000558403459
 30
0.0
 11
-105.8267923252597
 21
-6.400000558403348
 31
0.0
  0
SPLINE
  5
34C5
330
1F
100
AcDbEntity
  8
AM_0
 48
0.5
100
AcDbSpline
210
0.0
220
0.0
230
1.0
 70
     8
 71
     3
 72
    22
 73
    18
 74
     0
 42
0.0000000001
 43
0.0000000001
 40
0.0
 40
0.0
 40
0.0
 40
0.0
 40
1.010743684496582
 40
2.022833993863546
 40
3.037578683882831
 40
4.056212471389632
 40
5.079857945358201
 40
6.109499720892564
 40
7.145961650132166
 40
8.189873411961459
 40
9.241710626092514
 40
10.30166235592959
 40
11.36982472628033
 40
12.44598212828784
 40
13.52983440361964
 40
14.62080578343036
 40
14.90544694398022
 40
14.90544694398022
 40
14.90544694398022
 40
14.90544694398022
 10
-87.08570095449488
 20
-6.400000558403858
 30
0.0
 10
-87.43003309962096
 20
-6.396193851054726
 30
0.0
 10
-88.11915614735786
 20
-6.388575364638655
 30
0.0
 10
-89.15258844039447
 20
-6.32712635850885
 30
0.0
 10
-90.18597882113732
 20
-6.22948213705586
 30
0.0
 10
-91.2193046764491
 20
-6.092606877405016
 30
0.0
 10
-92.25255290046384
 20
-5.918355938580477
 30
0.0
 10
-93.2857127140268
 20
-5.707554220124722
 30
0.0
 10
-94.31876897767983
 20
-5.461564318956831
 30
0.0
 10
-95.3517287950782
 20
-5.181912256128315
 30
0.0
 10
-96.38458286289859
 20
-4.870344132367991
 30
0.0
 10
-97.4173365787348
 20
-4.528756186373163
 30
0.0
 10
-98.44999660005374
 20
-4.159322098420114
 30
0.0
 10
-99.4825621512065
 20
-3.764238138522392
 30
0.0
 10
-100.5150525760923
 20
-3.34602117038014
 30
0.0
 10
-101.291041285396
 20
-3.016211841597608
 30
0.0
 10
-101.7234492734099
 20
-2.827703430701196
 30
0.0
 10
-103.5361845793896
 20
-2.283630962754137
 30
0.0
  0
SPLINE
  5
34C6
330
1F
100
AcDbEntity
  8
AM_0
100
AcDbSpline
210
0.0
220
0.0
230
1.0
 70
     8
 71
     3
 72
    13
 73
     9
 74
     0
 42
0.0000000001
 43
0.0000000001
 40
16.03460056234195
 40
16.03460056234195
 40
16.03460056234195
 40
16.03460056234195
 40
16.35212717791071
 40
17.38177067057215
 40
18.41822498539278
 40
19.46214186516937
 40
20.5139635832251
 40
21.34083983469381
 40
21.34083983469381
 40
21.34083983469381
 40
21.34083983469381
 10
-104.1736712445614
 20
-6.400000558403416
 30
0.0
 10
-102.479003646826
 20
-6.359974805576533
 30
0.0
 10
-102.0289972308478
 20
-6.284895672101205
 30
0.0
 10
-101.2363071709083
 20
-6.100548551119107
 30
0.0
 10
-100.2097707793792
 20
-5.826430358688521
 30
0.0
 10
-99.18418804718641
 20
-5.518640260199378
 30
0.0
 10
-98.23518663469556
 20
-5.204051154565708
 30
0.0
 10
-97.62974044535074
 20
-4.987434167192255
 30
0.0
 10
-96.77748049264531
 20
-4.738944784798198
 30
0.0
  0
SPLINE
  5
34C7
330
1F
100
AcDbEntity
  8
AM_0
100
AcDbSpline
210
0.0
220
0.0
230
1.0
 70
     8
 71
     3
 72
    22
 73
    18
 74
     0
 42
0.0000000001
 43
0.0000000001
 40
17.17441611292
 40
17.17441611292
 40
17.17441611292
 40
17.17441611292
 40
17.38177636558528
 40
18.41823744757437
 40
19.46215659509824
 40
20.51397914882054
 40
21.57394542641293
 40
22.64209583141747
 40
23.71826625065247
 40
24.80210429862395
 40
25.8930771157021
 40
26.99048705697709
 40
28.09349309193389
 40
29.20112995599786
 40
30.31233024745139
 40
31.42594771747373
 40
32.5407895042663
 40
32.54078950426994
 40
32.54078950426994
 40
32.54078950426994
 10
-84.58569315756262
 20
-6.400000558403871
 30
0.0
 10
-87.9899271858674
 20
-6.200222398530781
 30
0.0
 10
-88.47864947020299
 20
-6.136085182619526
 30
0.0
 10
-89.30700784717519
 20
-5.995277177043934
 30
0.0
 10
-90.89672541419579
 20
-5.719785897795738
 30
0.0
 10
-94.51425466452837
 20
-4.870339828948003
 30
0.0
 10
-95.54700974318993
 20
-4.528770193139164
 30
0.0
 10
-96.57966549325605
 20
-4.159305958140285
 30
0.0
 10
-97.61223462552152
 20
-3.764246470613192
 30
0.0
 10
-98.64472192107172
 20
-3.346019639057561
 30
0.0
 10
-99.67713693286929
 20
-2.907204645427414
 30
0.0
 10
-100.7094911407145
 20
-2.450508700283397
 30
0.0
 10
-101.7417935048192
 20
-1.978740040803026
 30
0.0
 10
-102.8648682094904
 20
-1.587056348783593
 30
0.0
 10
-103.8062830272783
 20
-1.155592011200276
 30
0.0
 10
-104.9388943647402
 20
-0.6043754951013725
 30
0.0
 10
-105.5265006201245
 20
-0.2900746392707589
 30
0.0
 10
-105.9999999972994
 20
-0.0292570597285311
 30
0.0
  0
LINE
  5
34C8
330
1F
100
AcDbEntity
  8
AM_0
 48
0.5
100
AcDbLine
 10
-89.08114833969428
 20
3.798798626919052
 30
0.0
 11
-105.9999999972994
 21
-0.0292570597285371
 31
0.0
  0
LINE
  5
34C9
330
1F
100
AcDbEntity
  8
AM_0
100
AcDbLine
 10
-99.29970599848502
 20
6.399999441596492
 30
0.0
 11
-105.8267939493601
 21
6.399999441596641
 31
0.0
  0
LINE
  5
34CA
330
1F
100
AcDbEntity
  8
AM_0
 48
0.5
100
AcDbLine
 10
-6.48485539849292
 20
6.399999441594119
 30
0.0
 11
-1.999999997299391
 21
6.399999441594006
 31
0.0
  0
LINE
  5
34CB
330
1F
100
AcDbEntity
  8
AM_11
 48
0.5
100
AcDbLine
 10
-25.95207905563658
 20
6.399999441594658
 30
0.0
 11
-6.48485539849292
 21
6.399999441594119
 31
0.0
  0
LINE
  5
34CC
330
1F
100
AcDbEntity
  8
AM_0
 48
0.5
100
AcDbLine
 10
-6.48485539849325
 20
-6.400000558405879
 30
0.0
 11
-1.999999997299552
 21
-6.400000558405727
 31
0.0
  0
LINE
  5
34CD
330
1F
100
AcDbEntity
  8
AM_11
 48
0.5
100
AcDbLine
 10
-25.95207905563694
 20
-6.400000558405341
 30
0.0
 11
-6.48485539849325
 21
-6.400000558405879
 31
0.0
  0
LINE
  5
34CE
330
1F
100
AcDbEntity
  8
AM_11
 48
0.5
100
AcDbLine
 10
-60.21874589779574
 20
6.400908677743548
 30
0.0
 11
-47.79551010274775
 21
6.399999441595253
 31
0.0
  0
LINE
  5
34CF
330
1F
100
AcDbEntity
  8
AM_11
 48
0.5
100
AcDbLine
 10
-62.74210344070144
 20
-6.400000558404467
 30
0.0
 11
-43.27487978356023
 21
-6.400909794552942
 31
0.0
  0
LINE
  5
34D0
330
1F
100
AcDbEntity
  8
AM_0
 48
0.5
100
AcDbLine
 10
-47.79552686975299
 20
6.399999441595253
 30
0.0
 11
-25.95207905563658
 21
6.399999441594658
 31
0.0
  0
LINE
  5
34D1
330
1F
100
AcDbEntity
  8
AM_0
 48
0.5
100
AcDbLine
 10
-43.27487978356022
 20
-6.400000558405004
 30
0.0
 11
-25.95207905563694
 21
-6.400000558405341
 31
0.0
  0
LINE
  5
34D2
330
1F
100
AcDbEntity
  8
AM_0
 48
0.5
100
AcDbLine
 10
0.0000000023582162
 20
0.0000000009405422
 30
0.0
 11
-3.957468224092374
 21
2.457405040551932
 31
0.0
  0
SPLINE
  5
34D3
330
1F
100
AcDbEntity
  8
AM_0
100
AcDbSpline
210
0.0
220
0.0
230
1.0
 70
     8
 71
     3
 72
    46
 73
    42
 74
     0
 42
0.0000000001
 43
0.0000000001
 40
0.0
 40
0.0
 40
0.0
 40
0.0
 40
1.348332046947657
 40
2.024828967632895
 40
2.703918159304097
 40
3.386347665078124
 40
4.072776489761952
 40
4.763750544421347
 40
5.459696642770596
 40
6.160921452191754
 40
6.867565637253344
 40
7.579665907256596
 40
8.297112853413899
 40
9.019671552060676
 40
9.746986763446127
 40
10.47859339096366
 40
11.21393074760089
 40
11.95235532364328
 40
12.69315551794651
 40
13.43556823304427
 40
14.1787950170388
 40
14.92202180103393
 40
15.66443451613169
 40
16.40523471043432
 40
17.14365928647669
 40
17.87899664311455
 40
18.61060327063121
 40
19.3379184820169
 40
20.06048192311554
 40
20.77792886927283
 40
21.49002913927608
 40
22.19667332433747
 40
22.89788836015233
 40
23.59383445850158
 40
24.28480851316097
 40
24.97123685067576
 40
25.65366676154838
 40
26.33276604526152
 40
27.00926273560555
 40
27.68398960851751
 40
28.357818684969
 40
28.357818684969
 40
28.357818684969
 40
28.357818684969
 10
-3.591944157631766
 20
-6.400000558405962
 30
0.0
 10
-4.281100600934507
 20
-6.385420863680085
 30
0.0
 10
-5.316026628828891
 20
-6.363526117288041
 30
0.0
 10
-6.69221289941951
 20
-6.228724186031239
 30
0.0
 10
-7.725549307284341
 20
-6.092807980421095
 30
0.0
 10
-8.75879738948533
 20
-5.918314659944002
 30
0.0
 10
-9.791954424093219
 20
-5.707564525485387
 30
0.0
 10
-10.82501510357771
 20
-5.461565142230353
 30
0.0
 10
-11.8579776977174
 20
-5.181919040001323
 30
0.0
 10
-12.89083760946388
 20
-4.87034328726249
 30
0.0
 10
-13.92359690325639
 20
-4.528770392378174
 30
0.0
 10
-14.95625280128647
 20
-4.159306613754456
 30
0.0
 10
-15.9888218937236
 20
-3.764247003161085
 30
0.0
 10
-17.02130919905997
 20
-3.346020202682311
 30
0.0
 10
-18.05372421197935
 20
-2.907205209133649
 30
0.0
 10
-19.08607840532869
 20
-2.45050923200142
 30
0.0
 10
-20.11838082671245
 20
-1.978740701350546
 30
0.0
 10
-21.15064152303776
 20
-1.494801241983662
 30
0.0
 10
-22.18287143921068
 20
-1.00166921770425
 30
0.0
 10
-23.21508000471891
 20
-0.5023770438202206
 30
0.0
 10
-24.24727989329971
 20
-0.0000005585070392
 30
0.0
 10
-25.27947978165374
 20
0.5023759274166313
 30
0.0
 10
-26.31168834784215
 20
1.00166809947009
 30
0.0
 10
-27.34391826152894
 20
1.494800130439427
 30
0.0
 10
-28.37617896707294
 20
1.978739564995794
 30
0.0
 10
-29.40848135427467
 20
2.450508187641575
 30
0.0
 10
-30.44083567421166
 20
2.907203824084284
 30
0.0
 10
-31.47325246331151
 20
3.346021031811736
 30
0.0
 10
-32.50574378039547
 20
3.76424403248802
 30
0.0
 10
-33.5383147147776
 20
4.159305668811783
 30
0.0
 10
-34.57097058876449
 20
4.528769557370623
 30
0.0
 10
-35.60372564009917
 20
4.870339313491938
 30
0.0
 10
-36.63657867011245
 20
5.181919886043743
 30
0.0
 10
-37.66953704776811
 20
5.461567130657704
 30
0.0
 10
-38.70259712937133
 20
5.707550419341608
 30
0.0
 10
-39.73575492142675
 20
5.918361679644054
 30
0.0
 10
-40.76900959789671
 20
6.092605821422034
 30
0.0
 10
-41.80234068124102
 20
6.229478851799632
 30
0.0
 10
-42.83573569627659
 20
6.327130551771344
 30
0.0
 10
-43.8691682227825
 20
6.38857902279757
 30
0.0
 10
-44.55829128524213
 20
6.396194325283071
 30
0.0
 10
-44.90262342582392
 20
6.399999441595172
 30
0.0
  0
SPLINE
  5
34D4
330
1F
100
AcDbEntity
  8
AM_0
100
AcDbSpline
210
0.0
220
0.0
230
1.0
 70
     8
 71
     3
 72
    23
 73
    19
 74
     0
 42
0.0000000001
 43
0.0000000001
 40
16.03460024169435
 40
16.03460024169435
 40
16.03460024169435
 40
16.03460024169435
 40
16.35212704903564
 40
17.38177054169784
 40
18.41822485651776
 40
19.46214173629503
 40
20.51396345435107
 40
21.57393551351153
 40
22.64208202342361
 40
23.7182574881101
 40
24.80209208578934
 40
25.89306333925047
 40
26.99048218457928
 40
28.09348763352352
 40
29.20111863782268
 40
30.31232390128032
 40
31.42594612798585
 40
32.5407912310448
 40
32.5407912310486
 40
32.5407912310486
 40
32.5407912310486
 10
-60.21874589779574
 20
6.40090867774355
 30
0.0
 10
-60.11257331882067
 20
6.379303404781087
 30
0.0
 10
-59.6625672752133
 20
6.285218521966775
 30
0.0
 10
-58.86987678316595
 20
6.100873553255429
 30
0.0
 10
-57.84334052082179
 20
5.826754600758608
 30
0.0
 10
-56.81775775364308
 20
5.518964708108219
 30
0.0
 10
-55.79306787912621
 20
5.179285206213719
 30
0.0
 10
-54.76923452921163
 20
4.809609815902575
 30
0.0
 10
-53.7461985287855
 20
4.412051757602789
 30
0.0
 10
-52.72388863750915
 20
3.988924719491885
 30
0.0
 10
-51.70224676406277
 20
3.542624845316806
 30
0.0
 10
-50.68119099971281
 20
3.075749050055172
 30
0.0
 10
-49.66063859930767
 20
2.591011017541967
 30
0.0
 10
-48.6405215663517
 20
2.091197788248933
 30
0.0
 10
-47.62075454889169
 20
1.579215707657771
 30
0.0
 10
-46.60124309490472
 20
1.058054375499851
 30
0.0
 10
-45.58190418737887
 20
0.5307337805695136
 30
0.0
 10
-44.9025274450783
 20
0.1771941552608427
 30
0.0
 10
-44.56265380369954
 20
0.0003249624270201
 30
0.0
  0
SPLINE
  5
34D5
330
1F
100
AcDbEntity
  8
AM_0
100
AcDbSpline
210
0.0
220
0.0
230
1.0
 70
     8
 71
     3
 72
    11
 73
     7
 74
     0
 42
0.0000000001
 43
0.0000000001
 40
11.27226913003534
 40
11.27226913003534
 40
11.27226913003534
 40
11.2722691300354
 40
12.28301561507924
 40
13.29510212255852
 40
14.30984805882082
 40
15.18258238371378
 40
15.18258238371378
 40
15.18258238371378
 40
15.18258238371378
 10
-62.74210344070388
 20
-6.400000558404468
 30
0.0
 10
-63.08512619542447
 20
-6.368677098576603
 30
0.0
 10
-63.77052469872218
 20
-6.292844365585983
 30
0.0
 10
-64.79508318357442
 20
-6.139870985961876
 30
0.0
 10
-65.76740725147849
 20
-5.957161056877806
 30
0.0
 10
-66.39624938432108
 20
-5.816706496594567
 30
0.0
 10
-66.68603774539829
 20
-5.747325823309395
 30
0.0
  0
SPLINE
  5
34D6
330
1F
100
AcDbEntity
  8
AM_0
100
AcDbSpline
210
0.0
220
0.0
230
1.0
 70
     8
 71
     3
 72
    17
 73
    13
 74
     0
 42
0.0000000001
 43
0.0000000001
 40
1.580019955310467
 40
1.580019955310467
 40
1.580019955310467
 40
1.580019955310467
 40
2.030549285115227
 40
3.082371838836284
 40
4.126290986361125
 40
5.162752068350215
 40
6.192395305374981
 40
7.216039564037012
 40
8.234688489606833
 40
9.249433870634691
 40
10.26152376260694
 40
11.27226744710342
 40
11.27226744710342
 40
11.27226744710342
 40
11.27226744710352
 10
-53.0077322015698
 20
-4.723389016583039
 30
0.0
 10
-53.15394577468584
 20
-4.772035993804482
 30
0.0
 10
-53.64234823112649
 20
-4.931482959380364
 30
0.0
 10
-54.47617234301123
 20
-5.181581229997561
 30
0.0
 10
-55.50898685692112
 20
-5.461658115283742
 30
0.0
 10
-56.54208570369974
 20
-5.707528434296146
 30
0.0
 10
-57.57523188670685
 20
-5.918366499243409
 30
0.0
 10
-58.60849062913898
 20
-6.09263866385912
 30
0.0
 10
-59.64182075645266
 20
-6.229350433743209
 30
0.0
 10
-60.67521522717182
 20
-6.327615870882526
 30
0.0
 10
-61.7086485811328
 20
-6.386802429246443
 30
0.0
 10
-62.39777136591644
 20
-6.400000595025614
 30
0.0
 10
-62.74210344070382
 20
-6.400000558404468
 30
0.0
  0
SPLINE
  5
34D7
330
1F
100
AcDbEntity
  8
AM_0
 48
0.5
100
AcDbSpline
210
0.0
220
0.0
230
1.0
 70
     8
 71
     3
 72
    17
 73
    13
 74
     0
 42
0.0000000001
 43
0.0000000001
 40
0.0
 40
0.0
 40
0.0
 40
0.0
 40
1.010743614677189
 40
2.022833924044153
 40
3.037578959561199
 40
4.056212747067873
 40
5.079857613375832
 40
6.109500119648989
 40
7.14596120163808
 40
8.18989512056258
 40
9.241717674284874
 40
9.693948937866434
 40
9.693948937866434
 40
9.693948937866434
 40
9.693948937866434
 10
-6.484855398492919
 20
6.399999441594119
 30
0.0
 10
-6.829187540487393
 20
6.396194340761834
 30
0.0
 10
-7.518310605774045
 20
6.388579069256656
 30
0.0
 10
-8.551743111034596
 20
6.327130365437859
 30
0.0
 10
-9.585133070478763
 20
6.229480039088652
 30
0.0
 10
-10.6184587618619
 20
6.092604636992263
 30
0.0
 10
-11.65170787857441
 20
5.91836050377933
 30
0.0
 10
-12.68486780049972
 20
5.707555497610853
 30
0.0
 10
-13.71792466089527
 20
5.46154664002721
 30
0.0
 10
-14.75091854651407
 20
5.181990126014798
 30
0.0
 10
-15.58477814762072
 20
4.930151965083781
 30
0.0
 10
-16.07446939547929
 20
4.772716898589713
 30
0.0
 10
-16.2214484358262
 20
4.724527078652472
 30
0.0
  0
SPLINE
  5
34D8
330
1F
100
AcDbEntity
  8
AM_0
 48
0.5
100
AcDbSpline
210
0.0
220
0.0
230
1.0
 70
     8
 71
     3
 72
    16
 73
    12
 74
     0
 42
0.0000000001
 43
0.0000000001
 40
0.0
 40
0.0
 40
0.0
 40
0.0
 40
1.010743614677189
 40
2.022833924044153
 40
3.037578959561199
 40
4.056212747067873
 40
5.079857613375832
 40
6.109500119648989
 40
7.14596120163808
 40
8.18989512056258
 40
8.545190612624931
 40
8.545190612624931
 40
8.545190612624931
 40
8.545190612624931
 10
-6.484855398492919
 20
6.399999441594119
 30
0.0
 10
-6.829168397862088
 20
6.399960983038832
 30
0.0
 10
-7.518319503838929
 20
6.386828743059843
 30
0.0
 10
-8.551740710366113
 20
6.327600907440474
 30
0.0
 10
-9.585133748817975
 20
6.22935339553393
 30
0.0
 10
-10.61845845965991
 20
6.092638454404281
 30
0.0
 10
-11.6517084085351
 20
5.918352684608725
 30
0.0
 10
-12.6848659686721
 20
5.707552648779739
 30
0.0
 10
-13.71793152290035
 20
5.461566127440767
 30
0.0
 10
-14.52118787237868
 20
5.24410183452372
 30
0.0
 10
-14.98031277840508
 20
5.11035590998566
 30
0.0
 10
-15.09674429040969
 20
5.075841803430348
 30
0.0
  0
SPLINE
  5
34D9
330
1F
100
AcDbEntity
  8
AM_0
 48
0.5
100
AcDbSpline
210
0.0
220
0.0
230
1.0
 70
     8
 71
     3
 72
    25
 73
    21
 74
     0
 42
0.0000000001
 43
0.0000000001
 40
6.846175049578289
 40
6.846175049578289
 40
6.846175049578289
 40
6.846175049578289
 40
7.604337694224321
 40
8.711974558287883
 40
9.814980593243754
 40
10.91239053451967
 40
12.0033633515982
 40
13.08720139956839
 40
14.16337181880432
 40
15.23152222380919
 40
16.29148850140128
 40
17.34331105512262
 40
18.38723020264746
 40
19.42369128463655
 40
20.45333379090873
 40
21.47697865721768
 40
22.49561244472435
 40
23.5103574802404
 40
24.52244778960836
 40
25.53320666051913
 40
25.53320666051913
 40
25.53320666051913
 40
25.53320666051913
 10
-7.69009882406299
 20
1.158441341439521
 30
0.0
 10
-7.924859511489898
 20
1.270813959081432
 30
0.0
 10
-8.50308762614129
 20
1.546232741967353
 30
0.0
 10
-9.425642476486142
 20
1.978739377107893
 30
0.0
 10
-10.45794478417462
 20
2.450508169896904
 30
0.0
 10
-11.49029900701661
 20
2.90720407954301
 30
0.0
 10
-12.52271401485883
 20
3.346019082764141
 30
0.0
 10
-13.5552013113523
 20
3.764245911182899
 30
0.0
 10
-14.5877704437614
 20
4.159305401723717
 30
0.0
 10
-15.62042619233738
 20
4.528769627869213
 30
0.0
 10
-16.65318127674991
 20
4.870339295746711
 30
0.0
 10
-17.68603429852536
 20
5.181919887319523
 30
0.0
 10
-18.71899267643024
 20
5.461567142958553
 30
0.0
 10
-19.75205276510693
 20
5.707550369398976
 30
0.0
 10
-20.78521052890061
 20
5.918361865455461
 30
0.0
 10
-21.81846021877393
 20
6.092604274749922
 30
0.0
 10
-22.85178575777659
 20
6.22948013635781
 30
0.0
 10
-23.88517575761245
 20
6.327130336482723
 30
0.0
 10
-24.91861344324785
 20
6.388579396815227
 30
0.0
 10
-25.60774171281687
 20
6.39619443073887
 30
0.0
 10
-25.95207905563658
 20
6.399999441594658
 30
0.0
  0
SPLINE
  5
34DA
330
1F
100
AcDbEntity
  8
AM_0
 48
0.5
100
AcDbSpline
210
0.0
220
0.0
230
1.0
 70
     8
 71
     3
 72
    10
 73
     6
 74
     0
 42
0.0000000001
 43
0.0000000001
 40
0.0
 40
0.0
 40
0.0
 40
0.0
 40
2.69986029516136
 40
4.147722969032201
 40
6.285750005020438
 40
6.285750005020438
 40
6.285750005020438
 40
6.285750005020438
 10
-7.68993360081806
 20
1.158365327010701
 30
0.0
 10
-6.95441820271301
 20
0.5637611010174258
 30
0.0
 10
-5.824465620994434
 20
-0.3497134258149113
 30
0.0
 10
-3.152279554492212
 20
0.092515595348212
 30
0.0
 10
-3.655529916138374
 20
1.582001454235093
 30
0.0
 10
-3.988045601130893
 20
2.489888960156353
 30
0.0
  0
SPLINE
  5
34DB
330
1F
100
AcDbEntity
  8
AM_0
100
AcDbSpline
210
0.0
220
0.0
230
1.0
 70
     8
 71
     3
 72
    55
 73
    51
 74
     0
 42
0.0000000001
 43
0.0000000001
 40
0.0
 40
0.0
 40
0.0
 40
0.0
 40
1.010743684496582
 40
2.022833576467832
 40
3.037578957496688
 40
4.056212745003489
 40
5.079857003664532
 40
6.109500240690281
 40
7.145961322679372
 40
8.189895241603872
 40
9.241717795325891
 40
10.30168407291828
 40
11.36983447792315
 40
12.44600489715814
 40
13.52984294512926
 40
14.62081576220742
 40
15.7182257034828
 40
16.82123173843959
 40
17.92886860250316
 40
19.0400688939571
 40
20.15368796660465
 40
21.26852814259644
 40
22.38336992938901
 40
23.49698739941135
 40
24.6081876908653
 40
25.71582455492886
 40
26.81883757994213
 40
27.91624752121713
 40
29.00722033829659
 40
30.09105838626677
 40
31.16722880550176
 40
32.23537921050758
 40
33.29534548809967
 40
34.347168041821
 40
35.39108718934584
 40
36.42754827133493
 40
37.45720575381954
 40
38.48085062012849
 40
39.49948440763516
 40
40.51422944315121
 40
41.52631975251916
 40
42.53706336719636
 40
43.54780698187354
 40
44.55989729124051
 40
45.57464232675757
 40
46.59327611426424
 40
47.6169209805722
 40
48.64656348684535
 40
49.68302456883444
 40
50.58557219878025
 40
50.58557219878025
 40
50.58557219878025
 40
50.58557219878025
 10
-6.48485539849325
 20
-6.400000558405879
 30
0.0
 10
-6.829187477823398
 20
-6.396192713455349
 30
0.0
 10
-7.518310251685638
 20
-6.388571951893294
 30
0.0
 10
-8.55174362756632
 20
-6.327140058324551
 30
0.0
 10
-9.585132890072705
 20
-6.229479395351246
 30
0.0
 10
-10.61845819592925
 20
-6.092604261879474
 30
0.0
 10
-11.65170923417604
 20
-5.918369578392864
 30
0.0
 10
-12.68486562108027
 20
-5.707550138762692
 30
0.0
 10
-13.71793081250425
 20
-5.461566097876709
 30
0.0
 10
-14.75089564724753
 20
-5.181923744306983
 30
0.0
 10
-15.78375308893698
 20
-4.870340065140206
 30
0.0
 10
-16.81650828579595
 20
-4.528770838921698
 30
0.0
 10
-17.84916400374885
 20
-4.159306492732365
 30
0.0
 10
-18.88173314500168
 20
-3.764247035977567
 30
0.0
 10
-19.91422043704057
 20
-3.346020193663069
 30
0.0
 10
-20.94663545384963
 20
-2.907205212088851
 30
0.0
 10
-21.97898964505104
 20
-2.450509229260072
 30
0.0
 10
-23.01129207113637
 20
-1.978740709392383
 30
0.0
 10
-24.04355275071831
 20
-1.494801212405453
 30
0.0
 10
-25.07578272942478
 20
-1.001669328408352
 30
0.0
 10
-26.10799106089525
 20
-0.5023766295644504
 30
0.0
 10
-27.14019232151027
 20
-0.0000018642377941
 30
0.0
 10
-28.1723889484053
 20
0.5023819441477217
 30
0.0
 10
-29.20460073961312
 20
1.001666867683644
 30
0.0
 10
-30.23682944401783
 20
1.494800244362882
 30
0.0
 10
-31.26909196410915
 20
1.978741584943593
 30
0.0
 10
-32.30139867268012
 20
2.450506078655894
 30
0.0
 10
-33.3337544932092
 20
2.907204377568743
 30
0.0
 10
-34.36616965906463
 20
3.346019003309256
 30
0.0
 10
-35.39865691353465
 20
3.764245933575286
 30
0.0
 10
-36.43122605743145
 20
4.15930539090797
 30
0.0
 10
-37.46388180168688
 20
4.528769648752807
 30
0.0
 10
-38.49663689195425
 20
4.870339223744918
 30
0.0
 10
-39.52948989480184
 20
5.181920151631798
 30
0.0
 10
-40.56244834185071
 20
5.461566167818666
 30
0.0
 10
-41.59551315006111
 20
5.707555155134255
 30
0.0
 10
-42.62867691404823
 20
5.918350516257945
 30
0.0
 10
-43.66193136586447
 20
6.092639129062354
 30
0.0
 10
-44.69525697804487
 20
6.229352014730221
 30
0.0
 10
-45.72864695858153
 20
6.327605735333623
 30
0.0
 10
-46.76207945823385
 20
6.386810864997815
 30
0.0
 10
-47.79553466693865
 20
6.406589339777071
 30
0.0
 10
-48.82898987412285
 20
6.386810864966857
 30
0.0
 10
-49.86242237834579
 20
6.327605735458121
 30
0.0
 10
-50.89581234205475
 20
6.229352014261511
 30
0.0
 10
-51.92913801732622
 20
6.092639130824326
 30
0.0
 10
-52.96238719464684
 20
5.918351359318434
 30
0.0
 10
-53.99554688836196
 20
5.70755731040318
 30
0.0
 10
-54.98164048167165
 20
5.47273251047734
 30
0.0
 10
-55.62142923496402
 20
5.301002914334574
 30
0.0
 10
-55.91825392690615
 20
5.217310704659996
 30
0.0
  0
SPLINE
  5
34DC
330
1F
100
AcDbEntity
  8
AM_0
100
AcDbSpline
210
0.0
220
0.0
230
1.0
 70
     8
 71
     3
 72
    11
 73
     7
 74
     0
 42
0.0000000001
 43
0.0000000001
 40
11.27226913003534
 40
11.27226913003534
 40
11.27226913003534
 40
11.2722691300354
 40
12.28301561507924
 40
13.29510212255852
 40
14.30984805882082
 40
15.18258238371378
 40
15.18258238371378
 40
15.18258238371378
 40
15.18258238371378
 10
-25.9520790556369
 20
-6.400000558405341
 30
0.0
 10
-26.29510181035751
 20
-6.368677098577478
 30
0.0
 10
-26.98050031365523
 20
-6.292844365586859
 30
0.0
 10
-28.00505879850746
 20
-6.139870985962753
 30
0.0
 10
-28.9773828664115
 20
-5.95716105687868
 30
0.0
 10
-29.60622499925409
 20
-5.816706496595449
 30
0.0
 10
-29.89601336033132
 20
-5.747325823310275
 30
0.0
  0
SPLINE
  5
34DD
330
1F
100
AcDbEntity
  8
AM_0
100
AcDbSpline
210
0.0
220
0.0
230
1.0
 70
     8
 71
     3
 72
    22
 73
    18
 74
     0
 42
0.0000000001
 43
0.0000000001
 40
17.17441611292
 40
17.17441611292
 40
17.17441611292
 40
17.17441611292
 40
17.38177636558528
 40
18.41823744757437
 40
19.46215659509824
 40
20.51397914882054
 40
21.57394542641293
 40
22.64209583141747
 40
23.71826625065247
 40
24.80210429862395
 40
25.8930771157021
 40
26.99048705697709
 40
28.09349309193389
 40
29.20112995599786
 40
30.31233024745139
 40
31.42594771747373
 40
32.5407895042663
 40
32.54078950426994
 40
32.54078950426994
 40
32.54078950426994
 10
-29.89646531636653
 20
-5.747246879359215
 30
0.0
 10
-29.96566548700449
 20
-5.732431507082535
 30
0.0
 10
-30.38048271756469
 20
-5.642189455185207
 30
0.0
 10
-31.14040450909312
 20
-5.461242395866502
 30
0.0
 10
-32.17336280843488
 20
-5.181595576254419
 30
0.0
 10
-33.20621585149426
 20
-4.870014866520177
 30
0.0
 10
-34.23897093015582
 20
-4.528445230711341
 30
0.0
 10
-35.2716266802219
 20
-4.158980995712459
 30
0.0
 10
-36.30419581248735
 20
-3.763921508185365
 30
0.0
 10
-37.33668310803753
 20
-3.345694676629735
 30
0.0
 10
-38.36909811983509
 20
-2.906879682999585
 30
0.0
 10
-39.40145232768044
 20
-2.450183737855568
 30
0.0
 10
-40.43375469178519
 20
-1.978415078375199
 30
0.0
 10
-41.46601560394163
 20
-1.494476105070922
 30
0.0
 10
-42.49824421424424
 20
-1.001342494841145
 30
0.0
 10
-43.53045581426232
 20
-0.5020571486036447
 30
0.0
 10
-44.21846180709046
 20
-0.1671970577861884
 30
0.0
 10
-44.56265380370411
 20
0.0003249624293195
 30
0.0
  0
SPLINE
  5
34DE
330
1F
100
AcDbEntity
  8
AM_0
100
AcDbSpline
210
0.0
220
0.0
230
1.0
 70
     8
 71
     3
 72
    17
 73
    13
 74
     0
 42
0.0000000001
 43
0.0000000001
 40
1.580019955310467
 40
1.580019955310467
 40
1.580019955310467
 40
1.580019955310467
 40
2.030549285115227
 40
3.082371838836284
 40
4.126290986361125
 40
5.162752068350215
 40
6.192395305374981
 40
7.216039564037012
 40
8.234688489606833
 40
9.249433870634691
 40
10.26152376260694
 40
11.27226744710342
 40
11.27226744710342
 40
11.27226744710342
 40
11.27226744710352
 10
-16.2177078165028
 20
-4.72338901658392
 30
0.0
 10
-16.36392138961884
 20
-4.772035993805358
 30
0.0
 10
-16.8523238460595
 20
-4.931482959381245
 30
0.0
 10
-17.68614795794424
 20
-5.181581229998438
 30
0.0
 10
-18.71896247185415
 20
-5.461658115284616
 30
0.0
 10
-19.75206131863275
 20
-5.707528434297022
 30
0.0
 10
-20.78520750163987
 20
-5.918366499244283
 30
0.0
 10
-21.81846624407201
 20
-6.092638663859993
 30
0.0
 10
-22.85179637138571
 20
-6.229350433744091
 30
0.0
 10
-23.88519084210486
 20
-6.327615870883409
 30
0.0
 10
-24.91862419606585
 20
-6.386802429247323
 30
0.0
 10
-25.60774698084947
 20
-6.400000595026496
 30
0.0
 10
-25.95207905563685
 20
-6.400000558405341
 30
0.0
  0
ELLIPSE
  5
34DF
330
1F
100
AcDbEntity
  8
AM_0
 48
0.5
100
AcDbEllipse
 10
3.604752156294763
 20
-10.11413564996486
 30
0.0
 11
-0.0002464390743974
 21
10.80910593841168
 31
0.0
210
0.0
220
0.0
230
1.0
 40
0.9453113015644609
 41
0.3605222752557893
 42
0.6210650811465404
  0
ELLIPSE
  5
34E0
330
1F
100
AcDbEntity
  8
AM_0
 48
0.5
100
AcDbEllipse
 10
-11.55835018081121
 20
10.74151962388544
 30
0.0
 11
0.0000000000073335
 21
15.43107808430961
 31
0.0
210
0.0
220
0.0
230
1.0
 40
0.9580869932432483
 41
3.652175978818651
 42
3.740670756498143
  0
ELLIPSE
  5
34E1
330
1F
100
AcDbEntity
  8
AM_0
 48
0.5
100
AcDbEllipse
 10
2.970343585396224
 20
7.683593191593831
 30
0.0
 11
0.0000000000000303
 21
12.89884643554666
 31
0.0
210
0.0
220
0.0
230
1.0
 40
0.958086993243244
 41
2.101163880028964
 42
2.509284810223861
  0
ELLIPSE
  5
34E2
330
1F
100
AcDbEntity
  8
AM_0
 48
0.5
100
AcDbEllipse
 10
-2.77088044579491
 20
-1.667932687312653
 30
0.0
 11
-0.8782166049565077
 21
0.5449797782120589
 31
0.0
210
0.0
220
0.0
230
1.0
 40
0.5102162647256155
 41
4.509432783673939
 42
7.652873125003448
  0
ELLIPSE
  5
34E3
330
1F
100
AcDbEntity
  8
AM_0
 48
0.5
100
AcDbEllipse
 10
-2.77088044579491
 20
-1.667932687312653
 30
0.0
 11
-0.1728499972476142
 21
1.051262616591576
 31
0.0
210
0.0
220
0.0
230
1.0
 40
0.4801991957719966
 41
1.815005129525507
 42
4.950347019237482
  0
ELLIPSE
  5
34E4
330
1F
100
AcDbEntity
  8
AM_0
 48
0.5
100
AcDbEllipse
 10
5.398105462300812
 20
-1.422632394343308
 30
0.0
 11
9.715641694801414
 21
1.418964605280083
 31
0.0
210
0.0
220
0.0
230
0.9999999999999998
 40
0.6841140315440092
 41
3.12355343948729
 42
3.75303754439055
  0
LINE
  5
34E5
330
1F
100
AcDbEntity
  8
AM_11
 48
0.5
100
AcDbLine
 10
-99.29970599848502
 20
6.399999441596492
 30
0.0
 11
-84.58569315756234
 21
6.399999441596129
 31
0.0
  0
LINE
  5
34E6
330
1F
100
AcDbEntity
  8
AM_11
 48
0.5
100
AcDbLine
 10
-99.79486288358971
 20
-6.400000558403459
 30
0.0
 11
-84.58569315756262
 21
-6.400000558403871
 31
0.0
  0
SPLINE
  5
34E7
330
1F
100
AcDbEntity
  8
AM_0
100
AcDbSpline
210
0.0
220
0.0
230
1.0
 70
     8
 71
     3
 72
    23
 73
    19
 74
     0
 42
0.0000000001
 43
0.0000000001
 40
16.03460024169435
 40
16.03460024169435
 40
16.03460024169435
 40
16.03460024169435
 40
16.35212704903564
 40
17.38177054169784
 40
18.41822485651776
 40
19.46214173629503
 40
20.51396345435107
 40
21.57393551351153
 40
22.64208202342361
 40
23.7182574881101
 40
24.80209208578934
 40
25.89306333925047
 40
26.99048218457928
 40
28.09348763352352
 40
29.20111863782268
 40
30.31232390128032
 40
31.42594612798585
 40
32.5407912310448
 40
32.5407912310486
 40
32.5407912310486
 40
32.5407912310486
 10
-99.29970599848502
 20
6.399999441596492
 30
0.0
 10
-99.29970599848502
 20
6.399999441596492
 30
0.0
 10
-99.29970599848502
 20
6.399999441596492
 30
0.0
 10
-95.66004307097527
 20
6.100873553256306
 30
0.0
 10
-94.63350680863111
 20
5.826754600759485
 30
0.0
 10
-93.60792404145241
 20
5.51896470810909
 30
0.0
 10
-92.58323416693549
 20
5.179285206214587
 30
0.0
 10
-91.55940081702095
 20
4.809609815903446
 30
0.0
 10
-90.53636481659481
 20
4.412051757603662
 30
0.0
 10
-89.51405492531844
 20
3.988924719492755
 30
0.0
 10
-88.49241305187202
 20
3.542624845317678
 30
0.0
 10
-87.47135728752207
 20
3.075749050056047
 30
0.0
 10
-86.45080488711704
 20
2.591011017542842
 30
0.0
 10
-85.43068785416108
 20
2.091197788249807
 30
0.0
 10
-84.41092083670106
 20
1.579215707658645
 30
0.0
 10
-83.39140938271404
 20
1.058054375500723
 30
0.0
 10
-82.37207047518818
 20
0.5307337805703869
 30
0.0
 10
-81.69269373288761
 20
0.177194155261716
 30
0.0
 10
-81.35282009150884
 20
0.0003249624278932
 30
0.0
  0
SPLINE
  5
34E8
330
1F
100
AcDbEntity
  8
AM_0
100
AcDbSpline
210
0.0
220
0.0
230
1.0
 70
     8
 71
     3
 72
    22
 73
    18
 74
     0
 42
0.0000000001
 43
0.0000000001
 40
17.17441611292
 40
17.17441611292
 40
17.17441611292
 40
17.17441611292
 40
17.38177636558528
 40
18.41823744757437
 40
19.46215659509824
 40
20.51397914882054
 40
21.57394542641293
 40
22.64209583141747
 40
23.71826625065247
 40
24.80210429862395
 40
25.8930771157021
 40
26.99048705697709
 40
28.09349309193389
 40
29.20112995599786
 40
30.31233024745139
 40
31.42594771747373
 40
32.5407895042663
 40
32.54078950426994
 40
32.54078950426994
 40
32.54078950426994
 10
-66.68648970143351
 20
-5.747246879358331
 30
0.0
 10
-66.75568987207146
 20
-5.73243150708166
 30
0.0
 10
-67.17050710263169
 20
-5.642189455184329
 30
0.0
 10
-67.93042889416011
 20
-5.461242395865627
 30
0.0
 10
-68.96338719350189
 20
-5.181595576253538
 30
0.0
 10
-69.99624023656124
 20
-4.870014866519298
 30
0.0
 10
-71.0289953152228
 20
-4.52844523071046
 30
0.0
 10
-72.06165106528891
 20
-4.158980995711578
 30
0.0
 10
-73.09422019755439
 20
-3.763921508184487
 30
0.0
 10
-74.12670749310457
 20
-3.345694676628856
 30
0.0
 10
-75.15912250490216
 20
-2.90687968299871
 30
0.0
 10
-76.19147671274738
 20
-2.450183737854693
 30
0.0
 10
-77.22377907685211
 20
-1.978415078374322
 30
0.0
 10
-78.25603998900854
 20
-1.494476105070044
 30
0.0
 10
-79.28826859931124
 20
-1.001342494840267
 30
0.0
 10
-80.32048019932931
 20
-0.5020571486027674
 30
0.0
 10
-81.00848619215746
 20
-0.1671970577853112
 30
0.0
 10
-81.3526781887711
 20
0.0003249624301967
 30
0.0
  0
SPLINE
  5
34E9
330
1F
100
AcDbEntity
  8
AM_0
100
AcDbSpline
210
0.0
220
0.0
230
1.0
 70
     8
 71
     3
 72
    46
 73
    42
 74
     0
 42
0.0000000001
 43
0.0000000001
 40
0.0
 40
0.0
 40
0.0
 40
0.0
 40
1.348332046947654
 40
2.024828967632893
 40
2.703918159304094
 40
3.386347665078122
 40
4.072776489761951
 40
4.763750544421345
 40
5.459696642770595
 40
6.160921452191748
 40
6.867565637253344
 40
7.579665907256597
 40
8.297112853413899
 40
9.019671552060666
 40
9.746986763446125
 40
10.47859339096365
 40
11.21393074760088
 40
11.95235532364327
 40
12.69315551794651
 40
13.43556823304427
 40
14.1787950170388
 40
14.92202180103393
 40
15.66443451613169
 40
16.40523471043432
 40
17.14365928647669
 40
17.87899664311455
 40
18.61060327063121
 40
19.33791848201689
 40
20.06048192311554
 40
20.77792886927282
 40
21.49002913927608
 40
22.19667332433747
 40
22.89788836015233
 40
23.59383445850157
 40
24.28480851316097
 40
24.97123685067575
 40
25.65366676154837
 40
26.33276604526151
 40
27.00926273560554
 40
27.68398960851752
 40
28.35781868496899
 40
28.35781868496899
 40
28.35781868496899
 40
28.35781868496899
 10
-40.38196854269874
 20
-6.400000558405081
 30
0.0
 10
-41.07112498600147
 20
-6.385420863679211
 30
0.0
 10
-42.10605101389586
 20
-6.363526117287165
 30
0.0
 10
-43.48223728448647
 20
-6.228724186030363
 30
0.0
 10
-44.51557369235132
 20
-6.092807980420221
 30
0.0
 10
-45.54882177455231
 20
-5.918314659943123
 30
0.0
 10
-46.58197880916022
 20
-5.707564525484512
 30
0.0
 10
-47.61503948864471
 20
-5.461565142229471
 30
0.0
 10
-48.64800208278436
 20
-5.181919040000444
 30
0.0
 10
-49.68086199453088
 20
-4.870343287261603
 30
0.0
 10
-50.7136212883234
 20
-4.528770392377294
 30
0.0
 10
-51.74627718635345
 20
-4.159306613753579
 30
0.0
 10
-52.77884627879059
 20
-3.764247003160211
 30
0.0
 10
-53.81133358412696
 20
-3.346020202681424
 30
0.0
 10
-54.84374859704636
 20
-2.907205209132785
 30
0.0
 10
-55.87610279039572
 20
-2.450509232000532
 30
0.0
 10
-56.90840521177944
 20
-1.978740701349676
 30
0.0
 10
-57.94066590810474
 20
-1.494801241982777
 30
0.0
 10
-58.97289582427763
 20
-1.001669217703376
 30
0.0
 10
-60.0051043897859
 20
-0.502377043819343
 30
0.0
 10
-61.03730427836671
 20
-0.0000005585061605
 30
0.0
 10
-62.06950416672074
 20
0.5023759274175072
 30
0.0
 10
-63.10171273290918
 20
1.001668099470967
 30
0.0
 10
-64.13394264659598
 20
1.494800130440304
 30
0.0
 10
-65.16620335213997
 20
1.97873956499667
 30
0.0
 10
-66.19850573934171
 20
2.450508187642454
 30
0.0
 10
-67.23086005927858
 20
2.907203824085162
 30
0.0
 10
-68.26327684837846
 20
3.346021031812613
 30
0.0
 10
-69.29576816546242
 20
3.764244032488898
 30
0.0
 10
-70.32833909984457
 20
4.15930566881266
 30
0.0
 10
-71.36099497383148
 20
4.528769557371505
 30
0.0
 10
-72.39375002516616
 20
4.870339313492818
 30
0.0
 10
-73.42660305517945
 20
5.18191988604462
 30
0.0
 10
-74.45956143283513
 20
5.461567130658578
 30
0.0
 10
-75.49262151443834
 20
5.707550419342481
 30
0.0
 10
-76.52577930649376
 20
5.918361679644933
 30
0.0
 10
-77.55903398296371
 20
6.092605821422908
 30
0.0
 10
-78.59236506630802
 20
6.229478851800508
 30
0.0
 10
-79.6257600813436
 20
6.327130551772227
 30
0.0
 10
-80.65919260784951
 20
6.38857902279845
 30
0.0
 10
-81.34831567030914
 20
6.396194325283952
 30
0.0
 10
-81.69264781089092
 20
6.399999441596052
 30
0.0
  0
LINE
  5
34EA
330
1F
100
AcDbEntity
  8
AM_0
100
AcDbLine
 10
-84.58569315756234
 20
6.399999441596129
 30
0.0
 11
-60.21874589779574
 21
6.400908677743548
 31
0.0
  0
LINE
  5
34EB
330
1F
100
AcDbEntity
  8
AM_0
 48
0.5
100
AcDbLine
 10
-84.58570095453078
 20
-6.400000558403786
 30
0.0
 11
-62.74210057254141
 21
-6.400000558404311
 31
0.0
  0
SPLINE
  5
34EC
330
1F
100
AcDbEntity
  8
AM_0
100
AcDbSpline
210
0.0
220
0.0
230
1.0
 70
     8
 71
     3
 72
    55
 73
    51
 74
     0
 42
0.0000000001
 43
0.0000000001
 40
0.0
 40
0.0
 40
0.0
 40
0.0
 40
1.010743684496582
 40
2.022833576467832
 40
3.037578957496688
 40
4.056212745003489
 40
5.079857003664532
 40
6.109500240690281
 40
7.145961322679372
 40
8.189895241603872
 40
9.241717795325891
 40
10.30168407291828
 40
11.36983447792315
 40
12.44600489715814
 40
13.52984294512926
 40
14.62081576220742
 40
15.7182257034828
 40
16.82123173843959
 40
17.92886860250316
 40
19.0400688939571
 40
20.15368796660465
 40
21.26852814259644
 40
22.38336992938901
 40
23.49698739941135
 40
24.6081876908653
 40
25.71582455492886
 40
26.81883757994213
 40
27.91624752121713
 40
29.00722033829659
 40
30.09105838626677
 40
31.16722880550176
 40
32.23537921050758
 40
33.29534548809967
 40
34.347168041821
 40
35.39108718934584
 40
36.42754827133493
 40
37.45720575381954
 40
38.48085062012849
 40
39.49948440763516
 40
40.51422944315121
 40
41.52631975251916
 40
42.53706336719636
 40
43.54780698187354
 40
44.55989729124051
 40
45.57464232675757
 40
46.59327611426424
 40
47.6169209805722
 40
48.64656348684535
 40
49.68302456883444
 40
50.58557219878025
 40
50.58557219878025
 40
50.58557219878025
 40
50.58557219878025
 10
-43.27487978356022
 20
-6.400000558405006
 30
0.0
 10
-43.61921186289037
 20
-6.396192713454468
 30
0.0
 10
-44.30833463675261
 20
-6.388571951892411
 30
0.0
 10
-45.34176801263329
 20
-6.327140058323669
 30
0.0
 10
-46.37515727513967
 20
-6.229479395350364
 30
0.0
 10
-47.40848258099624
 20
-6.092604261878599
 30
0.0
 10
-48.44173361924302
 20
-5.918369578391991
 30
0.0
 10
-49.47489000614726
 20
-5.707550138761816
 30
0.0
 10
-50.50795519757123
 20
-5.461566097875834
 30
0.0
 10
-51.54092003231451
 20
-5.181923744306105
 30
0.0
 10
-52.57377747400398
 20
-4.87034006513933
 30
0.0
 10
-53.60653267086297
 20
-4.528770838920823
 30
0.0
 10
-54.63918838881585
 20
-4.159306492731484
 30
0.0
 10
-55.67175753006864
 20
-3.764247035976691
 30
0.0
 10
-56.70424482210758
 20
-3.346020193662191
 30
0.0
 10
-57.73665983891663
 20
-2.907205212087973
 30
0.0
 10
-58.76901403011805
 20
-2.450509229259195
 30
0.0
 10
-59.80131645620335
 20
-1.978740709391507
 30
0.0
 10
-60.83357713578532
 20
-1.494801212404575
 30
0.0
 10
-61.86580711449174
 20
-1.001669328407475
 30
0.0
 10
-62.89801544596224
 20
-0.5023766295635732
 30
0.0
 10
-63.93021670657727
 20
-0.0000018642369169
 30
0.0
 10
-64.96241333347228
 20
0.502381944148599
 30
0.0
 10
-65.99462512468014
 20
1.001666867684521
 30
0.0
 10
-67.02685382908487
 20
1.494800244363759
 30
0.0
 10
-68.05911634917618
 20
1.97874158494447
 30
0.0
 10
-69.09142305774714
 20
2.450506078656772
 30
0.0
 10
-70.12377887827613
 20
2.907204377569621
 30
0.0
 10
-71.15619404413155
 20
3.34601900331013
 30
0.0
 10
-72.18868129860161
 20
3.764245933576162
 30
0.0
 10
-73.22125044249843
 20
4.159305390908846
 30
0.0
 10
-74.25390618675388
 20
4.528769648753683
 30
0.0
 10
-75.28666127702123
 20
4.870339223745797
 30
0.0
 10
-76.31951427986883
 20
5.181920151632681
 30
0.0
 10
-77.35247272691771
 20
5.461566167819548
 30
0.0
 10
-78.38553753512812
 20
5.707555155135136
 30
0.0
 10
-79.41870129911524
 20
5.918350516258819
 30
0.0
 10
-80.45195575093149
 20
6.092639129063227
 30
0.0
 10
-81.4852813631119
 20
6.229352014731094
 30
0.0
 10
-82.51867134364854
 20
6.327605735334498
 30
0.0
 10
-83.55210384330085
 20
6.38681086499869
 30
0.0
 10
-84.58555905200563
 20
6.406589339777945
 30
0.0
 10
-85.61901425918986
 20
6.386810864967737
 30
0.0
 10
-86.65244676341279
 20
6.327605735459004
 30
0.0
 10
-87.68583672712177
 20
6.229352014262393
 30
0.0
 10
-88.71916240239324
 20
6.092639130825209
 30
0.0
 10
-89.75241157971383
 20
5.918351359319309
 30
0.0
 10
-90.78557127342893
 20
5.707557310404054
 30
0.0
 10
-91.77166486673863
 20
5.472732510478214
 30
0.0
 10
-92.411453620031
 20
5.301002914335449
 30
0.0
 10
-92.70846869403332
 20
5.217375939944896
 30
0.0
  0
DIMENSION
  5
3582
330
1F
100
AcDbEntity
  8
AM_5
100
AcDbDimension
  2
*D9
 10
-0.7147729802001626
 20
-1.963810107397344
 30
0.0
 11
33.35843671180082
 21
-0.0000342288871327
 31
0.0
 70
    34
  1
<>
 51
359.9999999999998
  3
AM_JIS$2
100
AcDb2LineAngularDimension
 13
0.0000000027005456
 23
0.0000000000000001
 33
0.0
 14
-0.7147573325028774
 24
1.963779655178785
 34
0.0
 15
0.0000000027004887
 25
0.0000000000001562
 35
0.0
 16
33.47671392965409
 26
-14.44047201187211
 36
0.0
1001
GENIUS_GENDTOL_13
1000

1000
h7
1000

1040
0.0
1001
ACAD
1000
DSTYLE
1002
{
1070
   271
1070
     0
1002
}
  0
ELLIPSE
  5
367F
330
1F
100
AcDbEntity
  8
AM_11
 48
0.5
100
AcDbEllipse
 10
-169.2742953900125
 20
-25.83924271717626
 30
0.0
 11
-28.85782559712684
 21
0.0000000000017703
 31
0.0
210
0.0
220
0.0
230
1.0
 40
0.9900000000000011
 41
4.271664206181739
 42
4.702883776251653
  0
ELLIPSE
  5
3680
330
1F
100
AcDbEntity
  8
AM_11
 48
0.5
100
AcDbEllipse
 10
-120.0319263482985
 20
-25.839242717176
 30
0.0
 11
-28.85782559712684
 21
0.0000000000017703
 31
0.0
210
0.0
220
0.0
230
1.0
 40
0.9900000000000011
 41
4.271664206181739
 42
5.153113667165048
  0
ELLIPSE
  5
3681
330
1F
100
AcDbEntity
  8
AM_11
 48
0.5
100
AcDbEllipse
 10
-144.6531384695107
 20
-25.83924271717582
 30
0.0
 11
-28.85782559712679
 21
0.0000000000015012
 31
0.0
210
0.0
220
0.0
230
1.0
 40
0.9900000000000032
 41
4.271664206181728
 42
5.153113667165039
  0
ELLIPSE
  5
3682
330
1F
100
AcDbEntity
  8
AM_11
 48
0.5
100
AcDbEllipse
 10
-169.274295390012
 20
25.83926089152711
 30
0.0
 11
-28.85782559712688
 21
0.0000000000010911
 31
0.0
210
0.0
220
0.0
230
1.0
 40
0.9899999999999995
 41
1.580301530928017
 42
2.011520147323624
  0
ELLIPSE
  5
3683
330
1F
100
AcDbEntity
  8
AM_11
 48
0.5
100
AcDbEllipse
 10
-120.0319263482981
 20
25.83926089152738
 30
0.0
 11
-28.85782559712688
 21
0.0000000000010911
 31
0.0
210
0.0
220
0.0
230
1.0
 40
0.9899999999999995
 41
1.130070686340335
 42
2.011520147323624
  0
ELLIPSE
  5
3684
330
1F
100
AcDbEntity
  8
AM_11
 48
0.5
100
AcDbEllipse
 10
-144.6531384695102
 20
25.83926089152757
 30
0.0
 11
-28.85782559712687
 21
0.0000000000002773
 31
0.0
210
0.0
220
0.0
230
1.0
 40
0.9900000000000002
 41
1.130070686340306
 42
2.011520147323597
  0
ELLIPSE
  5
3685
330
1F
100
AcDbEntity
  8
AM_11
 48
0.5
100
AcDbEllipse
 10
-95.41076942779618
 20
-25.83924271717586
 30
0.0
 11
-28.85782559712679
 21
0.0000000000015012
 31
0.0
210
0.0
220
0.0
230
1.0
 40
0.9900000000000032
 41
4.271664206181728
 42
5.153113667165039
  0
ELLIPSE
  5
3686
330
1F
100
AcDbEntity
  8
AM_11
 48
0.5
100
AcDbEllipse
 10
-95.41076942779575
 20
25.83926089152753
 30
0.0
 11
-28.85782559712687
 21
0.0000000000002773
 31
0.0
210
0.0
220
0.0
230
1.0
 40
0.9900000000000002
 41
1.130070686340306
 42
2.011520147323597
  0
ELLIPSE
  5
3687
330
1F
100
AcDbEntity
  8
AM_11
 48
0.5
100
AcDbEllipse
 10
-70.78955730658406
 20
-25.83924271717604
 30
0.0
 11
-28.85782559712684
 21
0.0000000000017703
 31
0.0
210
0.0
220
0.0
230
1.0
 40
0.9900000000000011
 41
4.271664206181739
 42
5.153113667165048
  0
ELLIPSE
  5
3688
330
1F
100
AcDbEntity
  8
AM_11
 48
0.5
100
AcDbEllipse
 10
-70.78955730658363
 20
25.83926089152734
 30
0.0
 11
-28.85782559712688
 21
0.0000000000010911
 31
0.0
210
0.0
220
0.0
230
1.0
 40
0.9899999999999995
 41
1.130070686340335
 42
2.011520147323624
  0
ELLIPSE
  5
3689
330
1F
100
AcDbEntity
  8
AM_11
 48
0.5
100
AcDbEllipse
 10
-46.16840038608238
 20
-25.8392427171754
 30
0.0
 11
-28.85782559712679
 21
0.0000000000015012
 31
0.0
210
0.0
220
0.0
230
1.0
 40
0.9900000000000032
 41
4.271664206181728
 42
5.153113667165039
  0
ELLIPSE
  5
368A
330
1F
100
AcDbEntity
  8
AM_11
 48
0.5
100
AcDbEllipse
 10
-46.16840038608197
 20
25.83926089152798
 30
0.0
 11
-28.85782559712687
 21
0.0000000000002773
 31
0.0
210
0.0
220
0.0
230
1.0
 40
0.9900000000000002
 41
1.130070686340306
 42
2.011520147323597
  0
ELLIPSE
  5
368B
330
1F
100
AcDbEntity
  8
AM_11
 48
0.5
100
AcDbEllipse
 10
-21.54718826486981
 20
25.83926089152779
 30
0.0
 11
-28.85782559712688
 21
0.0000000000010911
 31
0.0
210
0.0
220
0.0
230
1.0
 40
0.9899999999999995
 41
1.130070686340335
 42
2.011520147323624
  0
ELLIPSE
  5
368C
330
1F
100
AcDbEntity
  8
AM_11
 48
0.5
100
AcDbEllipse
 10
-21.54718826487027
 20
-25.83924271717558
 30
0.0
 11
-28.85782559712684
 21
0.0000000000017703
 31
0.0
210
0.0
220
0.0
230
1.0
 40
0.9900000000000011
 41
4.271664206181739
 42
5.153113667165048
  0
ELLIPSE
  5
368D
330
1F
100
AcDbEntity
  8
AM_11
 48
0.5
100
AcDbEllipse
 10
3.074023856342307
 20
25.83926089152758
 30
0.0
 11
-28.85782559712738
 21
0.0000000000269591
 31
0.0
210
0.0
220
0.0
230
1.0
 40
0.9899999999999861
 41
1.130070686341231
 42
1.291800737381917
  0
VIEWPORT
  5
110
330
101
100
AcDbEntity
 67
     1
  8
0
100
AcDbViewport
 10
420.5
 20
297.0
 30
0.0
 40
948.9782706766916
 41
628.452
 68
     1
 69
     1
1001
ACAD
1000
MVIEW
1002
{
1070
    16
1010
0.0
1020
0.0
1030
0.0
1010
0.0
1020
0.0
1030
1.0
1040
0.0
1040
628.452
1040
420.5
1040
297.0
1040
50.0
1040
0.0
1040
0.0
1070
     0
1070
   100
1070
     1
1070
     1
1070
     0
1070
     0
1070
     0
1070
     0
1040
0.0
1040
0.0
1040
0.0
1040
10.0
1040
10.0
1040
10.0
1040
10.0
1070
     0
1002
{
1002
}
1002
}
  0
ENDSEC
  0
SECTION
  2
OBJECTS
  0
DICTIONARY
  5
C
330
0
100
AcDbDictionary
  3
ACAD_GROUP
350
D
  3
ACAD_LAYOUT
350
1A
  3
ACAD_MLINESTYLE
350
17
  3
ACAD_PLOTSETTINGS
350
19
  3
ACAD_PLOTSTYLENAME
350
E
  3
ACDBVARIABLEDICTIONARY
350
34
  3
ACMDICTIONARY
350
43
  3
AMG
350
2B
  3
AMGSNAPSETTINGS
350
6E
  3
DWGPROPS
350
36A7
  3
ACDBHEADERROUNDTRIPXREC
350
36B4
  0
DICTIONARY
  5
74
330
1F
100
AcDbDictionary
280
     1
  3
ACAD_INDEX
360
36A9
  3
ACAD_LAYOUTSELFREF
360
36D7
  0
DICTIONARY
  5
36DC
330
101
100
AcDbDictionary
280
     1
  3
ACAD_LAYOUTSELFREF
360
36DD
  0
DICTIONARY
  5
D
102
{ACAD_REACTORS
330
C
102
}
330
C
100
AcDbDictionary
  0
DICTIONARY
  5
1A
102
{ACAD_REACTORS
330
C
102
}
330
C
100
AcDbDictionary
  0
DICTIONARY
  5
17
102
{ACAD_REACTORS
330
C
102
}
330
C
100
AcDbDictionary
  3
STANDARD
350
18
  0
DICTIONARY
  5
19
102
{ACAD_REACTORS
330
C
102
}
330
C
100
AcDbDictionary
  0
ACDBDICTIONARYWDFLT
  5
E
102
{ACAD_REACTORS
330
C
102
}
330
C
100
AcDbDictionary
281
     1
  3
Normal
350
F
100
AcDbDictionaryWithDefault
340
F
  0
DICTIONARY
  5
34
102
{ACAD_REACTORS
330
C
102
}
330
C
100
AcDbDictionary
  3
INDEXCTL
350
35
  3
SORTENTS
350
B5E
  0
DICTIONARY
  5
43
102
{ACAD_REACTORS
330
C
102
}
330
C
100
AcDbDictionary
  3
ACMSTDDICTIONARY
350
260
  0
DICTIONARY
  5
2B
102
{ACAD_REACTORS
330
C
102
}
330
C
100
AcDbDictionary
  3
ACMGSETTINGS
350
2C
  0
DICTIONARY
  5
6E
102
{ACAD_REACTORS
330
C
102
}
330
C
100
AcDbDictionary
  0
XRECORD
  5
36A7
102
{ACAD_REACTORS
330
C
102
}
330
C
100
AcDbXrecord
  1
DWGPROPS COOKIE
  2

  3

  4

  6

  7

  8

  9

300
AmdtFileType=82
301
=
302
=
303
=
304
=
305
=
306
=
307
=
308
=
309
=
 40
0.0734286574074074
 41
2452800.443498622
 42
2452948.659448785
  1

 90
        1
  0
DICTIONARY
  5
36B4
102
{ACAD_REACTORS
330
C
102
}
330
C
100
AcDbDictionary
  3
TSTACKALIGN
350
36B5
  3
TSTACKSIZE
350
36B6
  3
HYPERLINKBASE
350
36B7
  3
STYLESHEET
350
36B8
  3
LAYOUTDICT
350
36B9
  3
PLOTSETDICT
350
36BA
  3
PLOTSTYLNAMDICT
350
36BB
  3
LWETCUNION
350
36BC
  3
INSUNITS
350
36BD
  3
CEPSNTYPE
350
36BE
  3
FINGERPRINTGUID
350
36BF
  3
VERSIONGUID
350
36C0
  3
PSVPSCALE
350
36C1
  3
DIMSTYLEDATA
350
36C2
  3
PUCSORTHOREF
350
36C3
  3
PUCSORTHOVIEW
350
36C4
  3
PUCSBASE
350
36C5
  3
PUCSORGTOP
350
36C6
  3
PUCSORGBOTTOM
350
36C7
  3
PUCSORGLEFT
350
36C8
  3
PUCSORGRIGHT
350
36C9
  3
PUCSORGFRONT
350
36CA
  3
PUCSORGBACK
350
36CB
  3
UCSORTHOREF
350
36CC
  3
UCSORTHOVIEW
350
36CD
  3
UCSBASE
350
36CE
  3
UCSORGTOP
350
36CF
  3
UCSORGBOTTOM
350
36D0
  3
UCSORGLEFT
350
36D1
  3
UCSORGRIGHT
350
36D2
  3
UCSORGFRONT
350
36D3
  3
UCSORGBACK
350
36D4
  0
DICTIONARY
  5
36A9
102
{ACAD_REACTORS
330
74
102
}
330
74
100
AcDbDictionary
  3
*A1
350
36AA
  0
XRECORD
  5
36D7
102
{ACAD_REACTORS
330
74
102
}
330
74
100
AcDbXrecord
340
1F
  0
XRECORD
  5
36DD
102
{ACAD_REACTORS
330
36DC
102
}
330
36DC
100
AcDbXrecord
340
101
  0
MLINESTYLE
  5
18
102
{ACAD_REACTORS
330
17
102
}
330
17
100
AcDbMlineStyle
  2
STANDARD
 70
     0
  3

 62
   256
 51
90.0
 52
90.0
 71
     2
 49
0.5
 62
   256
  6
BYLAYER
 49
-0.5
 62
   256
  6
BYLAYER
  0
ACDBPLACEHOLDER
  5
F
102
{ACAD_REACTORS
330
E
102
}
330
E
100
AcDbPlaceHolder
280
     0
  0
DICTIONARYVAR
  5
35
102
{ACAD_REACTORS
330
34
102
}
330
34
100
DictionaryVariables
280
     0
  1
1
  0
DICTIONARYVAR
  5
B5E
102
{ACAD_REACTORS
330
34
102
}
330
34
100
DictionaryVariables
280
     0
  1
96
  0
DICTIONARY
  5
260
102
{ACAD_REACTORS
330
43
102
}
330
43
100
AcDbDictionary
  0
DICTIONARY
  5
2C
102
{ACAD_REACTORS
330
2B
102
}
330
2B
100
AcDbDictionary
  3
DWGSETTINGS
350
2D
  0
XRECORD
  5
36B5
102
{ACAD_REACTORS
330
36B4
102
}
330
36B4
100
AcDbXrecord
 90
        1
  0
XRECORD
  5
36B6
102
{ACAD_REACTORS
330
36B4
102
}
330
36B4
100
AcDbXrecord
 90
       70
  0
XRECORD
  5
36B7
102
{ACAD_REACTORS
330
36B4
102
}
330
36B4
100
AcDbXrecord
  1

  0
XRECORD
  5
36B8
102
{ACAD_REACTORS
330
36B4
102
}
330
36B4
100
AcDbXrecord
  1
ASAMI.ctb
  0
XRECORD
  5
36B9
102
{ACAD_REACTORS
330
36B4
102
}
330
36B4
100
AcDbXrecord
340
1A
  0
XRECORD
  5
36BA
102
{ACAD_REACTORS
330
36B4
102
}
330
36B4
100
AcDbXrecord
340
19
  0
XRECORD
  5
36BB
102
{ACAD_REACTORS
330
36B4
102
}
330
36B4
100
AcDbXrecord
340
E
  0
XRECORD
  5
36BC
102
{ACAD_REACTORS
330
36B4
102
}
330
36B4
100
AcDbXrecord
 90
    10781
  0
XRECORD
  5
36BD
102
{ACAD_REACTORS
330
36B4
102
}
330
36B4
100
AcDbXrecord
 90
        4
  0
XRECORD
  5
36BE
102
{ACAD_REACTORS
330
36B4
102
}
330
36B4
100
AcDbXrecord
 90
        0
  0
XRECORD
  5
36BF
102
{ACAD_REACTORS
330
36B4
102
}
330
36B4
100
AcDbXrecord
  1
{AFB28963-8C59-40AE-9337-C84526B81ACE}
  0
XRECORD
  5
36C0
102
{ACAD_REACTORS
330
36B4
102
}
330
36B4
100
AcDbXrecord
  1
{DE3267ED-69FF-4721-869C-9115CF60B742}
  0
XRECORD
  5
36C1
102
{ACAD_REACTORS
330
36B4
102
}
330
36B4
100
AcDbXrecord
 40
0.0
  0
XRECORD
  5
36C2
102
{ACAD_REACTORS
330
36B4
102
}
330
36B4
100
AcDbXrecord
1000
DSTYLE
1002
{
1070
    79
 70
     2
1070
   341
340
59
1070
   342
340
59
1070
   371
 70
    -1
1070
   372
 70
    -1
1002
}
  0
XRECORD
  5
36C3
102
{ACAD_REACTORS
330
36B4
102
}
330
36B4
100
AcDbXrecord
340
0
  0
XRECORD
  5
36C4
102
{ACAD_REACTORS
330
36B4
102
}
330
36B4
100
AcDbXrecord
 70
     0
  0
XRECORD
  5
36C5
102
{ACAD_REACTORS
330
36B4
102
}
330
36B4
100
AcDbXrecord
340
0
  0
XRECORD
  5
36C6
102
{ACAD_REACTORS
330
36B4
102
}
330
36B4
100
AcDbXrecord
 10
0.0
 20
0.0
 30
0.0
  0
XRECORD
  5
36C7
102
{ACAD_REACTORS
330
36B4
102
}
330
36B4
100
AcDbXrecord
 10
0.0
 20
0.0
 30
0.0
  0
XRECORD
  5
36C8
102
{ACAD_REACTORS
330
36B4
102
}
330
36B4
100
AcDbXrecord
 10
0.0
 20
0.0
 30
0.0
  0
XRECORD
  5
36C9
102
{ACAD_REACTORS
330
36B4
102
}
330
36B4
100
AcDbXrecord
 10
0.0
 20
0.0
 30
0.0
  0
XRECORD
  5
36CA
102
{ACAD_REACTORS
330
36B4
102
}
330
36B4
100
AcDbXrecord
 10
0.0
 20
0.0
 30
0.0
  0
XRECORD
  5
36CB
102
{ACAD_REACTORS
330
36B4
102
}
330
36B4
100
AcDbXrecord
 10
0.0
 20
0.0
 30
0.0
  0
XRECORD
  5
36CC
102
{ACAD_REACTORS
330
36B4
102
}
330
36B4
100
AcDbXrecord
340
0
  0
XRECORD
  5
36CD
102
{ACAD_REACTORS
330
36B4
102
}
330
36B4
100
AcDbXrecord
 70
     0
  0
XRECORD
  5
36CE
102
{ACAD_REACTORS
330
36B4
102
}
330
36B4
100
AcDbXrecord
340
0
  0
XRECORD
  5
36CF
102
{ACAD_REACTORS
330
36B4
102
}
330
36B4
100
AcDbXrecord
 10
0.0
 20
0.0
 30
0.0
  0
XRECORD
  5
36D0
102
{ACAD_REACTORS
330
36B4
102
}
330
36B4
100
AcDbXrecord
 10
0.0
 20
0.0
 30
0.0
  0
XRECORD
  5
36D1
102
{ACAD_REACTORS
330
36B4
102
}
330
36B4
100
AcDbXrecord
 10
0.0
 20
0.0
 30
0.0
  0
XRECORD
  5
36D2
102
{ACAD_REACTORS
330
36B4
102
}
330
36B4
100
AcDbXrecord
 10
0.0
 20
0.0
 30
0.0
  0
XRECORD
  5
36D3
102
{ACAD_REACTORS
330
36B4
102
}
330
36B4
100
AcDbXrecord
 10
0.0
 20
0.0
 30
0.0
  0
XRECORD
  5
36D4
102
{ACAD_REACTORS
330
36B4
102
}
330
36B4
100
AcDbXrecord
 10
0.0
 20
0.0
 30
0.0
  0
LAYER_INDEX
  5
36AA
102
{ACAD_REACTORS
330
36A9
102
}
330
36A9
100
AcDbIndex
 40
2453151.666657789
100
AcDbLayerIndex
  8
0
360
36AB
 90
        0
  8
AM_0
360
36AC
 90
       55
  8
AM_7
360
36AD
 90
        1
  8
AM_11
360
36AE
 90
       21
  8
AM_5
360
36AF
 90
        5
  8
Defpoints
360
36B0
 90
        0
  8
AM_6
360
36B1
 90
        1
  8
AM_CL
360
36B2
 90
        0
  0
XRECORD
  5
2D
102
{ACAD_REACTORS
330
2C
102
}
330
2C
100
AcDbXrecord
  1
VERSION
140
15.0
  1
PRODUCT
  2
AutoCAD Mechanical 2000
  0
IDBUFFER
  5
36AB
330
0
100
AcDbIdBuffer
  0
IDBUFFER
  5
36AC
330
0
100
AcDbIdBuffer
330
34E4
330
34E7
330
34E8
330
34E9
330
34EA
330
34EB
330
34EC
330
1E25
330
1E26
330
1FD9
330
21D7
330
21D8
330
21D9
330
21DC
330
21DD
330
2694
330
2695
330
2696
330
2697
330
2698
330
2699
330
2CB4
330
2CB7
330
3388
330
3389
330
34C2
330
34C3
330
34C4
330
34C5
330
34C6
330
34C7
330
34C8
330
34C9
330
34CA
330
34CC
330
34D0
330
34D1
330
34D2
330
34D3
330
34D4
330
34D5
330
34D6
330
34D7
330
34D8
330
34D9
330
34DA
330
34DB
330
34DC
330
34DD
330
34DE
330
34DF
330
34E0
330
34E1
330
34E2
330
34E3
  0
IDBUFFER
  5
36AD
330
0
100
AcDbIdBuffer
330
C9F
  0
IDBUFFER
  5
36AE
330
0
100
AcDbIdBuffer
330
3689
330
368A
330
368B
330
368C
330
368D
330
34CB
330
34CD
330
34CE
330
34CF
330
34E5
330
34E6
330
367F
330
3680
330
3681
330
3682
330
3683
330
3684
330
3685
330
3686
330
3687
330
3688
  0
IDBUFFER
  5
36AF
330
0
100
AcDbIdBuffer
330
CC6
330
DF5
330
1FB6
330
2216
330
3582
  0
IDBUFFER
  5
36B0
330
0
100
AcDbIdBuffer
  0
IDBUFFER
  5
36B1
330
0
100
AcDbIdBuffer
330
19BD
  0
IDBUFFER
  5
36B2
330
0
100
AcDbIdBuffer
  0
ENDSEC
  0
EOF
