  0
SECTION
  2
HEADER
  9
$ACADVER
  1
AC1014
  9
$ACADMAINTVER
 70
     9
  9
$DWGCODEPAGE
  3
ANSI_932
  9
$INSBASE
 10
0.0
 20
0.0
 30
0.0
  9
$EXTMIN
 10
-200.3000009999988
 20
-53.50000305448099
 30
-0.00000001
  9
$EXTMAX
 10
37.18015728359088
 20
35.87758040505629
 30
0.00000001
  9
$LIMMIN
 10
-212.4283160478946
 20
-92.01098889734623
  9
$LIMMAX
 10
49.45840178964954
 20
64.30738472477009
  9
$ORTHOMODE
 70
     0
  9
$REGENMODE
 70
     1
  9
$FILLMODE
 70
     1
  9
$QTEXTMODE
 70
     0
  9
$MIRRTEXT
 70
     0
  9
$DRAGMODE
 70
     2
  9
$LTSCALE
 40
1.0
  9
$OSMODE
 70
    55
  9
$ATTMODE
 70
     1
  9
$TEXTSIZE
 40
2.5
  9
$TRACEWID
 40
1.0
  9
$TEXTSTYLE
  7
STANDARD
  9
$CLAYER
  8
AM_0
  9
$CELTYPE
  6
BYLAYER
  9
$CECOLOR
 62
   256
  9
$CELTSCALE
 40
1.0
  9
$DELOBJ
 70
     1
  9
$DISPSILH
 70
     0
  9
$DIMSCALE
 40
1.0
  9
$DIMASZ
 40
2.5
  9
$DIMEXO
 40
1.0
  9
$DIMDLI
 40
12.0
  9
$DIMRND
 40
0.0
  9
$DIMDLE
 40
0.0
  9
$DIMEXE
 40
1.0
  9
$DIMTP
 40
0.1
  9
$DIMTM
 40
0.1
  9
$DIMTXT
 40
3.2
  9
$DIMCEN
 40
0.0
  9
$DIMTSZ
 40
0.0
  9
$DIMTOL
 70
     0
  9
$DIMLIM
 70
     0
  9
$DIMTIH
 70
     0
  9
$DIMTOH
 70
     0
  9
$DIMSE1
 70
     0
  9
$DIMSE2
 70
     0
  9
$DIMTAD
 70
     3
  9
$DIMZIN
 70
     8
  9
$DIMBLK
  1
OPEN30
  9
$DIMASO
 70
     1
  9
$DIMSHO
 70
     1
  9
$DIMPOST
  1

  9
$DIMAPOST
  1
"
  9
$DIMALT
 70
     0
  9
$DIMALTD
 70
     2
  9
$DIMALTF
 40
0.0393701
  9
$DIMLFAC
 40
1.0
  9
$DIMTOFL
 70
     1
  9
$DIMTVP
 40
0.0
  9
$DIMTIX
 70
     0
  9
$DIMSOXD
 70
     0
  9
$DIMSAH
 70
     0
  9
$DIMBLK1
  1

  9
$DIMBLK2
  1

  9
$DIMSTYLE
  2
AM_JIS
  9
$DIMCLRD
 70
   256
  9
$DIMCLRE
 70
   256
  9
$DIMCLRT
 70
     2
  9
$DIMTFAC
 40
0.71
  9
$DIMGAP
 40
1.5
  9
$DIMJUST
 70
     0
  9
$DIMSD1
 70
     0
  9
$DIMSD2
 70
     0
  9
$DIMTOLJ
 70
     0
  9
$DIMTZIN
 70
     0
  9
$DIMALTZ
 70
     0
  9
$DIMALTTZ
 70
     0
  9
$DIMFIT
 70
     3
  9
$DIMUPT
 70
     0
  9
$DIMUNIT
 70
     2
  9
$DIMDEC
 70
     3
  9
$DIMTDEC
 70
     3
  9
$DIMALTU
 70
     2
  9
$DIMALTTD
 70
     2
  9
$DIMTXSTY
  7
ASAMI
  9
$DIMAUNIT
 70
     0
  9
$LUNITS
 70
     2
  9
$LUPREC
 70
     2
  9
$SKETCHINC
 40
1.0
  9
$FILLETRAD
 40
2.5
  9
$AUNITS
 70
     0
  9
$AUPREC
 70
     0
  9
$MENU
  1
.
  9
$ELEVATION
 40
0.0
  9
$PELEVATION
 40
0.0
  9
$THICKNESS
 40
0.0
  9
$LIMCHECK
 70
     0
  9
$BLIPMODE
 70
     0
  9
$CHAMFERA
 40
0.5
  9
$CHAMFERB
 40
0.5
  9
$CHAMFERC
 40
20.0
  9
$CHAMFERD
 40
0.0
  9
$SKPOLY
 70
     0
  9
$TDCREATE
 40
2452800.443498622
  9
$TDUPDATE
 40
2453151.667387685
  9
$TDINDWG
 40
0.0809146991
  9
$TDUSRTIMER
 40
0.0809146991
  9
$USRTIMER
 70
     1
  9
$ANGBASE
 50
0.0
  9
$ANGDIR
 70
     0
  9
$PDMODE
 70
     3
  9
$PDSIZE
 40
0.0
  9
$PLINEWID
 40
0.0
  9
$COORDS
 70
     1
  9
$SPLFRAME
 70
     0
  9
$SPLINETYPE
 70
     6
  9
$SPLINESEGS
 70
     8
  9
$ATTDIA
 70
     1
  9
$ATTREQ
 70
     1
  9
$HANDLING
 70
 12289
  9
$HANDSEED
  5
3D23
  9
$SURFTAB1
 70
     6
  9
$SURFTAB2
 70
     6
  9
$SURFTYPE
 70
     6
  9
$SURFU
 70
     6
  9
$SURFV
 70
     6
  9
$UCSNAME
  2

  9
$UCSORG
 10
0.0
 20
0.0
 30
0.0
  9
$UCSXDIR
 10
1.0
 20
0.0000000000000027
 30
0.0
  9
$UCSYDIR
 10
-0.0000000000000027
 20
1.0
 30
0.0
  9
$PUCSNAME
  2

  9
$PUCSORG
 10
0.0
 20
0.0
 30
0.0
  9
$PUCSXDIR
 10
1.0
 20
0.0
 30
0.0
  9
$PUCSYDIR
 10
0.0
 20
1.0
 30
0.0
  9
$USERI1
 70
     0
  9
$USERI2
 70
     0
  9
$USERI3
 70
     0
  9
$USERI4
 70
     0
  9
$USERI5
 70
     0
  9
$USERR1
 40
0.0
  9
$USERR2
 40
0.0
  9
$USERR3
 40
0.0
  9
$USERR4
 40
0.0
  9
$USERR5
 40
0.0
  9
$WORLDVIEW
 70
     1
  9
$SHADEDGE
 70
     3
  9
$SHADEDIF
 70
    70
  9
$TILEMODE
 70
     1
  9
$MAXACTVP
 70
    64
  9
$PINSBASE
 10
0.0
 20
0.0
 30
0.0
  9
$PLIMCHECK
 70
     0
  9
$PEXTMIN
 10
1.000000000000000E+20
 20
1.000000000000000E+20
 30
1.000000000000000E+20
  9
$PEXTMAX
 10
-1.000000000000000E+20
 20
-1.000000000000000E+20
 30
-1.000000000000000E+20
  9
$PLIMMIN
 10
0.0
 20
0.0
  9
$PLIMMAX
 10
841.0
 20
594.0
  9
$UNITMODE
 70
     0
  9
$VISRETAIN
 70
     1
  9
$PLINEGEN
 70
     0
  9
$PSLTSCALE
 70
     0
  9
$TREEDEPTH
 70
  3020
  9
$PICKSTYLE
 70
     0
  9
$CMLSTYLE
  2
STANDARD
  9
$CMLJUST
 70
     0
  9
$CMLSCALE
 40
20.0
  9
$PROXYGRAPHICS
 70
     1
  9
$MEASUREMENT
 70
     1
  0
ENDSEC
  0
SECTION
  2
CLASSES
  0
CLASS
  1
ACDBDICTIONARYWDFLT
  2
AcDbDictionaryWithDefault
  3
AutoCAD 2000
 90
        0
280
     0
281
     0
  0
CLASS
  1
ACDBPLACEHOLDER
  2
AcDbPlaceHolder
  3
AutoCAD 2000
 90
        0
280
     0
281
     0
  0
CLASS
  1
LAYOUT
  2
AcDbLayout
  3
AutoCAD 2000
 90
        0
280
     0
281
     0
  0
CLASS
  1
AMGSETTINGSOBJ
  2
AmgSettingsObj
  3
"AcadM|Product Description: AutoCAD Mechanical 2000|Company: Autodesk"
 90
        0
280
     0
281
     0
  0
CLASS
  1
ACME_DOCUMENT
  2
AcMeDbDoc
  3
AcMeServices
 90
        0
280
     0
281
     0
  0
CLASS
  1
ACMESCOPE
  2
AcMeScope
  3
AcMeServices
 90
        0
280
     0
281
     0
  0
CLASS
  1
ACMECOMMANDHISTORY
  2
AcMeCommandHistory
  3
AcMeServices
 90
        0
280
     0
281
     0
  0
CLASS
  1
DICTIONARYVAR
  2
AcDbDictionaryVar
  3
AutoCAD 2000
 90
        0
280
     0
281
     0
  0
CLASS
  1
ACIMSYSVARMAN
  2
AcImSysVarManager
  3
AcMeServices
 90
        0
280
     0
281
     0
  0
CLASS
  1
ACIMREALSYSVAR
  2
AcImRealSysVar
  3
AcMeServices
 90
        0
280
     0
281
     0
  0
CLASS
  1
ACIMINTSYSVAR
  2
AcImIntSysVar
  3
AcMeServices
 90
        0
280
     0
281
     0
  0
CLASS
  1
ACMEDRAWINGMAN
  2
AcMeDrawingMan
  3
AcMeServices
 90
        0
280
     0
281
     0
  0
CLASS
  1
ACMEVIEW
  2
AcMeView
  3
AcMeServices
 90
        0
280
     0
281
     0
  0
CLASS
  1
ACDBENTITYCACHE
  2
AcMeEntityCache
  3
AcMeServices
 90
        0
280
     0
281
     0
  0
CLASS
  1
GSMANAGER
  2
AcMeGSManager
  3
AcMeServices
 90
        0
280
     0
281
     0
  0
CLASS
  1
AmdtInternalReactor
  2
AmdtInternalReactor
  3
AcMeServices
 90
        0
280
     0
281
     0
  0
CLASS
  1
ACMESTATEMGR
  2
AcMeStateMgr
  3
AcMeServices
 90
        0
280
     0
281
     0
  0
CLASS
  1
ACME_DATABASE
  2
AcMeDbDatabase
  3
AcMeServices
 90
        0
280
     0
281
     0
  0
CLASS
  1
ACRFINSADJUSTERMGR
  2
AcRfInsAdjusterMgr
  3
AcMeServices
 90
        0
280
     0
281
     0
  0
CLASS
  1
ACMDATADICTIONARY
  2
AcmDataDictionary
  3
"AcmSymBB|Product Description: AutoCAD Mechanical 2000|Company: Autodesk"
 90
        0
280
     0
281
     0
  0
CLASS
  1
ACMDATAENTRYBLOCK
  2
AcmDataEntryBlock
  3
"AcmSymBB|Product Description: AutoCAD Mechanical 2000|Company: Autodesk"
 90
        0
280
     0
281
     0
  0
CLASS
  1
AMGOBJPROPCFG
  2
AmgObjPropCfg
  3
"AmgLay|Product Description: AutoCAD Mechanical 2000|Company: Autodesk"
 90
        1
280
     0
281
     0
  0
CLASS
  1
ACAMGFILTERDAT
  2
AcAmgFilterDat
  3
"AcadM|Product Description: AutoCAD Mechanical 2000|Company: Autodesk"
 90
        0
280
     0
281
     0
  0
CLASS
  1
LAYER_INDEX
  2
AcDbLayerIndex
  3
AutoCAD 2000
 90
        0
280
     0
281
     0
  0
CLASS
  1
IDBUFFER
  2
AcDbIdBuffer
  3
AutoCAD 2000
 90
        0
280
     0
281
     0
  0
CLASS
  1
ACIMSTRSYSVAR
  2
AcImStrSysVar
  3
AcMeServices
 90
        0
280
     0
281
     0
  0
CLASS
  1
ACMSTANDARDJIS
  2
AcmStandardJIS
  3
"AcmSymBB|Product Description: AutoCAD Mechanical 2000|Company: Autodesk"
 90
        0
280
     0
281
     0
  0
CLASS
  1
ACMSURFSTANDARDJIS
  2
AcmSurfTextStdJIS
  3
"AcmSymBB|Product Description: AutoCAD Mechanical 2000|Company: Autodesk"
 90
        0
280
     0
281
     0
  0
CLASS
  1
ACMFCFSTANDARDJIS
  2
AcmFCFStdJIS
  3
"AcmSymBB|Product Description: AutoCAD Mechanical 2000|Company: Autodesk"
 90
        0
280
     0
281
     0
  0
CLASS
  1
ACMWELDSTANDARDJIS
  2
AcmWeldingStdJIS
  3
"AcmSymBB|Product Description: AutoCAD Mechanical 2000|Company: Autodesk"
 90
        0
280
     0
281
     0
  0
CLASS
  1
ACMIDSTANDARDJIS
  2
AcmIdStdJIS
  3
"AcmSymBB|Product Description: AutoCAD Mechanical 2000|Company: Autodesk"
 90
        0
280
     0
281
     0
  0
CLASS
  1
ACMDATUMSTANDARDJIS
  2
AcmDatumStdJIS
  3
"AcmSymBB|Product Description: AutoCAD Mechanical 2000|Company: Autodesk"
 90
        0
280
     0
281
     0
  0
CLASS
  1
ACMBOMSTANDARDJIS
  2
AcmBOMStdJIS
  3
"AcmSymBB|Product Description: AutoCAD Mechanical 2000|Company: Autodesk"
 90
        0
280
     0
281
     0
  0
CLASS
  1
ACMSTANDARDANSI
  2
AcmStandardANSI
  3
"AcmSymBB|Product Description: AutoCAD Mechanical 2000|Company: Autodesk"
 90
        0
280
     0
281
     0
  0
CLASS
  1
ACMSURFSTANDARDANSI
  2
AcmSurfTextStdANSI
  3
"AcmSymBB|Product Description: AutoCAD Mechanical 2000|Company: Autodesk"
 90
        0
280
     0
281
     0
  0
CLASS
  1
ACMFCFSTANDARDANSI
  2
AcmFCFStdANSI
  3
"AcmSymBB|Product Description: AutoCAD Mechanical 2000|Company: Autodesk"
 90
        0
280
     0
281
     0
  0
CLASS
  1
ACMWELDSTANDARDANSI
  2
AcmWeldingStdANSI
  3
"AcmSymBB|Product Description: AutoCAD Mechanical 2000|Company: Autodesk"
 90
        0
280
     0
281
     0
  0
CLASS
  1
ACMIDSTANDARDANSI
  2
AcmIdStdANSI
  3
"AcmSymBB|Product Description: AutoCAD Mechanical 2000|Company: Autodesk"
 90
        0
280
     0
281
     0
  0
CLASS
  1
ACMDATUMSTANDARDANSI
  2
AcmDatumStdANSI
  3
"AcmSymBB|Product Description: AutoCAD Mechanical 2000|Company: Autodesk"
 90
        0
280
     0
281
     0
  0
CLASS
  1
ACMBOMSTANDARDANSI
  2
AcmBOMStdANSI
  3
"AcmSymBB|Product Description: AutoCAD Mechanical 2000|Company: Autodesk"
 90
        0
280
     0
281
     0
  0
CLASS
  1
ACMSTANDARDBSI
  2
AcmStandardBSI
  3
"AcmSymBB|Product Description: AutoCAD Mechanical 2000|Company: Autodesk"
 90
        0
280
     0
281
     0
  0
CLASS
  1
ACMSURFSTANDARDBSI
  2
AcmSurfTextStdBSI
  3
"AcmSymBB|Product Description: AutoCAD Mechanical 2000|Company: Autodesk"
 90
        0
280
     0
281
     0
  0
CLASS
  1
ACMFCFSTANDARDBSI
  2
AcmFCFStdBSI
  3
"AcmSymBB|Product Description: AutoCAD Mechanical 2000|Company: Autodesk"
 90
        0
280
     0
281
     0
  0
CLASS
  1
ACMWELDSTANDARDBSI
  2
AcmWeldingStdBSI
  3
"AcmSymBB|Product Description: AutoCAD Mechanical 2000|Company: Autodesk"
 90
        0
280
     0
281
     0
  0
CLASS
  1
ACMIDSTANDARDBSI
  2
AcmIdStdBSI
  3
"AcmSymBB|Product Description: AutoCAD Mechanical 2000|Company: Autodesk"
 90
        0
280
     0
281
     0
  0
CLASS
  1
ACMDATUMSTANDARDBSI
  2
AcmDatumStdBSI
  3
"AcmSymBB|Product Description: AutoCAD Mechanical 2000|Company: Autodesk"
 90
        0
280
     0
281
     0
  0
CLASS
  1
ACMBOMSTANDARDBSI
  2
AcmBOMStdBSI
  3
"AcmSymBB|Product Description: AutoCAD Mechanical 2000|Company: Autodesk"
 90
        0
280
     0
281
     0
  0
CLASS
  1
LONG_TRANSACTION
  2
AcDbLongTransaction
  3
AutoCAD 2000
 90
        0
280
     0
281
     0
  0
CLASS
  1
LWPOLYLINE
  2
AcDbPolyline
  3
AutoCAD 2000
 90
        0
280
     0
281
     1
  0
CLASS
  1
HATCH
  2
AcDbHatch
  3
AutoCAD 2000
 90
        0
280
     0
281
     1
  0
CLASS
  1
XRECORD
  2
AcDbXrecord
  3
AutoCAD 2000
 90
        0
280
     0
281
     0
  0
ENDSEC
  0
SECTION
  2
TABLES
  0
TABLE
  2
VPORT
  5
8
330
0
100
AcDbSymbolTable
 70
     3
  0
VPORT
  5
3CED
330
8
100
AcDbSymbolTableRecord
100
AcDbViewportTableRecord
  2
*ACTIVE
 70
     0
 10
0.0
 20
0.0
 11
1.0
 21
1.0
 12
-77.15398817641709
 22
-8.813005264488765
 13
0.0
 23
0.0
 14
2.5
 24
2.5
 15
10.0
 25
10.0
 16
0.0
 26
0.0
 36
1.0
 17
0.0
 27
0.0
 37
0.0
 40
158.0687637702438
 41
1.56570841889117
 42
50.0
 43
0.0
 44
0.0
 50
0.0
 51
0.0
 71
     0
 72
   100
 73
     1
 74
     1
 75
     0
 76
     0
 77
     0
 78
     0
  0
ENDTAB
  0
TABLE
  2
LTYPE
  5
5
330
0
100
AcDbSymbolTable
 70
    10
  0
LTYPE
  5
14
330
5
100
AcDbSymbolTableRecord
100
AcDbLinetypeTableRecord
  2
BYBLOCK
 70
     0
  3

 72
    65
 73
     0
 40
0.0
  0
LTYPE
  5
15
330
5
100
AcDbSymbolTableRecord
100
AcDbLinetypeTableRecord
  2
BYLAYER
 70
     0
  3

 72
    65
 73
     0
 40
0.0
  0
LTYPE
  5
16
330
5
100
AcDbSymbolTableRecord
100
AcDbLinetypeTableRecord
  2
CONTINUOUS
 70
     0
  3
Solid line
 72
    65
 73
     0
 40
0.0
  0
LTYPE
  5
4B
330
5
100
AcDbSymbolTableRecord
100
AcDbLinetypeTableRecord
  2
AM_ISO02W050
 70
     0
  3
__ __ __ __ __ __ __ __ __ __ __ __ __ __ __
 72
    65
 73
     2
 40
7.5
 49
6.0
 74
     0
 49
-1.5
 74
     0
  0
LTYPE
  5
4C
330
5
100
AcDbSymbolTableRecord
100
AcDbLinetypeTableRecord
  2
AM_ISO08W050
 70
     0
  3
____ . ____ . ____ . ____ . ____ . ____ . ____
 72
    65
 73
     4
 40
18.0
 49
12.0
 74
     0
 49
-1.5
 74
     0
 49
3.0
 74
     0
 49
-1.5
 74
     0
  0
LTYPE
  5
4D
330
5
100
AcDbSymbolTableRecord
100
AcDbLinetypeTableRecord
  2
AM_ISO09W050
 70
     0
  3
_____ . . _____ . . _____ . . ____ .. ____
 72
    65
 73
     6
 40
22.5
 49
12.0
 74
     0
 49
-1.5
 74
     0
 49
3.0
 74
     0
 49
-1.5
 74
     0
 49
3.0
 74
     0
 49
-1.5
 74
     0
  0
LTYPE
  5
4E
330
5
100
AcDbSymbolTableRecord
100
AcDbLinetypeTableRecord
  2
AMCONSTR
 70
     0
  3
_______________________
 72
    65
 73
     2
 40
9999.0
 49
9999.0
 74
     0
 49
0.0
 74
     0
  0
LTYPE
  5
4F
330
5
100
AcDbSymbolTableRecord
100
AcDbLinetypeTableRecord
  2
AM_ISO02W050X2
 70
     0
  3
 _ _ _ _ _ _ _ _ _ _ _ _
 72
    65
 73
     2
 40
3.75
 49
3.0
 74
     0
 49
-0.75
 74
     0
  0
LTYPE
  5
50
330
5
100
AcDbSymbolTableRecord
100
AcDbLinetypeTableRecord
  2
AM_ISO08W050X2
 70
     0
  3
__ . __ . __ . __ . __ . __
 72
    65
 73
     4
 40
9.0
 49
6.0
 74
     0
 49
-0.75
 74
     0
 49
1.5
 74
     0
 49
-0.75
 74
     0
  0
LTYPE
  5
53
330
5
100
AcDbSymbolTableRecord
100
AcDbLinetypeTableRecord
  2
AMZIGZAG
 70
     0
  3
/\/-/\/-/\/-/\/-/\/-/\/
 72
    65
 73
     2
 40
11.00009999999999
 49
0.0001
 74
     4
 75
   135
340
52
 46
0.04
 50
0.0
 44
0.0
 45
0.0
 49
-11.0
 74
     0
  0
LTYPE
  5
166
330
5
100
AcDbSymbolTableRecord
100
AcDbLinetypeTableRecord
  2
ACJISTGL
 70
     0
  3
_ _ _ _ _
 72
    65
 73
     2
 40
3.0
 49
2.0
 74
     0
 49
-1.0
 74
     0
  0
LTYPE
  5
26A
330
5
100
AcDbSymbolTableRecord
100
AcDbLinetypeTableRecord
  2
ACJISTGB
 70
     0
  3
__ . . __ . .
 72
    65
 73
     6
 40
9.0
 49
4.0
 74
     0
 49
-1.0
 74
     0
 49
1.0
 74
     0
 49
-1.0
 74
     0
 49
1.0
 74
     0
 49
-1.0
 74
     0
  0
ENDTAB
  0
TABLE
  2
LAYER
  5
2
330
0
100
AcDbSymbolTable
 70
     8
  0
LAYER
  5
10
330
2
100
AcDbSymbolTableRecord
100
AcDbLayerTableRecord
  2
0
 70
     0
 62
     7
  6
CONTINUOUS
  0
LAYER
  5
3F9
330
2
100
AcDbSymbolTableRecord
100
AcDbLayerTableRecord
  2
AM_0
 70
     0
 62
     7
  6
CONTINUOUS
  0
LAYER
  5
C7C
330
2
100
AcDbSymbolTableRecord
100
AcDbLayerTableRecord
  2
AM_7
 70
     0
 62
     4
  6
AM_ISO08W050
  0
LAYER
  5
C97
330
2
100
AcDbSymbolTableRecord
100
AcDbLayerTableRecord
  2
AM_11
 70
     0
 62
     3
  6
AM_ISO09W050
  0
LAYER
  5
CC5
330
2
100
AcDbSymbolTableRecord
100
AcDbLayerTableRecord
  2
AM_5
 70
     0
 62
     3
  6
CONTINUOUS
  0
LAYER
  5
CC7
330
2
100
AcDbSymbolTableRecord
100
AcDbLayerTableRecord
  2
DEFPOINTS
 70
     0
 62
     7
  6
CONTINUOUS
  0
LAYER
  5
19BC
330
2
100
AcDbSymbolTableRecord
100
AcDbLayerTableRecord
  2
AM_6
 70
     0
 62
     2
  6
CONTINUOUS
  0
LAYER
  5
3A87
330
2
100
AcDbSymbolTableRecord
100
AcDbLayerTableRecord
  2
AM_CL
 70
     0
 62
     1
  6
AMCONSTR
  0
ENDTAB
  0
TABLE
  2
STYLE
  5
3
330
0
100
AcDbSymbolTable
 70
     5
  0
STYLE
  5
11
330
3
100
AcDbSymbolTableRecord
100
AcDbTextStyleTableRecord
  2
STANDARD
 70
     0
 40
0.0
 41
1.0
 50
0.0
 71
     0
 42
2.5
  3
simplex.shx
  4
EXTFONT.SHX
  0
STYLE
  5
52
330
3
100
AcDbSymbolTableRecord
100
AcDbTextStyleTableRecord
  2

 70
     1
 40
0.0
 41
1.0
 50
0.0
 71
     0
 42
2.5
  3
ltypeshp.shx
  4

  0
STYLE
  5
6B
330
3
100
AcDbSymbolTableRecord
100
AcDbTextStyleTableRecord
  2
ASAMI
 70
     0
 40
0.0
 41
1.0
 50
0.0
 71
     0
 42
2.5
  3
simplex.shx
  4
EXTFONT.SHX
  0
STYLE
  5
262
330
3
100
AcDbSymbolTableRecord
100
AcDbTextStyleTableRecord
  2
ACJISTS
 70
     0
 40
1.0
 41
1.0
 50
0.0
 71
     0
 42
2.5
  3
simplex.shx
  4
bigfont.shx
  0
STYLE
  5
269
330
3
100
AcDbSymbolTableRecord
100
AcDbTextStyleTableRecord
  2
ACJISGDT
 70
     0
 40
0.0
 41
1.0
 50
0.0
 71
     0
 42
2.5
  3
amgdtans.shx
  4

  0
ENDTAB
  0
TABLE
  2
VIEW
  5
6
330
0
100
AcDbSymbolTable
 70
     0
  0
ENDTAB
  0
TABLE
  2
UCS
  5
7
330
0
100
AcDbSymbolTable
 70
     0
  0
ENDTAB
  0
TABLE
  2
APPID
  5
9
330
0
100
AcDbSymbolTable
 70
    16
  0
APPID
  5
12
330
9
100
AcDbSymbolTableRecord
100
AcDbRegAppTableRecord
  2
ACAD
 70
     0
  0
APPID
  5
30
330
9
100
AcDbSymbolTableRecord
100
AcDbRegAppTableRecord
  2
MCAD_NO_VIS
 70
     0
  0
APPID
  5
31
330
9
100
AcDbSymbolTableRecord
100
AcDbRegAppTableRecord
  2
ACAD_TEMP_GRAPHIC
 70
     0
  0
APPID
  5
2C2
330
9
100
AcDbSymbolTableRecord
100
AcDbRegAppTableRecord
  2
GENIUS_GENDTOL_13
 70
     0
  0
APPID
  5
339
330
9
100
AcDbSymbolTableRecord
100
AcDbRegAppTableRecord
  2
GENIUS_GENODEF_13
 70
     0
  0
APPID
  5
33A
330
9
100
AcDbSymbolTableRecord
100
AcDbRegAppTableRecord
  2
GENIUS_GENOBJ-N-RSBK_13
 70
     0
  0
APPID
  5
33B
330
9
100
AcDbSymbolTableRecord
100
AcDbRegAppTableRecord
  2
GENIUS_GENOBJ-N-LIB_13
 70
     0
  0
APPID
  5
33C
330
9
100
AcDbSymbolTableRecord
100
AcDbRegAppTableRecord
  2
GENIUS_GENSCALE_13
 70
     0
  0
APPID
  5
378
330
9
100
AcDbSymbolTableRecord
100
AcDbRegAppTableRecord
  2
GENIUS_GENDIMSH_14
 70
     0
  0
APPID
  5
C82
330
9
100
AcDbSymbolTableRecord
100
AcDbRegAppTableRecord
  2
GENIUS_GENOBJ-N-CRS_13
 70
     0
  0
APPID
  5
C83
330
9
100
AcDbSymbolTableRecord
100
AcDbRegAppTableRecord
  2
GENIUS_GENOENT_13
 70
     0
  0
APPID
  5
C84
330
9
100
AcDbSymbolTableRecord
100
AcDbRegAppTableRecord
  2
GENIUS_GENOREF_13
 70
     0
  0
APPID
  5
C85
330
9
100
AcDbSymbolTableRecord
100
AcDbRegAppTableRecord
  2
GENIUS_GENOLIS_13
 70
     0
  0
APPID
  5
CA0
330
9
100
AcDbSymbolTableRecord
100
AcDbRegAppTableRecord
  2
GENIUS_GENOBJ-N-CEN_13
 70
     0
  0
APPID
  5
1E1E
330
9
100
AcDbSymbolTableRecord
100
AcDbRegAppTableRecord
  2
GENIUS_GENFIL_13
 70
     0
  0
APPID
  5
1E1F
330
9
100
AcDbSymbolTableRecord
100
AcDbRegAppTableRecord
  2
GENIUS_GENOBJ-N-CHA_13
 70
     0
  0
ENDTAB
  0
TABLE
  2
DIMSTYLE
  5
A
330
0
100
AcDbSymbolTable
 70
     9
  0
DIMSTYLE
105
58
330
A
100
AcDbSymbolTableRecord
100
AcDbDimStyleTableRecord
  2
AM_JIS
 70
     0
  3

  4
"
  5
OPEN30
  6

  7

 40
1.0
 41
2.5
 42
1.0
 43
12.0
 44
1.0
 45
0.0
 46
0.0
 47
0.1
 48
0.1
140
3.2
141
0.0
142
0.0
143
0.0393701
144
1.0
145
0.0
146
0.71
147
1.5
 71
     0
 72
     0
 73
     0
 74
     0
 75
     0
 76
     0
 77
     3
 78
     8
170
     0
171
     2
172
     1
173
     0
174
     0
175
     0
176
   256
177
   256
178
     2
270
     2
271
     3
272
     3
273
     2
274
     2
340
6B
275
     0
280
     0
281
     0
282
     0
283
     0
284
     0
285
     0
286
     0
287
     3
288
     0
  0
DIMSTYLE
105
5F
330
A
100
AcDbSymbolTableRecord
100
AcDbDimStyleTableRecord
  2
AM_JIS$3
 70
     0
  3

  4
"
  5
OPEN30
  6

  7

 40
1.0
 41
2.5
 42
1.0
 43
10.0
 44
1.0
 45
0.0
 46
0.0
 47
0.1
 48
0.1
140
3.2
141
0.0
142
0.0
143
0.0393701
144
1.0
145
0.0
146
0.71
147
1.5
 71
     0
 72
     0
 73
     0
 74
     1
 75
     0
 76
     0
 77
     3
 78
     8
170
     0
171
     2
172
     0
173
     0
174
     0
175
     0
176
   256
177
   256
178
     2
270
     2
271
     2
272
     3
273
     2
274
     2
340
6B
275
     0
280
     0
281
     0
282
     0
283
     0
284
     0
285
     0
286
     0
287
     0
288
     1
  0
DIMSTYLE
105
60
330
A
100
AcDbSymbolTableRecord
100
AcDbDimStyleTableRecord
  2
AM_JIS$4
 70
     0
  3

  4
"
  5
OPEN30
  6

  7

 40
1.0
 41
2.5
 42
1.0
 43
10.0
 44
1.0
 45
0.0
 46
0.0
 47
0.1
 48
0.1
140
3.2
141
0.0
142
0.0
143
0.0393701
144
1.0
145
0.0
146
0.71
147
1.5
 71
     0
 72
     0
 73
     0
 74
     1
 75
     0
 76
     0
 77
     3
 78
     8
170
     0
171
     2
172
     0
173
     0
174
     0
175
     0
176
   256
177
   256
178
     2
270
     2
271
     2
272
     3
273
     2
274
     2
340
6B
275
     0
280
     0
281
     0
282
     0
283
     0
284
     0
285
     0
286
     0
287
     0
288
     1
  0
DIMSTYLE
105
61
330
A
100
AcDbSymbolTableRecord
100
AcDbDimStyleTableRecord
  2
AM_JIS$6
 70
     0
  3

  4
"
  5
OPEN30
  6

  7

 40
1.0
 41
2.5
 42
1.0
 43
10.0
 44
1.0
 45
0.0
 46
0.0
 47
0.1
 48
0.1
140
3.2
141
0.0
142
0.0
143
0.0393701
144
1.0
145
0.0
146
0.71
147
1.5
 71
     0
 72
     0
 73
     0
 74
     0
 75
     0
 76
     0
 77
     0
 78
     8
170
     0
171
     2
172
     1
173
     0
174
     0
175
     0
176
   256
177
   256
178
     2
270
     2
271
     2
272
     2
273
     2
274
     2
340
6B
275
     0
280
     0
281
     0
282
     0
283
     0
284
     0
285
     0
286
     0
287
     3
288
     0
  0
DIMSTYLE
105
62
330
A
100
AcDbSymbolTableRecord
100
AcDbDimStyleTableRecord
  2
AM_JIS$7
 70
     0
  3

  4
"
  5
OPEN30
  6

  7

 40
1.0
 41
2.5
 42
1.0
 43
10.0
 44
1.0
 45
0.0
 46
0.0
 47
0.1
 48
0.1
140
3.2
141
0.0
142
0.0
143
0.0393701
144
1.0
145
0.0
146
0.71
147
1.5
 71
     0
 72
     0
 73
     0
 74
     0
 75
     0
 76
     0
 77
     3
 78
     8
170
     0
171
     2
172
     1
173
     0
174
     0
175
     0
176
   256
177
   256
178
     2
270
     2
271
     2
272
     3
273
     2
274
     2
340
6B
275
     0
280
     0
281
     0
282
     0
283
     0
284
     0
285
     0
286
     0
287
     3
288
     0
  0
DIMSTYLE
105
63
330
A
100
AcDbSymbolTableRecord
100
AcDbDimStyleTableRecord
  2
AM_JIS$SF
 70
     0
  3

  4
"
  5
OPEN30
  6

  7

 40
1.0
 41
2.5
 42
1.0
 43
10.0
 44
1.0
 45
0.0
 46
0.0
 47
0.1
 48
0.1
140
3.2
141
0.0
142
0.0
143
0.0393701
144
1.0
145
0.0
146
0.71
147
1.5
 71
     0
 72
     0
 73
     0
 74
     0
 75
     1
 76
     1
 77
     3
 78
     8
170
     0
171
     2
172
     1
173
     0
174
     0
175
     0
176
   256
177
   256
178
     2
270
     2
271
     2
272
     2
273
     2
274
     2
340
6B
275
     0
280
     0
281
     0
282
     0
283
     0
284
     0
285
     0
286
     0
287
     3
288
     0
  0
DIMSTYLE
105
68
330
A
100
AcDbSymbolTableRecord
100
AcDbDimStyleTableRecord
  2
AM_JIS$SH
 70
     0
  3

  4
"
  5

  6
GENAXEH
  7
OPEN30
 40
1.0
 41
2.5
 42
1.0
 43
10.0
 44
1.0
 45
0.0
 46
0.0
 47
0.1
 48
0.1
140
3.2
141
0.0
142
0.0
143
0.0393701
144
2.0
145
0.0
146
0.71
147
1.5
 71
     0
 72
     0
 73
     0
 74
     0
 75
     1
 76
     1
 77
     3
 78
     8
170
     0
171
     2
172
     1
173
     1
174
     0
175
     0
176
   256
177
   256
178
     2
270
     2
271
     2
272
     2
273
     2
274
     2
340
6B
275
     0
280
     0
281
     0
282
     0
283
     0
284
     0
285
     0
286
     0
287
     3
288
     0
  0
DIMSTYLE
105
B34
102
{ACAD_REACTORS
330
3BB9
102
}
330
A
100
AcDbSymbolTableRecord
100
AcDbDimStyleTableRecord
  2
AM_JIS$2
 70
     0
  3

  4
"
  5
OPEN30
  6

  7

 40
1.0
 41
2.5
 42
1.0
 43
12.0
 44
1.0
 45
0.0
 46
0.0
 47
0.1
 48
0.1
140
3.2
141
0.0
142
0.0
143
0.0393701
144
1.0
145
0.0
146
0.71
147
1.5
 71
     0
 72
     0
 73
     0
 74
     0
 75
     0
 76
     0
 77
     3
 78
     8
170
     0
171
     2
172
     1
173
     0
174
     0
175
     0
176
   256
177
   256
178
     2
270
     2
271
     3
272
     3
273
     2
274
     2
340
6B
275
     0
280
     0
281
     0
282
     0
283
     0
284
     0
285
     0
286
     0
287
     3
288
     0
  0
DIMSTYLE
105
BA5
102
{ACAD_REACTORS
330
CC6
330
DF5
330
1FB6
330
2216
102
}
330
A
100
AcDbSymbolTableRecord
100
AcDbDimStyleTableRecord
  2
AM_JIS$0
 70
     0
  3

  4
"
  5
OPEN30
  6

  7

 40
1.0
 41
2.5
 42
0.0
 43
10.0
 44
1.0
 45
0.0
 46
0.0
 47
0.1
 48
0.1000000001
140
3.799999999999999
141
0.0
142
0.0
143
0.0393701
144
1.0
145
0.0
146
0.71
147
1.5
 71
     0
 72
     0
 73
     0
 74
     0
 75
     0
 76
     0
 77
     3
 78
     1
170
     0
171
     2
172
     1
173
     0
174
     0
175
     0
176
     3
177
     3
178
     2
270
     2
271
     2
272
     2
273
     2
274
     2
340
11
275
     1
280
     0
281
     0
282
     0
283
     0
284
     8
285
     0
286
     0
287
     0
288
     0
  0
ENDTAB
  0
TABLE
  2
BLOCK_RECORD
  5
1
330
0
100
AcDbSymbolTable
 70
    10
  0
BLOCK_RECORD
  5
1F
102
{ACAD_XDICTIONARY
360
74
102
}
330
1
100
AcDbSymbolTableRecord
100
AcDbBlockTableRecord
  2
*MODEL_SPACE
  0
BLOCK_RECORD
  5
101
102
{ACAD_XDICTIONARY
360
3D16
102
}
330
1
100
AcDbSymbolTableRecord
100
AcDbBlockTableRecord
  2
*PAPER_SPACE
  0
BLOCK_RECORD
  5
59
330
1
100
AcDbSymbolTableRecord
100
AcDbBlockTableRecord
  2
_OPEN30
  0
BLOCK_RECORD
  5
64
330
1
100
AcDbSymbolTableRecord
100
AcDbBlockTableRecord
  2
GENAXEH
  0
BLOCK_RECORD
  5
CC8
330
1
100
AcDbSymbolTableRecord
100
AcDbBlockTableRecord
  2
*D5
  0
BLOCK_RECORD
  5
DF6
330
1
100
AcDbSymbolTableRecord
100
AcDbBlockTableRecord
  2
*D6
  0
BLOCK_RECORD
  5
1FB7
330
1
100
AcDbSymbolTableRecord
100
AcDbBlockTableRecord
  2
*D7
  0
BLOCK_RECORD
  5
2217
330
1
100
AcDbSymbolTableRecord
100
AcDbBlockTableRecord
  2
*D8
  0
BLOCK_RECORD
  5
3BBA
330
1
100
AcDbSymbolTableRecord
100
AcDbBlockTableRecord
  2
*D9
  0
ENDTAB
  0
ENDSEC
  0
SECTION
  2
BLOCKS
  0
BLOCK
  5
20
330
1F
100
AcDbEntity
  8
0
100
AcDbBlockBegin
  2
*MODEL_SPACE
 70
     0
 10
0.0
 20
0.0
 30
0.0
  3
*MODEL_SPACE
  1

  0
ENDBLK
  5
21
330
1F
100
AcDbEntity
  8
0
100
AcDbBlockEnd
  0
BLOCK
  5
103
330
101
100
AcDbEntity
 67
     1
  8
0
100
AcDbBlockBegin
  2
*PAPER_SPACE
 70
     0
 10
0.0
 20
0.0
 30
0.0
  3
*PAPER_SPACE
  1

  0
ENDBLK
  5
104
330
101
100
AcDbEntity
 67
     1
  8
0
100
AcDbBlockEnd
  0
BLOCK
  5
5D
330
59
100
AcDbEntity
  8
0
100
AcDbBlockBegin
  2
_OPEN30
 70
     0
 10
0.0
 20
0.0
 30
0.0
  3
_OPEN30
  1

  0
LINE
  5
5A
330
59
100
AcDbEntity
  8
0
 62
     0
100
AcDbLine
 10
-1.0
 20
0.26794919
 30
0.0
 11
0.0
 21
0.0
 31
0.0
  0
LINE
  5
5B
330
59
100
AcDbEntity
  8
0
 62
     0
100
AcDbLine
 10
0.0
 20
0.0
 30
0.0
 11
-1.0
 21
-0.26794919
 31
0.0
  0
LINE
  5
5C
330
59
100
AcDbEntity
  8
0
 62
     0
100
AcDbLine
 10
0.0
 20
0.0
 30
0.0
 11
-1.0
 21
0.0
 31
0.0
  0
ENDBLK
  5
5E
330
59
100
AcDbEntity
  8
0
100
AcDbBlockEnd
  0
BLOCK
  5
66
330
64
100
AcDbEntity
  8
0
100
AcDbBlockBegin
  2
GENAXEH
 70
     0
 10
0.0
 20
0.0
 30
0.0
  3
GENAXEH
  1

  0
LINE
  5
65
330
64
100
AcDbEntity
  8
0
100
AcDbLine
 10
-1.0
 20
0.0
 30
0.0
 11
1.0
 21
0.0
 31
0.0
  0
ENDBLK
  5
67
330
64
100
AcDbEntity
  8
0
100
AcDbBlockEnd
  0
BLOCK
  5
CD2
330
CC8
100
AcDbEntity
  8
0
100
AcDbBlockBegin
  2
*D5
 70
     1
 10
0.0
 20
0.0
 30
0.0
  3
*D5
  1

  0
LINE
  5
3ADB
330
CC8
100
AcDbEntity
  8
AM_5
 62
     3
100
AcDbLine
 10
-178.9999999999988
 20
-6.500002054481138
 30
0.0
 11
-178.9999999999988
 21
-32.00000305448093
 31
0.0
  0
LINE
  5
3ADC
330
CC8
100
AcDbEntity
  8
AM_5
 62
     3
100
AcDbLine
 10
-2.999999999998081
 20
-6.600000575855923
 30
0.0
 11
-2.999999999998082
 21
-32.00000305448093
 31
0.0
  0
LINE
  5
3ADD
330
CC8
100
AcDbEntity
  8
AM_5
 62
     3
100
AcDbLine
 10
-176.4999999999988
 20
-31.00000305448093
 30
0.0
 11
-5.499999999998082
 21
-31.00000305448093
 31
0.0
  0
INSERT
  5
3ADE
330
CC8
100
AcDbEntity
  8
AM_5
 62
     3
100
AcDbBlockReference
  2
_OPEN30
 10
-178.9999999999988
 20
-31.00000305448093
 30
0.0
 41
2.5
 42
2.5
 43
2.5
 50
180.0
  0
INSERT
  5
3ADF
330
CC8
100
AcDbEntity
  8
AM_5
 62
     3
100
AcDbBlockReference
  2
_OPEN30
 10
-2.999999999998082
 20
-31.00000305448093
 30
0.0
 41
2.5
 42
2.5
 43
2.5
  0
MTEXT
  5
3AE0
330
CC8
100
AcDbEntity
  8
AM_5
 62
     2
100
AcDbMText
 10
-90.99999999999845
 20
-27.60000305448093
 30
0.0
 40
3.799999999999999
 41
0.0
 71
     5
 72
     1
  1
176
1001
ACAD
1000
MTEXTBEGIN
1070
    73
1070
     1
1070
    44
1040
1.0
1070
    74
1070
     0
1000
MTEXTEND
  0
POINT
  5
3AE1
330
CC8
100
AcDbEntity
  8
DEFPOINTS
 62
     0
100
AcDbPoint
 10
-178.9999999999988
 20
-6.500002054481138
 30
0.0
  0
POINT
  5
3AE2
330
CC8
100
AcDbEntity
  8
DEFPOINTS
 62
     0
100
AcDbPoint
 10
-2.999999999998081
 20
-6.600000575855923
 30
0.0
  0
POINT
  5
3AE3
330
CC8
100
AcDbEntity
  8
DEFPOINTS
 62
     0
100
AcDbPoint
 10
-2.999999999998082
 20
-31.00000305448093
 30
0.0
  0
ENDBLK
  5
CD3
330
CC8
100
AcDbEntity
  8
0
100
AcDbBlockEnd
  0
BLOCK
  5
E00
330
DF6
100
AcDbEntity
  8
0
100
AcDbBlockBegin
  2
*D6
 70
     1
 10
0.0
 20
0.0
 30
0.0
  3
*D6
  1

  0
LINE
  5
3AD2
330
DF6
100
AcDbEntity
  8
AM_5
 62
     3
100
AcDbLine
 10
-114.9999999999981
 20
-7.000002054481154
 30
0.0
 11
-114.9999999999981
 21
-22.00000305448085
 31
0.0
  0
LINE
  5
3AD3
330
DF6
100
AcDbEntity
  8
AM_5
 62
     3
100
AcDbLine
 10
-2.999999999998069
 20
-6.600000575855907
 30
0.0
 11
-2.99999999999807
 21
-22.00000305448085
 31
0.0
  0
LINE
  5
3AD4
330
DF6
100
AcDbEntity
  8
AM_5
 62
     3
100
AcDbLine
 10
-112.4999999999981
 20
-21.00000305448085
 30
0.0
 11
-5.49999999999807
 21
-21.00000305448085
 31
0.0
  0
INSERT
  5
3AD5
330
DF6
100
AcDbEntity
  8
AM_5
 62
     3
100
AcDbBlockReference
  2
_OPEN30
 10
-114.9999999999981
 20
-21.00000305448085
 30
0.0
 41
2.5
 42
2.5
 43
2.5
 50
180.0
  0
INSERT
  5
3AD6
330
DF6
100
AcDbEntity
  8
AM_5
 62
     3
100
AcDbBlockReference
  2
_OPEN30
 10
-2.99999999999807
 20
-21.00000305448085
 30
0.0
 41
2.5
 42
2.5
 43
2.5
  0
MTEXT
  5
3AD7
330
DF6
100
AcDbEntity
  8
AM_5
 62
     2
100
AcDbMText
 10
-58.9999999999981
 20
-17.60000305448085
 30
0.0
 40
3.799999999999999
 41
0.0
 71
     5
 72
     1
  1
112
1001
ACAD
1000
MTEXTBEGIN
1070
    73
1070
     1
1070
    44
1040
1.0
1070
    74
1070
     0
1000
MTEXTEND
  0
POINT
  5
3AD8
330
DF6
100
AcDbEntity
  8
DEFPOINTS
 62
     0
100
AcDbPoint
 10
-114.9999999999981
 20
-7.000002054481154
 30
0.0
  0
POINT
  5
3AD9
330
DF6
100
AcDbEntity
  8
DEFPOINTS
 62
     0
100
AcDbPoint
 10
-2.999999999998069
 20
-6.600000575855907
 30
0.0
  0
POINT
  5
3ADA
330
DF6
100
AcDbEntity
  8
DEFPOINTS
 62
     0
100
AcDbPoint
 10
-2.99999999999807
 20
-21.00000305448085
 30
0.0
  0
ENDBLK
  5
E01
330
DF6
100
AcDbEntity
  8
0
100
AcDbBlockEnd
  0
BLOCK
  5
1FC3
330
1FB7
100
AcDbEntity
  8
0
100
AcDbBlockBegin
  2
*D7
 70
     1
 10
0.0
 20
0.0
 30
0.0
  3
*D7
  1

  0
LINE
  5
3BA2
330
1FB7
100
AcDbEntity
  8
AM_5
 62
     3
100
AcDbLine
 10
-2.999999999998081
 20
-6.600000575855923
 30
0.0
 11
17.55592102485921
 21
-6.600000575855928
 31
0.0
  0
LINE
  5
3BA3
330
1FB7
100
AcDbEntity
  8
AM_5
 62
     3
100
AcDbLine
 10
-2.999999999998106
 20
6.5999994241438
 30
0.0
 11
17.55592102485921
 21
6.599999424143795
 31
0.0
  0
LINE
  5
3BA4
330
1FB7
100
AcDbEntity
  8
AM_5
 62
     3
100
AcDbLine
 10
16.5559210248592
 20
-9.100000575855929
 30
0.0
 11
16.5559210248592
 21
-11.60000057585593
 31
0.0
  0
LINE
  5
3BA5
330
1FB7
100
AcDbEntity
  8
AM_5
 62
     3
100
AcDbLine
 10
16.55592102485921
 20
9.099999424143796
 30
0.0
 11
16.55592102485921
 21
28.89523751938188
 31
0.0
  0
LINE
  5
3BA6
330
1FB7
100
AcDbEntity
  8
AM_5
 62
     3
100
AcDbLine
 10
16.55592102485921
 20
-6.600000575855928
 30
0.0
 11
16.55592102485921
 21
6.599999424143795
 31
0.0
  0
INSERT
  5
3BA7
330
1FB7
100
AcDbEntity
  8
AM_5
 62
     3
100
AcDbBlockReference
  2
_OPEN30
 10
16.55592102485921
 20
-6.600000575855928
 30
0.0
 41
2.5
 42
2.5
 43
2.5
 50
90.0
  0
INSERT
  5
3BA8
330
1FB7
100
AcDbEntity
  8
AM_5
 62
     3
100
AcDbBlockReference
  2
_OPEN30
 10
16.55592102485921
 20
6.599999424143795
 30
0.0
 41
2.5
 42
2.5
 43
2.5
 50
270.0
  0
MTEXT
  5
3BA9
330
1FB7
100
AcDbEntity
  8
AM_5
 62
     2
100
AcDbMText
 10
13.15592102485921
 20
20.24761847176284
 30
0.0
 40
3.799999999999999
 41
0.0
 71
     5
 72
     1
  1
%%c13.2
 11
0.0000000000000001
 21
1.0
 31
0.0
1001
ACAD
1000
MTEXTBEGIN
1070
    73
1070
     1
1070
    44
1040
1.0
1070
    74
1070
     0
1000
MTEXTEND
  0
POINT
  5
3BAA
330
1FB7
100
AcDbEntity
  8
DEFPOINTS
 62
     0
100
AcDbPoint
 10
-2.999999999998081
 20
-6.600000575855923
 30
0.0
  0
POINT
  5
3BAB
330
1FB7
100
AcDbEntity
  8
DEFPOINTS
 62
     0
100
AcDbPoint
 10
-2.999999999998106
 20
6.5999994241438
 30
0.0
  0
POINT
  5
3BAC
330
1FB7
100
AcDbEntity
  8
DEFPOINTS
 62
     0
100
AcDbPoint
 10
16.55592102485921
 20
6.599999424143795
 30
0.0
  0
ENDBLK
  5
1FC4
330
1FB7
100
AcDbEntity
  8
0
100
AcDbBlockEnd
  0
BLOCK
  5
2221
330
2217
100
AcDbEntity
  8
0
100
AcDbBlockBegin
  2
*D8
 70
     1
 10
0.0
 20
0.0
 30
0.0
  3
*D8
  1

  0
LINE
  5
3AE4
330
2217
100
AcDbEntity
  8
AM_5
 62
     3
100
AcDbLine
 10
-178.4999999999993
 20
6.999999999998649
 30
0.0
 11
-196.0000009999988
 21
6.9999999999986
 31
0.0
  0
LINE
  5
3AE5
330
2217
100
AcDbEntity
  8
AM_5
 62
     3
100
AcDbLine
 10
-178.4999999999993
 20
-7.000002054481175
 30
0.0
 11
-196.0000009999987
 21
-7.000002054481225
 31
0.0
  0
LINE
  5
3AE6
330
2217
100
AcDbEntity
  8
AM_5
 62
     3
100
AcDbLine
 10
-195.0000009999988
 20
4.499999999998602
 30
0.0
 11
-195.0000009999988
 21
-4.500002054481222
 31
0.0
  0
INSERT
  5
3AE7
330
2217
100
AcDbEntity
  8
AM_5
 62
     3
100
AcDbBlockReference
  2
_OPEN30
 10
-195.0000009999988
 20
6.999999999998602
 30
0.0
 41
2.5
 42
2.5
 43
2.5
 50
90.00000000000017
  0
INSERT
  5
3AE8
330
2217
100
AcDbEntity
  8
AM_5
 62
     3
100
AcDbBlockReference
  2
_OPEN30
 10
-195.0000009999987
 20
-7.000002054481222
 30
0.0
 41
2.5
 42
2.5
 43
2.5
 50
270.0000000000001
  0
MTEXT
  5
3AE9
330
2217
100
AcDbEntity
  8
AM_5
 62
     2
100
AcDbMText
 10
-198.4000009999988
 20
-0.0000010272413116
 30
0.0
 40
3.799999999999999
 41
0.0
 71
     5
 72
     1
  1
%%c14
 11
-0.0000000000000028
 21
1.0
 31
0.0
1001
ACAD
1000
MTEXTBEGIN
1070
    73
1070
     1
1070
    44
1040
1.0
1070
    74
1070
     0
1000
MTEXTEND
  0
POINT
  5
3AEA
330
2217
100
AcDbEntity
  8
DEFPOINTS
 62
     0
100
AcDbPoint
 10
-178.4999999999993
 20
6.999999999999205
 30
0.0
  0
POINT
  5
3AEB
330
2217
100
AcDbEntity
  8
DEFPOINTS
 62
     0
100
AcDbPoint
 10
-178.4999999999993
 20
-7.00000205448062
 30
0.0
  0
POINT
  5
3AEC
330
2217
100
AcDbEntity
  8
DEFPOINTS
 62
     0
100
AcDbPoint
 10
-195.0000009999988
 20
-7.000002054480615
 30
0.0
  0
ENDBLK
  5
2222
330
2217
100
AcDbEntity
  8
0
100
AcDbBlockEnd
  0
BLOCK
  5
3BC8
330
3BBA
100
AcDbEntity
  8
0
100
AcDbBlockBegin
  2
*D9
 70
     1
 10
0.0
 20
0.0
 30
0.0
  3
*D9
  1

  0
LINE
  5
3D18
330
3BBA
100
AcDbEntity
  8
AM_5
100
AcDbLine
 10
0.3420201408173062
 20
-0.9396926216993124
 30
0.0
 11
13.05838277052628
 21
-35.87761209473383
 31
0.0
  0
LINE
  5
3D19
330
3BBA
100
AcDbEntity
  8
AM_5
100
AcDbLine
 10
0.34202242122555
 20
0.9396917916954418
 30
0.0
 11
13.0584698368717
 21
35.87758040505629
 31
0.0
  0
ARC
  5
3D1A
330
3BBA
100
AcDbEntity
  8
AM_5
100
AcDbCircle
 10
0.0000000000011653
 20
-0.0000000000000106
 30
0.0
 40
37.18015728361707
100
AcDbArc
 50
293.8533037904997
 51
66.14655716634652
  0
INSERT
  5
3D1B
330
3BBA
100
AcDbEntity
  8
AM_5
100
AcDbBlockReference
  2
_OPEN30
 10
12.71636262971014
 20
-34.93791947303453
 30
0.0
 41
2.5
 42
2.5
 43
2.5
 50
201.9266518187433
  0
INSERT
  5
3D1C
330
3BBA
100
AcDbEntity
  8
AM_5
100
AcDbBlockReference
  2
_OPEN30
 10
12.71644741564732
 20
34.93788861336085
 30
0.0
 41
2.5
 42
2.5
 43
2.5
 50
158.073209138103
  0
MTEXT
  5
3D1D
330
3BBA
100
AcDbEntity
  8
AM_5
 62
     2
100
AcDbMText
 10
34.08015728359314
 20
-0.0000413521954834
 30
0.0
 40
3.2
 41
0.0
 71
     5
 72
     1
  1
140°
  7
ASAMI
 11
0.0000012133804173
 21
0.999999999999264
 31
0.0
  0
POINT
  5
3D1E
330
3BBA
100
AcDbEntity
  8
DEFPOINTS
 62
     0
100
AcDbPoint
 10
34.13940734863062
 20
-14.72633564464864
 30
0.0
  0
POINT
  5
3D1F
330
3BBA
100
AcDbEntity
  8
DEFPOINTS
 62
     0
100
AcDbPoint
 10
0.0000000000011653
 20
-0.0000000000000106
 30
0.0
  0
POINT
  5
3D20
330
3BBA
100
AcDbEntity
  8
DEFPOINTS
 62
     0
100
AcDbPoint
 10
0.0000000000011653
 20
-0.0000000000000106
 30
0.0
  0
POINT
  5
3D21
330
3BBA
100
AcDbEntity
  8
DEFPOINTS
 62
     0
100
AcDbPoint
 10
-0.5872917675971792
 20
1.613570883515823
 30
0.0
  0
POINT
  5
3D22
330
3BBA
100
AcDbEntity
  8
DEFPOINTS
 62
     0
100
AcDbPoint
 10
-0.5873037318964962
 20
-1.613591571338162
 30
0.0
  0
ENDBLK
  5
3BC9
330
3BBA
100
AcDbEntity
  8
0
100
AcDbBlockEnd
  0
ENDSEC
  0
SECTION
  2
ENTITIES
  0
LINE
  5
C9F
330
1F
100
AcDbEntity
  8
AM_7
100
AcDbLine
 10
-180.9999999999988
 20
-0.0000000000003117
 30
0.0
 11
0.5559200248592191
 21
0.000000000000001
 31
0.0
1001
GENIUS_GENODEF_13
1002
{
1000
HIER
1070
     0
1002
}
1002
{
1000
MANEDIT
1070
     0
1002
}
1002
{
1000
NOSEL
1070
     0
1002
}
1002
{
1000
BEHIND
1070
     0
1002
}
1002
{
1000
REACTOR
1002
}
1001
GENIUS_GENOBJ-N-CEN_13
1002
{
1000
OWNER
1000
GEN
1002
}
  0
DIMENSION
  5
CC6
330
1F
100
AcDbEntity
  8
AM_5
100
AcDbDimension
  2
*D5
 10
-2.999999999998082
 20
-31.00000305448093
 30
0.0
 11
-90.99999999999845
 21
-27.60000305448093
 31
0.0
 70
    32
  1
<>
  3
AM_JIS$0
100
AcDbAlignedDimension
 13
-178.9999999999988
 23
-6.500002054481138
 33
0.0
 14
-2.999999999998081
 24
-6.600000575855923
 34
0.0
 50
0.0000000000001132
100
AcDbRotatedDimension
1001
GENIUS_GENDTOL_13
1000

1000
h7
1000

1040
0.0
1001
ACAD
1000
DSTYLE
1002
{
1070
   271
1070
     0
1002
}
  0
DIMENSION
  5
DF5
330
1F
100
AcDbEntity
  8
AM_5
100
AcDbDimension
  2
*D6
 10
-2.99999999999807
 20
-21.00000305448085
 30
0.0
 11
-58.9999999999981
 21
-17.60000305448085
 31
0.0
 70
    32
  1
<>
  3
AM_JIS$0
100
AcDbAlignedDimension
 13
-114.9999999999981
 23
-7.000002054481154
 33
0.0
 14
-2.999999999998069
 24
-6.600000575855907
 34
0.0
 50
0.0000000000001527
100
AcDbRotatedDimension
1001
GENIUS_GENDTOL_13
1000

1000
h7
1000

1040
0.0
1001
ACAD
1000
DSTYLE
1002
{
1070
   271
1070
     0
1002
}
  0
TEXT
  5
19BD
330
1F
100
AcDbEntity
  8
AM_6
100
AcDbText
 10
-112.1904761904745
 20
-53.50000305448099
 30
0.0
 40
5.0
  1
MDW132LHK
 50
0.0000000000001527
 72
     4
 11
-90.99999999999839
 21
-51.00000305448094
 31
0.0
100
AcDbText
  0
LINE
  5
1E25
330
1F
100
AcDbEntity
  8
AM_0
100
AcDbLine
 10
-114.9999999999981
 20
-7.000002054481156
 30
0.0
 11
-114.307165512494
 21
-6.599993876616791
 31
0.0
  0
LINE
  5
1E26
330
1F
100
AcDbEntity
  8
AM_0
100
AcDbLine
 10
-114.3071786795626
 20
6.599999424145973
 30
0.0
 11
-115.000019240445
 21
7.000011108476912
 31
0.0
  0
DIMENSION
  5
1FB6
330
1F
100
AcDbEntity
  8
AM_5
100
AcDbDimension
  2
*D7
 10
16.55592102485921
 20
6.599999424143795
 30
0.0
 11
16.55592102485921
 21
20.24761847176284
 31
0.0
 70
   160
  1
%%c<>
  3
AM_JIS$0
100
AcDbAlignedDimension
 13
-2.999999999998081
 23
-6.600000575855923
 33
0.0
 14
-2.999999999998106
 24
6.5999994241438
 34
0.0
 50
89.99999999999969
100
AcDbRotatedDimension
1001
ACAD
1000
DSTYLE
1002
{
1070
   271
1070
     1
1002
}
1001
GENIUS_GENDTOL_13
1000

1000
h7
1000

1040
0.0
  0
LINE
  5
1FD9
330
1F
100
AcDbEntity
  8
AM_0
100
AcDbLine
 10
-114.3071739389476
 20
-6.599998741632082
 30
0.0
 11
-114.3071786795626
 21
6.599999424145976
 31
0.0
  0
LINE
  5
21D7
330
1F
100
AcDbEntity
  8
AM_0
 48
0.5
100
AcDbLine
 10
-114.9999999999981
 20
-7.000002054481142
 30
0.0
 11
-114.9999999999981
 21
6.999999999999688
 31
0.0
  0
LINE
  5
21D8
330
1F
100
AcDbEntity
  8
AM_0
 48
0.5
100
AcDbLine
 10
-178.4999999999988
 20
6.999999999999688
 30
0.0
 11
-114.9999999999981
 21
6.999999999999688
 31
0.0
1001
GENIUS_GENODEF_13
1002
{
1000
HIER
1070
     0
1002
}
1002
{
1000
MANEDIT
1070
     0
1002
}
1002
{
1000
NOSEL
1070
     0
1002
}
1002
{
1000
BEHIND
1070
     0
1002
}
1002
{
1000
REACTOR
1002
}
1001
GENIUS_GENOBJ-N-CEN_13
1002
{
1000
OWNER
1000
GEN
1002
}
  0
LINE
  5
21D9
330
1F
100
AcDbEntity
  8
AM_0
 48
0.5
100
AcDbLine
 10
-178.4999999999988
 20
-7.000002054481142
 30
0.0
 11
-114.9999999999981
 21
-7.000002054481142
 31
0.0
1001
GENIUS_GENODEF_13
1002
{
1000
HIER
1070
     0
1002
}
1002
{
1000
MANEDIT
1070
     0
1002
}
1002
{
1000
NOSEL
1070
     0
1002
}
1002
{
1000
BEHIND
1070
     0
1002
}
1002
{
1000
REACTOR
1002
}
1001
GENIUS_GENOBJ-N-CEN_13
1002
{
1000
OWNER
1000
GEN
1002
}
  0
LINE
  5
21DC
330
1F
100
AcDbEntity
  8
AM_0
100
AcDbLine
 10
-178.4999999999993
 20
-7.000002054480616
 30
0.0
 11
-178.4999999999993
 21
6.999999999999205
 31
0.0
  0
LINE
  5
21DD
330
1F
100
AcDbEntity
  8
AM_0
 48
0.5
100
AcDbLine
 10
-178.9999999999988
 20
-6.500002054481142
 30
0.0
 11
-178.9999999999988
 21
6.499999999999702
 31
0.0
  0
DIMENSION
  5
2216
330
1F
100
AcDbEntity
  8
AM_5
100
AcDbDimension
  2
*D8
 10
-195.0000009999988
 20
-7.000002054480615
 30
0.0
 11
-198.4000009999988
 21
-0.0000010272407343
 31
0.0
 70
    32
  1
%%c<>
 51
359.9999999999998
  3
AM_JIS$0
100
AcDbAlignedDimension
 13
-178.4999999999993
 23
6.999999999999205
 33
0.0
 14
-178.4999999999993
 24
-7.00000205448062
 34
0.0
 50
269.9999999999999
100
AcDbRotatedDimension
1001
ACAD
1000
DSTYLE
1002
{
1070
   271
1070
     0
1002
}
1001
GENIUS_GENDTOL_13
1000

1000
h7
1000

1040
0.0
  0
ELLIPSE
  5
2694
330
1F
100
AcDbEntity
  8
AM_0
 48
0.5
100
AcDbEllipse
 10
8.24058657583766
 20
6.617376299158917
 30
0.0
 11
10.17240772368207
 21
0.0000000000010035
 31
0.0
210
0.0
220
0.0
230
1.0
 40
0.9899999999999971
 41
3.323896559076802
 42
3.661579236128986
  0
LINE
  5
2695
330
1F
100
AcDbEntity
  8
AM_0
 48
0.5
100
AcDbLine
 10
-1.76325026130867
 20
4.7916038607996
 30
0.0
 11
-2.999999999998106
 21
6.5999994241438
 31
0.0
  0
LINE
  5
2696
330
1F
100
AcDbEntity
  8
AM_0
 48
0.5
100
AcDbLine
 10
0.0000000000011653
 20
-0.0000000000000106
 30
0.0
 11
-0.5872917675971792
 21
1.613570883515823
 31
0.0
  0
LINE
  5
2699
330
1F
100
AcDbEntity
  8
AM_0
 48
0.5
100
AcDbLine
 10
0.0000000000011653
 20
-0.0000000000000106
 30
0.0
 11
-0.587303731896496
 21
-1.613591571338162
 31
0.0
  0
LINE
  5
2CB4
330
1F
100
AcDbEntity
  8
AM_0
 48
0.5
100
AcDbLine
 10
-178.9999999999988
 20
6.499999999999688
 30
0.0
 11
-178.4999999999988
 21
6.999999999999688
 31
0.0
1001
GENIUS_GENFIL_13
1070
     0
1040
0.5
1040
0.5
1040
20.0
1040
0.0
1002
{
1002
}
1001
GENIUS_GENODEF_13
1002
{
1000
HIER
1070
     0
1002
}
1002
{
1000
MANEDIT
1070
     0
1002
}
1002
{
1000
NOSEL
1070
     0
1002
}
1002
{
1000
BEHIND
1070
     0
1002
}
1002
{
1000
REACTOR
1002
}
1001
GENIUS_GENOBJ-N-CHA_13
1002
{
1000
OWNER
1000
GEN
1002
}
  0
LINE
  5
2CB7
330
1F
100
AcDbEntity
  8
AM_0
 48
0.5
100
AcDbLine
 10
-178.4999999999988
 20
-7.000002054481142
 30
0.0
 11
-178.9999999999988
 21
-6.500002054481142
 31
0.0
1001
GENIUS_GENFIL_13
1070
     0
1040
0.5
1040
0.5
1040
20.0
1040
0.0
1002
{
1002
}
1001
GENIUS_GENODEF_13
1002
{
1000
HIER
1070
     0
1002
}
1002
{
1000
MANEDIT
1070
     0
1002
}
1002
{
1000
NOSEL
1070
     0
1002
}
1002
{
1000
BEHIND
1070
     0
1002
}
1002
{
1000
REACTOR
1002
}
1001
GENIUS_GENOBJ-N-CHA_13
1002
{
1000
OWNER
1000
GEN
1002
}
  0
ELLIPSE
  5
3366
330
1F
100
AcDbEntity
  8
AM_0
 48
0.5
100
AcDbEllipse
 10
8.240586575837681
 20
-6.617376299158896
 30
0.0
 11
10.17240772368207
 21
-0.0000000000009696
 31
0.0
210
0.0
220
0.0
230
-1.0
 40
0.9899999999999971
 41
3.323896559076802
 42
3.661579236128986
  0
LINE
  5
3367
330
1F
100
AcDbEntity
  8
AM_0
 48
0.5
100
AcDbLine
 10
-1.763250261308655
 20
-4.791603860799622
 30
0.0
 11
-2.999999999998081
 21
-6.600000575855923
 31
0.0
  0
LINE
  5
389B
330
1F
100
AcDbEntity
  8
AM_0
100
AcDbLine
 10
-109.9102079715658
 20
-6.600258419989853
 30
0.0
 11
-114.307165512494
 21
-6.599993876616792
 31
0.0
  0
LINE
  5
389C
330
1F
100
AcDbEntity
  8
AM_0
100
AcDbLine
 10
-106.2493088532285
 20
6.599999424145824
 30
0.0
 11
-114.3071786795626
 21
6.599999424145976
 31
0.0
  0
LINE
  5
389D
330
1F
100
AcDbEntity
  8
AM_0
 48
0.5
100
AcDbLine
 10
-7.796128460449619
 20
6.599999424143899
 30
0.0
 11
-2.999999999998106
 21
6.5999994241438
 31
0.0
  0
LINE
  5
389E
330
1F
100
AcDbEntity
  8
AM_0
 48
0.5
100
AcDbLine
 10
0.0000000000009885
 20
-0.0000000000004964
 30
0.0
 11
-5.147426701677822
 21
2.534198948069148
 31
0.0
  0
LINE
  5
389F
330
1F
100
AcDbEntity
  8
AM_0
 48
0.5
100
AcDbLine
 10
-7.796128460449896
 20
-6.600000575856108
 30
0.0
 11
-2.999999999998098
 21
-6.600000575855905
 31
0.0
  0
LINE
  5
38A0
330
1F
100
AcDbEntity
  8
AM_0
 48
0.5
100
AcDbLine
 10
-51.08971216233017
 20
6.599999424144831
 30
0.0
 11
-28.19777885313619
 21
6.59999942414434
 31
0.0
  0
LINE
  5
38A1
330
1F
100
AcDbEntity
  8
AM_0
 48
0.5
100
AcDbLine
 10
-46.35207401600008
 20
-6.600000575855403
 30
0.0
 11
-28.19777885313648
 21
-6.600000575855652
 31
0.0
  0
LINE
  5
38A2
330
1F
100
AcDbEntity
  8
AM_11
 48
0.5
100
AcDbLine
 10
-64.10924570371898
 20
6.6009370739227
 30
0.0
 11
-51.08969459050868
 21
6.599999424144831
 31
0.0
  0
LINE
  5
38A3
330
1F
100
AcDbEntity
  8
AM_11
 48
0.5
100
AcDbLine
 10
-66.75372440868409
 20
-6.600000575854961
 30
0.0
 11
-46.3520740160001
 21
-6.600938225632964
 31
0.0
  0
LINE
  5
38A4
330
1F
100
AcDbEntity
  8
AM_11
 48
0.5
100
AcDbLine
 10
-106.2493088532285
 20
6.599999424145824
 30
0.0
 11
-89.64580643195438
 21
6.599999424145536
 31
0.0
  0
LINE
  5
38A5
330
1F
100
AcDbEntity
  8
AM_11
 48
0.5
100
AcDbLine
 10
-109.9102079715658
 20
-6.600258419989853
 30
0.0
 11
-89.64580643195459
 21
-6.60000057585447
 31
0.0
  0
LINE
  5
38A6
330
1F
100
AcDbEntity
  8
AM_0
 48
0.5
100
AcDbLine
 10
-94.85299759414925
 20
3.45906753592463
 30
0.0
 11
-112.499999999998
 21
-0.3411006922677491
 31
0.0
  0
LINE
  5
38A7
330
1F
100
AcDbEntity
  8
AM_0
100
AcDbLine
 10
-89.64580643195438
 20
6.599999424145536
 30
0.0
 11
-64.10924570371898
 21
6.6009370739227
 31
0.0
  0
LINE
  5
38A8
330
1F
100
AcDbEntity
  8
AM_0
 48
0.5
100
AcDbLine
 10
-89.64581460317724
 20
-6.60000057585437
 30
0.0
 11
-66.75372140285237
 21
-6.600000575854804
 31
0.0
  0
LINE
  5
38A9
330
1F
100
AcDbEntity
  8
AM_11
 48
0.5
100
AcDbLine
 10
-28.19777885313619
 20
6.59999942414434
 30
0.0
 11
-7.796128460449619
 21
6.599999424143899
 31
0.0
  0
LINE
  5
38AA
330
1F
100
AcDbEntity
  8
AM_11
 48
0.5
100
AcDbLine
 10
-28.19777885313648
 20
-6.600000575855652
 30
0.0
 11
-7.796128460449896
 21
-6.600000575856108
 31
0.0
  0
ELLIPSE
  5
38AB
330
1F
100
AcDbEntity
  8
AM_0
 48
0.5
100
AcDbEllipse
 10
-110.4416475519221
 20
-4.358692801550916
 30
0.0
 11
2.041650535431885
 21
0.3309570184178026
 31
0.0
210
0.0
220
0.0
230
1.0
 40
0.8071759819088375
 41
1.042182278798634
 42
2.985392214464424
  0
ELLIPSE
  5
38AC
330
1F
100
AcDbEntity
  8
AM_0
 48
0.5
100
AcDbEllipse
 10
-109.8890147554687
 20
-4.400335693358826
 30
0.0
 11
-2.611219590548973
 21
0.0020433617509076
 31
0.0
210
0.0
220
0.0
230
0.9999999999999998
 40
0.8425178560647681
 41
0.0140730565515186
 42
1.57145530968442
  0
ELLIPSE
  5
38AD
330
1F
100
AcDbEntity
  8
AM_0
 48
0.5
100
AcDbEllipse
 10
4.657214521662252
 20
-1.46708965666651
 30
0.0
 11
10.17368302662646
 21
1.534870503320019
 31
0.0
210
0.0
220
0.0
230
1.0
 40
0.6523680331657284
 41
3.112240788636709
 42
3.767687239494089
  0
ELLIPSE
  5
38AE
330
1F
100
AcDbEntity
  8
AM_0
 48
0.5
100
AcDbEllipse
 10
-3.903882710022063
 20
-1.720055583791192
 30
0.0
 11
-0.1828916216589899
 21
1.083826209937118
 31
0.0
210
0.0
220
0.0
230
1.0
 40
0.4875744378254905
 41
1.811705204730196
 42
4.947047094442171
  0
ELLIPSE
  5
38AF
330
1F
100
AcDbEntity
  8
AM_0
 48
0.5
100
AcDbEllipse
 10
-3.903882710022063
 20
-1.720055583791192
 30
0.0
 11
-0.923192800004455
 21
0.5574380494356081
 31
0.0
210
0.0
220
0.0
230
1.0
 40
0.5064907603776229
 41
4.499596384849734
 42
7.643036726179243
  0
ELLIPSE
  5
38B0
330
1F
100
AcDbEntity
  8
AM_0
 48
0.5
100
AcDbEllipse
 10
2.112920074666194
 20
7.923705478831151
 30
0.0
 11
-0.0000000000000309
 21
13.30193538665748
 31
0.0
210
0.0
220
0.0
230
1.0
 40
0.9736486486486498
 41
2.101163880028966
 42
2.509284810223862
  0
ELLIPSE
  5
38B1
330
1F
100
AcDbEntity
  8
AM_0
 48
0.5
100
AcDbEllipse
 10
-13.11315099231921
 20
11.07719211213179
 30
0.0
 11
-0.0000000000007367
 21
15.91329927444408
 31
0.0
210
0.0
220
0.0
230
1.0
 40
0.9736486486486349
 41
3.652175978818132
 42
3.740670756497629
  0
ELLIPSE
  5
38B2
330
1F
100
AcDbEntity
  8
AM_0
 48
0.5
100
AcDbEllipse
 10
-19.90251556268521
 20
45.30395314723527
 30
0.0
 11
46.35251852567901
 21
17.32186506770708
 31
0.0
210
0.0
220
0.0
230
0.9999999999999998
 40
0.9999908460551191
 41
4.693622437295636
 42
4.768688663526217
  0
SPLINE
  5
38B3
330
1F
100
AcDbEntity
  8
AM_0
100
AcDbSpline
210
0.0
220
0.0
230
1.0
 70
     8
 71
     3
 72
    46
 73
    42
 74
     0
 42
0.0000000001
 43
0.0000000001
 40
0.0
 40
0.0
 40
0.0
 40
0.0
 40
1.348332046947657
 40
2.024828967632895
 40
2.703918159304097
 40
3.386347665078124
 40
4.072776489761952
 40
4.763750544421347
 40
5.459696642770596
 40
6.160921452191754
 40
6.867565637253344
 40
7.579665907256596
 40
8.297112853413899
 40
9.019671552060676
 40
9.746986763446127
 40
10.47859339096366
 40
11.21393074760089
 40
11.95235532364328
 40
12.69315551794651
 40
13.43556823304427
 40
14.1787950170388
 40
14.92202180103393
 40
15.66443451613169
 40
16.40523471043432
 40
17.14365928647669
 40
17.87899664311455
 40
18.61060327063121
 40
19.3379184820169
 40
20.06048192311554
 40
20.77792886927283
 40
21.49002913927608
 40
22.19667332433747
 40
22.89788836015233
 40
23.59383445850158
 40
24.28480851316097
 40
24.97123685067576
 40
25.65366676154838
 40
26.33276604526152
 40
27.00926273560555
 40
27.68398960851751
 40
28.357818684969
 40
28.357818684969
 40
28.357818684969
 40
28.357818684969
 10
-4.764357480027062
 20
-6.60000057585617
 30
0.0
 10
-5.486593432608335
 20
-6.584965265670115
 30
0.0
 10
-6.57119590984165
 20
-6.562386308453326
 30
0.0
 10
-8.013439121420617
 20
-6.423371816844755
 30
0.0
 10
-9.096375676862963
 20
-6.2832082298093
 30
0.0
 10
-10.1792196670096
 20
-6.103261993067303
 30
0.0
 10
-11.26196823927867
 20
-5.885925916906863
 30
0.0
 10
-12.34461583137842
 20
-5.632239052925115
 30
0.0
 10
-13.42716063003681
 20
-5.343854010001432
 30
0.0
 10
-14.50959781754712
 20
-5.022541514989517
 30
0.0
 10
-15.59192955744167
 20
-4.67029446714007
 30
0.0
 10
-16.6741529385772
 20
-4.289284945434371
 30
0.0
 10
-17.75628534745131
 20
-3.881879722009961
 30
0.0
 10
-18.83833204344385
 20
-3.450583334016231
 30
0.0
 10
-19.92030297698335
 20
-2.99805537191918
 30
0.0
 10
-21.00221017161346
 20
-2.527087645501574
 30
0.0
 10
-22.08406310922365
 20
-2.040576348267865
 30
0.0
 10
-23.16587231897257
 20
-1.541513780795772
 30
0.0
 10
-24.2476492711218
 20
-1.032971380757635
 30
0.0
 10
-25.32940384777443
 20
-0.518076326439735
 30
0.0
 10
-26.4111493310071
 20
-0.0000005759605226
 30
0.0
 10
-27.49289481400213
 20
0.5180751751482572
 30
0.0
 10
-28.57464939136759
 20
1.03297022757838
 30
0.0
 10
-29.65642634091135
 20
1.541512634515503
 30
0.0
 10
-30.73823556032146
 20
2.040575176401752
 30
0.0
 10
-31.82008846210888
 20
2.527086568505207
 30
0.0
 10
-32.90199578940284
 20
2.998053943586745
 30
0.0
 10
-33.9839685843795
 20
3.450584189055674
 30
0.0
 10
-35.06601948468349
 20
3.881876658503087
 30
0.0
 10
-36.14815382391597
 20
4.289283970961963
 30
0.0
 10
-37.23037717985422
 20
4.670293606038261
 30
0.0
 10
-38.31270447365297
 20
5.022537417038361
 30
0.0
 10
-39.39513444910688
 20
5.343854882482403
 30
0.0
 10
-40.47767482889002
 20
5.632241103490543
 30
0.0
 10
-41.56032179441019
 20
5.885911369945814
 30
0.0
 10
-42.64307116048427
 20
6.103310482132708
 30
0.0
 10
-43.7259220614248
 20
6.282999753341243
 30
0.0
 10
-44.80885303676962
 20
6.424150065918134
 30
0.0
 10
-45.89185101252691
 20
6.524853381513957
 30
0.0
 10
-46.97488830030509
 20
6.588222117259747
 30
0.0
 10
-47.6970892697628
 20
6.596075397947917
 30
0.0
 10
-48.05794935309251
 20
6.59999942414477
 30
0.0
  0
SPLINE
  5
38B4
330
1F
100
AcDbEntity
  8
AM_0
100
AcDbSpline
210
0.0
220
0.0
230
1.0
 70
     8
 71
     3
 72
    23
 73
    19
 74
     0
 42
0.0000000001
 43
0.0000000001
 40
16.03460024169435
 40
16.03460024169435
 40
16.03460024169435
 40
16.03460024169435
 40
16.35212704903564
 40
17.38177054169784
 40
18.41822485651776
 40
19.46214173629503
 40
20.51396345435107
 40
21.57393551351153
 40
22.64208202342361
 40
23.7182574881101
 40
24.80209208578934
 40
25.89306333925047
 40
26.99048218457928
 40
28.09348763352352
 40
29.20111863782268
 40
30.31232390128032
 40
31.42594612798585
 40
32.5407912310448
 40
32.5407912310486
 40
32.5407912310486
 40
32.5407912310486
 10
-64.10924570371898
 20
6.600937073922698
 30
0.0
 10
-63.9979768409531
 20
6.578656636180157
 30
0.0
 10
-63.52637050725259
 20
6.4816316007779
 30
0.0
 10
-62.69563087158696
 20
6.291525851794331
 30
0.0
 10
-61.61982086865029
 20
6.008840682031991
 30
0.0
 10
-60.54501012864699
 20
5.691432355236282
 30
0.0
 10
-59.4711351401533
 20
5.341137868907583
 30
0.0
 10
-58.39815778944283
 20
4.959910122649223
 30
0.0
 10
-57.32601606099624
 20
4.549928375027573
 30
0.0
 10
-56.25463529493861
 20
4.113578616975709
 30
0.0
 10
-55.18395461156681
 20
3.653331871732664
 30
0.0
 10
-54.11388817052805
 20
3.171866207869111
 30
0.0
 10
-53.04434925490347
 20
2.671980111839875
 30
0.0
 10
-51.97526660436561
 20
2.156547719131439
 30
0.0
 10
-50.90655077006752
 20
1.628566198521808
 30
0.0
 10
-49.83810276628915
 20
1.091118574733958
 30
0.0
 10
-48.76983559120207
 20
0.547319211212054
 30
0.0
 10
-48.05784876527107
 20
0.1827314726124908
 30
0.0
 10
-47.70166118910612
 20
0.0003351175026131
 30
0.0
  0
SPLINE
  5
38B5
330
1F
100
AcDbEntity
  8
AM_0
100
AcDbSpline
210
0.0
220
0.0
230
1.0
 70
     8
 71
     3
 72
    11
 73
     7
 74
     0
 42
0.0000000001
 43
0.0000000001
 40
11.27226913003534
 40
11.27226913003534
 40
11.27226913003534
 40
11.2722691300354
 40
12.28301561507924
 40
13.29510212255852
 40
14.30984805882082
 40
15.18258238371378
 40
15.18258238371378
 40
15.18258238371378
 40
15.18258238371378
 10
-66.75372440868665
 20
-6.60000057585496
 30
0.0
 10
-67.11321225563382
 20
-6.567698257907476
 30
0.0
 10
-67.83150988708982
 20
-6.489495752010903
 30
0.0
 10
-68.90524717921497
 20
-6.331741954273548
 30
0.0
 10
-69.92424280237843
 20
-6.143322339905608
 30
0.0
 10
-70.58326935759748
 20
-5.99847857461352
 30
0.0
 10
-70.8869675600064
 20
-5.926929755288188
 30
0.0
  0
SPLINE
  5
38B6
330
1F
100
AcDbEntity
  8
AM_0
100
AcDbSpline
210
0.0
220
0.0
230
1.0
 70
     8
 71
     3
 72
    17
 73
    13
 74
     0
 42
0.0000000001
 43
0.0000000001
 40
1.580019955310467
 40
1.580019955310467
 40
1.580019955310467
 40
1.580019955310467
 40
2.030549285115227
 40
3.082371838836284
 40
4.126290986361125
 40
5.162752068350215
 40
6.192395305374981
 40
7.216039564037012
 40
8.234688489606833
 40
9.249433870634691
 40
10.26152376260694
 40
11.27226744710342
 40
11.27226744710342
 40
11.27226744710342
 40
11.27226744710352
 10
-56.55210335007414
 20
-4.870994923351558
 30
0.0
 10
-56.70533517469974
 20
-4.92116211861117
 30
0.0
 10
-57.21718094904954
 20
-5.085591801861303
 30
0.0
 10
-58.09102861830474
 20
-5.343505643435291
 30
0.0
 10
-59.17341822888232
 20
-5.63233493138667
 30
0.0
 10
-60.2561058203063
 20
-5.885888697868217
 30
0.0
 10
-61.33884302009776
 20
-6.103315452345087
 30
0.0
 10
-62.42169818216662
 20
-6.283033622105045
 30
0.0
 10
-63.50462815559136
 20
-6.42401763479802
 30
0.0
 10
-64.58762556090504
 20
-6.525353866847948
 30
0.0
 10
-65.67066371585617
 20
-6.58639000516074
 30
0.0
 10
-66.39286439430941
 20
-6.600000613620514
 30
0.0
 10
-66.75372440868658
 20
-6.60000057585496
 30
0.0
  0
SPLINE
  5
38B7
330
1F
100
AcDbEntity
  8
AM_0
 48
0.5
100
AcDbSpline
210
0.0
220
0.0
230
1.0
 70
     8
 71
     3
 72
    17
 73
    13
 74
     0
 42
0.0000000001
 43
0.0000000001
 40
0.0
 40
0.0
 40
0.0
 40
0.0
 40
1.010743614677189
 40
2.022833924044153
 40
3.037578959561199
 40
4.056212747067873
 40
5.079857613375832
 40
6.109500119648989
 40
7.14596120163808
 40
8.18989512056258
 40
9.241717674284874
 40
9.693948937866434
 40
9.693948937866434
 40
9.693948937866434
 40
9.693948937866434
 10
-7.796128460449621
 20
6.599999424143896
 30
0.0
 10
-8.15698854525983
 20
6.5960754139106
 30
0.0
 10
-8.879189517680242
 20
6.588222165170883
 30
0.0
 10
-9.962226783193296
 20
6.524853189357742
 30
0.0
 10
-11.04521946069078
 20
6.424151290310118
 30
0.0
 10
-12.12814478526031
 20
6.282998531898209
 30
0.0
 10
-13.21098985957502
 20
6.103309269522366
 30
0.0
 10
-14.29374145775274
 20
5.885916606911118
 30
0.0
 10
-15.37638504744728
 20
5.63221997252798
 30
0.0
 10
-16.45896263957578
 20
5.343927317452675
 30
0.0
 10
-17.33284750153554
 20
5.08421921399256
 30
0.0
 10
-17.84604392929134
 20
4.921864301670549
 30
0.0
 10
-18.0000779635749
 20
4.87216854986027
 30
0.0
  0
SPLINE
  5
38B9
330
1F
100
AcDbEntity
  8
AM_0
 48
0.5
100
AcDbSpline
210
0.0
220
0.0
230
1.0
 70
     8
 71
     3
 72
    25
 73
    21
 74
     0
 42
0.0000000001
 43
0.0000000001
 40
6.846175049578289
 40
6.846175049578289
 40
6.846175049578289
 40
6.846175049578289
 40
7.604337694224321
 40
8.711974558287883
 40
9.814980593243754
 40
10.91239053451967
 40
12.0033633515982
 40
13.08720139956839
 40
14.16337181880432
 40
15.23152222380919
 40
16.29148850140128
 40
17.34331105512262
 40
18.38723020264746
 40
19.42369128463655
 40
20.45333379090873
 40
21.47697865721768
 40
22.49561244472435
 40
23.5103574802404
 40
24.52244778960836
 40
25.53320666051913
 40
25.53320666051913
 40
25.53320666051913
 40
25.53320666051913
 10
-9.059223570447024
 20
1.194642633359459
 30
0.0
 10
-9.305252770870428
 20
1.310526895302678
 30
0.0
 10
-9.911235835025086
 20
1.594552515153782
 30
0.0
 10
-10.87807331818649
 20
2.040574982642459
 30
0.0
 10
-11.95992613664402
 20
2.52708655020612
 30
0.0
 10
-13.04183336218243
 20
2.998054207028662
 30
0.0
 10
-14.12380429040108
 20
3.450582179100448
 30
0.0
 10
-15.20585097712624
 20
3.881878595907285
 30
0.0
 10
-16.28798342789098
 20
4.2892836955275
 30
0.0
 10
-17.37020665239861
 20
4.670293678740035
 30
0.0
 10
-18.45253398086295
 20
5.022537398738698
 30
0.0
 10
-19.53496394768362
 20
5.343854883798155
 30
0.0
 10
-20.61750432772794
 20
5.632241116175901
 30
0.0
 10
-21.7001513006611
 20
5.885911318442582
 30
0.0
 10
-22.78290063711688
 20
6.103310673750824
 30
0.0
 10
-23.86574631210412
 20
6.282998158335733
 30
0.0
 10
-24.94867147697892
 20
6.424151390618863
 30
0.0
 10
-26.0316641968069
 20
6.524853159497673
 30
0.0
 10
-27.11470689135279
 20
6.588222502965563
 30
0.0
 10
-27.83691331786112
 20
6.596075506699315
 30
0.0
 10
-28.19777885313619
 20
6.599999424144342
 30
0.0
  0
SPLINE
  5
38BA
330
1F
100
AcDbEntity
  8
AM_0
 48
0.5
100
AcDbSpline
210
0.0
220
0.0
230
1.0
 70
     8
 71
     3
 72
    10
 73
     6
 74
     0
 42
0.0000000001
 43
0.0000000001
 40
0.0
 40
0.0
 40
0.0
 40
0.0
 40
2.69986029516136
 40
4.147722969032201
 40
6.285750005020438
 40
6.285750005020438
 40
6.285750005020438
 40
6.285750005020438
 10
-9.059050416486339
 20
1.194564243479739
 30
0.0
 10
-8.288230279272244
 20
0.5813786354241782
 30
0.0
 10
-7.104039973631172
 20
-0.3606419703716631
 30
0.0
 10
-4.303588975936845
 20
0.0954067077028226
 30
0.0
 10
-4.83099535494203
 20
1.631438999679916
 30
0.0
 10
-5.179471792814196
 20
2.567697990161212
 30
0.0
  0
SPLINE
  5
38BB
330
1F
100
AcDbEntity
  8
AM_0
100
AcDbSpline
210
0.0
220
0.0
230
1.0
 70
     8
 71
     3
 72
    55
 73
    51
 74
     0
 42
0.0000000001
 43
0.0000000001
 40
0.0
 40
0.0
 40
0.0
 40
0.0
 40
1.010743684496582
 40
2.022833576467832
 40
3.037578957496688
 40
4.056212745003489
 40
5.079857003664532
 40
6.109500240690281
 40
7.145961322679372
 40
8.189895241603872
 40
9.241717795325891
 40
10.30168407291828
 40
11.36983447792315
 40
12.44600489715814
 40
13.52984294512926
 40
14.62081576220742
 40
15.7182257034828
 40
16.82123173843959
 40
17.92886860250316
 40
19.0400688939571
 40
20.15368796660465
 40
21.26852814259644
 40
22.38336992938901
 40
23.49698739941135
 40
24.6081876908653
 40
25.71582455492886
 40
26.81883757994213
 40
27.91624752121713
 40
29.00722033829659
 40
30.09105838626677
 40
31.16722880550176
 40
32.23537921050758
 40
33.29534548809967
 40
34.347168041821
 40
35.39108718934584
 40
36.42754827133493
 40
37.45720575381954
 40
38.48085062012849
 40
39.49948440763516
 40
40.51422944315121
 40
41.52631975251916
 40
42.53706336719636
 40
43.54780698187354
 40
44.55989729124051
 40
45.57464232675757
 40
46.59327611426424
 40
47.6169209805722
 40
48.64656348684535
 40
49.68302456883444
 40
50.58557219878025
 40
50.58557219878025
 40
50.58557219878025
 40
50.58557219878025
 10
-7.796128460449897
 20
-6.600000575856102
 30
0.0
 10
-8.156988479587893
 20
-6.596073735750869
 30
0.0
 10
-8.879189146595519
 20
-6.588214825390005
 30
0.0
 10
-9.962227324518478
 20
-6.524863185147243
 30
0.0
 10
-11.04521927162517
 20
-6.424150626456026
 30
0.0
 10
-12.12814419216282
 20
-6.282998145063271
 30
0.0
 10
-13.21099128024546
 20
-6.10331862771771
 30
0.0
 10
-14.2937391737211
 20
-5.8859110805991
 30
0.0
 10
-15.37639149433344
 20
-5.632240038435436
 30
0.0
 10
-16.45893864114439
 20
-5.343858861316662
 30
0.0
 10
-17.54137324003494
 20
-5.022538192175928
 30
0.0
 10
-18.62370068634314
 20
-4.670294927638098
 30
0.0
 10
-19.70592387875777
 20
-4.289284820630353
 30
0.0
 10
-20.78805633879074
 20
-3.881879755851975
 30
0.0
 10
-21.87010302084752
 20
-3.450583324715155
 30
0.0
 10
-22.9520739584634
 20
-2.998055374966747
 30
0.0
 10
-24.03398115084248
 20
-2.527087642674574
 30
0.0
 10
-25.11583409337992
 20
-2.040576356561026
 30
0.0
 10
-26.19764328558179
 20
-1.54151375029326
 30
0.0
 10
-27.27942030326616
 20
-1.032971494921256
 30
0.0
 10
-28.36117463464724
 20
-0.5180758992384881
 30
0.0
 10
-29.44292155577177
 20
-0.0000019224953797
 30
0.0
 10
-30.52466362075777
 20
0.5180813799021779
 30
0.0
 10
-31.60642157794356
 20
1.032968957298591
 30
0.0
 10
-32.6881972601597
 20
1.54151275199905
 30
0.0
 10
-33.77000838121539
 20
2.040577259472903
 30
0.0
 10
-34.85186581179779
 20
2.527084393613707
 30
0.0
 10
-35.93377471171227
 20
2.998054514367577
 30
0.0
 10
-37.01574580552875
 20
3.450582097162474
 30
0.0
 10
-38.09779244821334
 20
3.881878618999312
 30
0.0
 10
-39.1799249110172
 20
4.289283684373638
 30
0.0
 10
-40.26214813099689
 20
4.670293700276121
 30
0.0
 10
-41.3444754655971
 20
5.022537324486728
 30
0.0
 10
-42.42690541258137
 20
5.34385515637007
 30
0.0
 10
-43.50944586508858
 20
5.632240110562772
 30
0.0
 10
-44.59209778409308
 20
5.885916253731966
 30
0.0
 10
-45.67485340875157
 20
6.103298969890763
 30
0.0
 10
-46.75770407425501
 20
6.283034101845305
 30
0.0
 10
-47.84062931582005
 20
6.424019265190287
 30
0.0
 10
-48.92362201542248
 20
6.525343414562541
 30
0.0
 10
-50.00665927505812
 20
6.586398704528734
 30
0.0
 10
-51.08972033378075
 20
6.606795256644836
 30
0.0
 10
-52.17278139090979
 20
6.586398704496796
 30
0.0
 10
-53.25581865533543
 20
6.525343414690907
 30
0.0
 10
-54.33881133730242
 20
6.424019264706897
 30
0.0
 10
-55.42173664498692
 20
6.283034103662295
 30
0.0
 10
-56.50458178281892
 20
6.103299839296836
 30
0.0
 10
-57.58733314183237
 20
5.885918476352975
 30
0.0
 10
-58.62075922762094
 20
5.643755401429446
 30
0.0
 10
-59.29125784107134
 20
5.466659255407216
 30
0.0
 10
-59.60233011822668
 20
5.380351664180308
 30
0.0
  0
SPLINE
  5
38BC
330
1F
100
AcDbEntity
  8
AM_0
100
AcDbSpline
210
0.0
220
0.0
230
1.0
 70
     8
 71
     3
 72
    11
 73
     7
 74
     0
 42
0.0000000001
 43
0.0000000001
 40
11.27226913003534
 40
11.27226913003534
 40
11.27226913003534
 40
11.2722691300354
 40
12.28301561507924
 40
13.29510212255852
 40
14.30984805882082
 40
15.18258238371378
 40
15.18258238371378
 40
15.18258238371378
 40
15.18258238371378
 10
-28.19777885313645
 20
-6.600000575855657
 30
0.0
 10
-28.55726670008364
 20
-6.567698257908174
 30
0.0
 10
-29.27556433153965
 20
-6.489495752011603
 30
0.0
 10
-30.34930162366479
 20
-6.331741954274249
 30
0.0
 10
-31.36829724682824
 20
-6.143322339906304
 30
0.0
 10
-32.02732380204727
 20
-5.998478574614222
 30
0.0
 10
-32.3310220044562
 20
-5.92692975528889
 30
0.0
  0
SPLINE
  5
38BD
330
1F
100
AcDbEntity
  8
AM_0
100
AcDbSpline
210
0.0
220
0.0
230
1.0
 70
     8
 71
     3
 72
    22
 73
    18
 74
     0
 42
0.0000000001
 43
0.0000000001
 40
17.17441611292
 40
17.17441611292
 40
17.17441611292
 40
17.17441611292
 40
17.38177636558528
 40
18.41823744757437
 40
19.46215659509824
 40
20.51397914882054
 40
21.57394542641293
 40
22.64209583141747
 40
23.71826625065247
 40
24.80210429862395
 40
25.8930771157021
 40
26.99048705697709
 40
28.09349309193389
 40
29.20112995599786
 40
30.31233024745139
 40
31.42594771747373
 40
32.5407895042663
 40
32.54078950426994
 40
32.54078950426994
 40
32.54078950426994
 10
-32.33149565438111
 20
-5.926848344339358
 30
0.0
 10
-32.40401743320969
 20
-5.911569991679034
 30
0.0
 10
-32.83874589083677
 20
-5.818507875659918
 30
0.0
 10
-33.63514392835856
 20
-5.631906220737507
 30
0.0
 10
-34.71768422606874
 20
-5.343520438012551
 30
0.0
 10
-35.80011421519496
 20
-5.02220283109912
 30
0.0
 10
-36.88244153763228
 20
-4.669959144171262
 30
0.0
 10
-37.96466476370152
 20
-4.288949151828671
 30
0.0
 10
-39.04679721431573
 20
-3.881544055316363
 30
0.0
 10
-40.12884390005233
 20
-3.450247635274625
 30
0.0
 10
-41.21081483241617
 20
-2.99771967309354
 30
0.0
 10
-42.2927220422381
 20
-2.526751979663777
 30
0.0
 10
-43.37457491981987
 20
-2.040240549574652
 30
0.0
 10
-44.45638435575983
 20
-1.541178483354623
 30
0.0
 10
-45.53815993935698
 20
-1.032634447805171
 30
0.0
 10
-46.61991769617592
 20
-0.5177464344977541
 30
0.0
 10
-47.34094797665981
 20
-0.1724219658422562
 30
0.0
 10
-47.70166118911092
 20
0.0003351175049844
 30
0.0
  0
SPLINE
  5
38BE
330
1F
100
AcDbEntity
  8
AM_0
100
AcDbSpline
210
0.0
220
0.0
230
1.0
 70
     8
 71
     3
 72
    17
 73
    13
 74
     0
 42
0.0000000001
 43
0.0000000001
 40
1.580019955310467
 40
1.580019955310467
 40
1.580019955310467
 40
1.580019955310467
 40
2.030549285115227
 40
3.082371838836284
 40
4.126290986361125
 40
5.162752068350215
 40
6.192395305374981
 40
7.216039564037012
 40
8.234688489606833
 40
9.249433870634691
 40
10.26152376260694
 40
11.27226744710342
 40
11.27226744710342
 40
11.27226744710342
 40
11.27226744710352
 10
-17.99615779452391
 20
-4.870994923352259
 30
0.0
 10
-18.14938961914952
 20
-4.92116211861187
 30
0.0
 10
-18.66123539349934
 20
-5.085591801862005
 30
0.0
 10
-19.53508306275455
 20
-5.343505643435991
 30
0.0
 10
-20.61747267333213
 20
-5.632334931387367
 30
0.0
 10
-21.7001602647561
 20
-5.885888697868916
 30
0.0
 10
-22.78289746454757
 20
-6.103315452345785
 30
0.0
 10
-23.86575262661644
 20
-6.283033622105742
 30
0.0
 10
-24.94868260004119
 20
-6.424017634798723
 30
0.0
 10
-26.03168000535487
 20
-6.525353866848651
 30
0.0
 10
-27.11471816030599
 20
-6.586390005161442
 30
0.0
 10
-27.83691883875921
 20
-6.600000613621218
 30
0.0
 10
-28.19777885313639
 20
-6.600000575855657
 30
0.0
  0
SPLINE
  5
38BF
330
1F
100
AcDbEntity
  8
AM_0
 48
0.5
100
AcDbSpline
210
0.0
220
0.0
230
1.0
 70
     8
 71
     3
 72
    26
 73
    22
 74
     0
 42
0.0000000001
 43
0.0000000001
 40
0.0
 40
0.0
 40
0.0
 40
0.0
 40
0.4211432018735474
 40
0.8428473235286537
 40
1.265657898956934
 40
1.690088643751428
 40
2.116607084860617
 40
2.545625100287603
 40
2.977483884449724
 40
3.412450195918404
 40
3.850709593302191
 40
4.292362208965671
 40
4.737427885281768
 40
5.185826256336565
 40
5.637431371058531
 40
6.092003378174421
 40
6.549257520372505
 40
7.008843368271169
 40
7.470358728297647
 40
7.933358849736796
 40
8.383035712276667
 40
8.383035712276667
 40
8.383035712276667
 40
8.383035712276667
 10
-86.69111855679657
 20
-6.600335693359004
 30
0.0
 10
-87.13090184763032
 20
-6.596408853424883
 30
0.0
 10
-88.0110541757762
 20
-6.588549943406476
 30
0.0
 10
-89.33096236283128
 20
-6.525198300590507
 30
0.0
 10
-90.65081421181403
 20
-6.424485751718004
 30
0.0
 10
-91.97058436047806
 20
-6.283333233417425
 30
0.0
 10
-93.29025970836559
 20
-6.103653854860209
 30
0.0
 10
-94.60981396242422
 20
-5.88624578516985
 30
0.0
 10
-95.92924624481325
 20
-5.632577917620023
 30
0.0
 10
-97.24854755703374
 20
-5.344190903080881
 30
0.0
 10
-98.56771478012948
 20
-5.022874134793545
 30
0.0
 10
-99.88675877089598
 20
-4.670627515049925
 30
0.0
 10
-101.205674063646
 20
-4.289626053185866
 30
0.0
 10
-102.5244756020609
 20
-3.882206906646758
 30
0.0
 10
-103.8431810194265
 20
-3.450922916861443
 30
0.0
 10
-105.1617931649695
 20
-2.998390363655256
 30
0.0
 10
-106.4803218682506
 20
-2.527420728194806
 30
0.0
 10
-107.798791342498
 20
-2.040919791447866
 30
0.0
 10
-109.1171797985401
 20
-1.541817462250819
 30
0.0
 10
-110.3502705148124
 20
-1.038671552890434
 30
0.0
 10
-111.1104380951093
 20
-0.8397550145574403
 30
0.0
 10
-112.499999999998
 20
-0.3411006922677491
 30
0.0
  0
SPLINE
  5
38C0
330
1F
100
AcDbEntity
  8
AM_0
100
AcDbSpline
210
0.0
220
0.0
230
1.0
 70
     8
 71
     3
 72
    13
 73
     9
 74
     0
 42
0.0000000001
 43
0.0000000001
 40
16.03460056234195
 40
16.03460056234195
 40
16.03460056234195
 40
16.03460056234195
 40
16.35212717791071
 40
17.38177067057215
 40
18.41822498539278
 40
19.46214186516937
 40
20.5139635832251
 40
21.34083983469381
 40
21.34083983469381
 40
21.34083983469381
 40
21.34083983469381
 10
-109.6515904218484
 20
-6.600935934271029
 30
0.0
 10
-109.5159860216276
 20
-6.578656152707718
 30
0.0
 10
-108.9412347440925
 20
-6.481633779359592
 30
0.0
 10
-107.928805568723
 20
-6.291525810846811
 30
0.0
 10
-106.6177062565382
 20
-6.008841424902731
 30
0.0
 10
-105.3078249645912
 20
-5.691432885835795
 30
0.0
 10
-104.0957538588355
 20
-5.367012870651072
 30
0.0
 10
-103.3224738378198
 20
-5.143626602422187
 30
0.0
 10
-102.6217578950963
 20
-4.92486353089743
 30
0.0
  0
SPLINE
  5
38C1
330
1F
100
AcDbEntity
  8
AM_0
 48
0.5
100
AcDbSpline
210
0.0
220
0.0
230
1.0
 70
     8
 71
     3
 72
    19
 73
    15
 74
     0
 42
0.0000000001
 43
0.0000000001
 40
3.111699631838226
 40
3.111699631838226
 40
3.111699631838226
 40
3.111699631838226
 40
4.056212471389632
 40
5.079857945358201
 40
6.109499720892564
 40
7.145961650132166
 40
8.189873411961459
 40
9.241710626092514
 40
10.30166235592959
 40
11.36982472628033
 40
12.44598212828784
 40
13.52983440361964
 40
14.62080578343036
 40
14.90544694398022
 40
14.90544694398022
 40
14.90544694398022
 40
14.90544694398022
 10
-94.10849362879835
 20
-6.600057899131784
 30
0.0
 10
-94.92227616290886
 20
-6.499862672679839
 30
0.0
 10
-95.69727334915159
 20
-6.374304558903632
 30
0.0
 10
-97.09980102242598
 20
-6.16986043002664
 30
0.0
 10
-98.30466210960466
 20
-5.886250407008698
 30
0.0
 10
-99.62408864713459
 20
-5.632573321429343
 30
0.0
 10
-100.9433920028473
 20
-5.344182131637449
 30
0.0
 10
-102.2625602944746
 20
-5.022877504009628
 30
0.0
 10
-103.58160041586
 20
-4.670614934702486
 30
0.0
 10
-104.9005208699662
 20
-4.289636031500909
 30
0.0
 10
-106.219320666129
 20
-3.88220569785641
 30
0.0
 10
-107.5380245105089
 20
-3.45091944945975
 30
0.0
 10
-108.5291226064232
 20
-3.110803579152778
 30
0.0
 10
-109.0813970511934
 20
-2.916404280415835
 30
0.0
 10
-109.6426452601999
 20
-2.768744370845205
 30
0.0
  0
SPLINE
  5
38C2
330
1F
100
AcDbEntity
  8
AM_0
100
AcDbSpline
210
0.0
220
0.0
230
1.0
 70
     8
 71
     3
 72
    23
 73
    19
 74
     0
 42
0.0000000001
 43
0.0000000001
 40
16.03460024169435
 40
16.03460024169435
 40
16.03460024169435
 40
16.03460024169435
 40
16.35212704903564
 40
17.38177054169784
 40
18.41822485651776
 40
19.46214173629503
 40
20.51396345435107
 40
21.57393551351153
 40
22.64208202342361
 40
23.7182574881101
 40
24.80209208578934
 40
25.89306333925047
 40
26.99048218457928
 40
28.09348763352352
 40
29.20111863782268
 40
30.31232390128032
 40
31.42594612798585
 40
32.5407912310448
 40
32.5407912310486
 40
32.5407912310486
 40
32.5407912310486
 10
-106.2529751105901
 20
6.60060195641876
 30
0.0
 10
-106.117370765322
 20
6.578321518676212
 30
0.0
 10
-105.5426199633814
 20
6.481296483273954
 30
0.0
 10
-104.5301902361209
 20
6.29119073429041
 30
0.0
 10
-103.2190910889319
 20
6.008505564528061
 30
0.0
 10
-101.9092097523008
 20
5.691097237732364
 30
0.0
 10
-100.6004688242946
 20
5.340802751403681
 30
0.0
 10
-99.29282185537875
 20
4.959575005145334
 30
0.0
 10
-97.98619326669228
 20
4.549593257523697
 30
0.0
 10
-96.68049206958642
 20
4.113243499471866
 30
0.0
 10
-95.37564406942971
 20
3.652996754228805
 30
0.0
 10
-94.07154465182651
 20
3.17153109036526
 30
0.0
 10
-92.76808813410225
 20
2.671644994336046
 30
0.0
 10
-91.46518767066677
 20
2.156212601627623
 30
0.0
 10
-90.16273424942069
 20
1.628231081017984
 30
0.0
 10
-88.86060723559326
 20
1.090783457230176
 30
0.0
 10
-87.55870059928817
 20
0.5469840937082632
 30
0.0
 10
-86.69099596953039
 20
0.1823963551087043
 30
0.0
 10
-86.25690702624634
 20
-0.0000000000011563
 30
0.0
  0
SPLINE
  5
38C3
330
1F
100
AcDbEntity
  8
AM_0
100
AcDbSpline
210
0.0
220
0.0
230
1.0
 70
     8
 71
     3
 72
    55
 73
    51
 74
     0
 42
0.0000000001
 43
0.0000000001
 40
0.0
 40
0.0
 40
0.0
 40
0.0
 40
1.010743684496582
 40
2.022833576467832
 40
3.037578957496688
 40
4.056212745003489
 40
5.079857003664532
 40
6.109500240690281
 40
7.145961322679372
 40
8.189895241603872
 40
9.241717795325891
 40
10.30168407291828
 40
11.36983447792315
 40
12.44600489715814
 40
13.52984294512926
 40
14.62081576220742
 40
15.7182257034828
 40
16.82123173843959
 40
17.92886860250316
 40
19.0400688939571
 40
20.15368796660465
 40
21.26852814259644
 40
22.38336992938901
 40
23.49698739941135
 40
24.6081876908653
 40
25.71582455492886
 40
26.81883757994213
 40
27.91624752121713
 40
29.00722033829659
 40
30.09105838626677
 40
31.16722880550176
 40
32.23537921050758
 40
33.29534548809967
 40
34.347168041821
 40
35.39108718934584
 40
36.42754827133493
 40
37.45720575381954
 40
38.48085062012849
 40
39.49948440763516
 40
40.51422944315121
 40
41.52631975251916
 40
42.53706336719636
 40
43.54780698187354
 40
44.55989729124051
 40
45.57464232675757
 40
46.59327611426424
 40
47.6169209805722
 40
48.64656348684535
 40
49.68302456883444
 40
50.58557219878025
 40
50.58557219878025
 40
50.58557219878025
 40
50.58557219878025
 10
-46.35207401600009
 20
-6.600000575855405
 30
0.0
 10
-46.71293403513809
 20
-6.596073735750167
 30
0.0
 10
-47.43513470214572
 20
-6.5882148253893
 30
0.0
 10
-48.51817288006867
 20
-6.52486318514654
 30
0.0
 10
-49.60116482717536
 20
-6.424150626455324
 30
0.0
 10
-50.68408974771303
 20
-6.282998145062572
 30
0.0
 10
-51.76693683579567
 20
-6.103318627717013
 30
0.0
 10
-52.84968472927131
 20
-5.8859110805984
 30
0.0
 10
-53.93233704988363
 20
-5.632240038434739
 30
0.0
 10
-55.01488419669458
 20
-5.34385886131596
 30
0.0
 10
-56.09731879558515
 20
-5.022538192175228
 30
0.0
 10
-57.17964624189337
 20
-4.670294927637399
 30
0.0
 10
-58.26186943430799
 20
-4.289284820629651
 30
0.0
 10
-59.34400189434093
 20
-3.881879755851276
 30
0.0
 10
-60.42604857639773
 20
-3.450583324714454
 30
0.0
 10
-61.50801951401362
 20
-2.998055374966047
 30
0.0
 10
-62.58992670639271
 20
-2.527087642673875
 30
0.0
 10
-63.67177964893012
 20
-2.040576356560327
 30
0.0
 10
-64.753588841132
 20
-1.541513750292561
 30
0.0
 10
-65.83536585881636
 20
-1.032971494920556
 30
0.0
 10
-66.91712019019743
 20
-0.5180758992377881
 30
0.0
 10
-67.998867111322
 20
-0.0000019224946796
 30
0.0
 10
-69.08060917630796
 20
0.5180813799028781
 30
0.0
 10
-70.1623671334938
 20
1.032968957299292
 30
0.0
 10
-71.24414281570995
 20
1.54151275199975
 30
0.0
 10
-72.32595393676565
 20
2.040577259473602
 30
0.0
 10
-73.40781136734801
 20
2.527084393614408
 30
0.0
 10
-74.48972026726242
 20
2.998054514368277
 30
0.0
 10
-75.57169136107891
 20
3.450582097163173
 30
0.0
 10
-76.65373800376352
 20
3.881878619000012
 30
0.0
 10
-77.73587046656739
 20
4.289283684374338
 30
0.0
 10
-78.81809368654711
 20
4.67029370027682
 30
0.0
 10
-79.90042102114729
 20
5.02253732448743
 30
0.0
 10
-80.98285096813157
 20
5.343855156370774
 30
0.0
 10
-82.0653914206388
 20
5.632240110563476
 30
0.0
 10
-83.1480433396433
 20
5.885916253732669
 30
0.0
 10
-84.23079896430181
 20
6.103298969891462
 30
0.0
 10
-85.31364962980523
 20
6.283034101846003
 30
0.0
 10
-86.3965748713703
 20
6.424019265190985
 30
0.0
 10
-87.4795675709727
 20
6.52534341456324
 30
0.0
 10
-88.56260483060834
 20
6.586398704529432
 30
0.0
 10
-89.64566588933093
 20
6.606795256645533
 30
0.0
 10
-90.72872694646001
 20
6.586398704497497
 30
0.0
 10
-91.81176421088565
 20
6.525343414691611
 30
0.0
 10
-92.89475689285266
 20
6.4240192647076
 30
0.0
 10
-93.97768220053716
 20
6.283034103662999
 30
0.0
 10
-95.06052733836915
 20
6.103299839297534
 30
0.0
 10
-96.14327869738255
 20
5.885918476353673
 30
0.0
 10
-97.17670478317113
 20
5.643755401430143
 30
0.0
 10
-97.84720339662154
 20
5.466659255407914
 30
0.0
 10
-99.30058246278022
 20
4.957079395353887
 30
0.0
  0
SPLINE
  5
38C4
330
1F
100
AcDbEntity
  8
AM_0
100
AcDbSpline
210
0.0
220
0.0
230
1.0
 70
     8
 71
     3
 72
    22
 73
    18
 74
     0
 42
0.0000000001
 43
0.0000000001
 40
17.17441611292
 40
17.17441611292
 40
17.17441611292
 40
17.17441611292
 40
17.38177636558528
 40
18.41823744757437
 40
19.46215659509824
 40
20.51397914882054
 40
21.57394542641293
 40
22.64209583141747
 40
23.71826625065247
 40
24.80210429862395
 40
25.8930771157021
 40
26.99048705697709
 40
28.09349309193389
 40
29.20112995599786
 40
30.31233024745139
 40
31.42594771747373
 40
32.5407895042663
 40
32.54078950426994
 40
32.54078950426994
 40
32.54078950426994
 10
-70.88744120993131
 20
-5.926848344338654
 30
0.0
 10
-70.95996298875987
 20
-5.911569991678336
 30
0.0
 10
-71.39469144638699
 20
-5.818507875659215
 30
0.0
 10
-72.19108948390879
 20
-5.631906220736809
 30
0.0
 10
-73.27362978161897
 20
-5.343520438011849
 30
0.0
 10
-74.35605977074517
 20
-5.022202831098418
 30
0.0
 10
-75.43838709318247
 20
-4.66995914417056
 30
0.0
 10
-76.52061031925176
 20
-4.288949151827969
 30
0.0
 10
-77.60274276986598
 20
-3.881544055315663
 30
0.0
 10
-78.68478945560257
 20
-3.450247635273924
 30
0.0
 10
-79.76676038796644
 20
-2.997719673092841
 30
0.0
 10
-80.84866759778828
 20
-2.526751979663079
 30
0.0
 10
-81.93052047537001
 20
-2.040240549573952
 30
0.0
 10
-83.01232991130996
 20
-1.541178483353922
 30
0.0
 10
-84.09410549490718
 20
-1.032634447804471
 30
0.0
 10
-85.17586325172613
 20
-0.5177464344970538
 30
0.0
 10
-85.89689353221002
 20
-0.1724219658415562
 30
0.0
 10
-86.25760674466112
 20
0.0003351175056844
 30
0.0
  0
SPLINE
  5
38C5
330
1F
100
AcDbEntity
  8
AM_0
100
AcDbSpline
210
0.0
220
0.0
230
1.0
 70
     8
 71
     3
 72
    46
 73
    42
 74
     0
 42
0.0000000001
 43
0.0000000001
 40
0.0
 40
0.0
 40
0.0
 40
0.0
 40
1.348332046947654
 40
2.024828967632893
 40
2.703918159304094
 40
3.386347665078122
 40
4.072776489761951
 40
4.763750544421345
 40
5.459696642770595
 40
6.160921452191748
 40
6.867565637253344
 40
7.579665907256597
 40
8.297112853413899
 40
9.019671552060666
 40
9.746986763446125
 40
10.47859339096365
 40
11.21393074760088
 40
11.95235532364327
 40
12.69315551794651
 40
13.43556823304427
 40
14.1787950170388
 40
14.92202180103393
 40
15.66443451613169
 40
16.40523471043432
 40
17.14365928647669
 40
17.87899664311455
 40
18.61060327063121
 40
19.33791848201689
 40
20.06048192311554
 40
20.77792886927282
 40
21.49002913927608
 40
22.19667332433747
 40
22.89788836015233
 40
23.59383445850157
 40
24.28480851316097
 40
24.97123685067575
 40
25.65366676154837
 40
26.33276604526151
 40
27.00926273560554
 40
27.68398960851752
 40
28.35781868496899
 40
28.35781868496899
 40
28.35781868496899
 40
28.35781868496899
 10
-43.32030303557726
 20
-6.600000575855467
 30
0.0
 10
-44.04253898815852
 20
-6.584965265669418
 30
0.0
 10
-45.12714146539184
 20
-6.562386308452626
 30
0.0
 10
-46.5693846769708
 20
-6.423371816844056
 30
0.0
 10
-47.65232123241316
 20
-6.283208229808603
 30
0.0
 10
-48.7351652225598
 20
-6.103261993066601
 30
0.0
 10
-49.81791379482888
 20
-5.885925916906165
 30
0.0
 10
-50.90056138692863
 20
-5.632239052924413
 30
0.0
 10
-51.983106185587
 20
-5.343854010000732
 30
0.0
 10
-53.06554337309734
 20
-5.022541514988809
 30
0.0
 10
-54.14787511299191
 20
-4.67029446713937
 30
0.0
 10
-55.23009849412741
 20
-4.289284945433669
 30
0.0
 10
-56.31223090300153
 20
-3.881879722009264
 30
0.0
 10
-57.39427759899404
 20
-3.450583334015521
 30
0.0
 10
-58.47624853253357
 20
-2.998055371918492
 30
0.0
 10
-59.55815572716371
 20
-2.527087645500864
 30
0.0
 10
-60.64000866477385
 20
-2.040576348267173
 30
0.0
 10
-61.72181787452276
 20
-1.541513780795065
 30
0.0
 10
-62.80359482667197
 20
-1.032971380756939
 30
0.0
 10
-63.88534940332464
 20
-0.5180763264390345
 30
0.0
 10
-64.96709488655733
 20
-0.000000575959821
 30
0.0
 10
-66.04884036955235
 20
0.518075175148956
 30
0.0
 10
-67.13059494691782
 20
1.03297022757908
 30
0.0
 10
-68.2123718964616
 20
1.541512634516203
 30
0.0
 10
-69.29418111587171
 20
2.04057517640245
 30
0.0
 10
-70.37603401765912
 20
2.527086568505909
 30
0.0
 10
-71.457941344953
 20
2.998053943587446
 30
0.0
 10
-72.53991413992967
 20
3.450584189056374
 30
0.0
 10
-73.62196504023366
 20
3.881876658503788
 30
0.0
 10
-74.70409937946616
 20
4.28928397096266
 30
0.0
 10
-75.78632273540444
 20
4.670293606038964
 30
0.0
 10
-76.86865002920317
 20
5.022537417039063
 30
0.0
 10
-77.95108000465711
 20
5.343854882483102
 30
0.0
 10
-79.03362038444026
 20
5.632241103491241
 30
0.0
 10
-80.11626734996042
 20
5.88591136994651
 30
0.0
 10
-81.1990167160345
 20
6.103310482133409
 30
0.0
 10
-82.281867616975
 20
6.282999753341941
 30
0.0
 10
-83.36479859231983
 20
6.424150065918834
 30
0.0
 10
-84.44779656807714
 20
6.52485338151466
 30
0.0
 10
-85.53083385585534
 20
6.588222117260447
 30
0.0
 10
-86.25303482531302
 20
6.596075397948619
 30
0.0
 10
-86.61389490864271
 20
6.599999424145472
 30
0.0
  0
DIMENSION
  5
3BB9
330
1F
100
AcDbEntity
  8
AM_5
100
AcDbDimension
  2
*D9
 10
-0.587303731896496
 20
-1.613591571338162
 30
0.0
 11
34.08015728359315
 21
-0.0000413521955842
 31
0.0
 70
    34
  1
<>
 51
359.9999999999998
  3
AM_JIS$2
100
AcDb2LineAngularDimension
 13
0.0000000000011653
 23
-0.0000000000000106
 33
0.0
 14
-0.5872917675971792
 24
1.613570883515823
 34
0.0
 15
0.0000000000011653
 25
-0.0000000000000106
 35
0.0
 16
34.13940734863062
 26
-14.72633564464864
 36
0.0
1001
GENIUS_GENDTOL_13
1000

1000
h7
1000

1040
0.0
1001
ACAD
1000
DSTYLE
1002
{
1070
   271
1070
     0
1002
}
  0
ELLIPSE
  5
3CB9
330
1F
100
AcDbEntity
  8
AM_11
 48
0.5
100
AcDbEllipse
 10
3.310487223359899
 20
27.82689745097787
 30
0.0
 11
-31.07765833536794
 21
0.0000000000288672
 31
0.0
210
0.0
220
0.0
230
1.0
 40
0.9899999999999861
 41
1.130070686341231
 42
1.291800737381917
  0
ELLIPSE
  5
3CBA
330
1F
100
AcDbEntity
  8
AM_11
 48
0.5
100
AcDbEllipse
 10
-23.2046642917918
 20
-27.82687566608721
 30
0.0
 11
-31.07765833536737
 21
0.0000000000017409
 31
0.0
210
0.0
220
0.0
230
1.0
 40
0.9900000000000009
 41
4.271664206181739
 42
5.153113667165048
  0
ELLIPSE
  5
3CBB
330
1F
100
AcDbEntity
  8
AM_11
 48
0.5
100
AcDbEllipse
 10
-23.2046642917916
 20
27.82689745097796
 30
0.0
 11
-31.0776583353674
 21
0.0000000000010094
 31
0.0
210
0.0
220
0.0
230
1.0
 40
0.9899999999999995
 41
1.130070686340335
 42
2.011520147323624
  0
ELLIPSE
  5
3CBC
330
1F
100
AcDbEntity
  8
AM_11
 48
0.5
100
AcDbEllipse
 10
-49.71981580694327
 20
-27.82687566608716
 30
0.0
 11
-31.07765833536731
 21
0.000000000001451
 31
0.0
210
0.0
220
0.0
230
1.0
 40
0.9900000000000032
 41
4.271664206181728
 42
5.153113667165039
  0
ELLIPSE
  5
3CBD
330
1F
100
AcDbEntity
  8
AM_11
 48
0.5
100
AcDbEllipse
 10
-76.23490313693885
 20
27.82689745097772
 30
0.0
 11
-31.0776583353674
 21
0.0000000000010094
 31
0.0
210
0.0
220
0.0
230
1.0
 40
0.9899999999999995
 41
1.130070686340335
 42
2.011520147323624
  0
ELLIPSE
  5
3CBE
330
1F
100
AcDbEntity
  8
AM_11
 48
0.5
100
AcDbEllipse
 10
-76.23490313693905
 20
-27.82687566608745
 30
0.0
 11
-31.07765833536737
 21
0.0000000000017409
 31
0.0
210
0.0
220
0.0
230
1.0
 40
0.9900000000000009
 41
4.271664206181739
 42
5.153113667165048
  0
ELLIPSE
  5
3CBF
330
1F
100
AcDbEntity
  8
AM_11
 48
0.5
100
AcDbEllipse
 10
-49.71981580694316
 20
27.82689745097802
 30
0.0
 11
-31.0776583353674
 21
0.000000000000133
 31
0.0
210
0.0
220
0.0
230
1.0
 40
0.9900000000000002
 41
1.130070686340306
 42
2.011520147323597
  0
ELLIPSE
  5
3CC0
330
1F
100
AcDbEntity
  8
AM_11
 48
0.5
100
AcDbEllipse
 10
-129.265199238364
 20
27.82692418676167
 30
0.0
 11
-31.0776583353674
 21
0.0000000000010094
 31
0.0
210
0.0
220
0.0
230
1.0
 40
0.9899999999999995
 41
1.130070686340335
 42
2.011520147323624
  0
ELLIPSE
  5
3CC1
330
1F
100
AcDbEntity
  8
AM_11
 48
0.5
100
AcDbEllipse
 10
-129.2651992383642
 20
-27.82684893030351
 30
0.0
 11
-31.07765833536737
 21
0.0000000000017409
 31
0.0
210
0.0
220
0.0
230
1.0
 40
0.9900000000000009
 41
4.271664206181739
 42
5.153113667165048
  0
ELLIPSE
  5
3CC2
330
1F
100
AcDbEntity
  8
AM_11
 48
0.5
100
AcDbEllipse
 10
-102.7500546520905
 20
-27.8268756660874
 30
0.0
 11
-31.07765833536731
 21
0.000000000001451
 31
0.0
210
0.0
220
0.0
230
1.0
 40
0.9900000000000032
 41
4.271664206181728
 42
5.153113667165039
  0
ELLIPSE
  5
3CC3
330
1F
100
AcDbEntity
  8
AM_11
 48
0.5
100
AcDbEllipse
 10
-102.7500546520904
 20
27.82689745097778
 30
0.0
 11
-31.0776583353674
 21
0.000000000000133
 31
0.0
210
0.0
220
0.0
230
1.0
 40
0.9900000000000002
 41
1.130070686340306
 42
2.011520147323597
  0
ELLIPSE
  5
3CC4
330
1F
100
AcDbEntity
  8
AM_11
 48
0.5
100
AcDbEllipse
 10
-182.2954953397892
 20
27.82695092254561
 30
0.0
 11
-31.0776583353674
 21
0.0000000000010094
 31
0.0
210
0.0
220
0.0
230
1.0
 40
0.9899999999999995
 41
1.677036728370183
 42
2.011520147323624
  0
ELLIPSE
  5
3CC5
330
1F
100
AcDbEntity
  8
AM_11
 48
0.5
100
AcDbEllipse
 10
-182.2954953397894
 20
-27.82682219451956
 30
0.0
 11
-31.07765833536737
 21
0.0000000000017409
 31
0.0
210
0.0
220
0.0
230
1.0
 40
0.9900000000000009
 41
4.271664206181739
 42
4.606148578809484
  0
ELLIPSE
  5
3CC6
330
1F
100
AcDbEntity
  8
AM_11
 48
0.5
100
AcDbEllipse
 10
-155.7803507535157
 20
-27.82684893030346
 30
0.0
 11
-31.07765833536731
 21
0.000000000001451
 31
0.0
210
0.0
220
0.0
230
1.0
 40
0.9900000000000032
 41
4.271664206181728
 42
5.153113667165039
  0
ELLIPSE
  5
3CC7
330
1F
100
AcDbEntity
  8
AM_11
 48
0.5
100
AcDbEllipse
 10
-155.7803507535156
 20
27.82692418676173
 30
0.0
 11
-31.0776583353674
 21
0.000000000000133
 31
0.0
210
0.0
220
0.0
230
1.0
 40
0.9900000000000002
 41
1.130070686340306
 42
2.011520147323597
  0
VIEWPORT
  5
110
330
101
100
AcDbEntity
 67
     1
  8
0
100
AcDbViewport
 10
420.5
 20
297.0
 30
0.0
 40
948.9782706766916
 41
628.452
 68
     1
 69
     1
1001
ACAD
1000
MVIEW
1002
{
1070
    16
1010
0.0
1020
0.0
1030
0.0
1010
0.0
1020
0.0
1030
1.0
1040
0.0
1040
628.452
1040
420.5
1040
297.0
1040
50.0
1040
0.0
1040
0.0
1070
     0
1070
   100
1070
     1
1070
     1
1070
     0
1070
     0
1070
     0
1070
     0
1040
0.0
1040
0.0
1040
0.0
1040
10.0
1040
10.0
1040
10.0
1040
10.0
1070
     0
1002
{
1002
}
1002
}
  0
ENDSEC
  0
SECTION
  2
OBJECTS
  0
DICTIONARY
  5
C
330
0
100
AcDbDictionary
  3
ACAD_GROUP
350
D
  3
ACAD_LAYOUT
350
1A
  3
ACAD_MLINESTYLE
350
17
  3
ACAD_PLOTSETTINGS
350
19
  3
ACAD_PLOTSTYLENAME
350
E
  3
ACDBVARIABLEDICTIONARY
350
34
  3
ACMDICTIONARY
350
43
  3
AMG
350
2B
  3
AMGSNAPSETTINGS
350
6E
  3
DWGPROPS
350
3CE1
  3
ACDBHEADERROUNDTRIPXREC
350
3CEE
  0
DICTIONARY
  5
74
330
1F
100
AcDbDictionary
280
     1
  3
ACAD_INDEX
360
3CE3
  3
ACAD_LAYOUTSELFREF
360
3D11
  0
DICTIONARY
  5
3D16
330
101
100
AcDbDictionary
280
     1
  3
ACAD_LAYOUTSELFREF
360
3D17
  0
DICTIONARY
  5
D
102
{ACAD_REACTORS
330
C
102
}
330
C
100
AcDbDictionary
  0
DICTIONARY
  5
1A
102
{ACAD_REACTORS
330
C
102
}
330
C
100
AcDbDictionary
  0
DICTIONARY
  5
17
102
{ACAD_REACTORS
330
C
102
}
330
C
100
AcDbDictionary
  3
STANDARD
350
18
  0
DICTIONARY
  5
19
102
{ACAD_REACTORS
330
C
102
}
330
C
100
AcDbDictionary
  0
ACDBDICTIONARYWDFLT
  5
E
102
{ACAD_REACTORS
330
C
102
}
330
C
100
AcDbDictionary
281
     1
  3
Normal
350
F
100
AcDbDictionaryWithDefault
340
F
  0
DICTIONARY
  5
34
102
{ACAD_REACTORS
330
C
102
}
330
C
100
AcDbDictionary
  3
INDEXCTL
350
35
  3
SORTENTS
350
B5E
  0
DICTIONARY
  5
43
102
{ACAD_REACTORS
330
C
102
}
330
C
100
AcDbDictionary
  3
ACMSTDDICTIONARY
350
260
  0
DICTIONARY
  5
2B
102
{ACAD_REACTORS
330
C
102
}
330
C
100
AcDbDictionary
  3
ACMGSETTINGS
350
2C
  0
DICTIONARY
  5
6E
102
{ACAD_REACTORS
330
C
102
}
330
C
100
AcDbDictionary
  0
XRECORD
  5
3CE1
102
{ACAD_REACTORS
330
C
102
}
330
C
100
AcDbXrecord
  1
DWGPROPS COOKIE
  2

  3

  4

  6

  7

  8

  9

300
AmdtFileType=82
301
=
302
=
303
=
304
=
305
=
306
=
307
=
308
=
309
=
 40
0.0807655092592593
 41
2452800.443498622
 42
2452948.661368449
  1

 90
        1
  0
DICTIONARY
  5
3CEE
102
{ACAD_REACTORS
330
C
102
}
330
C
100
AcDbDictionary
  3
TSTACKALIGN
350
3CEF
  3
TSTACKSIZE
350
3CF0
  3
HYPERLINKBASE
350
3CF1
  3
STYLESHEET
350
3CF2
  3
LAYOUTDICT
350
3CF3
  3
PLOTSETDICT
350
3CF4
  3
PLOTSTYLNAMDICT
350
3CF5
  3
LWETCUNION
350
3CF6
  3
INSUNITS
350
3CF7
  3
CEPSNTYPE
350
3CF8
  3
FINGERPRINTGUID
350
3CF9
  3
VERSIONGUID
350
3CFA
  3
PSVPSCALE
350
3CFB
  3
DIMSTYLEDATA
350
3CFC
  3
PUCSORTHOREF
350
3CFD
  3
PUCSORTHOVIEW
350
3CFE
  3
PUCSBASE
350
3CFF
  3
PUCSORGTOP
350
3D00
  3
PUCSORGBOTTOM
350
3D01
  3
PUCSORGLEFT
350
3D02
  3
PUCSORGRIGHT
350
3D03
  3
PUCSORGFRONT
350
3D04
  3
PUCSORGBACK
350
3D05
  3
UCSORTHOREF
350
3D06
  3
UCSORTHOVIEW
350
3D07
  3
UCSBASE
350
3D08
  3
UCSORGTOP
350
3D09
  3
UCSORGBOTTOM
350
3D0A
  3
UCSORGLEFT
350
3D0B
  3
UCSORGRIGHT
350
3D0C
  3
UCSORGFRONT
350
3D0D
  3
UCSORGBACK
350
3D0E
  0
DICTIONARY
  5
3CE3
102
{ACAD_REACTORS
330
74
102
}
330
74
100
AcDbDictionary
  3
*A1
350
3CE4
  0
XRECORD
  5
3D11
102
{ACAD_REACTORS
330
74
102
}
330
74
100
AcDbXrecord
340
1F
  0
XRECORD
  5
3D17
102
{ACAD_REACTORS
330
3D16
102
}
330
3D16
100
AcDbXrecord
340
101
  0
MLINESTYLE
  5
18
102
{ACAD_REACTORS
330
17
102
}
330
17
100
AcDbMlineStyle
  2
STANDARD
 70
     0
  3

 62
   256
 51
90.0
 52
90.0
 71
     2
 49
0.5
 62
   256
  6
BYLAYER
 49
-0.5
 62
   256
  6
BYLAYER
  0
ACDBPLACEHOLDER
  5
F
102
{ACAD_REACTORS
330
E
102
}
330
E
100
AcDbPlaceHolder
280
     0
  0
DICTIONARYVAR
  5
35
102
{ACAD_REACTORS
330
34
102
}
330
34
100
DictionaryVariables
280
     0
  1
1
  0
DICTIONARYVAR
  5
B5E
102
{ACAD_REACTORS
330
34
102
}
330
34
100
DictionaryVariables
280
     0
  1
96
  0
DICTIONARY
  5
260
102
{ACAD_REACTORS
330
43
102
}
330
43
100
AcDbDictionary
  0
DICTIONARY
  5
2C
102
{ACAD_REACTORS
330
2B
102
}
330
2B
100
AcDbDictionary
  3
DWGSETTINGS
350
2D
  0
XRECORD
  5
3CEF
102
{ACAD_REACTORS
330
3CEE
102
}
330
3CEE
100
AcDbXrecord
 90
        1
  0
XRECORD
  5
3CF0
102
{ACAD_REACTORS
330
3CEE
102
}
330
3CEE
100
AcDbXrecord
 90
       70
  0
XRECORD
  5
3CF1
102
{ACAD_REACTORS
330
3CEE
102
}
330
3CEE
100
AcDbXrecord
  1

  0
XRECORD
  5
3CF2
102
{ACAD_REACTORS
330
3CEE
102
}
330
3CEE
100
AcDbXrecord
  1
ASAMI.ctb
  0
XRECORD
  5
3CF3
102
{ACAD_REACTORS
330
3CEE
102
}
330
3CEE
100
AcDbXrecord
340
1A
  0
XRECORD
  5
3CF4
102
{ACAD_REACTORS
330
3CEE
102
}
330
3CEE
100
AcDbXrecord
340
19
  0
XRECORD
  5
3CF5
102
{ACAD_REACTORS
330
3CEE
102
}
330
3CEE
100
AcDbXrecord
340
E
  0
XRECORD
  5
3CF6
102
{ACAD_REACTORS
330
3CEE
102
}
330
3CEE
100
AcDbXrecord
 90
    10781
  0
XRECORD
  5
3CF7
102
{ACAD_REACTORS
330
3CEE
102
}
330
3CEE
100
AcDbXrecord
 90
        4
  0
XRECORD
  5
3CF8
102
{ACAD_REACTORS
330
3CEE
102
}
330
3CEE
100
AcDbXrecord
 90
        0
  0
XRECORD
  5
3CF9
102
{ACAD_REACTORS
330
3CEE
102
}
330
3CEE
100
AcDbXrecord
  1
{AFB28963-8C59-40AE-9337-C84526B81ACE}
  0
XRECORD
  5
3CFA
102
{ACAD_REACTORS
330
3CEE
102
}
330
3CEE
100
AcDbXrecord
  1
{18516878-F569-471F-AAE6-597913FEDBDF}
  0
XRECORD
  5
3CFB
102
{ACAD_REACTORS
330
3CEE
102
}
330
3CEE
100
AcDbXrecord
 40
0.0
  0
XRECORD
  5
3CFC
102
{ACAD_REACTORS
330
3CEE
102
}
330
3CEE
100
AcDbXrecord
1000
DSTYLE
1002
{
1070
    79
 70
     2
1070
   341
340
59
1070
   342
340
59
1070
   371
 70
    -1
1070
   372
 70
    -1
1002
}
  0
XRECORD
  5
3CFD
102
{ACAD_REACTORS
330
3CEE
102
}
330
3CEE
100
AcDbXrecord
340
0
  0
XRECORD
  5
3CFE
102
{ACAD_REACTORS
330
3CEE
102
}
330
3CEE
100
AcDbXrecord
 70
     0
  0
XRECORD
  5
3CFF
102
{ACAD_REACTORS
330
3CEE
102
}
330
3CEE
100
AcDbXrecord
340
0
  0
XRECORD
  5
3D00
102
{ACAD_REACTORS
330
3CEE
102
}
330
3CEE
100
AcDbXrecord
 10
0.0
 20
0.0
 30
0.0
  0
XRECORD
  5
3D01
102
{ACAD_REACTORS
330
3CEE
102
}
330
3CEE
100
AcDbXrecord
 10
0.0
 20
0.0
 30
0.0
  0
XRECORD
  5
3D02
102
{ACAD_REACTORS
330
3CEE
102
}
330
3CEE
100
AcDbXrecord
 10
0.0
 20
0.0
 30
0.0
  0
XRECORD
  5
3D03
102
{ACAD_REACTORS
330
3CEE
102
}
330
3CEE
100
AcDbXrecord
 10
0.0
 20
0.0
 30
0.0
  0
XRECORD
  5
3D04
102
{ACAD_REACTORS
330
3CEE
102
}
330
3CEE
100
AcDbXrecord
 10
0.0
 20
0.0
 30
0.0
  0
XRECORD
  5
3D05
102
{ACAD_REACTORS
330
3CEE
102
}
330
3CEE
100
AcDbXrecord
 10
0.0
 20
0.0
 30
0.0
  0
XRECORD
  5
3D06
102
{ACAD_REACTORS
330
3CEE
102
}
330
3CEE
100
AcDbXrecord
340
0
  0
XRECORD
  5
3D07
102
{ACAD_REACTORS
330
3CEE
102
}
330
3CEE
100
AcDbXrecord
 70
     0
  0
XRECORD
  5
3D08
102
{ACAD_REACTORS
330
3CEE
102
}
330
3CEE
100
AcDbXrecord
340
0
  0
XRECORD
  5
3D09
102
{ACAD_REACTORS
330
3CEE
102
}
330
3CEE
100
AcDbXrecord
 10
0.0
 20
0.0
 30
0.0
  0
XRECORD
  5
3D0A
102
{ACAD_REACTORS
330
3CEE
102
}
330
3CEE
100
AcDbXrecord
 10
0.0
 20
0.0
 30
0.0
  0
XRECORD
  5
3D0B
102
{ACAD_REACTORS
330
3CEE
102
}
330
3CEE
100
AcDbXrecord
 10
0.0
 20
0.0
 30
0.0
  0
XRECORD
  5
3D0C
102
{ACAD_REACTORS
330
3CEE
102
}
330
3CEE
100
AcDbXrecord
 10
0.0
 20
0.0
 30
0.0
  0
XRECORD
  5
3D0D
102
{ACAD_REACTORS
330
3CEE
102
}
330
3CEE
100
AcDbXrecord
 10
0.0
 20
0.0
 30
0.0
  0
XRECORD
  5
3D0E
102
{ACAD_REACTORS
330
3CEE
102
}
330
3CEE
100
AcDbXrecord
 10
0.0
 20
0.0
 30
0.0
  0
LAYER_INDEX
  5
3CE4
102
{ACAD_REACTORS
330
3CE3
102
}
330
3CE3
100
AcDbIndex
 40
2453151.667387685
100
AcDbLayerIndex
  8
0
360
3CE5
 90
        0
  8
AM_0
360
3CE6
 90
       52
  8
AM_7
360
3CE7
 90
        1
  8
AM_11
360
3CE8
 90
       21
  8
AM_5
360
3CE9
 90
        5
  8
Defpoints
360
3CEA
 90
        0
  8
AM_6
360
3CEB
 90
        1
  8
AM_CL
360
3CEC
 90
        0
  0
XRECORD
  5
2D
102
{ACAD_REACTORS
330
2C
102
}
330
2C
100
AcDbXrecord
  1
VERSION
140
15.0
  1
PRODUCT
  2
AutoCAD Mechanical 2000
  0
IDBUFFER
  5
3CE5
330
0
100
AcDbIdBuffer
  0
IDBUFFER
  5
3CE6
330
0
100
AcDbIdBuffer
330
38C2
330
38C3
330
38C4
330
38C5
330
1E25
330
1E26
330
1FD9
330
21D7
330
21D8
330
21D9
330
21DC
330
21DD
330
2694
330
2695
330
2696
330
2699
330
2CB4
330
2CB7
330
3366
330
3367
330
389B
330
389C
330
389D
330
389E
330
389F
330
38A0
330
38A1
330
38A6
330
38A7
330
38A8
330
38AB
330
38AC
330
38AD
330
38AE
330
38AF
330
38B0
330
38B1
330
38B2
330
38B3
330
38B4
330
38B5
330
38B6
330
38B7
330
38B9
330
38BA
330
38BB
330
38BC
330
38BD
330
38BE
330
38BF
330
38C0
330
38C1
  0
IDBUFFER
  5
3CE7
330
0
100
AcDbIdBuffer
330
C9F
  0
IDBUFFER
  5
3CE8
330
0
100
AcDbIdBuffer
330
3CC3
330
3CC4
330
3CC5
330
3CC6
330
3CC7
330
38A2
330
38A3
330
38A4
330
38A5
330
38A9
330
38AA
330
3CB9
330
3CBA
330
3CBB
330
3CBC
330
3CBD
330
3CBE
330
3CBF
330
3CC0
330
3CC1
330
3CC2
  0
IDBUFFER
  5
3CE9
330
0
100
AcDbIdBuffer
330
CC6
330
DF5
330
1FB6
330
2216
330
3BB9
  0
IDBUFFER
  5
3CEA
330
0
100
AcDbIdBuffer
  0
IDBUFFER
  5
3CEB
330
0
100
AcDbIdBuffer
330
19BD
  0
IDBUFFER
  5
3CEC
330
0
100
AcDbIdBuffer
  0
ENDSEC
  0
EOF
