  0
SECTION
  2
HEADER
  9
$ACADVER
  1
AC1014
  9
$ACADMAINTVER
 70
     9
  9
$DWGCODEPAGE
  3
ANSI_932
  9
$INSBASE
 10
0.0
 20
0.0
 30
0.0
  9
$EXTMIN
 10
-200.3000010000009
 20
-53.50000305448099
 30
-0.00000001
  9
$EXTMAX
 10
37.61046137111791
 20
36.28193362404027
 30
0.00000001
  9
$LIMMIN
 10
-212.4283160478946
 20
-92.01098889734623
  9
$LIMMAX
 10
49.45840178964954
 20
64.30738472477009
  9
$ORTHOMODE
 70
     0
  9
$REGENMODE
 70
     1
  9
$FILLMODE
 70
     1
  9
$QTEXTMODE
 70
     0
  9
$MIRRTEXT
 70
     0
  9
$DRAGMODE
 70
     2
  9
$LTSCALE
 40
1.0
  9
$OSMODE
 70
    55
  9
$ATTMODE
 70
     1
  9
$TEXTSIZE
 40
2.5
  9
$TRACEWID
 40
1.0
  9
$TEXTSTYLE
  7
STANDARD
  9
$CLAYER
  8
AM_0
  9
$CELTYPE
  6
BYLAYER
  9
$CECOLOR
 62
   256
  9
$CELTSCALE
 40
1.0
  9
$DELOBJ
 70
     1
  9
$DISPSILH
 70
     0
  9
$DIMSCALE
 40
1.0
  9
$DIMASZ
 40
2.5
  9
$DIMEXO
 40
1.0
  9
$DIMDLI
 40
12.0
  9
$DIMRND
 40
0.0
  9
$DIMDLE
 40
0.0
  9
$DIMEXE
 40
1.0
  9
$DIMTP
 40
0.1
  9
$DIMTM
 40
0.1
  9
$DIMTXT
 40
3.2
  9
$DIMCEN
 40
0.0
  9
$DIMTSZ
 40
0.0
  9
$DIMTOL
 70
     0
  9
$DIMLIM
 70
     0
  9
$DIMTIH
 70
     0
  9
$DIMTOH
 70
     0
  9
$DIMSE1
 70
     0
  9
$DIMSE2
 70
     0
  9
$DIMTAD
 70
     3
  9
$DIMZIN
 70
     8
  9
$DIMBLK
  1
OPEN30
  9
$DIMASO
 70
     1
  9
$DIMSHO
 70
     1
  9
$DIMPOST
  1

  9
$DIMAPOST
  1
"
  9
$DIMALT
 70
     0
  9
$DIMALTD
 70
     2
  9
$DIMALTF
 40
0.0393701
  9
$DIMLFAC
 40
1.0
  9
$DIMTOFL
 70
     1
  9
$DIMTVP
 40
0.0
  9
$DIMTIX
 70
     0
  9
$DIMSOXD
 70
     0
  9
$DIMSAH
 70
     0
  9
$DIMBLK1
  1

  9
$DIMBLK2
  1

  9
$DIMSTYLE
  2
AM_JIS
  9
$DIMCLRD
 70
   256
  9
$DIMCLRE
 70
   256
  9
$DIMCLRT
 70
     2
  9
$DIMTFAC
 40
0.71
  9
$DIMGAP
 40
1.5
  9
$DIMJUST
 70
     0
  9
$DIMSD1
 70
     0
  9
$DIMSD2
 70
     0
  9
$DIMTOLJ
 70
     0
  9
$DIMTZIN
 70
     0
  9
$DIMALTZ
 70
     0
  9
$DIMALTTZ
 70
     0
  9
$DIMFIT
 70
     3
  9
$DIMUPT
 70
     0
  9
$DIMUNIT
 70
     2
  9
$DIMDEC
 70
     3
  9
$DIMTDEC
 70
     3
  9
$DIMALTU
 70
     2
  9
$DIMALTTD
 70
     2
  9
$DIMTXSTY
  7
ASAMI
  9
$DIMAUNIT
 70
     0
  9
$LUNITS
 70
     2
  9
$LUPREC
 70
     2
  9
$SKETCHINC
 40
1.0
  9
$FILLETRAD
 40
2.5
  9
$AUNITS
 70
     0
  9
$AUPREC
 70
     0
  9
$MENU
  1
.
  9
$ELEVATION
 40
0.0
  9
$PELEVATION
 40
0.0
  9
$THICKNESS
 40
0.0
  9
$LIMCHECK
 70
     0
  9
$BLIPMODE
 70
     0
  9
$CHAMFERA
 40
0.5
  9
$CHAMFERB
 40
0.5
  9
$CHAMFERC
 40
20.0
  9
$CHAMFERD
 40
0.0
  9
$SKPOLY
 70
     0
  9
$TDCREATE
 40
2452800.443498622
  9
$TDUPDATE
 40
2453151.667569433
  9
$TDINDWG
 40
0.0832378588
  9
$TDUSRTIMER
 40
0.0832378588
  9
$USRTIMER
 70
     1
  9
$ANGBASE
 50
0.0
  9
$ANGDIR
 70
     0
  9
$PDMODE
 70
     3
  9
$PDSIZE
 40
0.0
  9
$PLINEWID
 40
0.0
  9
$COORDS
 70
     1
  9
$SPLFRAME
 70
     0
  9
$SPLINETYPE
 70
     6
  9
$SPLINESEGS
 70
     8
  9
$ATTDIA
 70
     1
  9
$ATTREQ
 70
     1
  9
$HANDLING
 70
 12289
  9
$HANDSEED
  5
3E64
  9
$SURFTAB1
 70
     6
  9
$SURFTAB2
 70
     6
  9
$SURFTYPE
 70
     6
  9
$SURFU
 70
     6
  9
$SURFV
 70
     6
  9
$UCSNAME
  2

  9
$UCSORG
 10
0.0
 20
0.0
 30
0.0
  9
$UCSXDIR
 10
1.0
 20
0.0000000000000027
 30
0.0
  9
$UCSYDIR
 10
-0.0000000000000027
 20
1.0
 30
0.0
  9
$PUCSNAME
  2

  9
$PUCSORG
 10
0.0
 20
0.0
 30
0.0
  9
$PUCSXDIR
 10
1.0
 20
0.0
 30
0.0
  9
$PUCSYDIR
 10
0.0
 20
1.0
 30
0.0
  9
$USERI1
 70
     0
  9
$USERI2
 70
     0
  9
$USERI3
 70
     0
  9
$USERI4
 70
     0
  9
$USERI5
 70
     0
  9
$USERR1
 40
0.0
  9
$USERR2
 40
0.0
  9
$USERR3
 40
0.0
  9
$USERR4
 40
0.0
  9
$USERR5
 40
0.0
  9
$WORLDVIEW
 70
     1
  9
$SHADEDGE
 70
     3
  9
$SHADEDIF
 70
    70
  9
$TILEMODE
 70
     1
  9
$MAXACTVP
 70
    64
  9
$PINSBASE
 10
0.0
 20
0.0
 30
0.0
  9
$PLIMCHECK
 70
     0
  9
$PEXTMIN
 10
1.000000000000000E+20
 20
1.000000000000000E+20
 30
1.000000000000000E+20
  9
$PEXTMAX
 10
-1.000000000000000E+20
 20
-1.000000000000000E+20
 30
-1.000000000000000E+20
  9
$PLIMMIN
 10
0.0
 20
0.0
  9
$PLIMMAX
 10
841.0
 20
594.0
  9
$UNITMODE
 70
     0
  9
$VISRETAIN
 70
     1
  9
$PLINEGEN
 70
     0
  9
$PSLTSCALE
 70
     0
  9
$TREEDEPTH
 70
  3020
  9
$PICKSTYLE
 70
     0
  9
$CMLSTYLE
  2
STANDARD
  9
$CMLJUST
 70
     0
  9
$CMLSCALE
 40
20.0
  9
$PROXYGRAPHICS
 70
     1
  9
$MEASUREMENT
 70
     1
  0
ENDSEC
  0
SECTION
  2
CLASSES
  0
CLASS
  1
ACDBDICTIONARYWDFLT
  2
AcDbDictionaryWithDefault
  3
AutoCAD 2000
 90
        0
280
     0
281
     0
  0
CLASS
  1
ACDBPLACEHOLDER
  2
AcDbPlaceHolder
  3
AutoCAD 2000
 90
        0
280
     0
281
     0
  0
CLASS
  1
LAYOUT
  2
AcDbLayout
  3
AutoCAD 2000
 90
        0
280
     0
281
     0
  0
CLASS
  1
AMGSETTINGSOBJ
  2
AmgSettingsObj
  3
"AcadM|Product Description: AutoCAD Mechanical 2000|Company: Autodesk"
 90
        0
280
     0
281
     0
  0
CLASS
  1
ACME_DOCUMENT
  2
AcMeDbDoc
  3
AcMeServices
 90
        0
280
     0
281
     0
  0
CLASS
  1
ACMESCOPE
  2
AcMeScope
  3
AcMeServices
 90
        0
280
     0
281
     0
  0
CLASS
  1
ACMECOMMANDHISTORY
  2
AcMeCommandHistory
  3
AcMeServices
 90
        0
280
     0
281
     0
  0
CLASS
  1
DICTIONARYVAR
  2
AcDbDictionaryVar
  3
AutoCAD 2000
 90
        0
280
     0
281
     0
  0
CLASS
  1
ACIMSYSVARMAN
  2
AcImSysVarManager
  3
AcMeServices
 90
        0
280
     0
281
     0
  0
CLASS
  1
ACIMREALSYSVAR
  2
AcImRealSysVar
  3
AcMeServices
 90
        0
280
     0
281
     0
  0
CLASS
  1
ACIMINTSYSVAR
  2
AcImIntSysVar
  3
AcMeServices
 90
        0
280
     0
281
     0
  0
CLASS
  1
ACMEDRAWINGMAN
  2
AcMeDrawingMan
  3
AcMeServices
 90
        0
280
     0
281
     0
  0
CLASS
  1
ACMEVIEW
  2
AcMeView
  3
AcMeServices
 90
        0
280
     0
281
     0
  0
CLASS
  1
ACDBENTITYCACHE
  2
AcMeEntityCache
  3
AcMeServices
 90
        0
280
     0
281
     0
  0
CLASS
  1
GSMANAGER
  2
AcMeGSManager
  3
AcMeServices
 90
        0
280
     0
281
     0
  0
CLASS
  1
AmdtInternalReactor
  2
AmdtInternalReactor
  3
AcMeServices
 90
        0
280
     0
281
     0
  0
CLASS
  1
ACMESTATEMGR
  2
AcMeStateMgr
  3
AcMeServices
 90
        0
280
     0
281
     0
  0
CLASS
  1
ACME_DATABASE
  2
AcMeDbDatabase
  3
AcMeServices
 90
        0
280
     0
281
     0
  0
CLASS
  1
ACRFINSADJUSTERMGR
  2
AcRfInsAdjusterMgr
  3
AcMeServices
 90
        0
280
     0
281
     0
  0
CLASS
  1
ACMDATADICTIONARY
  2
AcmDataDictionary
  3
"AcmSymBB|Product Description: AutoCAD Mechanical 2000|Company: Autodesk"
 90
        0
280
     0
281
     0
  0
CLASS
  1
ACMDATAENTRYBLOCK
  2
AcmDataEntryBlock
  3
"AcmSymBB|Product Description: AutoCAD Mechanical 2000|Company: Autodesk"
 90
        0
280
     0
281
     0
  0
CLASS
  1
AMGOBJPROPCFG
  2
AmgObjPropCfg
  3
"AmgLay|Product Description: AutoCAD Mechanical 2000|Company: Autodesk"
 90
        1
280
     0
281
     0
  0
CLASS
  1
ACAMGFILTERDAT
  2
AcAmgFilterDat
  3
"AcadM|Product Description: AutoCAD Mechanical 2000|Company: Autodesk"
 90
        0
280
     0
281
     0
  0
CLASS
  1
LAYER_INDEX
  2
AcDbLayerIndex
  3
AutoCAD 2000
 90
        0
280
     0
281
     0
  0
CLASS
  1
IDBUFFER
  2
AcDbIdBuffer
  3
AutoCAD 2000
 90
        0
280
     0
281
     0
  0
CLASS
  1
ACIMSTRSYSVAR
  2
AcImStrSysVar
  3
AcMeServices
 90
        0
280
     0
281
     0
  0
CLASS
  1
ACMSTANDARDJIS
  2
AcmStandardJIS
  3
"AcmSymBB|Product Description: AutoCAD Mechanical 2000|Company: Autodesk"
 90
        0
280
     0
281
     0
  0
CLASS
  1
ACMSURFSTANDARDJIS
  2
AcmSurfTextStdJIS
  3
"AcmSymBB|Product Description: AutoCAD Mechanical 2000|Company: Autodesk"
 90
        0
280
     0
281
     0
  0
CLASS
  1
ACMFCFSTANDARDJIS
  2
AcmFCFStdJIS
  3
"AcmSymBB|Product Description: AutoCAD Mechanical 2000|Company: Autodesk"
 90
        0
280
     0
281
     0
  0
CLASS
  1
ACMWELDSTANDARDJIS
  2
AcmWeldingStdJIS
  3
"AcmSymBB|Product Description: AutoCAD Mechanical 2000|Company: Autodesk"
 90
        0
280
     0
281
     0
  0
CLASS
  1
ACMIDSTANDARDJIS
  2
AcmIdStdJIS
  3
"AcmSymBB|Product Description: AutoCAD Mechanical 2000|Company: Autodesk"
 90
        0
280
     0
281
     0
  0
CLASS
  1
ACMDATUMSTANDARDJIS
  2
AcmDatumStdJIS
  3
"AcmSymBB|Product Description: AutoCAD Mechanical 2000|Company: Autodesk"
 90
        0
280
     0
281
     0
  0
CLASS
  1
ACMBOMSTANDARDJIS
  2
AcmBOMStdJIS
  3
"AcmSymBB|Product Description: AutoCAD Mechanical 2000|Company: Autodesk"
 90
        0
280
     0
281
     0
  0
CLASS
  1
ACMSTANDARDANSI
  2
AcmStandardANSI
  3
"AcmSymBB|Product Description: AutoCAD Mechanical 2000|Company: Autodesk"
 90
        0
280
     0
281
     0
  0
CLASS
  1
ACMSURFSTANDARDANSI
  2
AcmSurfTextStdANSI
  3
"AcmSymBB|Product Description: AutoCAD Mechanical 2000|Company: Autodesk"
 90
        0
280
     0
281
     0
  0
CLASS
  1
ACMFCFSTANDARDANSI
  2
AcmFCFStdANSI
  3
"AcmSymBB|Product Description: AutoCAD Mechanical 2000|Company: Autodesk"
 90
        0
280
     0
281
     0
  0
CLASS
  1
ACMWELDSTANDARDANSI
  2
AcmWeldingStdANSI
  3
"AcmSymBB|Product Description: AutoCAD Mechanical 2000|Company: Autodesk"
 90
        0
280
     0
281
     0
  0
CLASS
  1
ACMIDSTANDARDANSI
  2
AcmIdStdANSI
  3
"AcmSymBB|Product Description: AutoCAD Mechanical 2000|Company: Autodesk"
 90
        0
280
     0
281
     0
  0
CLASS
  1
ACMDATUMSTANDARDANSI
  2
AcmDatumStdANSI
  3
"AcmSymBB|Product Description: AutoCAD Mechanical 2000|Company: Autodesk"
 90
        0
280
     0
281
     0
  0
CLASS
  1
ACMBOMSTANDARDANSI
  2
AcmBOMStdANSI
  3
"AcmSymBB|Product Description: AutoCAD Mechanical 2000|Company: Autodesk"
 90
        0
280
     0
281
     0
  0
CLASS
  1
ACMSTANDARDBSI
  2
AcmStandardBSI
  3
"AcmSymBB|Product Description: AutoCAD Mechanical 2000|Company: Autodesk"
 90
        0
280
     0
281
     0
  0
CLASS
  1
ACMSURFSTANDARDBSI
  2
AcmSurfTextStdBSI
  3
"AcmSymBB|Product Description: AutoCAD Mechanical 2000|Company: Autodesk"
 90
        0
280
     0
281
     0
  0
CLASS
  1
ACMFCFSTANDARDBSI
  2
AcmFCFStdBSI
  3
"AcmSymBB|Product Description: AutoCAD Mechanical 2000|Company: Autodesk"
 90
        0
280
     0
281
     0
  0
CLASS
  1
ACMWELDSTANDARDBSI
  2
AcmWeldingStdBSI
  3
"AcmSymBB|Product Description: AutoCAD Mechanical 2000|Company: Autodesk"
 90
        0
280
     0
281
     0
  0
CLASS
  1
ACMIDSTANDARDBSI
  2
AcmIdStdBSI
  3
"AcmSymBB|Product Description: AutoCAD Mechanical 2000|Company: Autodesk"
 90
        0
280
     0
281
     0
  0
CLASS
  1
ACMDATUMSTANDARDBSI
  2
AcmDatumStdBSI
  3
"AcmSymBB|Product Description: AutoCAD Mechanical 2000|Company: Autodesk"
 90
        0
280
     0
281
     0
  0
CLASS
  1
ACMBOMSTANDARDBSI
  2
AcmBOMStdBSI
  3
"AcmSymBB|Product Description: AutoCAD Mechanical 2000|Company: Autodesk"
 90
        0
280
     0
281
     0
  0
CLASS
  1
LONG_TRANSACTION
  2
AcDbLongTransaction
  3
AutoCAD 2000
 90
        0
280
     0
281
     0
  0
CLASS
  1
LWPOLYLINE
  2
AcDbPolyline
  3
AutoCAD 2000
 90
        0
280
     0
281
     1
  0
CLASS
  1
HATCH
  2
AcDbHatch
  3
AutoCAD 2000
 90
        0
280
     0
281
     1
  0
CLASS
  1
XRECORD
  2
AcDbXrecord
  3
AutoCAD 2000
 90
        0
280
     0
281
     0
  0
ENDSEC
  0
SECTION
  2
TABLES
  0
TABLE
  2
VPORT
  5
8
330
0
100
AcDbSymbolTable
 70
     3
  0
VPORT
  5
3E2E
330
8
100
AcDbSymbolTableRecord
100
AcDbViewportTableRecord
  2
*ACTIVE
 70
     0
 10
0.0
 20
0.0
 11
1.0
 21
1.0
 12
-76.93641949446149
 22
-8.610260791628832
 13
0.0
 23
0.0
 14
2.5
 24
2.5
 15
10.0
 25
10.0
 16
0.0
 26
0.0
 36
1.0
 17
0.0
 27
0.0
 37
0.0
 40
158.3480137108038
 41
1.56570841889117
 42
50.0
 43
0.0
 44
0.0
 50
0.0
 51
0.0
 71
     0
 72
   100
 73
     1
 74
     1
 75
     0
 76
     0
 77
     0
 78
     0
  0
ENDTAB
  0
TABLE
  2
LTYPE
  5
5
330
0
100
AcDbSymbolTable
 70
    10
  0
LTYPE
  5
14
330
5
100
AcDbSymbolTableRecord
100
AcDbLinetypeTableRecord
  2
BYBLOCK
 70
     0
  3

 72
    65
 73
     0
 40
0.0
  0
LTYPE
  5
15
330
5
100
AcDbSymbolTableRecord
100
AcDbLinetypeTableRecord
  2
BYLAYER
 70
     0
  3

 72
    65
 73
     0
 40
0.0
  0
LTYPE
  5
16
330
5
100
AcDbSymbolTableRecord
100
AcDbLinetypeTableRecord
  2
CONTINUOUS
 70
     0
  3
Solid line
 72
    65
 73
     0
 40
0.0
  0
LTYPE
  5
4B
330
5
100
AcDbSymbolTableRecord
100
AcDbLinetypeTableRecord
  2
AM_ISO02W050
 70
     0
  3
__ __ __ __ __ __ __ __ __ __ __ __ __ __ __
 72
    65
 73
     2
 40
7.5
 49
6.0
 74
     0
 49
-1.5
 74
     0
  0
LTYPE
  5
4C
330
5
100
AcDbSymbolTableRecord
100
AcDbLinetypeTableRecord
  2
AM_ISO08W050
 70
     0
  3
____ . ____ . ____ . ____ . ____ . ____ . ____
 72
    65
 73
     4
 40
18.0
 49
12.0
 74
     0
 49
-1.5
 74
     0
 49
3.0
 74
     0
 49
-1.5
 74
     0
  0
LTYPE
  5
4D
330
5
100
AcDbSymbolTableRecord
100
AcDbLinetypeTableRecord
  2
AM_ISO09W050
 70
     0
  3
_____ . . _____ . . _____ . . ____ .. ____
 72
    65
 73
     6
 40
22.5
 49
12.0
 74
     0
 49
-1.5
 74
     0
 49
3.0
 74
     0
 49
-1.5
 74
     0
 49
3.0
 74
     0
 49
-1.5
 74
     0
  0
LTYPE
  5
4E
330
5
100
AcDbSymbolTableRecord
100
AcDbLinetypeTableRecord
  2
AMCONSTR
 70
     0
  3
_______________________
 72
    65
 73
     2
 40
9999.0
 49
9999.0
 74
     0
 49
0.0
 74
     0
  0
LTYPE
  5
4F
330
5
100
AcDbSymbolTableRecord
100
AcDbLinetypeTableRecord
  2
AM_ISO02W050X2
 70
     0
  3
 _ _ _ _ _ _ _ _ _ _ _ _
 72
    65
 73
     2
 40
3.75
 49
3.0
 74
     0
 49
-0.75
 74
     0
  0
LTYPE
  5
50
330
5
100
AcDbSymbolTableRecord
100
AcDbLinetypeTableRecord
  2
AM_ISO08W050X2
 70
     0
  3
__ . __ . __ . __ . __ . __
 72
    65
 73
     4
 40
9.0
 49
6.0
 74
     0
 49
-0.75
 74
     0
 49
1.5
 74
     0
 49
-0.75
 74
     0
  0
LTYPE
  5
53
330
5
100
AcDbSymbolTableRecord
100
AcDbLinetypeTableRecord
  2
AMZIGZAG
 70
     0
  3
/\/-/\/-/\/-/\/-/\/-/\/
 72
    65
 73
     2
 40
11.00009999999999
 49
0.0001
 74
     4
 75
   135
340
52
 46
0.04
 50
0.0
 44
0.0
 45
0.0
 49
-11.0
 74
     0
  0
LTYPE
  5
166
330
5
100
AcDbSymbolTableRecord
100
AcDbLinetypeTableRecord
  2
ACJISTGL
 70
     0
  3
_ _ _ _ _
 72
    65
 73
     2
 40
3.0
 49
2.0
 74
     0
 49
-1.0
 74
     0
  0
LTYPE
  5
26A
330
5
100
AcDbSymbolTableRecord
100
AcDbLinetypeTableRecord
  2
ACJISTGB
 70
     0
  3
__ . . __ . .
 72
    65
 73
     6
 40
9.0
 49
4.0
 74
     0
 49
-1.0
 74
     0
 49
1.0
 74
     0
 49
-1.0
 74
     0
 49
1.0
 74
     0
 49
-1.0
 74
     0
  0
ENDTAB
  0
TABLE
  2
LAYER
  5
2
330
0
100
AcDbSymbolTable
 70
     8
  0
LAYER
  5
10
330
2
100
AcDbSymbolTableRecord
100
AcDbLayerTableRecord
  2
0
 70
     0
 62
     7
  6
CONTINUOUS
  0
LAYER
  5
3F9
330
2
100
AcDbSymbolTableRecord
100
AcDbLayerTableRecord
  2
AM_0
 70
     0
 62
     7
  6
CONTINUOUS
  0
LAYER
  5
C7C
330
2
100
AcDbSymbolTableRecord
100
AcDbLayerTableRecord
  2
AM_7
 70
     0
 62
     4
  6
AM_ISO08W050
  0
LAYER
  5
C97
330
2
100
AcDbSymbolTableRecord
100
AcDbLayerTableRecord
  2
AM_11
 70
     0
 62
     3
  6
AM_ISO09W050
  0
LAYER
  5
CC5
330
2
100
AcDbSymbolTableRecord
100
AcDbLayerTableRecord
  2
AM_5
 70
     0
 62
     3
  6
CONTINUOUS
  0
LAYER
  5
CC7
330
2
100
AcDbSymbolTableRecord
100
AcDbLayerTableRecord
  2
DEFPOINTS
 70
     0
 62
     7
  6
CONTINUOUS
  0
LAYER
  5
19BC
330
2
100
AcDbSymbolTableRecord
100
AcDbLayerTableRecord
  2
AM_6
 70
     0
 62
     2
  6
CONTINUOUS
  0
LAYER
  5
3C66
330
2
100
AcDbSymbolTableRecord
100
AcDbLayerTableRecord
  2
AM_CL
 70
     0
 62
     1
  6
AMCONSTR
  0
ENDTAB
  0
TABLE
  2
STYLE
  5
3
330
0
100
AcDbSymbolTable
 70
     5
  0
STYLE
  5
11
330
3
100
AcDbSymbolTableRecord
100
AcDbTextStyleTableRecord
  2
STANDARD
 70
     0
 40
0.0
 41
1.0
 50
0.0
 71
     0
 42
2.5
  3
simplex.shx
  4
EXTFONT.SHX
  0
STYLE
  5
52
330
3
100
AcDbSymbolTableRecord
100
AcDbTextStyleTableRecord
  2

 70
     1
 40
0.0
 41
1.0
 50
0.0
 71
     0
 42
2.5
  3
ltypeshp.shx
  4

  0
STYLE
  5
6B
330
3
100
AcDbSymbolTableRecord
100
AcDbTextStyleTableRecord
  2
ASAMI
 70
     0
 40
0.0
 41
1.0
 50
0.0
 71
     0
 42
2.5
  3
simplex.shx
  4
EXTFONT.SHX
  0
STYLE
  5
262
330
3
100
AcDbSymbolTableRecord
100
AcDbTextStyleTableRecord
  2
ACJISTS
 70
     0
 40
1.0
 41
1.0
 50
0.0
 71
     0
 42
2.5
  3
simplex.shx
  4
bigfont.shx
  0
STYLE
  5
269
330
3
100
AcDbSymbolTableRecord
100
AcDbTextStyleTableRecord
  2
ACJISGDT
 70
     0
 40
0.0
 41
1.0
 50
0.0
 71
     0
 42
2.5
  3
amgdtans.shx
  4

  0
ENDTAB
  0
TABLE
  2
VIEW
  5
6
330
0
100
AcDbSymbolTable
 70
     0
  0
ENDTAB
  0
TABLE
  2
UCS
  5
7
330
0
100
AcDbSymbolTable
 70
     0
  0
ENDTAB
  0
TABLE
  2
APPID
  5
9
330
0
100
AcDbSymbolTable
 70
    16
  0
APPID
  5
12
330
9
100
AcDbSymbolTableRecord
100
AcDbRegAppTableRecord
  2
ACAD
 70
     0
  0
APPID
  5
30
330
9
100
AcDbSymbolTableRecord
100
AcDbRegAppTableRecord
  2
MCAD_NO_VIS
 70
     0
  0
APPID
  5
31
330
9
100
AcDbSymbolTableRecord
100
AcDbRegAppTableRecord
  2
ACAD_TEMP_GRAPHIC
 70
     0
  0
APPID
  5
2C2
330
9
100
AcDbSymbolTableRecord
100
AcDbRegAppTableRecord
  2
GENIUS_GENDTOL_13
 70
     0
  0
APPID
  5
339
330
9
100
AcDbSymbolTableRecord
100
AcDbRegAppTableRecord
  2
GENIUS_GENODEF_13
 70
     0
  0
APPID
  5
33A
330
9
100
AcDbSymbolTableRecord
100
AcDbRegAppTableRecord
  2
GENIUS_GENOBJ-N-RSBK_13
 70
     0
  0
APPID
  5
33B
330
9
100
AcDbSymbolTableRecord
100
AcDbRegAppTableRecord
  2
GENIUS_GENOBJ-N-LIB_13
 70
     0
  0
APPID
  5
33C
330
9
100
AcDbSymbolTableRecord
100
AcDbRegAppTableRecord
  2
GENIUS_GENSCALE_13
 70
     0
  0
APPID
  5
378
330
9
100
AcDbSymbolTableRecord
100
AcDbRegAppTableRecord
  2
GENIUS_GENDIMSH_14
 70
     0
  0
APPID
  5
C82
330
9
100
AcDbSymbolTableRecord
100
AcDbRegAppTableRecord
  2
GENIUS_GENOBJ-N-CRS_13
 70
     0
  0
APPID
  5
C83
330
9
100
AcDbSymbolTableRecord
100
AcDbRegAppTableRecord
  2
GENIUS_GENOENT_13
 70
     0
  0
APPID
  5
C84
330
9
100
AcDbSymbolTableRecord
100
AcDbRegAppTableRecord
  2
GENIUS_GENOREF_13
 70
     0
  0
APPID
  5
C85
330
9
100
AcDbSymbolTableRecord
100
AcDbRegAppTableRecord
  2
GENIUS_GENOLIS_13
 70
     0
  0
APPID
  5
CA0
330
9
100
AcDbSymbolTableRecord
100
AcDbRegAppTableRecord
  2
GENIUS_GENOBJ-N-CEN_13
 70
     0
  0
APPID
  5
1E1E
330
9
100
AcDbSymbolTableRecord
100
AcDbRegAppTableRecord
  2
GENIUS_GENFIL_13
 70
     0
  0
APPID
  5
1E1F
330
9
100
AcDbSymbolTableRecord
100
AcDbRegAppTableRecord
  2
GENIUS_GENOBJ-N-CHA_13
 70
     0
  0
ENDTAB
  0
TABLE
  2
DIMSTYLE
  5
A
330
0
100
AcDbSymbolTable
 70
     9
  0
DIMSTYLE
105
58
330
A
100
AcDbSymbolTableRecord
100
AcDbDimStyleTableRecord
  2
AM_JIS
 70
     0
  3

  4
"
  5
OPEN30
  6

  7

 40
1.0
 41
2.5
 42
1.0
 43
12.0
 44
1.0
 45
0.0
 46
0.0
 47
0.1
 48
0.1
140
3.2
141
0.0
142
0.0
143
0.0393701
144
1.0
145
0.0
146
0.71
147
1.5
 71
     0
 72
     0
 73
     0
 74
     0
 75
     0
 76
     0
 77
     3
 78
     8
170
     0
171
     2
172
     1
173
     0
174
     0
175
     0
176
   256
177
   256
178
     2
270
     2
271
     3
272
     3
273
     2
274
     2
340
6B
275
     0
280
     0
281
     0
282
     0
283
     0
284
     0
285
     0
286
     0
287
     3
288
     0
  0
DIMSTYLE
105
5F
330
A
100
AcDbSymbolTableRecord
100
AcDbDimStyleTableRecord
  2
AM_JIS$3
 70
     0
  3

  4
"
  5
OPEN30
  6

  7

 40
1.0
 41
2.5
 42
1.0
 43
10.0
 44
1.0
 45
0.0
 46
0.0
 47
0.1
 48
0.1
140
3.2
141
0.0
142
0.0
143
0.0393701
144
1.0
145
0.0
146
0.71
147
1.5
 71
     0
 72
     0
 73
     0
 74
     1
 75
     0
 76
     0
 77
     3
 78
     8
170
     0
171
     2
172
     0
173
     0
174
     0
175
     0
176
   256
177
   256
178
     2
270
     2
271
     2
272
     3
273
     2
274
     2
340
6B
275
     0
280
     0
281
     0
282
     0
283
     0
284
     0
285
     0
286
     0
287
     0
288
     1
  0
DIMSTYLE
105
60
330
A
100
AcDbSymbolTableRecord
100
AcDbDimStyleTableRecord
  2
AM_JIS$4
 70
     0
  3

  4
"
  5
OPEN30
  6

  7

 40
1.0
 41
2.5
 42
1.0
 43
10.0
 44
1.0
 45
0.0
 46
0.0
 47
0.1
 48
0.1
140
3.2
141
0.0
142
0.0
143
0.0393701
144
1.0
145
0.0
146
0.71
147
1.5
 71
     0
 72
     0
 73
     0
 74
     1
 75
     0
 76
     0
 77
     3
 78
     8
170
     0
171
     2
172
     0
173
     0
174
     0
175
     0
176
   256
177
   256
178
     2
270
     2
271
     2
272
     3
273
     2
274
     2
340
6B
275
     0
280
     0
281
     0
282
     0
283
     0
284
     0
285
     0
286
     0
287
     0
288
     1
  0
DIMSTYLE
105
61
330
A
100
AcDbSymbolTableRecord
100
AcDbDimStyleTableRecord
  2
AM_JIS$6
 70
     0
  3

  4
"
  5
OPEN30
  6

  7

 40
1.0
 41
2.5
 42
1.0
 43
10.0
 44
1.0
 45
0.0
 46
0.0
 47
0.1
 48
0.1
140
3.2
141
0.0
142
0.0
143
0.0393701
144
1.0
145
0.0
146
0.71
147
1.5
 71
     0
 72
     0
 73
     0
 74
     0
 75
     0
 76
     0
 77
     0
 78
     8
170
     0
171
     2
172
     1
173
     0
174
     0
175
     0
176
   256
177
   256
178
     2
270
     2
271
     2
272
     2
273
     2
274
     2
340
6B
275
     0
280
     0
281
     0
282
     0
283
     0
284
     0
285
     0
286
     0
287
     3
288
     0
  0
DIMSTYLE
105
62
330
A
100
AcDbSymbolTableRecord
100
AcDbDimStyleTableRecord
  2
AM_JIS$7
 70
     0
  3

  4
"
  5
OPEN30
  6

  7

 40
1.0
 41
2.5
 42
1.0
 43
10.0
 44
1.0
 45
0.0
 46
0.0
 47
0.1
 48
0.1
140
3.2
141
0.0
142
0.0
143
0.0393701
144
1.0
145
0.0
146
0.71
147
1.5
 71
     0
 72
     0
 73
     0
 74
     0
 75
     0
 76
     0
 77
     3
 78
     8
170
     0
171
     2
172
     1
173
     0
174
     0
175
     0
176
   256
177
   256
178
     2
270
     2
271
     2
272
     3
273
     2
274
     2
340
6B
275
     0
280
     0
281
     0
282
     0
283
     0
284
     0
285
     0
286
     0
287
     3
288
     0
  0
DIMSTYLE
105
63
330
A
100
AcDbSymbolTableRecord
100
AcDbDimStyleTableRecord
  2
AM_JIS$SF
 70
     0
  3

  4
"
  5
OPEN30
  6

  7

 40
1.0
 41
2.5
 42
1.0
 43
10.0
 44
1.0
 45
0.0
 46
0.0
 47
0.1
 48
0.1
140
3.2
141
0.0
142
0.0
143
0.0393701
144
1.0
145
0.0
146
0.71
147
1.5
 71
     0
 72
     0
 73
     0
 74
     0
 75
     1
 76
     1
 77
     3
 78
     8
170
     0
171
     2
172
     1
173
     0
174
     0
175
     0
176
   256
177
   256
178
     2
270
     2
271
     2
272
     2
273
     2
274
     2
340
6B
275
     0
280
     0
281
     0
282
     0
283
     0
284
     0
285
     0
286
     0
287
     3
288
     0
  0
DIMSTYLE
105
68
330
A
100
AcDbSymbolTableRecord
100
AcDbDimStyleTableRecord
  2
AM_JIS$SH
 70
     0
  3

  4
"
  5

  6
GENAXEH
  7
OPEN30
 40
1.0
 41
2.5
 42
1.0
 43
10.0
 44
1.0
 45
0.0
 46
0.0
 47
0.1
 48
0.1
140
3.2
141
0.0
142
0.0
143
0.0393701
144
2.0
145
0.0
146
0.71
147
1.5
 71
     0
 72
     0
 73
     0
 74
     0
 75
     1
 76
     1
 77
     3
 78
     8
170
     0
171
     2
172
     1
173
     1
174
     0
175
     0
176
   256
177
   256
178
     2
270
     2
271
     2
272
     2
273
     2
274
     2
340
6B
275
     0
280
     0
281
     0
282
     0
283
     0
284
     0
285
     0
286
     0
287
     3
288
     0
  0
DIMSTYLE
105
B34
102
{ACAD_REACTORS
330
3CEA
102
}
330
A
100
AcDbSymbolTableRecord
100
AcDbDimStyleTableRecord
  2
AM_JIS$2
 70
     0
  3

  4
"
  5
OPEN30
  6

  7

 40
1.0
 41
2.5
 42
1.0
 43
12.0
 44
1.0
 45
0.0
 46
0.0
 47
0.1
 48
0.1
140
3.2
141
0.0
142
0.0
143
0.0393701
144
1.0
145
0.0
146
0.71
147
1.5
 71
     0
 72
     0
 73
     0
 74
     0
 75
     0
 76
     0
 77
     3
 78
     8
170
     0
171
     2
172
     1
173
     0
174
     0
175
     0
176
   256
177
   256
178
     2
270
     2
271
     3
272
     3
273
     2
274
     2
340
6B
275
     0
280
     0
281
     0
282
     0
283
     0
284
     0
285
     0
286
     0
287
     3
288
     0
  0
DIMSTYLE
105
BA5
102
{ACAD_REACTORS
330
CC6
330
DF5
330
1FB6
330
2216
102
}
330
A
100
AcDbSymbolTableRecord
100
AcDbDimStyleTableRecord
  2
AM_JIS$0
 70
     0
  3

  4
"
  5
OPEN30
  6

  7

 40
1.0
 41
2.5
 42
0.0
 43
10.0
 44
1.0
 45
0.0
 46
0.0
 47
0.1
 48
0.1000000001
140
3.799999999999999
141
0.0
142
0.0
143
0.0393701
144
1.0
145
0.0
146
0.71
147
1.5
 71
     0
 72
     0
 73
     0
 74
     0
 75
     0
 76
     0
 77
     3
 78
     1
170
     0
171
     2
172
     1
173
     0
174
     0
175
     0
176
     3
177
     3
178
     2
270
     2
271
     2
272
     2
273
     2
274
     2
340
11
275
     1
280
     0
281
     0
282
     0
283
     0
284
     8
285
     0
286
     0
287
     0
288
     0
  0
ENDTAB
  0
TABLE
  2
BLOCK_RECORD
  5
1
330
0
100
AcDbSymbolTable
 70
    10
  0
BLOCK_RECORD
  5
1F
102
{ACAD_XDICTIONARY
360
74
102
}
330
1
100
AcDbSymbolTableRecord
100
AcDbBlockTableRecord
  2
*MODEL_SPACE
  0
BLOCK_RECORD
  5
101
102
{ACAD_XDICTIONARY
360
3E57
102
}
330
1
100
AcDbSymbolTableRecord
100
AcDbBlockTableRecord
  2
*PAPER_SPACE
  0
BLOCK_RECORD
  5
59
330
1
100
AcDbSymbolTableRecord
100
AcDbBlockTableRecord
  2
_OPEN30
  0
BLOCK_RECORD
  5
64
330
1
100
AcDbSymbolTableRecord
100
AcDbBlockTableRecord
  2
GENAXEH
  0
BLOCK_RECORD
  5
CC8
330
1
100
AcDbSymbolTableRecord
100
AcDbBlockTableRecord
  2
*D5
  0
BLOCK_RECORD
  5
DF6
330
1
100
AcDbSymbolTableRecord
100
AcDbBlockTableRecord
  2
*D6
  0
BLOCK_RECORD
  5
1FB7
330
1
100
AcDbSymbolTableRecord
100
AcDbBlockTableRecord
  2
*D7
  0
BLOCK_RECORD
  5
2217
330
1
100
AcDbSymbolTableRecord
100
AcDbBlockTableRecord
  2
*D8
  0
BLOCK_RECORD
  5
3CEB
330
1
100
AcDbSymbolTableRecord
100
AcDbBlockTableRecord
  2
*D9
  0
ENDTAB
  0
ENDSEC
  0
SECTION
  2
BLOCKS
  0
BLOCK
  5
20
330
1F
100
AcDbEntity
  8
0
100
AcDbBlockBegin
  2
*MODEL_SPACE
 70
     0
 10
0.0
 20
0.0
 30
0.0
  3
*MODEL_SPACE
  1

  0
ENDBLK
  5
21
330
1F
100
AcDbEntity
  8
0
100
AcDbBlockEnd
  0
BLOCK
  5
103
330
101
100
AcDbEntity
 67
     1
  8
0
100
AcDbBlockBegin
  2
*PAPER_SPACE
 70
     0
 10
0.0
 20
0.0
 30
0.0
  3
*PAPER_SPACE
  1

  0
ENDBLK
  5
104
330
101
100
AcDbEntity
 67
     1
  8
0
100
AcDbBlockEnd
  0
BLOCK
  5
5D
330
59
100
AcDbEntity
  8
0
100
AcDbBlockBegin
  2
_OPEN30
 70
     0
 10
0.0
 20
0.0
 30
0.0
  3
_OPEN30
  1

  0
LINE
  5
5A
330
59
100
AcDbEntity
  8
0
 62
     0
100
AcDbLine
 10
-1.0
 20
0.26794919
 30
0.0
 11
0.0
 21
0.0
 31
0.0
  0
LINE
  5
5B
330
59
100
AcDbEntity
  8
0
 62
     0
100
AcDbLine
 10
0.0
 20
0.0
 30
0.0
 11
-1.0
 21
-0.26794919
 31
0.0
  0
LINE
  5
5C
330
59
100
AcDbEntity
  8
0
 62
     0
100
AcDbLine
 10
0.0
 20
0.0
 30
0.0
 11
-1.0
 21
0.0
 31
0.0
  0
ENDBLK
  5
5E
330
59
100
AcDbEntity
  8
0
100
AcDbBlockEnd
  0
BLOCK
  5
66
330
64
100
AcDbEntity
  8
0
100
AcDbBlockBegin
  2
GENAXEH
 70
     0
 10
0.0
 20
0.0
 30
0.0
  3
GENAXEH
  1

  0
LINE
  5
65
330
64
100
AcDbEntity
  8
0
100
AcDbLine
 10
-1.0
 20
0.0
 30
0.0
 11
1.0
 21
0.0
 31
0.0
  0
ENDBLK
  5
67
330
64
100
AcDbEntity
  8
0
100
AcDbBlockEnd
  0
BLOCK
  5
CD2
330
CC8
100
AcDbEntity
  8
0
100
AcDbBlockBegin
  2
*D5
 70
     1
 10
0.0
 20
0.0
 30
0.0
  3
*D5
  1

  0
LINE
  5
3CB4
330
CC8
100
AcDbEntity
  8
AM_5
 62
     3
100
AcDbLine
 10
-179.0000000000009
 20
-6.500002054481138
 30
0.0
 11
-179.0000000000009
 21
-32.00000305448093
 31
0.0
  0
LINE
  5
3CB5
330
CC8
100
AcDbEntity
  8
AM_5
 62
     3
100
AcDbLine
 10
-3.00000000000023
 20
-6.650000580218442
 30
0.0
 11
-3.000000000000231
 21
-32.00000305448093
 31
0.0
  0
LINE
  5
3CB6
330
CC8
100
AcDbEntity
  8
AM_5
 62
     3
100
AcDbLine
 10
-176.5000000000009
 20
-31.00000305448093
 30
0.0
 11
-5.50000000000023
 21
-31.00000305448093
 31
0.0
  0
INSERT
  5
3CB7
330
CC8
100
AcDbEntity
  8
AM_5
 62
     3
100
AcDbBlockReference
  2
_OPEN30
 10
-179.0000000000009
 20
-31.00000305448093
 30
0.0
 41
2.5
 42
2.5
 43
2.5
 50
180.0
  0
INSERT
  5
3CB8
330
CC8
100
AcDbEntity
  8
AM_5
 62
     3
100
AcDbBlockReference
  2
_OPEN30
 10
-3.000000000000231
 20
-31.00000305448093
 30
0.0
 41
2.5
 42
2.5
 43
2.5
  0
MTEXT
  5
3CB9
330
CC8
100
AcDbEntity
  8
AM_5
 62
     2
100
AcDbMText
 10
-91.0000000000006
 20
-27.60000305448093
 30
0.0
 40
3.799999999999999
 41
0.0
 71
     5
 72
     1
  1
176
1001
ACAD
1000
MTEXTBEGIN
1070
    73
1070
     1
1070
    44
1040
1.0
1070
    74
1070
     0
1000
MTEXTEND
  0
POINT
  5
3CBA
330
CC8
100
AcDbEntity
  8
DEFPOINTS
 62
     0
100
AcDbPoint
 10
-179.0000000000009
 20
-6.500002054481138
 30
0.0
  0
POINT
  5
3CBB
330
CC8
100
AcDbEntity
  8
DEFPOINTS
 62
     0
100
AcDbPoint
 10
-3.00000000000023
 20
-6.650000580218442
 30
0.0
  0
POINT
  5
3CBC
330
CC8
100
AcDbEntity
  8
DEFPOINTS
 62
     0
100
AcDbPoint
 10
-3.000000000000231
 20
-31.00000305448093
 30
0.0
  0
ENDBLK
  5
CD3
330
CC8
100
AcDbEntity
  8
0
100
AcDbBlockEnd
  0
BLOCK
  5
E00
330
DF6
100
AcDbEntity
  8
0
100
AcDbBlockBegin
  2
*D6
 70
     1
 10
0.0
 20
0.0
 30
0.0
  3
*D6
  1

  0
LINE
  5
3CAB
330
DF6
100
AcDbEntity
  8
AM_5
 62
     3
100
AcDbLine
 10
-115.0000000000002
 20
-7.000002054481154
 30
0.0
 11
-115.0000000000002
 21
-22.00000305448085
 31
0.0
  0
LINE
  5
3CAC
330
DF6
100
AcDbEntity
  8
AM_5
 62
     3
100
AcDbLine
 10
-3.000000000000218
 20
-6.650000580218426
 30
0.0
 11
-3.000000000000219
 21
-22.00000305448085
 31
0.0
  0
LINE
  5
3CAD
330
DF6
100
AcDbEntity
  8
AM_5
 62
     3
100
AcDbLine
 10
-112.5000000000002
 20
-21.00000305448085
 30
0.0
 11
-5.50000000000022
 21
-21.00000305448085
 31
0.0
  0
INSERT
  5
3CAE
330
DF6
100
AcDbEntity
  8
AM_5
 62
     3
100
AcDbBlockReference
  2
_OPEN30
 10
-115.0000000000002
 20
-21.00000305448085
 30
0.0
 41
2.5
 42
2.5
 43
2.5
 50
180.0
  0
INSERT
  5
3CAF
330
DF6
100
AcDbEntity
  8
AM_5
 62
     3
100
AcDbBlockReference
  2
_OPEN30
 10
-3.000000000000219
 20
-21.00000305448085
 30
0.0
 41
2.5
 42
2.5
 43
2.5
  0
MTEXT
  5
3CB0
330
DF6
100
AcDbEntity
  8
AM_5
 62
     2
100
AcDbMText
 10
-59.00000000000026
 20
-17.60000305448085
 30
0.0
 40
3.799999999999999
 41
0.0
 71
     5
 72
     1
  1
112
1001
ACAD
1000
MTEXTBEGIN
1070
    73
1070
     1
1070
    44
1040
1.0
1070
    74
1070
     0
1000
MTEXTEND
  0
POINT
  5
3CB1
330
DF6
100
AcDbEntity
  8
DEFPOINTS
 62
     0
100
AcDbPoint
 10
-115.0000000000002
 20
-7.000002054481154
 30
0.0
  0
POINT
  5
3CB2
330
DF6
100
AcDbEntity
  8
DEFPOINTS
 62
     0
100
AcDbPoint
 10
-3.000000000000218
 20
-6.650000580218426
 30
0.0
  0
POINT
  5
3CB3
330
DF6
100
AcDbEntity
  8
DEFPOINTS
 62
     0
100
AcDbPoint
 10
-3.000000000000219
 20
-21.00000305448085
 30
0.0
  0
ENDBLK
  5
E01
330
DF6
100
AcDbEntity
  8
0
100
AcDbBlockEnd
  0
BLOCK
  5
1FC3
330
1FB7
100
AcDbEntity
  8
0
100
AcDbBlockBegin
  2
*D7
 70
     1
 10
0.0
 20
0.0
 30
0.0
  3
*D7
  1

  0
LINE
  5
3DB7
330
1FB7
100
AcDbEntity
  8
AM_5
 62
     3
100
AcDbLine
 10
-3.00000000000023
 20
-6.650000580218442
 30
0.0
 11
17.55592102485705
 21
-6.650000580218447
 31
0.0
  0
LINE
  5
3DB8
330
1FB7
100
AcDbEntity
  8
AM_5
 62
     3
100
AcDbLine
 10
-3.000000000000249
 20
6.649999419781261
 30
0.0
 11
17.55592102485705
 21
6.649999419781256
 31
0.0
  0
LINE
  5
3DB9
330
1FB7
100
AcDbEntity
  8
AM_5
 62
     3
100
AcDbLine
 10
16.55592102485704
 20
-9.150000580218447
 30
0.0
 11
16.55592102485704
 21
-11.65000058021844
 31
0.0
  0
LINE
  5
3DBA
330
1FB7
100
AcDbEntity
  8
AM_5
 62
     3
100
AcDbLine
 10
16.55592102485705
 20
9.149999419781256
 30
0.0
 11
16.55592102485705
 21
28.94523751501935
 31
0.0
  0
LINE
  5
3DBB
330
1FB7
100
AcDbEntity
  8
AM_5
 62
     3
100
AcDbLine
 10
16.55592102485704
 20
-6.650000580218447
 30
0.0
 11
16.55592102485704
 21
6.649999419781256
 31
0.0
  0
INSERT
  5
3DBC
330
1FB7
100
AcDbEntity
  8
AM_5
 62
     3
100
AcDbBlockReference
  2
_OPEN30
 10
16.55592102485704
 20
-6.650000580218447
 30
0.0
 41
2.5
 42
2.5
 43
2.5
 50
90.0
  0
INSERT
  5
3DBD
330
1FB7
100
AcDbEntity
  8
AM_5
 62
     3
100
AcDbBlockReference
  2
_OPEN30
 10
16.55592102485704
 20
6.649999419781256
 30
0.0
 41
2.5
 42
2.5
 43
2.5
 50
270.0
  0
MTEXT
  5
3DBE
330
1FB7
100
AcDbEntity
  8
AM_5
 62
     2
100
AcDbMText
 10
13.15592102485705
 20
20.29761846740031
 30
0.0
 40
3.799999999999999
 41
0.0
 71
     5
 72
     1
  1
%%c13.3
 11
0.0000000000000001
 21
1.0
 31
0.0
1001
ACAD
1000
MTEXTBEGIN
1070
    73
1070
     1
1070
    44
1040
1.0
1070
    74
1070
     0
1000
MTEXTEND
  0
POINT
  5
3DBF
330
1FB7
100
AcDbEntity
  8
DEFPOINTS
 62
     0
100
AcDbPoint
 10
-3.00000000000023
 20
-6.650000580218442
 30
0.0
  0
POINT
  5
3DC0
330
1FB7
100
AcDbEntity
  8
DEFPOINTS
 62
     0
100
AcDbPoint
 10
-3.000000000000249
 20
6.649999419781261
 30
0.0
  0
POINT
  5
3DC1
330
1FB7
100
AcDbEntity
  8
DEFPOINTS
 62
     0
100
AcDbPoint
 10
16.55592102485704
 20
6.649999419781256
 30
0.0
  0
ENDBLK
  5
1FC4
330
1FB7
100
AcDbEntity
  8
0
100
AcDbBlockEnd
  0
BLOCK
  5
2221
330
2217
100
AcDbEntity
  8
0
100
AcDbBlockBegin
  2
*D8
 70
     1
 10
0.0
 20
0.0
 30
0.0
  3
*D8
  1

  0
LINE
  5
3CBD
330
2217
100
AcDbEntity
  8
AM_5
 62
     3
100
AcDbLine
 10
-178.5000000000014
 20
6.999999999998649
 30
0.0
 11
-196.0000010000009
 21
6.9999999999986
 31
0.0
  0
LINE
  5
3CBE
330
2217
100
AcDbEntity
  8
AM_5
 62
     3
100
AcDbLine
 10
-178.5000000000014
 20
-7.000002054481175
 30
0.0
 11
-196.0000010000009
 21
-7.000002054481225
 31
0.0
  0
LINE
  5
3CBF
330
2217
100
AcDbEntity
  8
AM_5
 62
     3
100
AcDbLine
 10
-195.0000010000009
 20
4.499999999998602
 30
0.0
 11
-195.0000010000009
 21
-4.500002054481222
 31
0.0
  0
INSERT
  5
3CC0
330
2217
100
AcDbEntity
  8
AM_5
 62
     3
100
AcDbBlockReference
  2
_OPEN30
 10
-195.0000010000009
 20
6.999999999998602
 30
0.0
 41
2.5
 42
2.5
 43
2.5
 50
90.00000000000017
  0
INSERT
  5
3CC1
330
2217
100
AcDbEntity
  8
AM_5
 62
     3
100
AcDbBlockReference
  2
_OPEN30
 10
-195.0000010000009
 20
-7.000002054481222
 30
0.0
 41
2.5
 42
2.5
 43
2.5
 50
270.0000000000001
  0
MTEXT
  5
3CC2
330
2217
100
AcDbEntity
  8
AM_5
 62
     2
100
AcDbMText
 10
-198.4000010000009
 20
-0.0000010272413116
 30
0.0
 40
3.799999999999999
 41
0.0
 71
     5
 72
     1
  1
%%c14
 11
-0.0000000000000028
 21
1.0
 31
0.0
1001
ACAD
1000
MTEXTBEGIN
1070
    73
1070
     1
1070
    44
1040
1.0
1070
    74
1070
     0
1000
MTEXTEND
  0
POINT
  5
3CC3
330
2217
100
AcDbEntity
  8
DEFPOINTS
 62
     0
100
AcDbPoint
 10
-178.5000000000014
 20
6.999999999999205
 30
0.0
  0
POINT
  5
3CC4
330
2217
100
AcDbEntity
  8
DEFPOINTS
 62
     0
100
AcDbPoint
 10
-178.5000000000014
 20
-7.00000205448062
 30
0.0
  0
POINT
  5
3CC5
330
2217
100
AcDbEntity
  8
DEFPOINTS
 62
     0
100
AcDbPoint
 10
-195.0000010000009
 20
-7.000002054480615
 30
0.0
  0
ENDBLK
  5
2222
330
2217
100
AcDbEntity
  8
0
100
AcDbBlockEnd
  0
BLOCK
  5
3CF9
330
3CEB
100
AcDbEntity
  8
0
100
AcDbBlockBegin
  2
*D9
 70
     1
 10
0.0
 20
0.0
 30
0.0
  3
*D9
  1

  0
LINE
  5
3E59
330
3CEB
100
AcDbEntity
  8
AM_5
100
AcDbLine
 10
0.3420201408151744
 20
-0.9396926216993904
 30
0.0
 11
13.20555543513474
 21
-36.28196567087242
 31
0.0
  0
LINE
  5
3E5A
330
3CEB
100
AcDbEntity
  8
AM_5
100
AcDbLine
 10
0.3420224212234477
 20
0.9396917916953528
 30
0.0
 11
13.20564348275029
 21
36.28193362404027
 31
0.0
  0
ARC
  5
3E5B
330
3CEB
100
AcDbEntity
  8
AM_5
100
AcDbCircle
 10
-0.0000000000009663
 20
-0.0000000000000887
 30
0.0
 40
37.61046137114657
100
AcDbArc
 50
293.8092015136745
 51
66.19065944316997
  0
INSERT
  5
3E5C
330
3CEB
100
AcDbEntity
  8
AM_5
100
AcDbBlockReference
  2
_OPEN30
 10
12.8635352943186
 20
-35.34227304917312
 30
0.0
 41
2.5
 42
2.5
 43
2.5
 50
201.9046006803307
  0
INSERT
  5
3E5D
330
3CEB
100
AcDbEntity
  8
AM_5
100
AcDbBlockReference
  2
_OPEN30
 10
12.86362106152587
 20
35.34224183234483
 30
0.0
 41
2.5
 42
2.5
 43
2.5
 50
158.0952602765138
  0
MTEXT
  5
3E5E
330
3CEB
100
AcDbEntity
  8
AM_5
 62
     2
100
AcDbMText
 10
34.51046137112019
 20
-0.0000418743186332
 30
0.0
 40
3.2
 41
0.0
 71
     5
 72
     1
  1
140°
  7
ASAMI
 11
0.0000012133804333
 21
0.999999999999264
 31
0.0
  0
POINT
  5
3E5F
330
3CEB
100
AcDbEntity
  8
DEFPOINTS
 62
     0
100
AcDbPoint
 10
34.53451935463436
 20
-14.89677070692936
 30
0.0
  0
POINT
  5
3E60
330
3CEB
100
AcDbEntity
  8
DEFPOINTS
 62
     0
100
AcDbPoint
 10
-0.0000000000009663
 20
-0.0000000000000887
 30
0.0
  0
POINT
  5
3E61
330
3CEB
100
AcDbEntity
  8
DEFPOINTS
 62
     0
100
AcDbPoint
 10
-0.0000000000009948
 20
-0.0000000000000106
 30
0.0
  0
POINT
  5
3E62
330
3CEB
100
AcDbEntity
  8
DEFPOINTS
 62
     0
100
AcDbPoint
 10
-0.5872917675993392
 20
1.613570883515823
 30
0.0
  0
POINT
  5
3E63
330
3CEB
100
AcDbEntity
  8
DEFPOINTS
 62
     0
100
AcDbPoint
 10
-0.587303731898656
 20
-1.613591571338162
 30
0.0
  0
ENDBLK
  5
3CFA
330
3CEB
100
AcDbEntity
  8
0
100
AcDbBlockEnd
  0
ENDSEC
  0
SECTION
  2
ENTITIES
  0
LINE
  5
C9F
330
1F
100
AcDbEntity
  8
AM_7
100
AcDbLine
 10
-181.0000000000009
 20
-0.0000000000003117
 30
0.0
 11
0.5559200248570591
 21
0.000000000000001
 31
0.0
1001
GENIUS_GENODEF_13
1002
{
1000
HIER
1070
     0
1002
}
1002
{
1000
MANEDIT
1070
     0
1002
}
1002
{
1000
NOSEL
1070
     0
1002
}
1002
{
1000
BEHIND
1070
     0
1002
}
1002
{
1000
REACTOR
1002
}
1001
GENIUS_GENOBJ-N-CEN_13
1002
{
1000
OWNER
1000
GEN
1002
}
  0
DIMENSION
  5
CC6
330
1F
100
AcDbEntity
  8
AM_5
100
AcDbDimension
  2
*D5
 10
-3.000000000000231
 20
-31.00000305448093
 30
0.0
 11
-91.0000000000006
 21
-27.60000305448093
 31
0.0
 70
    32
  1
<>
  3
AM_JIS$0
100
AcDbAlignedDimension
 13
-179.0000000000009
 23
-6.500002054481138
 33
0.0
 14
-3.00000000000023
 24
-6.650000580218442
 34
0.0
 50
0.0000000000001132
100
AcDbRotatedDimension
1001
GENIUS_GENDTOL_13
1000

1000
h7
1000

1040
0.0
1001
ACAD
1000
DSTYLE
1002
{
1070
   271
1070
     0
1002
}
  0
DIMENSION
  5
DF5
330
1F
100
AcDbEntity
  8
AM_5
100
AcDbDimension
  2
*D6
 10
-3.000000000000219
 20
-21.00000305448085
 30
0.0
 11
-59.00000000000026
 21
-17.60000305448085
 31
0.0
 70
    32
  1
<>
  3
AM_JIS$0
100
AcDbAlignedDimension
 13
-115.0000000000002
 23
-7.000002054481154
 33
0.0
 14
-3.000000000000218
 24
-6.650000580218426
 34
0.0
 50
0.0000000000001527
100
AcDbRotatedDimension
1001
GENIUS_GENDTOL_13
1000

1000
h7
1000

1040
0.0
1001
ACAD
1000
DSTYLE
1002
{
1070
   271
1070
     0
1002
}
  0
TEXT
  5
19BD
330
1F
100
AcDbEntity
  8
AM_6
100
AcDbText
 10
-112.1904761904767
 20
-53.50000305448099
 30
0.0
 40
5.0
  1
MDW133LHK
 50
0.0000000000001527
 72
     4
 11
-91.00000000000056
 21
-51.00000305448094
 31
0.0
100
AcDbText
  0
LINE
  5
1E25
330
1F
100
AcDbEntity
  8
AM_0
100
AcDbLine
 10
-115.0000000000002
 20
-7.000002054481156
 30
0.0
 11
-114.3937588803548
 21
-6.64998858085999
 31
0.0
  0
LINE
  5
1E26
330
1F
100
AcDbEntity
  8
AM_0
100
AcDbLine
 10
-114.3937812123876
 20
6.649999419783755
 30
0.0
 11
-115.0000192404472
 21
7.000011108476912
 31
0.0
  0
DIMENSION
  5
1FB6
330
1F
100
AcDbEntity
  8
AM_5
100
AcDbDimension
  2
*D7
 10
16.55592102485704
 20
6.649999419781256
 30
0.0
 11
16.55592102485704
 21
20.29761846740031
 31
0.0
 70
   160
  1
%%c<>
  3
AM_JIS$0
100
AcDbAlignedDimension
 13
-3.00000000000023
 23
-6.650000580218442
 33
0.0
 14
-3.000000000000249
 24
6.649999419781261
 34
0.0
 50
89.99999999999969
100
AcDbRotatedDimension
1001
ACAD
1000
DSTYLE
1002
{
1070
   271
1070
     1
1002
}
1001
GENIUS_GENDTOL_13
1000

1000
h7
1000

1040
0.0
  0
LINE
  5
1FD9
330
1F
100
AcDbEntity
  8
AM_0
100
AcDbLine
 10
-114.3937764358589
 20
-6.649998716535038
 30
0.0
 11
-114.3937812123876
 21
6.649999419783759
 31
0.0
  0
LINE
  5
21D7
330
1F
100
AcDbEntity
  8
AM_0
 48
0.5
100
AcDbLine
 10
-115.0000000000002
 20
-7.000002054481142
 30
0.0
 11
-115.0000000000002
 21
6.999999999999688
 31
0.0
  0
LINE
  5
21D8
330
1F
100
AcDbEntity
  8
AM_0
 48
0.5
100
AcDbLine
 10
-178.5000000000009
 20
6.999999999999688
 30
0.0
 11
-115.0000000000002
 21
6.999999999999688
 31
0.0
1001
GENIUS_GENODEF_13
1002
{
1000
HIER
1070
     0
1002
}
1002
{
1000
MANEDIT
1070
     0
1002
}
1002
{
1000
NOSEL
1070
     0
1002
}
1002
{
1000
BEHIND
1070
     0
1002
}
1002
{
1000
REACTOR
1002
}
1001
GENIUS_GENOBJ-N-CEN_13
1002
{
1000
OWNER
1000
GEN
1002
}
  0
LINE
  5
21D9
330
1F
100
AcDbEntity
  8
AM_0
 48
0.5
100
AcDbLine
 10
-178.5000000000009
 20
-7.000002054481142
 30
0.0
 11
-115.0000000000002
 21
-7.000002054481142
 31
0.0
1001
GENIUS_GENODEF_13
1002
{
1000
HIER
1070
     0
1002
}
1002
{
1000
MANEDIT
1070
     0
1002
}
1002
{
1000
NOSEL
1070
     0
1002
}
1002
{
1000
BEHIND
1070
     0
1002
}
1002
{
1000
REACTOR
1002
}
1001
GENIUS_GENOBJ-N-CEN_13
1002
{
1000
OWNER
1000
GEN
1002
}
  0
LINE
  5
21DC
330
1F
100
AcDbEntity
  8
AM_0
100
AcDbLine
 10
-178.5000000000014
 20
-7.000002054480616
 30
0.0
 11
-178.5000000000014
 21
6.999999999999205
 31
0.0
  0
LINE
  5
21DD
330
1F
100
AcDbEntity
  8
AM_0
 48
0.5
100
AcDbLine
 10
-179.0000000000009
 20
-6.500002054481142
 30
0.0
 11
-179.0000000000009
 21
6.499999999999702
 31
0.0
  0
DIMENSION
  5
2216
330
1F
100
AcDbEntity
  8
AM_5
100
AcDbDimension
  2
*D8
 10
-195.0000010000009
 20
-7.000002054480615
 30
0.0
 11
-198.4000010000009
 21
-0.0000010272407343
 31
0.0
 70
    32
  1
%%c<>
 51
359.9999999999998
  3
AM_JIS$0
100
AcDbAlignedDimension
 13
-178.5000000000014
 23
6.999999999999205
 33
0.0
 14
-178.5000000000014
 24
-7.00000205448062
 34
0.0
 50
269.9999999999999
100
AcDbRotatedDimension
1001
ACAD
1000
DSTYLE
1002
{
1070
   271
1070
     0
1002
}
1001
GENIUS_GENDTOL_13
1000

1000
h7
1000

1040
0.0
  0
ELLIPSE
  5
2694
330
1F
100
AcDbEntity
  8
AM_0
 48
0.5
100
AcDbEllipse
 10
8.2405865758355
 20
6.617376299158917
 30
0.0
 11
10.17240772368207
 21
0.0000000000010035
 31
0.0
210
0.0
220
0.0
230
1.0
 40
0.9899999999999971
 41
3.323896559076802
 42
3.661579236128986
  0
LINE
  5
2695
330
1F
100
AcDbEntity
  8
AM_0
 48
0.5
100
AcDbLine
 10
-1.76325026131083
 20
4.7916038607996
 30
0.0
 11
-3.000000000000249
 21
6.649999419781261
 31
0.0
  0
LINE
  5
2696
330
1F
100
AcDbEntity
  8
AM_0
 48
0.5
100
AcDbLine
 10
-0.0000000000009948
 20
-0.0000000000000106
 30
0.0
 11
-0.5872917675993392
 21
1.613570883515823
 31
0.0
  0
LINE
  5
2699
330
1F
100
AcDbEntity
  8
AM_0
 48
0.5
100
AcDbLine
 10
-0.0000000000009663
 20
-0.0000000000000887
 30
0.0
 11
-0.587303731898656
 21
-1.613591571338162
 31
0.0
  0
LINE
  5
2CB4
330
1F
100
AcDbEntity
  8
AM_0
 48
0.5
100
AcDbLine
 10
-179.0000000000009
 20
6.499999999999688
 30
0.0
 11
-178.5000000000009
 21
6.999999999999688
 31
0.0
1001
GENIUS_GENFIL_13
1070
     0
1040
0.5
1040
0.5
1040
20.0
1040
0.0
1002
{
1002
}
1001
GENIUS_GENODEF_13
1002
{
1000
HIER
1070
     0
1002
}
1002
{
1000
MANEDIT
1070
     0
1002
}
1002
{
1000
NOSEL
1070
     0
1002
}
1002
{
1000
BEHIND
1070
     0
1002
}
1002
{
1000
REACTOR
1002
}
1001
GENIUS_GENOBJ-N-CHA_13
1002
{
1000
OWNER
1000
GEN
1002
}
  0
LINE
  5
2CB7
330
1F
100
AcDbEntity
  8
AM_0
 48
0.5
100
AcDbLine
 10
-178.5000000000009
 20
-7.000002054481142
 30
0.0
 11
-179.0000000000009
 21
-6.500002054481142
 31
0.0
1001
GENIUS_GENFIL_13
1070
     0
1040
0.5
1040
0.5
1040
20.0
1040
0.0
1002
{
1002
}
1001
GENIUS_GENODEF_13
1002
{
1000
HIER
1070
     0
1002
}
1002
{
1000
MANEDIT
1070
     0
1002
}
1002
{
1000
NOSEL
1070
     0
1002
}
1002
{
1000
BEHIND
1070
     0
1002
}
1002
{
1000
REACTOR
1002
}
1001
GENIUS_GENOBJ-N-CHA_13
1002
{
1000
OWNER
1000
GEN
1002
}
  0
ELLIPSE
  5
3366
330
1F
100
AcDbEntity
  8
AM_0
 48
0.5
100
AcDbEllipse
 10
8.240586575835521
 20
-6.617376299158896
 30
0.0
 11
10.17240772368207
 21
-0.0000000000009696
 31
0.0
210
0.0
220
0.0
230
-1.0
 40
0.9899999999999971
 41
3.323896559076802
 42
3.661579236128986
  0
LINE
  5
3367
330
1F
100
AcDbEntity
  8
AM_0
 48
0.5
100
AcDbLine
 10
-1.763250261310815
 20
-4.791603860799622
 30
0.0
 11
-3.00000000000023
 21
-6.650000580218442
 31
0.0
  0
LINE
  5
3AB4
330
1F
100
AcDbEntity
  8
AM_0
100
AcDbLine
 10
-109.8890155749522
 20
-6.65033823648993
 30
0.0
 11
-114.3937588803548
 21
-6.64998858085999
 31
0.0
  0
LINE
  5
3AB5
330
1F
100
AcDbEntity
  8
AM_0
100
AcDbLine
 10
-106.2493088532306
 20
6.649999419783577
 30
0.0
 11
-114.3937812123876
 21
6.649999419783755
 31
0.0
  0
LINE
  5
3AB6
330
1F
100
AcDbEntity
  8
AM_0
 48
0.5
100
AcDbLine
 10
-7.796128460451761
 20
6.649999419781373
 30
0.0
 11
-3.000000000000249
 21
6.649999419781261
 31
0.0
  0
LINE
  5
3AB7
330
1F
100
AcDbEntity
  8
AM_0
 48
0.5
100
AcDbLine
 10
-7.796128460452074
 20
-6.650000580218633
 30
0.0
 11
-3.000000000000276
 21
-6.650000580218442
 31
0.0
  0
LINE
  5
3AB8
330
1F
100
AcDbEntity
  8
AM_11
 48
0.5
100
AcDbLine
 10
-28.19777885313866
 20
-6.65000058021812
 30
0.0
 11
-7.796128460452074
 21
-6.650000580218633
 31
0.0
  0
LINE
  5
3AB9
330
1F
100
AcDbEntity
  8
AM_11
 48
0.5
100
AcDbLine
 10
-28.19777885313833
 20
6.649999419781872
 30
0.0
 11
-7.796128460451761
 21
6.649999419781373
 31
0.0
  0
LINE
  5
3ABA
330
1F
100
AcDbEntity
  8
AM_11
 48
0.5
100
AcDbLine
 10
-66.75372440868627
 20
-6.650000580217319
 30
0.0
 11
-46.35207401600228
 21
-6.650945333402787
 31
0.0
  0
LINE
  5
3ABB
330
1F
100
AcDbEntity
  8
AM_11
 48
0.5
100
AcDbLine
 10
-64.10924570372113
 20
6.650944172967741
 30
0.0
 11
-51.08969459051083
 21
6.649999419782429
 31
0.0
  0
LINE
  5
3ABC
330
1F
100
AcDbEntity
  8
AM_0
 48
0.5
100
AcDbLine
 10
-46.35207401600226
 20
-6.650000580217819
 30
0.0
 11
-28.19777885313866
 21
-6.65000058021812
 31
0.0
  0
LINE
  5
3ABD
330
1F
100
AcDbEntity
  8
AM_0
 48
0.5
100
AcDbLine
 10
-51.08971216233232
 20
6.649999419782429
 30
0.0
 11
-28.19777885313833
 21
6.649999419781872
 31
0.0
  0
LINE
  5
3ABE
330
1F
100
AcDbEntity
  8
AM_0
 48
0.5
100
AcDbLine
 10
-0.0000000000011181
 20
-0.0000000000005057
 30
0.0
 11
-5.147426701679975
 21
2.553397424948473
 31
0.0
  0
SPLINE
  5
3ABF
330
1F
100
AcDbEntity
  8
AM_0
100
AcDbSpline
210
0.0
220
0.0
230
1.0
 70
     8
 71
     3
 72
    17
 73
    13
 74
     0
 42
0.0000000001
 43
0.0000000001
 40
1.580019955310467
 40
1.580019955310467
 40
1.580019955310467
 40
1.580019955310467
 40
2.030549285115227
 40
3.082371838836284
 40
4.126290986361125
 40
5.162752068350215
 40
6.192395305374981
 40
7.216039564037012
 40
8.234688489606833
 40
9.249433870634691
 40
10.26152376260694
 40
11.27226744710342
 40
11.27226744710342
 40
11.27226744710342
 40
11.27226744710352
 10
-17.99615779452608
 20
-4.907896400044273
 30
0.0
 10
-18.1493896191517
 20
-4.958443649813427
 30
0.0
 10
-18.66123539350151
 20
-5.124119012482121
 30
0.0
 10
-19.53508306275672
 20
-5.383986746795303
 30
0.0
 10
-20.6174726733343
 20
-5.675004135412973
 30
0.0
 10
-21.70016026475828
 20
-5.930478763761804
 30
0.0
 10
-22.78289746454974
 20
-6.149552690621071
 30
0.0
 10
-23.86575262661862
 20
-6.330632361667086
 30
0.0
 10
-24.94868260004337
 20
-6.472684435062282
 30
0.0
 10
-26.03168000535704
 20
-6.574788365839859
 30
0.0
 10
-27.11471816030816
 20
-6.636286899139865
 30
0.0
 10
-27.83691883876139
 20
-6.650000618269789
 30
0.0
 10
-28.19777885313857
 20
-6.650000580218125
 30
0.0
  0
SPLINE
  5
3AC0
330
1F
100
AcDbEntity
  8
AM_0
100
AcDbSpline
210
0.0
220
0.0
230
1.0
 70
     8
 71
     3
 72
    22
 73
    18
 74
     0
 42
0.0000000001
 43
0.0000000001
 40
17.17441611292
 40
17.17441611292
 40
17.17441611292
 40
17.17441611292
 40
17.38177636558528
 40
18.41823744757437
 40
19.46215659509824
 40
20.51397914882054
 40
21.57394542641293
 40
22.64209583141747
 40
23.71826625065247
 40
24.80210429862395
 40
25.8930771157021
 40
26.99048705697709
 40
28.09349309193389
 40
29.20112995599786
 40
30.31233024745139
 40
31.42594771747373
 40
32.5407895042663
 40
32.54078950426994
 40
32.54078950426994
 40
32.54078950426994
 10
-32.33149565438328
 20
-5.971748710584266
 30
0.0
 10
-32.40401743321186
 20
-5.956354612828032
 30
0.0
 10
-32.83874589083895
 20
-5.862587480778466
 30
0.0
 10
-33.63514392836074
 20
-5.674572176955124
 30
0.0
 10
-34.71768422607091
 20
-5.384001653451947
 30
0.0
 10
-35.80011421519714
 20
-5.060249822243714
 30
0.0
 10
-36.88244153763445
 20
-4.705337622536098
 30
0.0
 10
-37.9646647637037
 20
-4.321441190857574
 30
0.0
 10
-39.0467972143179
 20
-3.910949692098957
 30
0.0
 10
-40.12884390005449
 20
-3.476385874935688
 30
0.0
 10
-41.21081483241834
 20
-3.020429670616864
 30
0.0
 10
-42.29272204224026
 20
-2.545894040115662
 30
0.0
 10
-43.37457491982203
 20
-2.055696917374343
 30
0.0
 10
-44.45638435576199
 20
-1.552854077925372
 30
0.0
 10
-45.53815993935914
 20
-1.040457436045997
 30
0.0
 10
-46.61991769617808
 20
-0.5216687559710966
 30
0.0
 10
-47.34094797666197
 20
-0.1737281928560855
 30
0.0
 10
-47.70166118911308
 20
0.0003376562740897
 30
0.0
  0
SPLINE
  5
3AC1
330
1F
100
AcDbEntity
  8
AM_0
100
AcDbSpline
210
0.0
220
0.0
230
1.0
 70
     8
 71
     3
 72
    11
 73
     7
 74
     0
 42
0.0000000001
 43
0.0000000001
 40
11.27226913003534
 40
11.27226913003534
 40
11.27226913003534
 40
11.2722691300354
 40
12.28301561507924
 40
13.29510212255852
 40
14.30984805882082
 40
15.18258238371378
 40
15.18258238371378
 40
15.18258238371378
 40
15.18258238371378
 10
-28.19777885313863
 20
-6.650000580218125
 30
0.0
 10
-28.55726670008582
 20
-6.617453547740736
 30
0.0
 10
-29.27556433154183
 20
-6.538658598617673
 30
0.0
 10
-30.34930162366697
 20
-6.379709696352002
 30
0.0
 10
-31.36829724683042
 20
-6.189862660663085
 30
0.0
 10
-32.02732380204944
 20
-6.043921594118789
 30
0.0
 10
-32.33102200445837
 20
-5.971830738283416
 30
0.0
  0
SPLINE
  5
3AC2
330
1F
100
AcDbEntity
  8
AM_0
100
AcDbSpline
210
0.0
220
0.0
230
1.0
 70
     8
 71
     3
 72
    55
 73
    51
 74
     0
 42
0.0000000001
 43
0.0000000001
 40
0.0
 40
0.0
 40
0.0
 40
0.0
 40
1.010743684496582
 40
2.022833576467832
 40
3.037578957496688
 40
4.056212745003489
 40
5.079857003664532
 40
6.109500240690281
 40
7.145961322679372
 40
8.189895241603872
 40
9.241717795325891
 40
10.30168407291828
 40
11.36983447792315
 40
12.44600489715814
 40
13.52984294512926
 40
14.62081576220742
 40
15.7182257034828
 40
16.82123173843959
 40
17.92886860250316
 40
19.0400688939571
 40
20.15368796660465
 40
21.26852814259644
 40
22.38336992938901
 40
23.49698739941135
 40
24.6081876908653
 40
25.71582455492886
 40
26.81883757994213
 40
27.91624752121713
 40
29.00722033829659
 40
30.09105838626677
 40
31.16722880550176
 40
32.23537921050758
 40
33.29534548809967
 40
34.347168041821
 40
35.39108718934584
 40
36.42754827133493
 40
37.45720575381954
 40
38.48085062012849
 40
39.49948440763516
 40
40.51422944315121
 40
41.52631975251916
 40
42.53706336719636
 40
43.54780698187354
 40
44.55989729124051
 40
45.57464232675757
 40
46.59327611426424
 40
47.6169209805722
 40
48.64656348684535
 40
49.68302456883444
 40
50.58557219878025
 40
50.58557219878025
 40
50.58557219878025
 40
50.58557219878025
 10
-7.796128460452075
 20
-6.650000580218627
 30
0.0
 10
-8.15698847959007
 20
-6.646043991324718
 30
0.0
 10
-8.879189146597697
 20
-6.638125543764147
 30
0.0
 10
-9.962227324520656
 20
-6.574293966852876
 30
0.0
 10
-11.04521927162734
 20
-6.472818434232179
 30
0.0
 10
-12.128144192165
 20
-6.330596615859173
 30
0.0
 10
-13.21099128024763
 20
-6.14955589004887
 30
0.0
 10
-14.29373917372328
 20
-5.930501316058146
 30
0.0
 10
-15.37639149433561
 20
-5.674908523575057
 30
0.0
 10
-16.45893864114656
 20
-5.384342640569017
 30
0.0
 10
-17.54137324003711
 20
-5.06058772393479
 30
0.0
 10
-18.62370068634532
 20
-4.705675949817123
 30
0.0
 10
-19.70592387875995
 20
-4.321779402604772
 30
0.0
 10
-20.78805633879291
 20
-3.911287935820494
 30
0.0
 10
-21.87010302084968
 20
-3.476724107478089
 30
0.0
 10
-22.95207395846557
 20
-3.020767915686131
 30
0.0
 10
-24.03398115084465
 20
-2.546232246028104
 30
0.0
 10
-25.11583409338209
 20
-2.056035268353087
 30
0.0
 10
-26.19764328558396
 20
-1.553191884765109
 30
0.0
 10
-27.27942030326833
 20
-1.040797036549374
 30
0.0
 10
-28.36117463464939
 20
-0.5220007166568852
 30
0.0
 10
-29.44292155577393
 20
-0.0000019370596595
 30
0.0
 10
-30.52466362075993
 20
0.522006238840913
 30
0.0
 10
-31.60642157794572
 20
1.040794479702453
 30
0.0
 10
-32.68819726016185
 20
1.553190878908222
 30
0.0
 10
-33.77000838121755
 20
2.056036178105364
 30
0.0
 10
-34.85186581179994
 20
2.546228972353298
 30
0.0
 10
-35.93377471171443
 20
3.020767048567429
 30
0.0
 10
-37.01574580553091
 20
3.476722870625926
 30
0.0
 10
-38.09779244821549
 20
3.91128679035547
 30
0.0
 10
-39.17992491101935
 20
4.32177825774021
 30
0.0
 10
-40.26214813099904
 20
4.705674713157108
 30
0.0
 10
-41.34447546559925
 20
5.060586849672345
 30
0.0
 10
-42.42690541258351
 20
5.384338907554806
 30
0.0
 10
-43.50944586509073
 20
5.67490859624897
 30
0.0
 10
-44.59209778409523
 20
5.93050652838157
 30
0.0
 10
-45.67485340875372
 20
6.14953608329915
 30
0.0
 10
-46.75770407425715
 20
6.330632845041228
 30
0.0
 10
-47.8406293158222
 20
6.472686077805493
 30
0.0
 10
-48.92362201542463
 20
6.574777834369964
 30
0.0
 10
-50.00665927506027
 20
6.636295664411662
 30
0.0
 10
-51.08972033378289
 20
6.656846735861979
 30
0.0
 10
-52.17278139091193
 20
6.636295664379487
 30
0.0
 10
-53.25581865533758
 20
6.574777834499314
 30
0.0
 10
-54.33881133730457
 20
6.472686077318459
 30
0.0
 10
-55.42173664498907
 20
6.330632846872006
 30
0.0
 10
-56.50458178282107
 20
6.14953695929166
 30
0.0
 10
-57.58733314183452
 20
5.930508767840652
 30
0.0
 10
-58.62075922762308
 20
5.686511124167705
 30
0.0
 10
-59.29125784107348
 20
5.508073340675611
 30
0.0
 10
-59.60233011822882
 20
5.421111904060621
 30
0.0
  0
SPLINE
  5
3AC3
330
1F
100
AcDbEntity
  8
AM_0
 48
0.5
100
AcDbSpline
210
0.0
220
0.0
230
1.0
 70
     8
 71
     3
 72
    10
 73
     6
 74
     0
 42
0.0000000001
 43
0.0000000001
 40
0.0
 40
0.0
 40
0.0
 40
0.0
 40
2.69986029516136
 40
4.147722969032201
 40
6.285750005020438
 40
6.285750005020438
 40
6.285750005020438
 40
6.285750005020438
 10
-9.059050416488496
 20
1.203613972597034
 30
0.0
 10
-8.288230279274403
 20
0.5857830190258988
 30
0.0
 10
-7.104039973633333
 20
-0.3633741065108232
 30
0.0
 10
-4.303588975939005
 20
0.096129485791492
 30
0.0
 10
-4.830995354944185
 20
1.64379838604114
 30
0.0
 10
-5.179471792816349
 20
2.587150247662448
 30
0.0
  0
SPLINE
  5
3AC4
330
1F
100
AcDbEntity
  8
AM_0
 48
0.5
100
AcDbSpline
210
0.0
220
0.0
230
1.0
 70
     8
 71
     3
 72
    25
 73
    21
 74
     0
 42
0.0000000001
 43
0.0000000001
 40
6.846175049578289
 40
6.846175049578289
 40
6.846175049578289
 40
6.846175049578289
 40
7.604337694224321
 40
8.711974558287883
 40
9.814980593243754
 40
10.91239053451967
 40
12.0033633515982
 40
13.08720139956839
 40
14.16337181880432
 40
15.23152222380919
 40
16.29148850140128
 40
17.34331105512262
 40
18.38723020264746
 40
19.42369128463655
 40
20.45333379090873
 40
21.47697865721768
 40
22.49561244472435
 40
23.5103574802404
 40
24.52244778960836
 40
25.53320666051913
 40
25.53320666051913
 40
25.53320666051913
 40
25.53320666051913
 10
-9.05922357044918
 20
1.20369295633948
 30
0.0
 10
-9.305252770872584
 20
1.320455129358026
 30
0.0
 10
-9.911235835027243
 20
1.606632458450428
 30
0.0
 10
-10.87807331818865
 20
2.056033884026144
 30
0.0
 10
-11.95992613664617
 20
2.546231145283472
 30
0.0
 10
-13.04183336218458
 20
3.020766738900126
 30
0.0
 10
-14.12380429040323
 20
3.47672295318458
 30
0.0
 10
-15.20585097712839
 20
3.911286767088442
 30
0.0
 10
-16.28798342789312
 20
4.32177826897851
 30
0.0
 10
-17.37020665240076
 20
4.70567469145781
 30
0.0
 10
-18.45253398086509
 20
5.060586924486768
 30
0.0
 10
-19.53496394768576
 20
5.384338632917891
 30
0.0
 10
-20.61750432773008
 20
5.674909609480319
 30
0.0
 10
-21.70015130066325
 20
5.930501555703569
 30
0.0
 10
-22.78290063711902
 20
6.149547875824755
 30
0.0
 10
-23.86574631210627
 20
6.33059662923228
 30
0.0
 10
-24.94867147698106
 20
6.472819204184225
 30
0.0
 10
-26.03166419680904
 20
6.574283865251514
 30
0.0
 10
-27.11470689135493
 20
6.638133279503254
 30
0.0
 10
-27.83691331786327
 20
6.646045775689535
 30
0.0
 10
-28.19777885313833
 20
6.649999419781874
 30
0.0
  0
SPLINE
  5
3AC6
330
1F
100
AcDbEntity
  8
AM_0
 48
0.5
100
AcDbSpline
210
0.0
220
0.0
230
1.0
 70
     8
 71
     3
 72
    17
 73
    13
 74
     0
 42
0.0000000001
 43
0.0000000001
 40
0.0
 40
0.0
 40
0.0
 40
0.0
 40
1.010743614677189
 40
2.022833924044153
 40
3.037578959561199
 40
4.056212747067873
 40
5.079857613375832
 40
6.109500119648989
 40
7.14596120163808
 40
8.18989512056258
 40
9.241717674284874
 40
9.693948937866434
 40
9.693948937866434
 40
9.693948937866434
 40
9.693948937866434
 10
-7.796128460451763
 20
6.64999941978137
 30
0.0
 10
-8.156988545261972
 20
6.646045682197823
 30
0.0
 10
-8.879189517682384
 20
6.638132939149473
 30
0.0
 10
-9.962226783195438
 20
6.574283895337751
 30
0.0
 10
-11.04521946069292
 20
6.472819103115527
 30
0.0
 10
-12.12814478526246
 20
6.330597005624743
 30
0.0
 10
-13.21098985957717
 20
6.149546460958177
 30
0.0
 10
-14.29374145775489
 20
5.93050688423624
 30
0.0
 10
-15.37638504744943
 20
5.674888305653234
 30
0.0
 10
-16.45896263957792
 20
5.384411615312209
 30
0.0
 10
-17.33284750153769
 20
5.122736026219823
 30
0.0
 10
-17.84604392929349
 20
4.959151152440828
 30
0.0
 10
-18.00007796357705
 20
4.90907891766229
 30
0.0
  0
SPLINE
  5
3AC7
330
1F
100
AcDbEntity
  8
AM_0
100
AcDbSpline
210
0.0
220
0.0
230
1.0
 70
     8
 71
     3
 72
    17
 73
    13
 74
     0
 42
0.0000000001
 43
0.0000000001
 40
1.580019955310467
 40
1.580019955310467
 40
1.580019955310467
 40
1.580019955310467
 40
2.030549285115227
 40
3.082371838836284
 40
4.126290986361125
 40
5.162752068350215
 40
6.192395305374981
 40
7.216039564037012
 40
8.234688489606833
 40
9.249433870634691
 40
10.26152376260694
 40
11.27226744710342
 40
11.27226744710342
 40
11.27226744710342
 40
11.27226744710352
 10
-56.5521033500763
 20
-4.907896400043464
 30
0.0
 10
-56.70533517470191
 20
-4.958443649812617
 30
0.0
 10
-57.21718094905171
 20
-5.124119012481311
 30
0.0
 10
-58.09102861830692
 20
-5.383986746794493
 30
0.0
 10
-59.17341822888449
 20
-5.675004135412168
 30
0.0
 10
-60.25610582030847
 20
-5.930478763760997
 30
0.0
 10
-61.33884302009994
 20
-6.149552690620264
 30
0.0
 10
-62.4216981821688
 20
-6.330632361666279
 30
0.0
 10
-63.50462815559354
 20
-6.472684435061471
 30
0.0
 10
-64.58762556090722
 20
-6.574788365839047
 30
0.0
 10
-65.67066371585834
 20
-6.636286899139054
 30
0.0
 10
-66.39286439431159
 20
-6.650000618268975
 30
0.0
 10
-66.75372440868875
 20
-6.650000580217318
 30
0.0
  0
SPLINE
  5
3AC8
330
1F
100
AcDbEntity
  8
AM_0
100
AcDbSpline
210
0.0
220
0.0
230
1.0
 70
     8
 71
     3
 72
    11
 73
     7
 74
     0
 42
0.0000000001
 43
0.0000000001
 40
11.27226913003534
 40
11.27226913003534
 40
11.27226913003534
 40
11.2722691300354
 40
12.28301561507924
 40
13.29510212255852
 40
14.30984805882082
 40
15.18258238371378
 40
15.18258238371378
 40
15.18258238371378
 40
15.18258238371378
 10
-66.75372440868883
 20
-6.650000580217318
 30
0.0
 10
-67.113212255636
 20
-6.617453547739929
 30
0.0
 10
-67.83150988709199
 20
-6.538658598616864
 30
0.0
 10
-68.90524717921714
 20
-6.379709696351193
 30
0.0
 10
-69.9242428023806
 20
-6.189862660662281
 30
0.0
 10
-70.58326935759964
 20
-6.043921594117979
 30
0.0
 10
-70.88696756000857
 20
-5.971830738282606
 30
0.0
  0
SPLINE
  5
3AC9
330
1F
100
AcDbEntity
  8
AM_0
100
AcDbSpline
210
0.0
220
0.0
230
1.0
 70
     8
 71
     3
 72
    23
 73
    19
 74
     0
 42
0.0000000001
 43
0.0000000001
 40
16.03460024169435
 40
16.03460024169435
 40
16.03460024169435
 40
16.03460024169435
 40
16.35212704903564
 40
17.38177054169784
 40
18.41822485651776
 40
19.46214173629503
 40
20.51396345435107
 40
21.57393551351153
 40
22.64208202342361
 40
23.7182574881101
 40
24.80209208578934
 40
25.89306333925047
 40
26.99048218457928
 40
28.09348763352352
 40
29.20111863782268
 40
30.31232390128032
 40
31.42594612798585
 40
32.5407912310448
 40
32.5407912310486
 40
32.5407912310486
 40
32.5407912310486
 10
-64.10924570372113
 20
6.650944172967738
 30
0.0
 10
-63.99797684095524
 20
6.628494944030179
 30
0.0
 10
-63.52637050725473
 20
6.530734870480933
 30
0.0
 10
-62.6956308715891
 20
6.339188926429305
 30
0.0
 10
-61.61982086865243
 20
6.05436220235058
 30
0.0
 10
-60.54501012864914
 20
5.734549267018538
 30
0.0
 10
-59.47113514015544
 20
5.381601034581285
 30
0.0
 10
-58.39815778944497
 20
4.997485199336117
 30
0.0
 10
-57.32601606099839
 20
4.584397529383997
 30
0.0
 10
-56.25463529494076
 20
4.144742091346887
 30
0.0
 10
-55.18395461156896
 20
3.681008628336847
 30
0.0
 10
-54.1138881705302
 20
3.195895497322811
 30
0.0
 10
-53.04434925490562
 20
2.692222385414562
 30
0.0
 10
-51.97526660436776
 20
2.172885201852271
 30
0.0
 10
-50.90655077006967
 20
1.640903821238019
 30
0.0
 10
-49.83810276629132
 20
1.099384624542682
 30
0.0
 10
-48.76983559120422
 20
0.5514655688728825
 30
0.0
 10
-48.05784876527323
 20
0.1841158019505933
 30
0.0
 10
-47.70166118910828
 20
0.0003376562717004
 30
0.0
  0
SPLINE
  5
3ACA
330
1F
100
AcDbEntity
  8
AM_0
100
AcDbSpline
210
0.0
220
0.0
230
1.0
 70
     8
 71
     3
 72
    46
 73
    42
 74
     0
 42
0.0000000001
 43
0.0000000001
 40
0.0
 40
0.0
 40
0.0
 40
0.0
 40
1.348332046947657
 40
2.024828967632895
 40
2.703918159304097
 40
3.386347665078124
 40
4.072776489761952
 40
4.763750544421347
 40
5.459696642770596
 40
6.160921452191754
 40
6.867565637253344
 40
7.579665907256596
 40
8.297112853413899
 40
9.019671552060676
 40
9.746986763446127
 40
10.47859339096366
 40
11.21393074760089
 40
11.95235532364328
 40
12.69315551794651
 40
13.43556823304427
 40
14.1787950170388
 40
14.92202180103393
 40
15.66443451613169
 40
16.40523471043432
 40
17.14365928647669
 40
17.87899664311455
 40
18.61060327063121
 40
19.3379184820169
 40
20.06048192311554
 40
20.77792886927283
 40
21.49002913927608
 40
22.19667332433747
 40
22.89788836015233
 40
23.59383445850158
 40
24.28480851316097
 40
24.97123685067576
 40
25.65366676154838
 40
26.33276604526152
 40
27.00926273560555
 40
27.68398960851751
 40
28.357818684969
 40
28.357818684969
 40
28.357818684969
 40
28.357818684969
 10
-4.76435748002924
 20
-6.650000580218704
 30
0.0
 10
-5.486593432610513
 20
-6.634851366167602
 30
0.0
 10
-6.571195909843828
 20
-6.612101356244622
 30
0.0
 10
-8.013439121422795
 20
-6.472033724548103
 30
0.0
 10
-9.09637567686514
 20
-6.330808292156316
 30
0.0
 10
-10.17921966701177
 20
-6.149498826348089
 30
0.0
 10
-11.26196823928084
 20
-5.930516264762188
 30
0.0
 10
-12.3446158313806
 20
-5.674907530598757
 30
0.0
 10
-13.42716063003899
 20
-5.384337752501408
 30
0.0
 10
-14.5095978175493
 20
-5.060591071921217
 30
0.0
 10
-15.59192955744384
 20
-4.705675485830484
 30
0.0
 10
-16.67415293857938
 20
-4.321779528354283
 30
0.0
 10
-17.75628534745348
 20
-3.91128790172211
 30
0.0
 10
-18.83833204344602
 20
-3.476724116849636
 30
0.0
 10
-19.92030297698552
 20
-3.020767912615484
 30
0.0
 10
-21.00221017161563
 20
-2.546232248876529
 30
0.0
 10
-22.08406310922582
 20
-2.056035259997108
 30
0.0
 10
-23.16587231897473
 20
-1.553191915498708
 30
0.0
 10
-24.24764927112397
 20
-1.040796921520885
 30
0.0
 10
-25.32940384777659
 20
-0.5220011470945134
 30
0.0
 10
-26.41114933100926
 20
-0.0000005803237889
 30
0.0
 10
-27.49289481400429
 20
0.5219999870812723
 30
0.0
 10
-28.57464939136974
 20
1.040795759605566
 30
0.0
 10
-29.6564263409135
 20
1.55319076053464
 30
0.0
 10
-30.73823556032361
 20
2.056034079253364
 30
0.0
 10
-31.82008846211103
 20
2.546231163721241
 30
0.0
 10
-32.90199578940499
 20
3.020766473462491
 30
0.0
 10
-33.98396858438164
 20
3.476724978366793
 30
0.0
 10
-35.06601948468563
 20
3.911284815006993
 30
0.0
 10
-36.14815382391811
 20
4.32177854649965
 30
0.0
 10
-37.23037717985636
 20
4.705674618205317
 30
0.0
 10
-38.31270447365511
 20
5.060586942925119
 30
0.0
 10
-39.39513444910902
 20
5.384338631592223
 30
0.0
 10
-40.47767482889216
 20
5.674909596698913
 30
0.0
 10
-41.56032179441234
 20
5.93050160759703
 30
0.0
 10
-42.64307116048642
 20
6.14954768275504
 30
0.0
 10
-43.72592206142694
 20
6.330598236321218
 30
0.0
 10
-44.80885303677177
 20
6.472817869447936
 30
0.0
 10
-45.89185101252906
 20
6.574284088949791
 30
0.0
 10
-46.97488830030724
 20
6.638132890875477
 30
0.0
 10
-47.69708926976494
 20
6.646045666114317
 30
0.0
 10
-48.05794935309465
 20
6.649999419782359
 30
0.0
  0
ELLIPSE
  5
3ACB
330
1F
100
AcDbEntity
  8
AM_0
 48
0.5
100
AcDbEllipse
 10
-19.90251556268725
 20
45.64716491350226
 30
0.0
 11
0.019847269041895
 21
49.8578302492038
 31
0.0
210
0.0
220
0.0
230
1.0
 40
0.9924880592640045
 41
3.48085331045483
 42
3.55591953668539
  0
ELLIPSE
  5
3ACC
330
1F
100
AcDbEntity
  8
AM_0
 48
0.5
100
AcDbEllipse
 10
-13.11315099232134
 20
11.16111023419343
 30
0.0
 11
-0.0000000000022706
 21
16.03385457197772
 31
0.0
210
0.0
220
0.0
230
1.0
 40
0.9663279821174365
 41
3.652175978818034
 42
3.740670756497532
  0
ELLIPSE
  5
3ACD
330
1F
100
AcDbEntity
  8
AM_0
 48
0.5
100
AcDbEllipse
 10
2.112920074664055
 20
7.983733550640471
 30
0.0
 11
0.0000000000004462
 21
13.40270762443517
 31
0.0
210
0.0
220
0.0
230
1.0
 40
0.9663279821174569
 41
2.101163880028998
 42
2.509284810223894
  0
ELLIPSE
  5
3ACE
330
1F
100
AcDbEntity
  8
AM_0
 48
0.5
100
AcDbEllipse
 10
-3.903882710024227
 20
-1.733086307910812
 30
0.0
 11
-0.9218908384205091
 21
0.5638116040319071
 31
0.0
210
0.0
220
0.0
230
1.0
 40
0.5082545753576638
 41
4.50417351989872
 42
7.647613861228228
  0
ELLIPSE
  5
3ACF
330
1F
100
AcDbEntity
  8
AM_0
 48
0.5
100
AcDbEllipse
 10
-3.903882710024227
 20
-1.733086307910812
 30
0.0
 11
-0.1820638742112956
 21
1.092176374937159
 31
0.0
210
0.0
220
0.0
230
0.9999999999999998
 40
0.4841083541758897
 41
1.813271161537703
 42
4.948613051249679
  0
ELLIPSE
  5
3AD0
330
1F
100
AcDbEntity
  8
AM_0
 48
0.5
100
AcDbEllipse
 10
4.657214521660089
 20
-1.478203972247329
 30
0.0
 11
10.17107122412686
 21
1.563711102670872
 31
0.0
210
0.0
220
0.0
230
1.0
 40
0.6570853401660752
 41
3.10966605358578
 42
3.76511250444316
  0
LINE
  5
3AD1
330
1F
100
AcDbEntity
  8
AM_11
 48
0.5
100
AcDbLine
 10
-106.2493088532306
 20
6.649999419783577
 30
0.0
 11
-89.64580643195651
 21
6.649999419783243
 31
0.0
  0
LINE
  5
3AD2
330
1F
100
AcDbEntity
  8
AM_11
 48
0.5
100
AcDbLine
 10
-109.8890155749522
 20
-6.65033823648993
 30
0.0
 11
-89.64580643195677
 21
-6.650000580216762
 31
0.0
  0
LINE
  5
3AD3
330
1F
100
AcDbEntity
  8
AM_0
 48
0.5
100
AcDbLine
 10
-94.8529975941514
 20
3.485272593015223
 30
0.0
 11
-112.504171295796
 21
-0.2147916927595892
 31
0.0
  0
SPLINE
  5
3AD4
330
1F
100
AcDbEntity
  8
AM_0
100
AcDbSpline
210
0.0
220
0.0
230
1.0
 70
     8
 71
     3
 72
    23
 73
    19
 74
     0
 42
0.0000000001
 43
0.0000000001
 40
16.03460024169435
 40
16.03460024169435
 40
16.03460024169435
 40
16.03460024169435
 40
16.35212704903564
 40
17.38177054169784
 40
18.41822485651776
 40
19.46214173629503
 40
20.51396345435107
 40
21.57393551351153
 40
22.64208202342361
 40
23.7182574881101
 40
24.80209208578934
 40
25.89306333925047
 40
26.99048218457928
 40
28.09348763352352
 40
29.20111863782268
 40
30.31232390128032
 40
31.42594612798585
 40
32.5407912310448
 40
32.5407912310486
 40
32.5407912310486
 40
32.5407912310486
 10
-106.2529751105922
 20
6.650606516694944
 30
0.0
 10
-106.1173707653241
 20
6.628157287757376
 30
0.0
 10
-105.5426199633835
 20
6.530397214208131
 30
0.0
 10
-104.530190236123
 20
6.338851270156526
 30
0.0
 10
-103.2190910889341
 20
6.054024546077792
 30
0.0
 10
-101.9092097523029
 20
5.734211610745761
 30
0.0
 10
-100.6004688242967
 20
5.381263378308524
 30
0.0
 10
-99.2928218553809
 20
4.997147543063368
 30
0.0
 10
-97.98619326669443
 20
4.584059873111261
 30
0.0
 10
-96.68049206958857
 20
4.144404435074185
 30
0.0
 10
-95.37564406943186
 20
3.680670972064128
 30
0.0
 10
-94.07154465182866
 20
3.195557841050099
 30
0.0
 10
-92.7680881341044
 20
2.691884729141871
 30
0.0
 10
-91.46518767066892
 20
2.172547545579593
 30
0.0
 10
-90.16273424942285
 20
1.640566164965332
 30
0.0
 10
-88.86060723559543
 20
1.099046968270038
 30
0.0
 10
-87.55870059929033
 20
0.5511279126002277
 30
0.0
 10
-86.69099596953255
 20
0.1837781456779425
 30
0.0
 10
-86.25690702624849
 20
-0.0000000000009334
 30
0.0
  0
SPLINE
  5
3AD5
330
1F
100
AcDbEntity
  8
AM_0
 48
0.5
100
AcDbSpline
210
0.0
220
0.0
230
1.0
 70
     8
 71
     3
 72
    26
 73
    22
 74
     0
 42
0.0000000001
 43
0.0000000001
 40
0.0
 40
0.0
 40
0.0
 40
0.0
 40
0.4211432018735474
 40
0.8428473235286537
 40
1.265657898956934
 40
1.690088643751428
 40
2.116607084860617
 40
2.545625100287603
 40
2.977483884449724
 40
3.412450195918404
 40
3.850709593302191
 40
4.292362208965671
 40
4.737427885281768
 40
5.185826256336565
 40
5.637431371058531
 40
6.092003378174421
 40
6.549257520372505
 40
7.008843368271169
 40
7.470358728297647
 40
7.933358849736796
 40
8.383035712276667
 40
8.383035712276667
 40
8.383035712276667
 40
8.383035712276667
 10
-86.69111855679874
 20
-6.650338236490279
 30
0.0
 10
-87.13090184763251
 20
-6.646381647768777
 30
0.0
 10
-88.01105417577836
 20
-6.638463200553258
 30
0.0
 10
-89.33096236283345
 20
-6.574631621049286
 30
0.0
 10
-90.65081421181622
 20
-6.473156098321685
 30
0.0
 10
-91.97058436048022
 20
-6.33093424276125
 30
0.0
 10
-93.29025970836777
 20
-6.149893656790718
 30
0.0
 10
-94.6098139624264
 20
-5.930838556269368
 30
0.0
 10
-95.92924624481542
 20
-5.675248962450221
 30
0.0
 10
-97.2485475570359
 20
-5.38467719780093
 30
0.0
 10
-98.56771478013165
 20
-5.060926211572019
 30
0.0
 10
-99.88675877089814
 20
-4.706011056830338
 30
0.0
 10
-101.2056740636482
 20
-4.322123220255185
 30
0.0
 10
-102.524475602063
 20
-3.91161756503017
 30
0.0
 10
-103.8431810194287
 20
-3.477066272291932
 30
0.0
 10
-105.1617931649716
 20
-3.021105442167513
 30
0.0
 10
-106.4803218682527
 20
-2.546567854923268
 30
0.0
 10
-107.7987913425001
 20
-2.056381305019152
 30
0.0
 10
-109.1171797985422
 20
-1.553497897570608
 30
0.0
 10
-110.3502705148145
 20
-1.046540276775672
 30
0.0
 10
-111.1807721803386
 20
-0.846116794970457
 30
0.0
 10
-112.504171295796
 20
-0.2147916927595892
 30
0.0
  0
SPLINE
  5
3AD6
330
1F
100
AcDbEntity
  8
AM_0
 48
0.5
100
AcDbSpline
210
0.0
220
0.0
230
1.0
 70
     8
 71
     3
 72
    19
 73
    15
 74
     0
 42
0.0000000001
 43
0.0000000001
 40
3.111699631838226
 40
3.111699631838226
 40
3.111699631838226
 40
3.111699631838226
 40
4.056212471389632
 40
5.079857945358201
 40
6.109499720892564
 40
7.145961650132166
 40
8.189873411961459
 40
9.241710626092514
 40
10.30166235592959
 40
11.36982472628033
 40
12.44598212828784
 40
13.52983440361964
 40
14.62080578343036
 40
14.90544694398022
 40
14.90544694398022
 40
14.90544694398022
 40
14.90544694398022
 10
-94.10849362880053
 20
-6.650058337761322
 30
0.0
 10
-94.92227616291103
 20
-6.549104056563527
 30
0.0
 10
-95.69727334915375
 20
-6.42259474495568
 30
0.0
 10
-97.09980102242816
 20
-6.216601796920525
 30
0.0
 10
-98.30466210960684
 20
-5.93084321312214
 30
0.0
 10
-99.62408864713676
 20
-5.675244331439908
 30
0.0
 10
-100.9433920028495
 20
-5.384668359907164
 30
0.0
 10
-102.2625602944768
 20
-5.060929606312463
 30
0.0
 10
-103.5816004158622
 20
-4.705998381177232
 30
0.0
 10
-104.9005208699684
 20
-4.322133274163518
 30
0.0
 10
-106.2193206661311
 20
-3.911616347082314
 30
0.0
 10
-107.538024510511
 20
-3.477062778622039
 30
0.0
 10
-108.5291226064253
 20
-3.134370272933951
 30
0.0
 10
-109.0813970511955
 20
-2.938498252236879
 30
0.0
 10
-109.6426452602021
 20
-2.789719706987681
 30
0.0
  0
SPLINE
  5
3AD7
330
1F
100
AcDbEntity
  8
AM_0
100
AcDbSpline
210
0.0
220
0.0
230
1.0
 70
     8
 71
     3
 72
    13
 73
     9
 74
     0
 42
0.0000000001
 43
0.0000000001
 40
16.03460056234195
 40
16.03460056234195
 40
16.03460056234195
 40
16.03460056234195
 40
16.35212717791071
 40
17.38177067057215
 40
18.41822498539278
 40
19.46214186516937
 40
20.5139635832251
 40
21.34083983469381
 40
21.34083983469381
 40
21.34083983469381
 40
21.34083983469381
 10
-109.6515904218505
 20
-6.650943024681883
 30
0.0
 10
-109.5159860216297
 20
-6.628494456894609
 30
0.0
 10
-108.9412347440946
 20
-6.530737065566574
 30
0.0
 10
-107.9288055687251
 20
-6.339188885171123
 30
0.0
 10
-106.6177062565403
 20
-6.054362950848682
 30
0.0
 10
-105.3078249645934
 20
-5.734549801637303
 30
0.0
 10
-104.0957538588376
 20
-5.40767205906482
 30
0.0
 10
-103.322473837822
 20
-5.182593470622083
 30
0.0
 10
-102.6217578950985
 20
-4.962173103100927
 30
0.0
  0
ELLIPSE
  5
3AD8
330
1F
100
AcDbEntity
  8
AM_0
 48
0.5
100
AcDbEllipse
 10
-109.8890147554709
 20
-4.433671569823376
 30
0.0
 11
-2.611219527075796
 21
0.0021384031831582
 31
0.0
210
0.0
220
0.0
230
1.0
 40
0.8489005588840161
 41
0.0141089489357638
 42
1.571491202068665
  0
ELLIPSE
  5
3AD9
330
1F
100
AcDbEntity
  8
AM_0
 48
0.5
100
AcDbEllipse
 10
-110.4416475519242
 20
-4.391713201562374
 30
0.0
 11
2.040090129107992
 21
0.342950448262894
 31
0.0
210
0.0
220
0.0
230
1.0
 40
0.8129653586030316
 41
1.036465969490701
 42
2.979675905156497
  0
SPLINE
  5
3ADA
330
1F
100
AcDbEntity
  8
AM_0
100
AcDbSpline
210
0.0
220
0.0
230
1.0
 70
     8
 71
     3
 72
    46
 73
    42
 74
     0
 42
0.0000000001
 43
0.0000000001
 40
0.0
 40
0.0
 40
0.0
 40
0.0
 40
1.348332046947654
 40
2.024828967632893
 40
2.703918159304094
 40
3.386347665078122
 40
4.072776489761951
 40
4.763750544421345
 40
5.459696642770595
 40
6.160921452191748
 40
6.867565637253344
 40
7.579665907256597
 40
8.297112853413899
 40
9.019671552060666
 40
9.746986763446125
 40
10.47859339096365
 40
11.21393074760088
 40
11.95235532364327
 40
12.69315551794651
 40
13.43556823304427
 40
14.1787950170388
 40
14.92202180103393
 40
15.66443451613169
 40
16.40523471043432
 40
17.14365928647669
 40
17.87899664311455
 40
18.61060327063121
 40
19.33791848201689
 40
20.06048192311554
 40
20.77792886927282
 40
21.49002913927608
 40
22.19667332433747
 40
22.89788836015233
 40
23.59383445850157
 40
24.28480851316097
 40
24.97123685067575
 40
25.65366676154837
 40
26.33276604526151
 40
27.00926273560554
 40
27.68398960851752
 40
28.35781868496899
 40
28.35781868496899
 40
28.35781868496899
 40
28.35781868496899
 10
-43.32030303557943
 20
-6.650000580217892
 30
0.0
 10
-44.0425389881607
 20
-6.634851366166795
 30
0.0
 10
-45.12714146539401
 20
-6.612101356243813
 30
0.0
 10
-46.56938467697298
 20
-6.472033724547296
 30
0.0
 10
-47.65232123241534
 20
-6.330808292155509
 30
0.0
 10
-48.73516522256197
 20
-6.149498826347278
 30
0.0
 10
-49.81791379483106
 20
-5.930516264761381
 30
0.0
 10
-50.90056138693081
 20
-5.674907530597947
 30
0.0
 10
-51.98310618558917
 20
-5.384337752500598
 30
0.0
 10
-53.06554337309951
 20
-5.060591071920399
 30
0.0
 10
-54.14787511299408
 20
-4.705675485829675
 30
0.0
 10
-55.23009849412957
 20
-4.321779528353474
 30
0.0
 10
-56.3122309030037
 20
-3.911287901721305
 30
0.0
 10
-57.39427759899621
 20
-3.476724116848818
 30
0.0
 10
-58.47624853253574
 20
-3.020767912614688
 30
0.0
 10
-59.55815572716588
 20
-2.54623224887571
 30
0.0
 10
-60.64000866477601
 20
-2.056035259996307
 30
0.0
 10
-61.72181787452493
 20
-1.553191915497892
 30
0.0
 10
-62.80359482667413
 20
-1.04079692152008
 30
0.0
 10
-63.8853494033268
 20
-0.5220011470937039
 30
0.0
 10
-64.96709488655949
 20
-0.0000005803229785
 30
0.0
 10
-66.04884036955451
 20
0.5219999870820801
 30
0.0
 10
-67.13059494691998
 20
1.040795759606374
 30
0.0
 10
-68.21237189646376
 20
1.553190760535449
 30
0.0
 10
-69.29418111587387
 20
2.05603407925417
 30
0.0
 10
-70.37603401766128
 20
2.546231163722052
 30
0.0
 10
-71.45794134495514
 20
3.020766473463301
 30
0.0
 10
-72.53991413993181
 20
3.476724978367602
 30
0.0
 10
-73.62196504023581
 20
3.911284815007802
 30
0.0
 10
-74.7040993794683
 20
4.321778546500457
 30
0.0
 10
-75.78632273540659
 20
4.705674618206129
 30
0.0
 10
-76.86865002920531
 20
5.060586942925929
 30
0.0
 10
-77.95108000465926
 20
5.384338631593032
 30
0.0
 10
-79.0336203844424
 20
5.674909596699721
 30
0.0
 10
-80.11626734996257
 20
5.930501607597835
 30
0.0
 10
-81.19901671603665
 20
6.149547682755849
 30
0.0
 10
-82.28186761697715
 20
6.330598236322025
 30
0.0
 10
-83.36479859232198
 20
6.472817869448746
 30
0.0
 10
-84.44779656807929
 20
6.574284088950604
 30
0.0
 10
-85.53083385585749
 20
6.638132890876286
 30
0.0
 10
-86.25303482531517
 20
6.646045666115128
 30
0.0
 10
-86.61389490864486
 20
6.64999941978317
 30
0.0
  0
SPLINE
  5
3ADB
330
1F
100
AcDbEntity
  8
AM_0
100
AcDbSpline
210
0.0
220
0.0
230
1.0
 70
     8
 71
     3
 72
    22
 73
    18
 74
     0
 42
0.0000000001
 43
0.0000000001
 40
17.17441611292
 40
17.17441611292
 40
17.17441611292
 40
17.17441611292
 40
17.38177636558528
 40
18.41823744757437
 40
19.46215659509824
 40
20.51397914882054
 40
21.57394542641293
 40
22.64209583141747
 40
23.71826625065247
 40
24.80210429862395
 40
25.8930771157021
 40
26.99048705697709
 40
28.09349309193389
 40
29.20112995599786
 40
30.31233024745139
 40
31.42594771747373
 40
32.5407895042663
 40
32.54078950426994
 40
32.54078950426994
 40
32.54078950426994
 10
-70.88744120993348
 20
-5.971748710583454
 30
0.0
 10
-70.95996298876205
 20
-5.956354612827224
 30
0.0
 10
-71.39469144638916
 20
-5.862587480777654
 30
0.0
 10
-72.19108948391095
 20
-5.674572176954319
 30
0.0
 10
-73.27362978162113
 20
-5.384001653451137
 30
0.0
 10
-74.35605977074735
 20
-5.060249822242903
 30
0.0
 10
-75.43838709318464
 20
-4.705337622535286
 30
0.0
 10
-76.52061031925393
 20
-4.321441190856764
 30
0.0
 10
-77.60274276986816
 20
-3.910949692098149
 30
0.0
 10
-78.68478945560474
 20
-3.476385874934879
 30
0.0
 10
-79.76676038796862
 20
-3.020429670616057
 30
0.0
 10
-80.84866759779044
 20
-2.545894040114855
 30
0.0
 10
-81.93052047537218
 20
-2.055696917373534
 30
0.0
 10
-83.01232991131213
 20
-1.552854077924562
 30
0.0
 10
-84.09410549490933
 20
-1.040457436045188
 30
0.0
 10
-85.17586325172828
 20
-0.5216687559702875
 30
0.0
 10
-85.89689353221219
 20
-0.1737281928552766
 30
0.0
 10
-86.25760674466329
 20
0.0003376562748986
 30
0.0
  0
SPLINE
  5
3ADC
330
1F
100
AcDbEntity
  8
AM_0
100
AcDbSpline
210
0.0
220
0.0
230
1.0
 70
     8
 71
     3
 72
    55
 73
    51
 74
     0
 42
0.0000000001
 43
0.0000000001
 40
0.0
 40
0.0
 40
0.0
 40
0.0
 40
1.010743684496582
 40
2.022833576467832
 40
3.037578957496688
 40
4.056212745003489
 40
5.079857003664532
 40
6.109500240690281
 40
7.145961322679372
 40
8.189895241603872
 40
9.241717795325891
 40
10.30168407291828
 40
11.36983447792315
 40
12.44600489715814
 40
13.52984294512926
 40
14.62081576220742
 40
15.7182257034828
 40
16.82123173843959
 40
17.92886860250316
 40
19.0400688939571
 40
20.15368796660465
 40
21.26852814259644
 40
22.38336992938901
 40
23.49698739941135
 40
24.6081876908653
 40
25.71582455492886
 40
26.81883757994213
 40
27.91624752121713
 40
29.00722033829659
 40
30.09105838626677
 40
31.16722880550176
 40
32.23537921050758
 40
33.29534548809967
 40
34.347168041821
 40
35.39108718934584
 40
36.42754827133493
 40
37.45720575381954
 40
38.48085062012849
 40
39.49948440763516
 40
40.51422944315121
 40
41.52631975251916
 40
42.53706336719636
 40
43.54780698187354
 40
44.55989729124051
 40
45.57464232675757
 40
46.59327611426424
 40
47.6169209805722
 40
48.64656348684535
 40
49.68302456883444
 40
50.58557219878025
 40
50.58557219878025
 40
50.58557219878025
 40
50.58557219878025
 10
-46.35207401600227
 20
-6.650000580217821
 30
0.0
 10
-46.71293403514026
 20
-6.646043991323906
 30
0.0
 10
-47.43513470214788
 20
-6.638125543763335
 30
0.0
 10
-48.51817288007085
 20
-6.574293966852065
 30
0.0
 10
-49.60116482717753
 20
-6.472818434231369
 30
0.0
 10
-50.68408974771521
 20
-6.330596615858365
 30
0.0
 10
-51.76693683579784
 20
-6.149555890048064
 30
0.0
 10
-52.84968472927348
 20
-5.930501316057338
 30
0.0
 10
-53.9323370498858
 20
-5.674908523574251
 30
0.0
 10
-55.01488419669676
 20
-5.384342640568206
 30
0.0
 10
-56.09731879558733
 20
-5.060587723933981
 30
0.0
 10
-57.17964624189555
 20
-4.705675949816317
 30
0.0
 10
-58.26186943431016
 20
-4.321779402603962
 30
0.0
 10
-59.3440018943431
 20
-3.911287935819687
 30
0.0
 10
-60.4260485763999
 20
-3.47672410747728
 30
0.0
 10
-61.50801951401579
 20
-3.020767915685322
 30
0.0
 10
-62.58992670639488
 20
-2.546232246027297
 30
0.0
 10
-63.67177964893229
 20
-2.05603526835228
 30
0.0
 10
-64.75358884113416
 20
-1.5531918847643
 30
0.0
 10
-65.83536585881851
 20
-1.040797036548565
 30
0.0
 10
-66.91712019019959
 20
-0.5220007166560765
 30
0.0
 10
-67.99886711132415
 20
-0.0000019370588506
 30
0.0
 10
-69.08060917631011
 20
0.5220062388417218
 30
0.0
 10
-70.16236713349596
 20
1.040794479703263
 30
0.0
 10
-71.24414281571211
 20
1.55319087890903
 30
0.0
 10
-72.3259539367678
 20
2.056036178106173
 30
0.0
 10
-73.40781136735017
 20
2.546228972354108
 30
0.0
 10
-74.48972026726457
 20
3.020767048568237
 30
0.0
 10
-75.57169136108105
 20
3.476722870626733
 30
0.0
 10
-76.65373800376567
 20
3.911286790356279
 30
0.0
 10
-77.73587046656953
 20
4.321778257741019
 30
0.0
 10
-78.81809368654926
 20
4.705674713157916
 30
0.0
 10
-79.90042102114944
 20
5.060586849673155
 30
0.0
 10
-80.98285096813372
 20
5.384338907555618
 30
0.0
 10
-82.06539142064094
 20
5.674908596249783
 30
0.0
 10
-83.14804333964545
 20
5.930506528382382
 30
0.0
 10
-84.23079896430396
 20
6.149536083299956
 30
0.0
 10
-85.31364962980738
 20
6.330632845042035
 30
0.0
 10
-86.39657487137245
 20
6.4726860778063
 30
0.0
 10
-87.47956757097485
 20
6.574777834370771
 30
0.0
 10
-88.56260483061047
 20
6.636295664412468
 30
0.0
 10
-89.64566588933308
 20
6.656846735862785
 30
0.0
 10
-90.72872694646216
 20
6.636295664380297
 30
0.0
 10
-91.8117642108878
 20
6.574777834500126
 30
0.0
 10
-92.89475689285479
 20
6.47268607731927
 30
0.0
 10
-93.97768220053931
 20
6.33063284687282
 30
0.0
 10
-95.06052733837128
 20
6.149536959292468
 30
0.0
 10
-96.1432786973847
 20
5.930508767841458
 30
0.0
 10
-97.17670478317328
 20
5.686511124168511
 30
0.0
 10
-97.84720339662369
 20
5.508073340676418
 30
0.0
 10
-99.30058246278237
 20
4.994633027137138
 30
0.0
  0
LINE
  5
3ADD
330
1F
100
AcDbEntity
  8
AM_0
 48
0.5
100
AcDbLine
 10
-89.64581460317942
 20
-6.650000580216662
 30
0.0
 11
-66.75372140285455
 21
-6.650000580217161
 31
0.0
  0
LINE
  5
3ADE
330
1F
100
AcDbEntity
  8
AM_0
100
AcDbLine
 10
-89.64580643195651
 20
6.649999419783243
 30
0.0
 11
-64.10924570372113
 21
6.650944172967741
 31
0.0
  0
DIMENSION
  5
3CEA
330
1F
100
AcDbEntity
  8
AM_5
100
AcDbDimension
  2
*D9
 10
-0.587303731898656
 20
-1.613591571338162
 30
0.0
 11
34.51046137112019
 21
-0.0000418743187353
 31
0.0
 70
    34
  1
<>
 51
359.9999999999998
  3
AM_JIS$2
100
AcDb2LineAngularDimension
 13
-0.0000000000009948
 23
-0.0000000000000106
 33
0.0
 14
-0.5872917675993392
 24
1.613570883515823
 34
0.0
 15
-0.0000000000009663
 25
-0.0000000000000887
 35
0.0
 16
34.53451935463436
 26
-14.89677070692936
 36
0.0
1001
GENIUS_GENDTOL_13
1000

1000
h7
1000

1040
0.0
1001
ACAD
1000
DSTYLE
1002
{
1070
   271
1070
     0
1002
}
  0
ELLIPSE
  5
3DF9
330
1F
100
AcDbEntity
  8
AM_11
 48
0.5
100
AcDbEllipse
 10
3.310487223357739
 20
27.82689745097787
 30
0.0
 11
-31.07765833536794
 21
0.0000000000288672
 31
0.0
210
0.0
220
0.0
230
1.0
 40
0.9899999999999861
 41
1.130070686341231
 42
1.291800737381917
  0
ELLIPSE
  5
3DFA
330
1F
100
AcDbEntity
  8
AM_11
 48
0.5
100
AcDbEllipse
 10
-23.20466429179396
 20
-27.82687566608721
 30
0.0
 11
-31.07765833536737
 21
0.0000000000017409
 31
0.0
210
0.0
220
0.0
230
1.0
 40
0.9900000000000009
 41
4.271664206181739
 42
5.153113667165048
  0
ELLIPSE
  5
3DFB
330
1F
100
AcDbEntity
  8
AM_11
 48
0.5
100
AcDbEllipse
 10
-23.20466429179376
 20
27.82689745097796
 30
0.0
 11
-31.0776583353674
 21
0.0000000000010094
 31
0.0
210
0.0
220
0.0
230
1.0
 40
0.9899999999999995
 41
1.130070686340335
 42
2.011520147323624
  0
ELLIPSE
  5
3DFC
330
1F
100
AcDbEntity
  8
AM_11
 48
0.5
100
AcDbEllipse
 10
-49.71981580694543
 20
-27.82687566608716
 30
0.0
 11
-31.07765833536731
 21
0.000000000001451
 31
0.0
210
0.0
220
0.0
230
1.0
 40
0.9900000000000032
 41
4.271664206181728
 42
5.153113667165039
  0
ELLIPSE
  5
3DFD
330
1F
100
AcDbEntity
  8
AM_11
 48
0.5
100
AcDbEllipse
 10
-76.23490313694102
 20
27.82689745097772
 30
0.0
 11
-31.0776583353674
 21
0.0000000000010094
 31
0.0
210
0.0
220
0.0
230
1.0
 40
0.9899999999999995
 41
1.130070686340335
 42
2.011520147323624
  0
ELLIPSE
  5
3DFE
330
1F
100
AcDbEntity
  8
AM_11
 48
0.5
100
AcDbEllipse
 10
-76.23490313694121
 20
-27.82687566608745
 30
0.0
 11
-31.07765833536737
 21
0.0000000000017409
 31
0.0
210
0.0
220
0.0
230
1.0
 40
0.9900000000000009
 41
4.271664206181739
 42
5.153113667165048
  0
ELLIPSE
  5
3DFF
330
1F
100
AcDbEntity
  8
AM_11
 48
0.5
100
AcDbEllipse
 10
-49.71981580694531
 20
27.82689745097802
 30
0.0
 11
-31.0776583353674
 21
0.000000000000133
 31
0.0
210
0.0
220
0.0
230
1.0
 40
0.9900000000000002
 41
1.130070686340306
 42
2.011520147323597
  0
ELLIPSE
  5
3E00
330
1F
100
AcDbEntity
  8
AM_11
 48
0.5
100
AcDbEllipse
 10
-129.2651992383662
 20
27.82692418676167
 30
0.0
 11
-31.0776583353674
 21
0.0000000000010094
 31
0.0
210
0.0
220
0.0
230
1.0
 40
0.9899999999999995
 41
1.130070686340335
 42
2.011520147323624
  0
ELLIPSE
  5
3E01
330
1F
100
AcDbEntity
  8
AM_11
 48
0.5
100
AcDbEllipse
 10
-129.2651992383664
 20
-27.82684893030351
 30
0.0
 11
-31.07765833536737
 21
0.0000000000017409
 31
0.0
210
0.0
220
0.0
230
1.0
 40
0.9900000000000009
 41
4.271664206181739
 42
5.153113667165048
  0
ELLIPSE
  5
3E02
330
1F
100
AcDbEntity
  8
AM_11
 48
0.5
100
AcDbEllipse
 10
-102.7500546520927
 20
-27.8268756660874
 30
0.0
 11
-31.07765833536731
 21
0.000000000001451
 31
0.0
210
0.0
220
0.0
230
1.0
 40
0.9900000000000032
 41
4.271664206181728
 42
5.153113667165039
  0
ELLIPSE
  5
3E03
330
1F
100
AcDbEntity
  8
AM_11
 48
0.5
100
AcDbEllipse
 10
-102.7500546520925
 20
27.82689745097778
 30
0.0
 11
-31.0776583353674
 21
0.000000000000133
 31
0.0
210
0.0
220
0.0
230
1.0
 40
0.9900000000000002
 41
1.130070686340306
 42
2.011520147323597
  0
ELLIPSE
  5
3E04
330
1F
100
AcDbEntity
  8
AM_11
 48
0.5
100
AcDbEllipse
 10
-182.2954953397914
 20
27.82695092254561
 30
0.0
 11
-31.0776583353674
 21
0.0000000000010094
 31
0.0
210
0.0
220
0.0
230
1.0
 40
0.9899999999999995
 41
1.677036728370183
 42
2.011520147323624
  0
ELLIPSE
  5
3E05
330
1F
100
AcDbEntity
  8
AM_11
 48
0.5
100
AcDbEllipse
 10
-182.2954953397916
 20
-27.82682219451956
 30
0.0
 11
-31.07765833536737
 21
0.0000000000017409
 31
0.0
210
0.0
220
0.0
230
1.0
 40
0.9900000000000009
 41
4.271664206181739
 42
4.606148578809484
  0
ELLIPSE
  5
3E06
330
1F
100
AcDbEntity
  8
AM_11
 48
0.5
100
AcDbEllipse
 10
-155.7803507535179
 20
-27.82684893030346
 30
0.0
 11
-31.07765833536731
 21
0.000000000001451
 31
0.0
210
0.0
220
0.0
230
1.0
 40
0.9900000000000032
 41
4.271664206181728
 42
5.153113667165039
  0
ELLIPSE
  5
3E07
330
1F
100
AcDbEntity
  8
AM_11
 48
0.5
100
AcDbEllipse
 10
-155.7803507535177
 20
27.82692418676173
 30
0.0
 11
-31.0776583353674
 21
0.000000000000133
 31
0.0
210
0.0
220
0.0
230
1.0
 40
0.9900000000000002
 41
1.130070686340306
 42
2.011520147323597
  0
VIEWPORT
  5
110
330
101
100
AcDbEntity
 67
     1
  8
0
100
AcDbViewport
 10
420.5
 20
297.0
 30
0.0
 40
948.9782706766916
 41
628.452
 68
     1
 69
     1
1001
ACAD
1000
MVIEW
1002
{
1070
    16
1010
0.0
1020
0.0
1030
0.0
1010
0.0
1020
0.0
1030
1.0
1040
0.0
1040
628.452
1040
420.5
1040
297.0
1040
50.0
1040
0.0
1040
0.0
1070
     0
1070
   100
1070
     1
1070
     1
1070
     0
1070
     0
1070
     0
1070
     0
1040
0.0
1040
0.0
1040
0.0
1040
10.0
1040
10.0
1040
10.0
1040
10.0
1070
     0
1002
{
1002
}
1002
}
  0
ENDSEC
  0
SECTION
  2
OBJECTS
  0
DICTIONARY
  5
C
330
0
100
AcDbDictionary
  3
ACAD_GROUP
350
D
  3
ACAD_LAYOUT
350
1A
  3
ACAD_MLINESTYLE
350
17
  3
ACAD_PLOTSETTINGS
350
19
  3
ACAD_PLOTSTYLENAME
350
E
  3
ACDBVARIABLEDICTIONARY
350
34
  3
ACMDICTIONARY
350
43
  3
AMG
350
2B
  3
AMGSNAPSETTINGS
350
6E
  3
DWGPROPS
350
3E22
  3
ACDBHEADERROUNDTRIPXREC
350
3E2F
  0
DICTIONARY
  5
74
330
1F
100
AcDbDictionary
280
     1
  3
ACAD_INDEX
360
3E24
  3
ACAD_LAYOUTSELFREF
360
3E52
  0
DICTIONARY
  5
3E57
330
101
100
AcDbDictionary
280
     1
  3
ACAD_LAYOUTSELFREF
360
3E58
  0
DICTIONARY
  5
D
102
{ACAD_REACTORS
330
C
102
}
330
C
100
AcDbDictionary
  0
DICTIONARY
  5
1A
102
{ACAD_REACTORS
330
C
102
}
330
C
100
AcDbDictionary
  0
DICTIONARY
  5
17
102
{ACAD_REACTORS
330
C
102
}
330
C
100
AcDbDictionary
  3
STANDARD
350
18
  0
DICTIONARY
  5
19
102
{ACAD_REACTORS
330
C
102
}
330
C
100
AcDbDictionary
  0
ACDBDICTIONARYWDFLT
  5
E
102
{ACAD_REACTORS
330
C
102
}
330
C
100
AcDbDictionary
281
     1
  3
Normal
350
F
100
AcDbDictionaryWithDefault
340
F
  0
DICTIONARY
  5
34
102
{ACAD_REACTORS
330
C
102
}
330
C
100
AcDbDictionary
  3
INDEXCTL
350
35
  3
SORTENTS
350
B5E
  0
DICTIONARY
  5
43
102
{ACAD_REACTORS
330
C
102
}
330
C
100
AcDbDictionary
  3
ACMSTDDICTIONARY
350
260
  0
DICTIONARY
  5
2B
102
{ACAD_REACTORS
330
C
102
}
330
C
100
AcDbDictionary
  3
ACMGSETTINGS
350
2C
  0
DICTIONARY
  5
6E
102
{ACAD_REACTORS
330
C
102
}
330
C
100
AcDbDictionary
  0
XRECORD
  5
3E22
102
{ACAD_REACTORS
330
C
102
}
330
C
100
AcDbXrecord
  1
DWGPROPS COOKIE
  2

  3

  4

  6

  7

  8

  9

300
AmdtFileType=82
301
=
302
=
303
=
304
=
305
=
306
=
307
=
308
=
309
=
 40
0.0830886574074074
 41
2452800.443498622
 42
2452948.661654363
  1

 90
        1
  0
DICTIONARY
  5
3E2F
102
{ACAD_REACTORS
330
C
102
}
330
C
100
AcDbDictionary
  3
TSTACKALIGN
350
3E30
  3
TSTACKSIZE
350
3E31
  3
HYPERLINKBASE
350
3E32
  3
STYLESHEET
350
3E33
  3
LAYOUTDICT
350
3E34
  3
PLOTSETDICT
350
3E35
  3
PLOTSTYLNAMDICT
350
3E36
  3
LWETCUNION
350
3E37
  3
INSUNITS
350
3E38
  3
CEPSNTYPE
350
3E39
  3
FINGERPRINTGUID
350
3E3A
  3
VERSIONGUID
350
3E3B
  3
PSVPSCALE
350
3E3C
  3
DIMSTYLEDATA
350
3E3D
  3
PUCSORTHOREF
350
3E3E
  3
PUCSORTHOVIEW
350
3E3F
  3
PUCSBASE
350
3E40
  3
PUCSORGTOP
350
3E41
  3
PUCSORGBOTTOM
350
3E42
  3
PUCSORGLEFT
350
3E43
  3
PUCSORGRIGHT
350
3E44
  3
PUCSORGFRONT
350
3E45
  3
PUCSORGBACK
350
3E46
  3
UCSORTHOREF
350
3E47
  3
UCSORTHOVIEW
350
3E48
  3
UCSBASE
350
3E49
  3
UCSORGTOP
350
3E4A
  3
UCSORGBOTTOM
350
3E4B
  3
UCSORGLEFT
350
3E4C
  3
UCSORGRIGHT
350
3E4D
  3
UCSORGFRONT
350
3E4E
  3
UCSORGBACK
350
3E4F
  0
DICTIONARY
  5
3E24
102
{ACAD_REACTORS
330
74
102
}
330
74
100
AcDbDictionary
  3
*A1
350
3E25
  0
XRECORD
  5
3E52
102
{ACAD_REACTORS
330
74
102
}
330
74
100
AcDbXrecord
340
1F
  0
XRECORD
  5
3E58
102
{ACAD_REACTORS
330
3E57
102
}
330
3E57
100
AcDbXrecord
340
101
  0
MLINESTYLE
  5
18
102
{ACAD_REACTORS
330
17
102
}
330
17
100
AcDbMlineStyle
  2
STANDARD
 70
     0
  3

 62
   256
 51
90.0
 52
90.0
 71
     2
 49
0.5
 62
   256
  6
BYLAYER
 49
-0.5
 62
   256
  6
BYLAYER
  0
ACDBPLACEHOLDER
  5
F
102
{ACAD_REACTORS
330
E
102
}
330
E
100
AcDbPlaceHolder
280
     0
  0
DICTIONARYVAR
  5
35
102
{ACAD_REACTORS
330
34
102
}
330
34
100
DictionaryVariables
280
     0
  1
1
  0
DICTIONARYVAR
  5
B5E
102
{ACAD_REACTORS
330
34
102
}
330
34
100
DictionaryVariables
280
     0
  1
96
  0
DICTIONARY
  5
260
102
{ACAD_REACTORS
330
43
102
}
330
43
100
AcDbDictionary
  0
DICTIONARY
  5
2C
102
{ACAD_REACTORS
330
2B
102
}
330
2B
100
AcDbDictionary
  3
DWGSETTINGS
350
2D
  0
XRECORD
  5
3E30
102
{ACAD_REACTORS
330
3E2F
102
}
330
3E2F
100
AcDbXrecord
 90
        1
  0
XRECORD
  5
3E31
102
{ACAD_REACTORS
330
3E2F
102
}
330
3E2F
100
AcDbXrecord
 90
       70
  0
XRECORD
  5
3E32
102
{ACAD_REACTORS
330
3E2F
102
}
330
3E2F
100
AcDbXrecord
  1

  0
XRECORD
  5
3E33
102
{ACAD_REACTORS
330
3E2F
102
}
330
3E2F
100
AcDbXrecord
  1
ASAMI.ctb
  0
XRECORD
  5
3E34
102
{ACAD_REACTORS
330
3E2F
102
}
330
3E2F
100
AcDbXrecord
340
1A
  0
XRECORD
  5
3E35
102
{ACAD_REACTORS
330
3E2F
102
}
330
3E2F
100
AcDbXrecord
340
19
  0
XRECORD
  5
3E36
102
{ACAD_REACTORS
330
3E2F
102
}
330
3E2F
100
AcDbXrecord
340
E
  0
XRECORD
  5
3E37
102
{ACAD_REACTORS
330
3E2F
102
}
330
3E2F
100
AcDbXrecord
 90
    10781
  0
XRECORD
  5
3E38
102
{ACAD_REACTORS
330
3E2F
102
}
330
3E2F
100
AcDbXrecord
 90
        4
  0
XRECORD
  5
3E39
102
{ACAD_REACTORS
330
3E2F
102
}
330
3E2F
100
AcDbXrecord
 90
        0
  0
XRECORD
  5
3E3A
102
{ACAD_REACTORS
330
3E2F
102
}
330
3E2F
100
AcDbXrecord
  1
{AFB28963-8C59-40AE-9337-C84526B81ACE}
  0
XRECORD
  5
3E3B
102
{ACAD_REACTORS
330
3E2F
102
}
330
3E2F
100
AcDbXrecord
  1
{5402EE88-F0D9-4A2F-B0B4-C68594B4BF15}
  0
XRECORD
  5
3E3C
102
{ACAD_REACTORS
330
3E2F
102
}
330
3E2F
100
AcDbXrecord
 40
0.0
  0
XRECORD
  5
3E3D
102
{ACAD_REACTORS
330
3E2F
102
}
330
3E2F
100
AcDbXrecord
1000
DSTYLE
1002
{
1070
    79
 70
     2
1070
   341
340
59
1070
   342
340
59
1070
   371
 70
    -1
1070
   372
 70
    -1
1002
}
  0
XRECORD
  5
3E3E
102
{ACAD_REACTORS
330
3E2F
102
}
330
3E2F
100
AcDbXrecord
340
0
  0
XRECORD
  5
3E3F
102
{ACAD_REACTORS
330
3E2F
102
}
330
3E2F
100
AcDbXrecord
 70
     0
  0
XRECORD
  5
3E40
102
{ACAD_REACTORS
330
3E2F
102
}
330
3E2F
100
AcDbXrecord
340
0
  0
XRECORD
  5
3E41
102
{ACAD_REACTORS
330
3E2F
102
}
330
3E2F
100
AcDbXrecord
 10
0.0
 20
0.0
 30
0.0
  0
XRECORD
  5
3E42
102
{ACAD_REACTORS
330
3E2F
102
}
330
3E2F
100
AcDbXrecord
 10
0.0
 20
0.0
 30
0.0
  0
XRECORD
  5
3E43
102
{ACAD_REACTORS
330
3E2F
102
}
330
3E2F
100
AcDbXrecord
 10
0.0
 20
0.0
 30
0.0
  0
XRECORD
  5
3E44
102
{ACAD_REACTORS
330
3E2F
102
}
330
3E2F
100
AcDbXrecord
 10
0.0
 20
0.0
 30
0.0
  0
XRECORD
  5
3E45
102
{ACAD_REACTORS
330
3E2F
102
}
330
3E2F
100
AcDbXrecord
 10
0.0
 20
0.0
 30
0.0
  0
XRECORD
  5
3E46
102
{ACAD_REACTORS
330
3E2F
102
}
330
3E2F
100
AcDbXrecord
 10
0.0
 20
0.0
 30
0.0
  0
XRECORD
  5
3E47
102
{ACAD_REACTORS
330
3E2F
102
}
330
3E2F
100
AcDbXrecord
340
0
  0
XRECORD
  5
3E48
102
{ACAD_REACTORS
330
3E2F
102
}
330
3E2F
100
AcDbXrecord
 70
     0
  0
XRECORD
  5
3E49
102
{ACAD_REACTORS
330
3E2F
102
}
330
3E2F
100
AcDbXrecord
340
0
  0
XRECORD
  5
3E4A
102
{ACAD_REACTORS
330
3E2F
102
}
330
3E2F
100
AcDbXrecord
 10
0.0
 20
0.0
 30
0.0
  0
XRECORD
  5
3E4B
102
{ACAD_REACTORS
330
3E2F
102
}
330
3E2F
100
AcDbXrecord
 10
0.0
 20
0.0
 30
0.0
  0
XRECORD
  5
3E4C
102
{ACAD_REACTORS
330
3E2F
102
}
330
3E2F
100
AcDbXrecord
 10
0.0
 20
0.0
 30
0.0
  0
XRECORD
  5
3E4D
102
{ACAD_REACTORS
330
3E2F
102
}
330
3E2F
100
AcDbXrecord
 10
0.0
 20
0.0
 30
0.0
  0
XRECORD
  5
3E4E
102
{ACAD_REACTORS
330
3E2F
102
}
330
3E2F
100
AcDbXrecord
 10
0.0
 20
0.0
 30
0.0
  0
XRECORD
  5
3E4F
102
{ACAD_REACTORS
330
3E2F
102
}
330
3E2F
100
AcDbXrecord
 10
0.0
 20
0.0
 30
0.0
  0
LAYER_INDEX
  5
3E25
102
{ACAD_REACTORS
330
3E24
102
}
330
3E24
100
AcDbIndex
 40
2453151.667569433
100
AcDbLayerIndex
  8
0
360
3E26
 90
        0
  8
AM_0
360
3E27
 90
       52
  8
AM_7
360
3E28
 90
        1
  8
AM_11
360
3E29
 90
       21
  8
AM_5
360
3E2A
 90
        5
  8
Defpoints
360
3E2B
 90
        0
  8
AM_6
360
3E2C
 90
        1
  8
AM_CL
360
3E2D
 90
        0
  0
XRECORD
  5
2D
102
{ACAD_REACTORS
330
2C
102
}
330
2C
100
AcDbXrecord
  1
VERSION
140
15.0
  1
PRODUCT
  2
AutoCAD Mechanical 2000
  0
IDBUFFER
  5
3E26
330
0
100
AcDbIdBuffer
  0
IDBUFFER
  5
3E27
330
0
100
AcDbIdBuffer
330
3ADB
330
3ADC
330
3ADD
330
3ADE
330
1E25
330
1E26
330
1FD9
330
21D7
330
21D8
330
21D9
330
21DC
330
21DD
330
2694
330
2695
330
2696
330
2699
330
2CB4
330
2CB7
330
3366
330
3367
330
3AB4
330
3AB5
330
3AB6
330
3AB7
330
3ABC
330
3ABD
330
3ABE
330
3ABF
330
3AC0
330
3AC1
330
3AC2
330
3AC3
330
3AC4
330
3AC6
330
3AC7
330
3AC8
330
3AC9
330
3ACA
330
3ACB
330
3ACC
330
3ACD
330
3ACE
330
3ACF
330
3AD0
330
3AD3
330
3AD4
330
3AD5
330
3AD6
330
3AD7
330
3AD8
330
3AD9
330
3ADA
  0
IDBUFFER
  5
3E28
330
0
100
AcDbIdBuffer
330
C9F
  0
IDBUFFER
  5
3E29
330
0
100
AcDbIdBuffer
330
3E03
330
3E04
330
3E05
330
3E06
330
3E07
330
3AB8
330
3AB9
330
3ABA
330
3ABB
330
3AD1
330
3AD2
330
3DF9
330
3DFA
330
3DFB
330
3DFC
330
3DFD
330
3DFE
330
3DFF
330
3E00
330
3E01
330
3E02
  0
IDBUFFER
  5
3E2A
330
0
100
AcDbIdBuffer
330
CC6
330
DF5
330
1FB6
330
2216
330
3CEA
  0
IDBUFFER
  5
3E2B
330
0
100
AcDbIdBuffer
  0
IDBUFFER
  5
3E2C
330
0
100
AcDbIdBuffer
330
19BD
  0
IDBUFFER
  5
3E2D
330
0
100
AcDbIdBuffer
  0
ENDSEC
  0
EOF
