  0
SECTION
  2
HEADER
  9
$ACADVER
  1
AC1014
  9
$ACADMAINTVER
 70
     9
  9
$DWGCODEPAGE
  3
ANSI_932
  9
$INSBASE
 10
0.0
 20
0.0
 30
0.0
  9
$EXTMIN
 10
-200.300001
 20
-53.5000030544809
 30
-0.00000001
  9
$EXTMAX
 10
35.82052019013801
 20
34.59994058865427
 30
0.00000001
  9
$LIMMIN
 10
-212.4283160478946
 20
-92.01098889734623
  9
$LIMMAX
 10
49.45840178964954
 20
64.30738472477009
  9
$ORTHOMODE
 70
     0
  9
$REGENMODE
 70
     1
  9
$FILLMODE
 70
     1
  9
$QTEXTMODE
 70
     0
  9
$MIRRTEXT
 70
     0
  9
$DRAGMODE
 70
     2
  9
$LTSCALE
 40
1.0
  9
$OSMODE
 70
    55
  9
$ATTMODE
 70
     1
  9
$TEXTSIZE
 40
2.5
  9
$TRACEWID
 40
1.0
  9
$TEXTSTYLE
  7
STANDARD
  9
$CLAYER
  8
AM_0
  9
$CELTYPE
  6
BYLAYER
  9
$CECOLOR
 62
   256
  9
$CELTSCALE
 40
1.0
  9
$DELOBJ
 70
     1
  9
$DISPSILH
 70
     0
  9
$DIMSCALE
 40
1.0
  9
$DIMASZ
 40
2.5
  9
$DIMEXO
 40
1.0
  9
$DIMDLI
 40
12.0
  9
$DIMRND
 40
0.0
  9
$DIMDLE
 40
0.0
  9
$DIMEXE
 40
1.0
  9
$DIMTP
 40
0.1
  9
$DIMTM
 40
0.1
  9
$DIMTXT
 40
3.2
  9
$DIMCEN
 40
0.0
  9
$DIMTSZ
 40
0.0
  9
$DIMTOL
 70
     0
  9
$DIMLIM
 70
     0
  9
$DIMTIH
 70
     0
  9
$DIMTOH
 70
     0
  9
$DIMSE1
 70
     0
  9
$DIMSE2
 70
     0
  9
$DIMTAD
 70
     3
  9
$DIMZIN
 70
     8
  9
$DIMBLK
  1
OPEN30
  9
$DIMASO
 70
     1
  9
$DIMSHO
 70
     1
  9
$DIMPOST
  1

  9
$DIMAPOST
  1
"
  9
$DIMALT
 70
     0
  9
$DIMALTD
 70
     2
  9
$DIMALTF
 40
0.0393701
  9
$DIMLFAC
 40
1.0
  9
$DIMTOFL
 70
     1
  9
$DIMTVP
 40
0.0
  9
$DIMTIX
 70
     0
  9
$DIMSOXD
 70
     0
  9
$DIMSAH
 70
     0
  9
$DIMBLK1
  1

  9
$DIMBLK2
  1

  9
$DIMSTYLE
  2
AM_JIS
  9
$DIMCLRD
 70
   256
  9
$DIMCLRE
 70
   256
  9
$DIMCLRT
 70
     2
  9
$DIMTFAC
 40
0.71
  9
$DIMGAP
 40
1.5
  9
$DIMJUST
 70
     0
  9
$DIMSD1
 70
     0
  9
$DIMSD2
 70
     0
  9
$DIMTOLJ
 70
     0
  9
$DIMTZIN
 70
     0
  9
$DIMALTZ
 70
     0
  9
$DIMALTTZ
 70
     0
  9
$DIMFIT
 70
     3
  9
$DIMUPT
 70
     0
  9
$DIMUNIT
 70
     2
  9
$DIMDEC
 70
     3
  9
$DIMTDEC
 70
     3
  9
$DIMALTU
 70
     2
  9
$DIMALTTD
 70
     2
  9
$DIMTXSTY
  7
ASAMI
  9
$DIMAUNIT
 70
     0
  9
$LUNITS
 70
     2
  9
$LUPREC
 70
     2
  9
$SKETCHINC
 40
1.0
  9
$FILLETRAD
 40
2.5
  9
$AUNITS
 70
     0
  9
$AUPREC
 70
     0
  9
$MENU
  1
.
  9
$ELEVATION
 40
0.0
  9
$PELEVATION
 40
0.0
  9
$THICKNESS
 40
0.0
  9
$LIMCHECK
 70
     0
  9
$BLIPMODE
 70
     0
  9
$CHAMFERA
 40
0.5
  9
$CHAMFERB
 40
0.5
  9
$CHAMFERC
 40
20.0
  9
$CHAMFERD
 40
0.0
  9
$SKPOLY
 70
     0
  9
$TDCREATE
 40
2452800.443498622
  9
$TDUPDATE
 40
2453151.667931666
  9
$TDINDWG
 40
0.0851237037
  9
$TDUSRTIMER
 40
0.0851237037
  9
$USRTIMER
 70
     1
  9
$ANGBASE
 50
0.0
  9
$ANGDIR
 70
     0
  9
$PDMODE
 70
     3
  9
$PDSIZE
 40
0.0
  9
$PLINEWID
 40
0.0
  9
$COORDS
 70
     1
  9
$SPLFRAME
 70
     0
  9
$SPLINETYPE
 70
     6
  9
$SPLINESEGS
 70
     8
  9
$ATTDIA
 70
     1
  9
$ATTREQ
 70
     1
  9
$HANDLING
 70
 12289
  9
$HANDSEED
  5
405D
  9
$SURFTAB1
 70
     6
  9
$SURFTAB2
 70
     6
  9
$SURFTYPE
 70
     6
  9
$SURFU
 70
     6
  9
$SURFV
 70
     6
  9
$UCSNAME
  2

  9
$UCSORG
 10
0.0
 20
0.0
 30
0.0
  9
$UCSXDIR
 10
1.0
 20
0.0000000000000027
 30
0.0
  9
$UCSYDIR
 10
-0.0000000000000027
 20
1.0
 30
0.0
  9
$PUCSNAME
  2

  9
$PUCSORG
 10
0.0
 20
0.0
 30
0.0
  9
$PUCSXDIR
 10
1.0
 20
0.0
 30
0.0
  9
$PUCSYDIR
 10
0.0
 20
1.0
 30
0.0
  9
$USERI1
 70
     0
  9
$USERI2
 70
     0
  9
$USERI3
 70
     0
  9
$USERI4
 70
     0
  9
$USERI5
 70
     0
  9
$USERR1
 40
0.0
  9
$USERR2
 40
0.0
  9
$USERR3
 40
0.0
  9
$USERR4
 40
0.0
  9
$USERR5
 40
0.0
  9
$WORLDVIEW
 70
     1
  9
$SHADEDGE
 70
     3
  9
$SHADEDIF
 70
    70
  9
$TILEMODE
 70
     1
  9
$MAXACTVP
 70
    64
  9
$PINSBASE
 10
0.0
 20
0.0
 30
0.0
  9
$PLIMCHECK
 70
     0
  9
$PEXTMIN
 10
1.000000000000000E+20
 20
1.000000000000000E+20
 30
1.000000000000000E+20
  9
$PEXTMAX
 10
-1.000000000000000E+20
 20
-1.000000000000000E+20
 30
-1.000000000000000E+20
  9
$PLIMMIN
 10
0.0
 20
0.0
  9
$PLIMMAX
 10
841.0
 20
594.0
  9
$UNITMODE
 70
     0
  9
$VISRETAIN
 70
     1
  9
$PLINEGEN
 70
     0
  9
$PSLTSCALE
 70
     0
  9
$TREEDEPTH
 70
  3020
  9
$PICKSTYLE
 70
     0
  9
$CMLSTYLE
  2
STANDARD
  9
$CMLJUST
 70
     0
  9
$CMLSCALE
 40
20.0
  9
$PROXYGRAPHICS
 70
     1
  9
$MEASUREMENT
 70
     1
  0
ENDSEC
  0
SECTION
  2
CLASSES
  0
CLASS
  1
ACDBDICTIONARYWDFLT
  2
AcDbDictionaryWithDefault
  3
AutoCAD 2000
 90
        0
280
     0
281
     0
  0
CLASS
  1
ACDBPLACEHOLDER
  2
AcDbPlaceHolder
  3
AutoCAD 2000
 90
        0
280
     0
281
     0
  0
CLASS
  1
LAYOUT
  2
AcDbLayout
  3
AutoCAD 2000
 90
        0
280
     0
281
     0
  0
CLASS
  1
AMGSETTINGSOBJ
  2
AmgSettingsObj
  3
"AcadM|Product Description: AutoCAD Mechanical 2000|Company: Autodesk"
 90
        0
280
     0
281
     0
  0
CLASS
  1
ACME_DOCUMENT
  2
AcMeDbDoc
  3
AcMeServices
 90
        0
280
     0
281
     0
  0
CLASS
  1
ACMESCOPE
  2
AcMeScope
  3
AcMeServices
 90
        0
280
     0
281
     0
  0
CLASS
  1
ACMECOMMANDHISTORY
  2
AcMeCommandHistory
  3
AcMeServices
 90
        0
280
     0
281
     0
  0
CLASS
  1
DICTIONARYVAR
  2
AcDbDictionaryVar
  3
AutoCAD 2000
 90
        0
280
     0
281
     0
  0
CLASS
  1
ACIMSYSVARMAN
  2
AcImSysVarManager
  3
AcMeServices
 90
        0
280
     0
281
     0
  0
CLASS
  1
ACIMREALSYSVAR
  2
AcImRealSysVar
  3
AcMeServices
 90
        0
280
     0
281
     0
  0
CLASS
  1
ACIMINTSYSVAR
  2
AcImIntSysVar
  3
AcMeServices
 90
        0
280
     0
281
     0
  0
CLASS
  1
ACMEDRAWINGMAN
  2
AcMeDrawingMan
  3
AcMeServices
 90
        0
280
     0
281
     0
  0
CLASS
  1
ACMEVIEW
  2
AcMeView
  3
AcMeServices
 90
        0
280
     0
281
     0
  0
CLASS
  1
ACDBENTITYCACHE
  2
AcMeEntityCache
  3
AcMeServices
 90
        0
280
     0
281
     0
  0
CLASS
  1
GSMANAGER
  2
AcMeGSManager
  3
AcMeServices
 90
        0
280
     0
281
     0
  0
CLASS
  1
AmdtInternalReactor
  2
AmdtInternalReactor
  3
AcMeServices
 90
        0
280
     0
281
     0
  0
CLASS
  1
ACMESTATEMGR
  2
AcMeStateMgr
  3
AcMeServices
 90
        0
280
     0
281
     0
  0
CLASS
  1
ACME_DATABASE
  2
AcMeDbDatabase
  3
AcMeServices
 90
        0
280
     0
281
     0
  0
CLASS
  1
ACRFINSADJUSTERMGR
  2
AcRfInsAdjusterMgr
  3
AcMeServices
 90
        0
280
     0
281
     0
  0
CLASS
  1
ACMDATADICTIONARY
  2
AcmDataDictionary
  3
"AcmSymBB|Product Description: AutoCAD Mechanical 2000|Company: Autodesk"
 90
        0
280
     0
281
     0
  0
CLASS
  1
ACMDATAENTRYBLOCK
  2
AcmDataEntryBlock
  3
"AcmSymBB|Product Description: AutoCAD Mechanical 2000|Company: Autodesk"
 90
        0
280
     0
281
     0
  0
CLASS
  1
AMGOBJPROPCFG
  2
AmgObjPropCfg
  3
"AmgLay|Product Description: AutoCAD Mechanical 2000|Company: Autodesk"
 90
        1
280
     0
281
     0
  0
CLASS
  1
ACAMGFILTERDAT
  2
AcAmgFilterDat
  3
"AcadM|Product Description: AutoCAD Mechanical 2000|Company: Autodesk"
 90
        0
280
     0
281
     0
  0
CLASS
  1
LAYER_INDEX
  2
AcDbLayerIndex
  3
AutoCAD 2000
 90
        0
280
     0
281
     0
  0
CLASS
  1
IDBUFFER
  2
AcDbIdBuffer
  3
AutoCAD 2000
 90
        0
280
     0
281
     0
  0
CLASS
  1
ACIMSTRSYSVAR
  2
AcImStrSysVar
  3
AcMeServices
 90
        0
280
     0
281
     0
  0
CLASS
  1
ACMSTANDARDJIS
  2
AcmStandardJIS
  3
"AcmSymBB|Product Description: AutoCAD Mechanical 2000|Company: Autodesk"
 90
        0
280
     0
281
     0
  0
CLASS
  1
ACMSURFSTANDARDJIS
  2
AcmSurfTextStdJIS
  3
"AcmSymBB|Product Description: AutoCAD Mechanical 2000|Company: Autodesk"
 90
        0
280
     0
281
     0
  0
CLASS
  1
ACMFCFSTANDARDJIS
  2
AcmFCFStdJIS
  3
"AcmSymBB|Product Description: AutoCAD Mechanical 2000|Company: Autodesk"
 90
        0
280
     0
281
     0
  0
CLASS
  1
ACMWELDSTANDARDJIS
  2
AcmWeldingStdJIS
  3
"AcmSymBB|Product Description: AutoCAD Mechanical 2000|Company: Autodesk"
 90
        0
280
     0
281
     0
  0
CLASS
  1
ACMIDSTANDARDJIS
  2
AcmIdStdJIS
  3
"AcmSymBB|Product Description: AutoCAD Mechanical 2000|Company: Autodesk"
 90
        0
280
     0
281
     0
  0
CLASS
  1
ACMDATUMSTANDARDJIS
  2
AcmDatumStdJIS
  3
"AcmSymBB|Product Description: AutoCAD Mechanical 2000|Company: Autodesk"
 90
        0
280
     0
281
     0
  0
CLASS
  1
ACMBOMSTANDARDJIS
  2
AcmBOMStdJIS
  3
"AcmSymBB|Product Description: AutoCAD Mechanical 2000|Company: Autodesk"
 90
        0
280
     0
281
     0
  0
CLASS
  1
ACMSTANDARDANSI
  2
AcmStandardANSI
  3
"AcmSymBB|Product Description: AutoCAD Mechanical 2000|Company: Autodesk"
 90
        0
280
     0
281
     0
  0
CLASS
  1
ACMSURFSTANDARDANSI
  2
AcmSurfTextStdANSI
  3
"AcmSymBB|Product Description: AutoCAD Mechanical 2000|Company: Autodesk"
 90
        0
280
     0
281
     0
  0
CLASS
  1
ACMFCFSTANDARDANSI
  2
AcmFCFStdANSI
  3
"AcmSymBB|Product Description: AutoCAD Mechanical 2000|Company: Autodesk"
 90
        0
280
     0
281
     0
  0
CLASS
  1
ACMWELDSTANDARDANSI
  2
AcmWeldingStdANSI
  3
"AcmSymBB|Product Description: AutoCAD Mechanical 2000|Company: Autodesk"
 90
        0
280
     0
281
     0
  0
CLASS
  1
ACMIDSTANDARDANSI
  2
AcmIdStdANSI
  3
"AcmSymBB|Product Description: AutoCAD Mechanical 2000|Company: Autodesk"
 90
        0
280
     0
281
     0
  0
CLASS
  1
ACMDATUMSTANDARDANSI
  2
AcmDatumStdANSI
  3
"AcmSymBB|Product Description: AutoCAD Mechanical 2000|Company: Autodesk"
 90
        0
280
     0
281
     0
  0
CLASS
  1
ACMBOMSTANDARDANSI
  2
AcmBOMStdANSI
  3
"AcmSymBB|Product Description: AutoCAD Mechanical 2000|Company: Autodesk"
 90
        0
280
     0
281
     0
  0
CLASS
  1
ACMSTANDARDBSI
  2
AcmStandardBSI
  3
"AcmSymBB|Product Description: AutoCAD Mechanical 2000|Company: Autodesk"
 90
        0
280
     0
281
     0
  0
CLASS
  1
ACMSURFSTANDARDBSI
  2
AcmSurfTextStdBSI
  3
"AcmSymBB|Product Description: AutoCAD Mechanical 2000|Company: Autodesk"
 90
        0
280
     0
281
     0
  0
CLASS
  1
ACMFCFSTANDARDBSI
  2
AcmFCFStdBSI
  3
"AcmSymBB|Product Description: AutoCAD Mechanical 2000|Company: Autodesk"
 90
        0
280
     0
281
     0
  0
CLASS
  1
ACMWELDSTANDARDBSI
  2
AcmWeldingStdBSI
  3
"AcmSymBB|Product Description: AutoCAD Mechanical 2000|Company: Autodesk"
 90
        0
280
     0
281
     0
  0
CLASS
  1
ACMIDSTANDARDBSI
  2
AcmIdStdBSI
  3
"AcmSymBB|Product Description: AutoCAD Mechanical 2000|Company: Autodesk"
 90
        0
280
     0
281
     0
  0
CLASS
  1
ACMDATUMSTANDARDBSI
  2
AcmDatumStdBSI
  3
"AcmSymBB|Product Description: AutoCAD Mechanical 2000|Company: Autodesk"
 90
        0
280
     0
281
     0
  0
CLASS
  1
ACMBOMSTANDARDBSI
  2
AcmBOMStdBSI
  3
"AcmSymBB|Product Description: AutoCAD Mechanical 2000|Company: Autodesk"
 90
        0
280
     0
281
     0
  0
CLASS
  1
LONG_TRANSACTION
  2
AcDbLongTransaction
  3
AutoCAD 2000
 90
        0
280
     0
281
     0
  0
CLASS
  1
LWPOLYLINE
  2
AcDbPolyline
  3
AutoCAD 2000
 90
        0
280
     0
281
     1
  0
CLASS
  1
HATCH
  2
AcDbHatch
  3
AutoCAD 2000
 90
        0
280
     0
281
     1
  0
CLASS
  1
XRECORD
  2
AcDbXrecord
  3
AutoCAD 2000
 90
        0
280
     0
281
     0
  0
ENDSEC
  0
SECTION
  2
TABLES
  0
TABLE
  2
VPORT
  5
8
330
0
100
AcDbSymbolTable
 70
     3
  0
VPORT
  5
4027
330
8
100
AcDbSymbolTableRecord
100
AcDbViewportTableRecord
  2
*ACTIVE
 70
     0
 10
0.0
 20
0.0
 11
1.0
 21
1.0
 12
-77.85849628941631
 22
-9.451054046724408
 13
0.0
 23
0.0
 14
2.5
 24
2.5
 15
10.0
 25
10.0
 16
0.0
 26
0.0
 36
1.0
 17
0.0
 27
0.0
 37
0.0
 40
157.1645258674782
 41
1.56570841889117
 42
50.0
 43
0.0
 44
0.0
 50
0.0
 51
0.0
 71
     0
 72
   100
 73
     1
 74
     1
 75
     0
 76
     0
 77
     0
 78
     0
  0
ENDTAB
  0
TABLE
  2
LTYPE
  5
5
330
0
100
AcDbSymbolTable
 70
    10
  0
LTYPE
  5
14
330
5
100
AcDbSymbolTableRecord
100
AcDbLinetypeTableRecord
  2
BYBLOCK
 70
     0
  3

 72
    65
 73
     0
 40
0.0
  0
LTYPE
  5
15
330
5
100
AcDbSymbolTableRecord
100
AcDbLinetypeTableRecord
  2
BYLAYER
 70
     0
  3

 72
    65
 73
     0
 40
0.0
  0
LTYPE
  5
16
330
5
100
AcDbSymbolTableRecord
100
AcDbLinetypeTableRecord
  2
CONTINUOUS
 70
     0
  3
Solid line
 72
    65
 73
     0
 40
0.0
  0
LTYPE
  5
4B
330
5
100
AcDbSymbolTableRecord
100
AcDbLinetypeTableRecord
  2
AM_ISO02W050
 70
     0
  3
__ __ __ __ __ __ __ __ __ __ __ __ __ __ __
 72
    65
 73
     2
 40
7.5
 49
6.0
 74
     0
 49
-1.5
 74
     0
  0
LTYPE
  5
4C
330
5
100
AcDbSymbolTableRecord
100
AcDbLinetypeTableRecord
  2
AM_ISO08W050
 70
     0
  3
____ . ____ . ____ . ____ . ____ . ____ . ____
 72
    65
 73
     4
 40
18.0
 49
12.0
 74
     0
 49
-1.5
 74
     0
 49
3.0
 74
     0
 49
-1.5
 74
     0
  0
LTYPE
  5
4D
330
5
100
AcDbSymbolTableRecord
100
AcDbLinetypeTableRecord
  2
AM_ISO09W050
 70
     0
  3
_____ . . _____ . . _____ . . ____ .. ____
 72
    65
 73
     6
 40
22.5
 49
12.0
 74
     0
 49
-1.5
 74
     0
 49
3.0
 74
     0
 49
-1.5
 74
     0
 49
3.0
 74
     0
 49
-1.5
 74
     0
  0
LTYPE
  5
4E
330
5
100
AcDbSymbolTableRecord
100
AcDbLinetypeTableRecord
  2
AMCONSTR
 70
     0
  3
_______________________
 72
    65
 73
     2
 40
9999.0
 49
9999.0
 74
     0
 49
0.0
 74
     0
  0
LTYPE
  5
4F
330
5
100
AcDbSymbolTableRecord
100
AcDbLinetypeTableRecord
  2
AM_ISO02W050X2
 70
     0
  3
 _ _ _ _ _ _ _ _ _ _ _ _
 72
    65
 73
     2
 40
3.75
 49
3.0
 74
     0
 49
-0.75
 74
     0
  0
LTYPE
  5
50
330
5
100
AcDbSymbolTableRecord
100
AcDbLinetypeTableRecord
  2
AM_ISO08W050X2
 70
     0
  3
__ . __ . __ . __ . __ . __
 72
    65
 73
     4
 40
9.0
 49
6.0
 74
     0
 49
-0.75
 74
     0
 49
1.5
 74
     0
 49
-0.75
 74
     0
  0
LTYPE
  5
53
330
5
100
AcDbSymbolTableRecord
100
AcDbLinetypeTableRecord
  2
AMZIGZAG
 70
     0
  3
/\/-/\/-/\/-/\/-/\/-/\/
 72
    65
 73
     2
 40
11.00009999999999
 49
0.0001
 74
     4
 75
   135
340
52
 46
0.04
 50
0.0
 44
0.0
 45
0.0
 49
-11.0
 74
     0
  0
LTYPE
  5
166
330
5
100
AcDbSymbolTableRecord
100
AcDbLinetypeTableRecord
  2
ACJISTGL
 70
     0
  3
_ _ _ _ _
 72
    65
 73
     2
 40
3.0
 49
2.0
 74
     0
 49
-1.0
 74
     0
  0
LTYPE
  5
26A
330
5
100
AcDbSymbolTableRecord
100
AcDbLinetypeTableRecord
  2
ACJISTGB
 70
     0
  3
__ . . __ . .
 72
    65
 73
     6
 40
9.0
 49
4.0
 74
     0
 49
-1.0
 74
     0
 49
1.0
 74
     0
 49
-1.0
 74
     0
 49
1.0
 74
     0
 49
-1.0
 74
     0
  0
ENDTAB
  0
TABLE
  2
LAYER
  5
2
330
0
100
AcDbSymbolTable
 70
     8
  0
LAYER
  5
10
330
2
100
AcDbSymbolTableRecord
100
AcDbLayerTableRecord
  2
0
 70
     0
 62
     7
  6
CONTINUOUS
  0
LAYER
  5
3F9
330
2
100
AcDbSymbolTableRecord
100
AcDbLayerTableRecord
  2
AM_0
 70
     0
 62
     7
  6
CONTINUOUS
  0
LAYER
  5
C7C
330
2
100
AcDbSymbolTableRecord
100
AcDbLayerTableRecord
  2
AM_7
 70
     0
 62
     4
  6
AM_ISO08W050
  0
LAYER
  5
C97
330
2
100
AcDbSymbolTableRecord
100
AcDbLayerTableRecord
  2
AM_11
 70
     0
 62
     3
  6
AM_ISO09W050
  0
LAYER
  5
CC5
330
2
100
AcDbSymbolTableRecord
100
AcDbLayerTableRecord
  2
AM_5
 70
     0
 62
     3
  6
CONTINUOUS
  0
LAYER
  5
CC7
330
2
100
AcDbSymbolTableRecord
100
AcDbLayerTableRecord
  2
DEFPOINTS
 70
     0
 62
     7
  6
CONTINUOUS
  0
LAYER
  5
19BC
330
2
100
AcDbSymbolTableRecord
100
AcDbLayerTableRecord
  2
AM_6
 70
     0
 62
     2
  6
CONTINUOUS
  0
LAYER
  5
3E90
330
2
100
AcDbSymbolTableRecord
100
AcDbLayerTableRecord
  2
AM_CL
 70
     0
 62
     1
  6
AMCONSTR
  0
ENDTAB
  0
TABLE
  2
STYLE
  5
3
330
0
100
AcDbSymbolTable
 70
     5
  0
STYLE
  5
11
330
3
100
AcDbSymbolTableRecord
100
AcDbTextStyleTableRecord
  2
STANDARD
 70
     0
 40
0.0
 41
1.0
 50
0.0
 71
     0
 42
2.5
  3
simplex.shx
  4
EXTFONT.SHX
  0
STYLE
  5
52
330
3
100
AcDbSymbolTableRecord
100
AcDbTextStyleTableRecord
  2

 70
     1
 40
0.0
 41
1.0
 50
0.0
 71
     0
 42
2.5
  3
ltypeshp.shx
  4

  0
STYLE
  5
6B
330
3
100
AcDbSymbolTableRecord
100
AcDbTextStyleTableRecord
  2
ASAMI
 70
     0
 40
0.0
 41
1.0
 50
0.0
 71
     0
 42
2.5
  3
simplex.shx
  4
EXTFONT.SHX
  0
STYLE
  5
262
330
3
100
AcDbSymbolTableRecord
100
AcDbTextStyleTableRecord
  2
ACJISTS
 70
     0
 40
1.0
 41
1.0
 50
0.0
 71
     0
 42
2.5
  3
simplex.shx
  4
bigfont.shx
  0
STYLE
  5
269
330
3
100
AcDbSymbolTableRecord
100
AcDbTextStyleTableRecord
  2
ACJISGDT
 70
     0
 40
0.0
 41
1.0
 50
0.0
 71
     0
 42
2.5
  3
amgdtans.shx
  4

  0
ENDTAB
  0
TABLE
  2
VIEW
  5
6
330
0
100
AcDbSymbolTable
 70
     0
  0
ENDTAB
  0
TABLE
  2
UCS
  5
7
330
0
100
AcDbSymbolTable
 70
     0
  0
ENDTAB
  0
TABLE
  2
APPID
  5
9
330
0
100
AcDbSymbolTable
 70
    16
  0
APPID
  5
12
330
9
100
AcDbSymbolTableRecord
100
AcDbRegAppTableRecord
  2
ACAD
 70
     0
  0
APPID
  5
30
330
9
100
AcDbSymbolTableRecord
100
AcDbRegAppTableRecord
  2
MCAD_NO_VIS
 70
     0
  0
APPID
  5
31
330
9
100
AcDbSymbolTableRecord
100
AcDbRegAppTableRecord
  2
ACAD_TEMP_GRAPHIC
 70
     0
  0
APPID
  5
2C2
330
9
100
AcDbSymbolTableRecord
100
AcDbRegAppTableRecord
  2
GENIUS_GENDTOL_13
 70
     0
  0
APPID
  5
339
330
9
100
AcDbSymbolTableRecord
100
AcDbRegAppTableRecord
  2
GENIUS_GENODEF_13
 70
     0
  0
APPID
  5
33A
330
9
100
AcDbSymbolTableRecord
100
AcDbRegAppTableRecord
  2
GENIUS_GENOBJ-N-RSBK_13
 70
     0
  0
APPID
  5
33B
330
9
100
AcDbSymbolTableRecord
100
AcDbRegAppTableRecord
  2
GENIUS_GENOBJ-N-LIB_13
 70
     0
  0
APPID
  5
33C
330
9
100
AcDbSymbolTableRecord
100
AcDbRegAppTableRecord
  2
GENIUS_GENSCALE_13
 70
     0
  0
APPID
  5
378
330
9
100
AcDbSymbolTableRecord
100
AcDbRegAppTableRecord
  2
GENIUS_GENDIMSH_14
 70
     0
  0
APPID
  5
C82
330
9
100
AcDbSymbolTableRecord
100
AcDbRegAppTableRecord
  2
GENIUS_GENOBJ-N-CRS_13
 70
     0
  0
APPID
  5
C83
330
9
100
AcDbSymbolTableRecord
100
AcDbRegAppTableRecord
  2
GENIUS_GENOENT_13
 70
     0
  0
APPID
  5
C84
330
9
100
AcDbSymbolTableRecord
100
AcDbRegAppTableRecord
  2
GENIUS_GENOREF_13
 70
     0
  0
APPID
  5
C85
330
9
100
AcDbSymbolTableRecord
100
AcDbRegAppTableRecord
  2
GENIUS_GENOLIS_13
 70
     0
  0
APPID
  5
CA0
330
9
100
AcDbSymbolTableRecord
100
AcDbRegAppTableRecord
  2
GENIUS_GENOBJ-N-CEN_13
 70
     0
  0
APPID
  5
1E1E
330
9
100
AcDbSymbolTableRecord
100
AcDbRegAppTableRecord
  2
GENIUS_GENFIL_13
 70
     0
  0
APPID
  5
1E1F
330
9
100
AcDbSymbolTableRecord
100
AcDbRegAppTableRecord
  2
GENIUS_GENOBJ-N-CHA_13
 70
     0
  0
ENDTAB
  0
TABLE
  2
DIMSTYLE
  5
A
330
0
100
AcDbSymbolTable
 70
     9
  0
DIMSTYLE
105
58
330
A
100
AcDbSymbolTableRecord
100
AcDbDimStyleTableRecord
  2
AM_JIS
 70
     0
  3

  4
"
  5
OPEN30
  6

  7

 40
1.0
 41
2.5
 42
1.0
 43
12.0
 44
1.0
 45
0.0
 46
0.0
 47
0.1
 48
0.1
140
3.2
141
0.0
142
0.0
143
0.0393701
144
1.0
145
0.0
146
0.71
147
1.5
 71
     0
 72
     0
 73
     0
 74
     0
 75
     0
 76
     0
 77
     3
 78
     8
170
     0
171
     2
172
     1
173
     0
174
     0
175
     0
176
   256
177
   256
178
     2
270
     2
271
     3
272
     3
273
     2
274
     2
340
6B
275
     0
280
     0
281
     0
282
     0
283
     0
284
     0
285
     0
286
     0
287
     3
288
     0
  0
DIMSTYLE
105
5F
330
A
100
AcDbSymbolTableRecord
100
AcDbDimStyleTableRecord
  2
AM_JIS$3
 70
     0
  3

  4
"
  5
OPEN30
  6

  7

 40
1.0
 41
2.5
 42
1.0
 43
10.0
 44
1.0
 45
0.0
 46
0.0
 47
0.1
 48
0.1
140
3.2
141
0.0
142
0.0
143
0.0393701
144
1.0
145
0.0
146
0.71
147
1.5
 71
     0
 72
     0
 73
     0
 74
     1
 75
     0
 76
     0
 77
     3
 78
     8
170
     0
171
     2
172
     0
173
     0
174
     0
175
     0
176
   256
177
   256
178
     2
270
     2
271
     2
272
     3
273
     2
274
     2
340
6B
275
     0
280
     0
281
     0
282
     0
283
     0
284
     0
285
     0
286
     0
287
     0
288
     1
  0
DIMSTYLE
105
60
330
A
100
AcDbSymbolTableRecord
100
AcDbDimStyleTableRecord
  2
AM_JIS$4
 70
     0
  3

  4
"
  5
OPEN30
  6

  7

 40
1.0
 41
2.5
 42
1.0
 43
10.0
 44
1.0
 45
0.0
 46
0.0
 47
0.1
 48
0.1
140
3.2
141
0.0
142
0.0
143
0.0393701
144
1.0
145
0.0
146
0.71
147
1.5
 71
     0
 72
     0
 73
     0
 74
     1
 75
     0
 76
     0
 77
     3
 78
     8
170
     0
171
     2
172
     0
173
     0
174
     0
175
     0
176
   256
177
   256
178
     2
270
     2
271
     2
272
     3
273
     2
274
     2
340
6B
275
     0
280
     0
281
     0
282
     0
283
     0
284
     0
285
     0
286
     0
287
     0
288
     1
  0
DIMSTYLE
105
61
330
A
100
AcDbSymbolTableRecord
100
AcDbDimStyleTableRecord
  2
AM_JIS$6
 70
     0
  3

  4
"
  5
OPEN30
  6

  7

 40
1.0
 41
2.5
 42
1.0
 43
10.0
 44
1.0
 45
0.0
 46
0.0
 47
0.1
 48
0.1
140
3.2
141
0.0
142
0.0
143
0.0393701
144
1.0
145
0.0
146
0.71
147
1.5
 71
     0
 72
     0
 73
     0
 74
     0
 75
     0
 76
     0
 77
     0
 78
     8
170
     0
171
     2
172
     1
173
     0
174
     0
175
     0
176
   256
177
   256
178
     2
270
     2
271
     2
272
     2
273
     2
274
     2
340
6B
275
     0
280
     0
281
     0
282
     0
283
     0
284
     0
285
     0
286
     0
287
     3
288
     0
  0
DIMSTYLE
105
62
330
A
100
AcDbSymbolTableRecord
100
AcDbDimStyleTableRecord
  2
AM_JIS$7
 70
     0
  3

  4
"
  5
OPEN30
  6

  7

 40
1.0
 41
2.5
 42
1.0
 43
10.0
 44
1.0
 45
0.0
 46
0.0
 47
0.1
 48
0.1
140
3.2
141
0.0
142
0.0
143
0.0393701
144
1.0
145
0.0
146
0.71
147
1.5
 71
     0
 72
     0
 73
     0
 74
     0
 75
     0
 76
     0
 77
     3
 78
     8
170
     0
171
     2
172
     1
173
     0
174
     0
175
     0
176
   256
177
   256
178
     2
270
     2
271
     2
272
     3
273
     2
274
     2
340
6B
275
     0
280
     0
281
     0
282
     0
283
     0
284
     0
285
     0
286
     0
287
     3
288
     0
  0
DIMSTYLE
105
63
330
A
100
AcDbSymbolTableRecord
100
AcDbDimStyleTableRecord
  2
AM_JIS$SF
 70
     0
  3

  4
"
  5
OPEN30
  6

  7

 40
1.0
 41
2.5
 42
1.0
 43
10.0
 44
1.0
 45
0.0
 46
0.0
 47
0.1
 48
0.1
140
3.2
141
0.0
142
0.0
143
0.0393701
144
1.0
145
0.0
146
0.71
147
1.5
 71
     0
 72
     0
 73
     0
 74
     0
 75
     1
 76
     1
 77
     3
 78
     8
170
     0
171
     2
172
     1
173
     0
174
     0
175
     0
176
   256
177
   256
178
     2
270
     2
271
     2
272
     2
273
     2
274
     2
340
6B
275
     0
280
     0
281
     0
282
     0
283
     0
284
     0
285
     0
286
     0
287
     3
288
     0
  0
DIMSTYLE
105
68
330
A
100
AcDbSymbolTableRecord
100
AcDbDimStyleTableRecord
  2
AM_JIS$SH
 70
     0
  3

  4
"
  5

  6
GENAXEH
  7
OPEN30
 40
1.0
 41
2.5
 42
1.0
 43
10.0
 44
1.0
 45
0.0
 46
0.0
 47
0.1
 48
0.1
140
3.2
141
0.0
142
0.0
143
0.0393701
144
2.0
145
0.0
146
0.71
147
1.5
 71
     0
 72
     0
 73
     0
 74
     0
 75
     1
 76
     1
 77
     3
 78
     8
170
     0
171
     2
172
     1
173
     1
174
     0
175
     0
176
   256
177
   256
178
     2
270
     2
271
     2
272
     2
273
     2
274
     2
340
6B
275
     0
280
     0
281
     0
282
     0
283
     0
284
     0
285
     0
286
     0
287
     3
288
     0
  0
DIMSTYLE
105
B34
102
{ACAD_REACTORS
330
3EE7
102
}
330
A
100
AcDbSymbolTableRecord
100
AcDbDimStyleTableRecord
  2
AM_JIS$2
 70
     0
  3

  4
"
  5
OPEN30
  6

  7

 40
1.0
 41
2.5
 42
1.0
 43
12.0
 44
1.0
 45
0.0
 46
0.0
 47
0.1
 48
0.1
140
3.2
141
0.0
142
0.0
143
0.0393701
144
1.0
145
0.0
146
0.71
147
1.5
 71
     0
 72
     0
 73
     0
 74
     0
 75
     0
 76
     0
 77
     3
 78
     8
170
     0
171
     2
172
     1
173
     0
174
     0
175
     0
176
   256
177
   256
178
     2
270
     2
271
     3
272
     3
273
     2
274
     2
340
6B
275
     0
280
     0
281
     0
282
     0
283
     0
284
     0
285
     0
286
     0
287
     3
288
     0
  0
DIMSTYLE
105
BA5
102
{ACAD_REACTORS
330
CC6
330
DF5
330
1FB6
330
2216
102
}
330
A
100
AcDbSymbolTableRecord
100
AcDbDimStyleTableRecord
  2
AM_JIS$0
 70
     0
  3

  4
"
  5
OPEN30
  6

  7

 40
1.0
 41
2.5
 42
0.0
 43
10.0
 44
1.0
 45
0.0
 46
0.0
 47
0.1
 48
0.1000000001
140
3.799999999999999
141
0.0
142
0.0
143
0.0393701
144
1.0
145
0.0
146
0.71
147
1.5
 71
     0
 72
     0
 73
     0
 74
     0
 75
     0
 76
     0
 77
     3
 78
     1
170
     0
171
     2
172
     1
173
     0
174
     0
175
     0
176
     3
177
     3
178
     2
270
     2
271
     2
272
     2
273
     2
274
     2
340
11
275
     1
280
     0
281
     0
282
     0
283
     0
284
     8
285
     0
286
     0
287
     0
288
     0
  0
ENDTAB
  0
TABLE
  2
BLOCK_RECORD
  5
1
330
0
100
AcDbSymbolTable
 70
    10
  0
BLOCK_RECORD
  5
1F
102
{ACAD_XDICTIONARY
360
74
102
}
330
1
100
AcDbSymbolTableRecord
100
AcDbBlockTableRecord
  2
*MODEL_SPACE
  0
BLOCK_RECORD
  5
101
102
{ACAD_XDICTIONARY
360
4050
102
}
330
1
100
AcDbSymbolTableRecord
100
AcDbBlockTableRecord
  2
*PAPER_SPACE
  0
BLOCK_RECORD
  5
59
330
1
100
AcDbSymbolTableRecord
100
AcDbBlockTableRecord
  2
_OPEN30
  0
BLOCK_RECORD
  5
64
330
1
100
AcDbSymbolTableRecord
100
AcDbBlockTableRecord
  2
GENAXEH
  0
BLOCK_RECORD
  5
CC8
330
1
100
AcDbSymbolTableRecord
100
AcDbBlockTableRecord
  2
*D5
  0
BLOCK_RECORD
  5
DF6
330
1
100
AcDbSymbolTableRecord
100
AcDbBlockTableRecord
  2
*D6
  0
BLOCK_RECORD
  5
1FB7
330
1
100
AcDbSymbolTableRecord
100
AcDbBlockTableRecord
  2
*D7
  0
BLOCK_RECORD
  5
2217
330
1
100
AcDbSymbolTableRecord
100
AcDbBlockTableRecord
  2
*D8
  0
BLOCK_RECORD
  5
3EE8
330
1
100
AcDbSymbolTableRecord
100
AcDbBlockTableRecord
  2
*D9
  0
ENDTAB
  0
ENDSEC
  0
SECTION
  2
BLOCKS
  0
BLOCK
  5
20
330
1F
100
AcDbEntity
  8
0
100
AcDbBlockBegin
  2
*MODEL_SPACE
 70
     0
 10
0.0
 20
0.0
 30
0.0
  3
*MODEL_SPACE
  1

  0
ENDBLK
  5
21
330
1F
100
AcDbEntity
  8
0
100
AcDbBlockEnd
  0
BLOCK
  5
103
330
101
100
AcDbEntity
 67
     1
  8
0
100
AcDbBlockBegin
  2
*PAPER_SPACE
 70
     0
 10
0.0
 20
0.0
 30
0.0
  3
*PAPER_SPACE
  1

  0
ENDBLK
  5
104
330
101
100
AcDbEntity
 67
     1
  8
0
100
AcDbBlockEnd
  0
BLOCK
  5
5D
330
59
100
AcDbEntity
  8
0
100
AcDbBlockBegin
  2
_OPEN30
 70
     0
 10
0.0
 20
0.0
 30
0.0
  3
_OPEN30
  1

  0
LINE
  5
5A
330
59
100
AcDbEntity
  8
0
 62
     0
100
AcDbLine
 10
-1.0
 20
0.26794919
 30
0.0
 11
0.0
 21
0.0
 31
0.0
  0
LINE
  5
5B
330
59
100
AcDbEntity
  8
0
 62
     0
100
AcDbLine
 10
0.0
 20
0.0
 30
0.0
 11
-1.0
 21
-0.26794919
 31
0.0
  0
LINE
  5
5C
330
59
100
AcDbEntity
  8
0
 62
     0
100
AcDbLine
 10
0.0
 20
0.0
 30
0.0
 11
-1.0
 21
0.0
 31
0.0
  0
ENDBLK
  5
5E
330
59
100
AcDbEntity
  8
0
100
AcDbBlockEnd
  0
BLOCK
  5
66
330
64
100
AcDbEntity
  8
0
100
AcDbBlockBegin
  2
GENAXEH
 70
     0
 10
0.0
 20
0.0
 30
0.0
  3
GENAXEH
  1

  0
LINE
  5
65
330
64
100
AcDbEntity
  8
0
100
AcDbLine
 10
-1.0
 20
0.0
 30
0.0
 11
1.0
 21
0.0
 31
0.0
  0
ENDBLK
  5
67
330
64
100
AcDbEntity
  8
0
100
AcDbBlockEnd
  0
BLOCK
  5
CD2
330
CC8
100
AcDbEntity
  8
0
100
AcDbBlockBegin
  2
*D5
 70
     1
 10
0.0
 20
0.0
 30
0.0
  3
*D5
  1

  0
LINE
  5
3EB2
330
CC8
100
AcDbEntity
  8
AM_5
 62
     3
100
AcDbLine
 10
-179.0
 20
-6.500002054481049
 30
0.0
 11
-179.0
 21
-32.00000305448085
 31
0.0
  0
LINE
  5
3EB3
330
CC8
100
AcDbEntity
  8
AM_5
 62
     3
100
AcDbLine
 10
-2.999999999999372
 20
-6.750000588943403
 30
0.0
 11
-2.999999999999373
 21
-32.00000305448084
 31
0.0
  0
LINE
  5
3EB4
330
CC8
100
AcDbEntity
  8
AM_5
 62
     3
100
AcDbLine
 10
-176.5
 20
-31.00000305448084
 30
0.0
 11
-5.499999999999372
 21
-31.00000305448084
 31
0.0
  0
INSERT
  5
3EB5
330
CC8
100
AcDbEntity
  8
AM_5
 62
     3
100
AcDbBlockReference
  2
_OPEN30
 10
-179.0
 20
-31.00000305448084
 30
0.0
 41
2.5
 42
2.5
 43
2.5
 50
180.0
  0
INSERT
  5
3EB6
330
CC8
100
AcDbEntity
  8
AM_5
 62
     3
100
AcDbBlockReference
  2
_OPEN30
 10
-2.999999999999373
 20
-31.00000305448084
 30
0.0
 41
2.5
 42
2.5
 43
2.5
  0
MTEXT
  5
3EB7
330
CC8
100
AcDbEntity
  8
AM_5
 62
     2
100
AcDbMText
 10
-90.99999999999969
 20
-27.60000305448084
 30
0.0
 40
3.799999999999999
 41
0.0
 71
     5
 72
     1
  1
176
1001
ACAD
1000
MTEXTBEGIN
1070
    73
1070
     1
1070
    44
1040
1.0
1070
    74
1070
     0
1000
MTEXTEND
  0
POINT
  5
3EB8
330
CC8
100
AcDbEntity
  8
DEFPOINTS
 62
     0
100
AcDbPoint
 10
-179.0
 20
-6.500002054481049
 30
0.0
  0
POINT
  5
3EB9
330
CC8
100
AcDbEntity
  8
DEFPOINTS
 62
     0
100
AcDbPoint
 10
-2.999999999999372
 20
-6.750000588943403
 30
0.0
  0
POINT
  5
3EBA
330
CC8
100
AcDbEntity
  8
DEFPOINTS
 62
     0
100
AcDbPoint
 10
-2.999999999999373
 20
-31.00000305448084
 30
0.0
  0
ENDBLK
  5
CD3
330
CC8
100
AcDbEntity
  8
0
100
AcDbBlockEnd
  0
BLOCK
  5
E00
330
DF6
100
AcDbEntity
  8
0
100
AcDbBlockBegin
  2
*D6
 70
     1
 10
0.0
 20
0.0
 30
0.0
  3
*D6
  1

  0
LINE
  5
3EA9
330
DF6
100
AcDbEntity
  8
AM_5
 62
     3
100
AcDbLine
 10
-114.9999999999993
 20
-7.000002054481066
 30
0.0
 11
-114.9999999999993
 21
-22.00000305448076
 31
0.0
  0
LINE
  5
3EAA
330
DF6
100
AcDbEntity
  8
AM_5
 62
     3
100
AcDbLine
 10
-2.99999999999936
 20
-6.750000588943387
 30
0.0
 11
-2.999999999999361
 21
-22.00000305448076
 31
0.0
  0
LINE
  5
3EAB
330
DF6
100
AcDbEntity
  8
AM_5
 62
     3
100
AcDbLine
 10
-112.4999999999993
 20
-21.00000305448076
 30
0.0
 11
-5.499999999999362
 21
-21.00000305448076
 31
0.0
  0
INSERT
  5
3EAC
330
DF6
100
AcDbEntity
  8
AM_5
 62
     3
100
AcDbBlockReference
  2
_OPEN30
 10
-114.9999999999993
 20
-21.00000305448076
 30
0.0
 41
2.5
 42
2.5
 43
2.5
 50
180.0
  0
INSERT
  5
3EAD
330
DF6
100
AcDbEntity
  8
AM_5
 62
     3
100
AcDbBlockReference
  2
_OPEN30
 10
-2.999999999999361
 20
-21.00000305448076
 30
0.0
 41
2.5
 42
2.5
 43
2.5
  0
MTEXT
  5
3EAE
330
DF6
100
AcDbEntity
  8
AM_5
 62
     2
100
AcDbMText
 10
-58.99999999999934
 20
-17.60000305448077
 30
0.0
 40
3.799999999999999
 41
0.0
 71
     5
 72
     1
  1
112
1001
ACAD
1000
MTEXTBEGIN
1070
    73
1070
     1
1070
    44
1040
1.0
1070
    74
1070
     0
1000
MTEXTEND
  0
POINT
  5
3EAF
330
DF6
100
AcDbEntity
  8
DEFPOINTS
 62
     0
100
AcDbPoint
 10
-114.9999999999993
 20
-7.000002054481066
 30
0.0
  0
POINT
  5
3EB0
330
DF6
100
AcDbEntity
  8
DEFPOINTS
 62
     0
100
AcDbPoint
 10
-2.99999999999936
 20
-6.750000588943387
 30
0.0
  0
POINT
  5
3EB1
330
DF6
100
AcDbEntity
  8
DEFPOINTS
 62
     0
100
AcDbPoint
 10
-2.999999999999361
 20
-21.00000305448076
 30
0.0
  0
ENDBLK
  5
E01
330
DF6
100
AcDbEntity
  8
0
100
AcDbBlockEnd
  0
BLOCK
  5
1FC3
330
1FB7
100
AcDbEntity
  8
0
100
AcDbBlockBegin
  2
*D7
 70
     1
 10
0.0
 20
0.0
 30
0.0
  3
*D7
  1

  0
LINE
  5
3FB5
330
1FB7
100
AcDbEntity
  8
AM_5
 62
     3
100
AcDbLine
 10
-2.999999999999372
 20
-6.750000588943403
 30
0.0
 11
17.55592102485801
 21
-6.750000588943408
 31
0.0
  0
LINE
  5
3FB6
330
1FB7
100
AcDbEntity
  8
AM_5
 62
     3
100
AcDbLine
 10
-2.999999999999247
 20
6.749999411056278
 30
0.0
 11
17.55592102485801
 21
6.749999411056273
 31
0.0
  0
LINE
  5
3FB7
330
1FB7
100
AcDbEntity
  8
AM_5
 62
     3
100
AcDbLine
 10
16.55592102485801
 20
-9.250000588943407
 30
0.0
 11
16.55592102485801
 21
-11.7500005889434
 31
0.0
  0
LINE
  5
3FB8
330
1FB7
100
AcDbEntity
  8
AM_5
 62
     3
100
AcDbLine
 10
16.55592102485802
 20
9.249999411056272
 30
0.0
 11
16.55592102485802
 21
29.08571370113309
 31
0.0
  0
LINE
  5
3FB9
330
1FB7
100
AcDbEntity
  8
AM_5
 62
     3
100
AcDbLine
 10
16.55592102485801
 20
-6.750000588943408
 30
0.0
 11
16.55592102485801
 21
6.749999411056273
 31
0.0
  0
INSERT
  5
3FBA
330
1FB7
100
AcDbEntity
  8
AM_5
 62
     3
100
AcDbBlockReference
  2
_OPEN30
 10
16.55592102485801
 20
-6.750000588943408
 30
0.0
 41
2.5
 42
2.5
 43
2.5
 50
90.0
  0
INSERT
  5
3FBB
330
1FB7
100
AcDbEntity
  8
AM_5
 62
     3
100
AcDbBlockReference
  2
_OPEN30
 10
16.55592102485801
 20
6.749999411056273
 30
0.0
 41
2.5
 42
2.5
 43
2.5
 50
270.0
  0
MTEXT
  5
3FBC
330
1FB7
100
AcDbEntity
  8
AM_5
 62
     2
100
AcDbMText
 10
13.15592102485801
 20
20.43809465351404
 30
0.0
 40
3.799999999999999
 41
0.0
 71
     5
 72
     1
  1
%%c13.5
 11
0.0000000000000001
 21
1.0
 31
0.0
1001
ACAD
1000
MTEXTBEGIN
1070
    73
1070
     1
1070
    44
1040
1.0
1070
    74
1070
     0
1000
MTEXTEND
  0
POINT
  5
3FBD
330
1FB7
100
AcDbEntity
  8
DEFPOINTS
 62
     0
100
AcDbPoint
 10
-2.999999999999372
 20
-6.750000588943403
 30
0.0
  0
POINT
  5
3FBE
330
1FB7
100
AcDbEntity
  8
DEFPOINTS
 62
     0
100
AcDbPoint
 10
-2.999999999999247
 20
6.749999411056278
 30
0.0
  0
POINT
  5
3FBF
330
1FB7
100
AcDbEntity
  8
DEFPOINTS
 62
     0
100
AcDbPoint
 10
16.55592102485801
 20
6.749999411056273
 30
0.0
  0
ENDBLK
  5
1FC4
330
1FB7
100
AcDbEntity
  8
0
100
AcDbBlockEnd
  0
BLOCK
  5
2221
330
2217
100
AcDbEntity
  8
0
100
AcDbBlockBegin
  2
*D8
 70
     1
 10
0.0
 20
0.0
 30
0.0
  3
*D8
  1

  0
LINE
  5
3EBB
330
2217
100
AcDbEntity
  8
AM_5
 62
     3
100
AcDbLine
 10
-178.5000000000005
 20
6.999999999998738
 30
0.0
 11
-196.000001
 21
6.999999999998689
 31
0.0
  0
LINE
  5
3EBC
330
2217
100
AcDbEntity
  8
AM_5
 62
     3
100
AcDbLine
 10
-178.5000000000004
 20
-7.000002054481086
 30
0.0
 11
-196.0000009999999
 21
-7.000002054481136
 31
0.0
  0
LINE
  5
3EBD
330
2217
100
AcDbEntity
  8
AM_5
 62
     3
100
AcDbLine
 10
-195.000001
 20
4.499999999998691
 30
0.0
 11
-195.000001
 21
-4.500002054481133
 31
0.0
  0
INSERT
  5
3EBE
330
2217
100
AcDbEntity
  8
AM_5
 62
     3
100
AcDbBlockReference
  2
_OPEN30
 10
-195.000001
 20
6.999999999998691
 30
0.0
 41
2.5
 42
2.5
 43
2.5
 50
90.00000000000017
  0
INSERT
  5
3EBF
330
2217
100
AcDbEntity
  8
AM_5
 62
     3
100
AcDbBlockReference
  2
_OPEN30
 10
-195.0000009999999
 20
-7.000002054481133
 30
0.0
 41
2.5
 42
2.5
 43
2.5
 50
270.0000000000001
  0
MTEXT
  5
3EC0
330
2217
100
AcDbEntity
  8
AM_5
 62
     2
100
AcDbMText
 10
-198.400001
 20
-0.0000010272412227
 30
0.0
 40
3.799999999999999
 41
0.0
 71
     5
 72
     1
  1
%%c14
 11
-0.0000000000000028
 21
1.0
 31
0.0
1001
ACAD
1000
MTEXTBEGIN
1070
    73
1070
     1
1070
    44
1040
1.0
1070
    74
1070
     0
1000
MTEXTEND
  0
POINT
  5
3EC1
330
2217
100
AcDbEntity
  8
DEFPOINTS
 62
     0
100
AcDbPoint
 10
-178.5000000000004
 20
6.999999999999293
 30
0.0
  0
POINT
  5
3EC2
330
2217
100
AcDbEntity
  8
DEFPOINTS
 62
     0
100
AcDbPoint
 10
-178.5000000000005
 20
-7.000002054480531
 30
0.0
  0
POINT
  5
3EC3
330
2217
100
AcDbEntity
  8
DEFPOINTS
 62
     0
100
AcDbPoint
 10
-195.000001
 20
-7.000002054480527
 30
0.0
  0
ENDBLK
  5
2222
330
2217
100
AcDbEntity
  8
0
100
AcDbBlockEnd
  0
BLOCK
  5
3EF6
330
3EE8
100
AcDbEntity
  8
0
100
AcDbBlockBegin
  2
*D9
 70
     1
 10
0.0
 20
0.0
 30
0.0
  3
*D9
  1

  0
LINE
  5
4052
330
3EE8
100
AcDbEntity
  8
AM_5
100
AcDbLine
 10
0.3420201408161125
 20
-0.9396926216992238
 30
0.0
 11
12.59335950036357
 21
-34.5999711498276
 31
0.0
  0
LINE
  5
4053
330
3EE8
100
AcDbEntity
  8
AM_5
100
AcDbLine
 10
0.3420224212243563
 20
0.9396917916955304
 30
0.0
 11
12.59344346618135
 21
34.59994058865427
 31
0.0
  0
ARC
  5
4054
330
3EE8
100
AcDbEntity
  8
AM_5
100
AcDbCircle
 10
-0.0000000000000284
 20
0.0000000000000781
 30
0.0
 40
35.82052019016442
100
AcDbArc
 50
293.9996217251105
 51
66.00023923173569
  0
INSERT
  5
4055
330
3EE8
100
AcDbEntity
  8
AM_5
100
AcDbBlockReference
  2
_OPEN30
 10
12.25133935954742
 20
-33.6602785281283
 30
0.0
 41
2.5
 42
2.5
 43
2.5
 50
201.9998107860487
  0
INSERT
  5
4056
330
3EE8
100
AcDbEntity
  8
AM_5
100
AcDbBlockReference
  2
_OPEN30
 10
12.25142104495696
 20
33.66024879695881
 30
0.0
 41
2.5
 42
2.5
 43
2.5
 50
158.0000501707975
  0
MTEXT
  5
4057
330
3EE8
100
AcDbEntity
  8
AM_5
 62
     2
100
AcDbMText
 10
32.7205201901403
 20
-0.0000397024383706
 30
0.0
 40
3.2
 41
0.0
 71
     5
 72
     1
  1
140°
  7
ASAMI
 11
0.0000012133804173
 21
0.999999999999264
 31
0.0
  0
POINT
  5
4058
330
3EE8
100
AcDbEntity
  8
DEFPOINTS
 62
     0
100
AcDbPoint
 10
32.89096710601271
 20
-14.18780989177551
 30
0.0
  0
POINT
  5
4059
330
3EE8
100
AcDbEntity
  8
DEFPOINTS
 62
     0
100
AcDbPoint
 10
-0.0000000000000284
 20
0.0000000000000781
 30
0.0
  0
POINT
  5
405A
330
3EE8
100
AcDbEntity
  8
DEFPOINTS
 62
     0
100
AcDbPoint
 10
-0.0000000000000284
 20
0.0000000000000781
 30
0.0
  0
POINT
  5
405B
330
3EE8
100
AcDbEntity
  8
DEFPOINTS
 62
     0
100
AcDbPoint
 10
-0.5872917675983729
 20
1.613570883515912
 30
0.0
  0
POINT
  5
405C
330
3EE8
100
AcDbEntity
  8
DEFPOINTS
 62
     0
100
AcDbPoint
 10
-0.5873037318976899
 20
-1.613591571338073
 30
0.0
  0
ENDBLK
  5
3EF7
330
3EE8
100
AcDbEntity
  8
0
100
AcDbBlockEnd
  0
ENDSEC
  0
SECTION
  2
ENTITIES
  0
LINE
  5
C9F
330
1F
100
AcDbEntity
  8
AM_7
100
AcDbLine
 10
-181.0
 20
-0.000000000000223
 30
0.0
 11
0.5559200248580254
 21
0.0000000000000896
 31
0.0
1001
GENIUS_GENODEF_13
1002
{
1000
HIER
1070
     0
1002
}
1002
{
1000
MANEDIT
1070
     0
1002
}
1002
{
1000
NOSEL
1070
     0
1002
}
1002
{
1000
BEHIND
1070
     0
1002
}
1002
{
1000
REACTOR
1002
}
1001
GENIUS_GENOBJ-N-CEN_13
1002
{
1000
OWNER
1000
GEN
1002
}
  0
DIMENSION
  5
CC6
330
1F
100
AcDbEntity
  8
AM_5
100
AcDbDimension
  2
*D5
 10
-2.999999999999373
 20
-31.00000305448084
 30
0.0
 11
-90.99999999999969
 21
-27.60000305448084
 31
0.0
 70
    32
  1
<>
  3
AM_JIS$0
100
AcDbAlignedDimension
 13
-179.0
 23
-6.500002054481049
 33
0.0
 14
-2.999999999999372
 24
-6.750000588943403
 34
0.0
 50
0.0000000000001132
100
AcDbRotatedDimension
1001
GENIUS_GENDTOL_13
1000

1000
h7
1000

1040
0.0
1001
ACAD
1000
DSTYLE
1002
{
1070
   271
1070
     0
1002
}
  0
DIMENSION
  5
DF5
330
1F
100
AcDbEntity
  8
AM_5
100
AcDbDimension
  2
*D6
 10
-2.999999999999361
 20
-21.00000305448076
 30
0.0
 11
-58.99999999999934
 21
-17.60000305448077
 31
0.0
 70
    32
  1
<>
  3
AM_JIS$0
100
AcDbAlignedDimension
 13
-114.9999999999993
 23
-7.000002054481066
 33
0.0
 14
-2.99999999999936
 24
-6.750000588943387
 34
0.0
 50
0.0000000000001527
100
AcDbRotatedDimension
1001
GENIUS_GENDTOL_13
1000

1000
h7
1000

1040
0.0
1001
ACAD
1000
DSTYLE
1002
{
1070
   271
1070
     0
1002
}
  0
TEXT
  5
19BD
330
1F
100
AcDbEntity
  8
AM_6
100
AcDbText
 10
-112.1904761904757
 20
-53.5000030544809
 30
0.0
 40
5.0
  1
MDW135LHK
 50
0.0000000000001527
 72
     4
 11
-90.99999999999958
 21
-51.00000305448084
 31
0.0
100
AcDbText
  0
LINE
  5
1E25
330
1F
100
AcDbEntity
  8
AM_0
100
AcDbLine
 10
-114.9999999999993
 20
-7.000002054481067
 30
0.0
 11
-114.5669400309603
 21
-6.749974764781142
 31
0.0
  0
LINE
  5
1E26
330
1F
100
AcDbEntity
  8
AM_0
100
AcDbLine
 10
-114.5669862780324
 20
6.749999411059416
 30
0.0
 11
-115.0000192404462
 21
7.000011108477001
 31
0.0
  0
DIMENSION
  5
1FB6
330
1F
100
AcDbEntity
  8
AM_5
100
AcDbDimension
  2
*D7
 10
16.55592102485801
 20
6.749999411056273
 30
0.0
 11
16.55592102485801
 21
20.43809465351404
 31
0.0
 70
   160
  1
%%c<>
  3
AM_JIS$0
100
AcDbAlignedDimension
 13
-2.999999999999372
 23
-6.750000588943403
 33
0.0
 14
-2.999999999999247
 24
6.749999411056278
 34
0.0
 50
89.99999999999969
100
AcDbRotatedDimension
1001
ACAD
1000
DSTYLE
1002
{
1070
   271
1070
     1
1002
}
1001
GENIUS_GENDTOL_13
1000

1000
h7
1000

1040
0.0
  0
LINE
  5
1FD9
330
1F
100
AcDbEntity
  8
AM_0
100
AcDbLine
 10
-114.5669814296762
 20
-6.749998666340914
 30
0.0
 11
-114.5669862780324
 21
6.749999411059418
 31
0.0
  0
LINE
  5
21D7
330
1F
100
AcDbEntity
  8
AM_0
 48
0.5
100
AcDbLine
 10
-114.9999999999993
 20
-7.000002054481053
 30
0.0
 11
-114.9999999999993
 21
6.999999999999777
 31
0.0
  0
LINE
  5
21D8
330
1F
100
AcDbEntity
  8
AM_0
 48
0.5
100
AcDbLine
 10
-178.5
 20
6.999999999999777
 30
0.0
 11
-114.9999999999993
 21
6.999999999999777
 31
0.0
1001
GENIUS_GENODEF_13
1002
{
1000
HIER
1070
     0
1002
}
1002
{
1000
MANEDIT
1070
     0
1002
}
1002
{
1000
NOSEL
1070
     0
1002
}
1002
{
1000
BEHIND
1070
     0
1002
}
1002
{
1000
REACTOR
1002
}
1001
GENIUS_GENOBJ-N-CEN_13
1002
{
1000
OWNER
1000
GEN
1002
}
  0
LINE
  5
21D9
330
1F
100
AcDbEntity
  8
AM_0
 48
0.5
100
AcDbLine
 10
-178.5
 20
-7.000002054481053
 30
0.0
 11
-114.9999999999993
 21
-7.000002054481053
 31
0.0
1001
GENIUS_GENODEF_13
1002
{
1000
HIER
1070
     0
1002
}
1002
{
1000
MANEDIT
1070
     0
1002
}
1002
{
1000
NOSEL
1070
     0
1002
}
1002
{
1000
BEHIND
1070
     0
1002
}
1002
{
1000
REACTOR
1002
}
1001
GENIUS_GENOBJ-N-CEN_13
1002
{
1000
OWNER
1000
GEN
1002
}
  0
LINE
  5
21DC
330
1F
100
AcDbEntity
  8
AM_0
100
AcDbLine
 10
-178.5000000000005
 20
-7.000002054480527
 30
0.0
 11
-178.5000000000004
 21
6.999999999999293
 31
0.0
  0
LINE
  5
21DD
330
1F
100
AcDbEntity
  8
AM_0
 48
0.5
100
AcDbLine
 10
-179.0
 20
-6.500002054481053
 30
0.0
 11
-179.0
 21
6.499999999999791
 31
0.0
  0
DIMENSION
  5
2216
330
1F
100
AcDbEntity
  8
AM_5
100
AcDbDimension
  2
*D8
 10
-195.000001
 20
-7.000002054480527
 30
0.0
 11
-198.400001
 21
-0.0000010272406455
 31
0.0
 70
    32
  1
%%c<>
 51
359.9999999999998
  3
AM_JIS$0
100
AcDbAlignedDimension
 13
-178.5000000000004
 23
6.999999999999293
 33
0.0
 14
-178.5000000000005
 24
-7.000002054480531
 34
0.0
 50
269.9999999999999
100
AcDbRotatedDimension
1001
ACAD
1000
DSTYLE
1002
{
1070
   271
1070
     0
1002
}
1001
GENIUS_GENDTOL_13
1000

1000
h7
1000

1040
0.0
  0
ELLIPSE
  5
2694
330
1F
100
AcDbEntity
  8
AM_0
 48
0.5
100
AcDbEllipse
 10
8.240586575836466
 20
6.617376299159006
 30
0.0
 11
10.17240772368207
 21
0.0000000000010035
 31
0.0
210
0.0
220
0.0
230
1.0
 40
0.9899999999999971
 41
3.323896559076802
 42
3.661579236128986
  0
LINE
  5
2695
330
1F
100
AcDbEntity
  8
AM_0
 48
0.5
100
AcDbLine
 10
-1.763250261309863
 20
4.791603860799689
 30
0.0
 11
-2.999999999999247
 21
6.749999411056278
 31
0.0
  0
LINE
  5
2696
330
1F
100
AcDbEntity
  8
AM_0
 48
0.5
100
AcDbLine
 10
-0.0000000000000284
 20
0.0000000000000781
 30
0.0
 11
-0.5872917675983729
 21
1.613570883515912
 31
0.0
  0
LINE
  5
2699
330
1F
100
AcDbEntity
  8
AM_0
 48
0.5
100
AcDbLine
 10
-0.0000000000000284
 20
0.0000000000000781
 30
0.0
 11
-0.5873037318976897
 21
-1.613591571338073
 31
0.0
  0
LINE
  5
2CB4
330
1F
100
AcDbEntity
  8
AM_0
 48
0.5
100
AcDbLine
 10
-179.0
 20
6.499999999999777
 30
0.0
 11
-178.5
 21
6.999999999999777
 31
0.0
1001
GENIUS_GENFIL_13
1070
     0
1040
0.5
1040
0.5
1040
20.0
1040
0.0
1002
{
1002
}
1001
GENIUS_GENODEF_13
1002
{
1000
HIER
1070
     0
1002
}
1002
{
1000
MANEDIT
1070
     0
1002
}
1002
{
1000
NOSEL
1070
     0
1002
}
1002
{
1000
BEHIND
1070
     0
1002
}
1002
{
1000
REACTOR
1002
}
1001
GENIUS_GENOBJ-N-CHA_13
1002
{
1000
OWNER
1000
GEN
1002
}
  0
LINE
  5
2CB7
330
1F
100
AcDbEntity
  8
AM_0
 48
0.5
100
AcDbLine
 10
-178.5
 20
-7.000002054481053
 30
0.0
 11
-179.0
 21
-6.500002054481053
 31
0.0
1001
GENIUS_GENFIL_13
1070
     0
1040
0.5
1040
0.5
1040
20.0
1040
0.0
1002
{
1002
}
1001
GENIUS_GENODEF_13
1002
{
1000
HIER
1070
     0
1002
}
1002
{
1000
MANEDIT
1070
     0
1002
}
1002
{
1000
NOSEL
1070
     0
1002
}
1002
{
1000
BEHIND
1070
     0
1002
}
1002
{
1000
REACTOR
1002
}
1001
GENIUS_GENOBJ-N-CHA_13
1002
{
1000
OWNER
1000
GEN
1002
}
  0
ELLIPSE
  5
3366
330
1F
100
AcDbEntity
  8
AM_0
 48
0.5
100
AcDbEllipse
 10
8.240586575836488
 20
-6.617376299158808
 30
0.0
 11
10.17240772368207
 21
-0.0000000000009696
 31
0.0
210
0.0
220
0.0
230
-1.0
 40
0.9899999999999971
 41
3.323896559076802
 42
3.661579236128986
  0
LINE
  5
3367
330
1F
100
AcDbEntity
  8
AM_0
 48
0.5
100
AcDbLine
 10
-1.763250261309849
 20
-4.791603860799533
 30
0.0
 11
-2.999999999999372
 21
-6.750000588943403
 31
0.0
  0
SPLINE
  5
3D48
330
1F
100
AcDbEntity
  8
AM_0
100
AcDbSpline
210
0.0
220
0.0
230
1.0
 70
     8
 71
     3
 72
    46
 73
    42
 74
     0
 42
0.0000000001
 43
0.0000000001
 40
0.0
 40
0.0
 40
0.0
 40
0.0
 40
1.348332046947657
 40
2.024828967632895
 40
2.703918159304097
 40
3.386347665078124
 40
4.072776489761952
 40
4.763750544421347
 40
5.459696642770596
 40
6.160921452191754
 40
6.867565637253344
 40
7.579665907256596
 40
8.297112853413899
 40
9.019671552060676
 40
9.746986763446127
 40
10.47859339096366
 40
11.21393074760089
 40
11.95235532364328
 40
12.69315551794651
 40
13.43556823304427
 40
14.1787950170388
 40
14.92202180103393
 40
15.66443451613169
 40
16.40523471043432
 40
17.14365928647669
 40
17.87899664311455
 40
18.61060327063121
 40
19.3379184820169
 40
20.06048192311554
 40
20.77792886927283
 40
21.49002913927608
 40
22.19667332433747
 40
22.89788836015233
 40
23.59383445850158
 40
24.28480851316097
 40
24.97123685067576
 40
25.65366676154838
 40
26.33276604526152
 40
27.00926273560555
 40
27.68398960851751
 40
28.357818684969
 40
28.357818684969
 40
28.357818684969
 40
28.357818684969
 10
-4.764357480028309
 20
-6.750000588943676
 30
0.0
 10
-5.486593432609582
 20
-6.734623567162479
 30
0.0
 10
-6.571195909842897
 20
-6.711531451827118
 30
0.0
 10
-8.013439121421864
 20
-6.569357539954704
 30
0.0
 10
-9.096375676864207
 20
-6.426008416850251
 30
0.0
 10
-10.17921966701084
 20
-6.241972492909566
 30
0.0
 10
-11.26196823927991
 20
-6.019696960472743
 30
0.0
 10
-12.34461583137966
 20
-5.760244485945944
 30
0.0
 10
-13.42716063003805
 20
-5.465305237501262
 30
0.0
 10
-14.50959781754836
 20
-5.13669018578452
 30
0.0
 10
-15.5919295574429
 20
-4.776437523211216
 30
0.0
 10
-16.67415293857843
 20
-4.386768694194011
 30
0.0
 10
-17.75628534745254
 20
-3.970104261146313
 30
0.0
 10
-18.83833204344507
 20
-3.529005682516352
 30
0.0
 10
-19.92030297698457
 20
-3.066192994007996
 30
0.0
 10
-21.00221017161468
 20
-2.584521455626346
 30
0.0
 10
-22.08406310922487
 20
-2.086953083455498
 30
0.0
 10
-23.16587231897377
 20
-1.576548184904485
 30
0.0
 10
-24.24764927112301
 20
-1.05644800304729
 30
0.0
 10
-25.32940384777562
 20
-0.5298507884039749
 30
0.0
 10
-26.4111493310083
 20
-0.0000005890502261
 30
0.0
 10
-27.49289481400332
 20
0.5298496109473981
 30
0.0
 10
-28.57464939136877
 20
1.056446823660033
 30
0.0
 10
-29.65642634091253
 20
1.576547012573008
 30
0.0
 10
-30.73823556032263
 20
2.086951884956682
 30
0.0
 10
-31.82008846211005
 20
2.584520354153404
 30
0.0
 10
-32.90199578940401
 20
3.066191533214078
 30
0.0
 10
-33.98396858438067
 20
3.529006556989126
 30
0.0
 10
-35.06601948468466
 20
3.9701011280149
 30
0.0
 10
-36.14815382391712
 20
4.386767697575122
 30
0.0
 10
-37.23037717985537
 20
4.776436642539525
 30
0.0
 10
-38.31270447365412
 20
5.13668599469873
 30
0.0
 10
-39.39513444910803
 20
5.465306129811962
 30
0.0
 10
-40.47767482889116
 20
5.76024658311575
 30
0.0
 10
-41.56032179441135
 20
6.019682082899558
 30
0.0
 10
-42.64307116048542
 20
6.242022083999802
 30
0.0
 10
-43.72592206142595
 20
6.425795202281266
 30
0.0
 10
-44.80885303677077
 20
6.570153476507639
 30
0.0
 10
-45.89185101252806
 20
6.673145503821557
 30
0.0
 10
-46.97488830030624
 20
6.737954438107036
 30
0.0
 10
-47.69708926976394
 20
6.745986202447214
 30
0.0
 10
-48.05794935309364
 20
6.749999411057635
 30
0.0
  0
LINE
  5
3D49
330
1F
100
AcDbEntity
  8
AM_0
100
AcDbLine
 10
-109.8890155749512
 20
-6.75034332275225
 30
0.0
 11
-114.5669400309603
 21
-6.749974764781142
 31
0.0
  0
LINE
  5
3D4A
330
1F
100
AcDbEntity
  8
AM_0
100
AcDbLine
 10
-106.2493088532296
 20
6.749999411059185
 30
0.0
 11
-114.5669862780324
 21
6.749999411059415
 31
0.0
  0
LINE
  5
3D4B
330
1F
100
AcDbEntity
  8
AM_0
 48
0.5
100
AcDbLine
 10
-7.796128460450759
 20
6.749999411056418
 30
0.0
 11
-2.999999999999247
 21
6.749999411056278
 31
0.0
  0
LINE
  5
3D4C
330
1F
100
AcDbEntity
  8
AM_0
 48
0.5
100
AcDbLine
 10
-7.796128460451143
 20
-6.750000588943589
 30
0.0
 11
-2.999999999999345
 21
-6.75000058894342
 31
0.0
  0
LINE
  5
3D4D
330
1F
100
AcDbEntity
  8
AM_11
 48
0.5
100
AcDbLine
 10
-28.19777885313773
 20
-6.750000588942958
 30
0.0
 11
-7.796128460451143
 21
-6.750000588943589
 31
0.0
  0
LINE
  5
3D4E
330
1F
100
AcDbEntity
  8
AM_11
 48
0.5
100
AcDbLine
 10
-28.19777885313733
 20
6.749999411057033
 30
0.0
 11
-7.796128460450759
 21
6.749999411056418
 31
0.0
  0
LINE
  5
3D4F
330
1F
100
AcDbEntity
  8
AM_11
 48
0.5
100
AcDbLine
 10
-66.75372440868533
 20
-6.750000588941937
 30
0.0
 11
-46.35207401600134
 21
-6.750959548942333
 31
0.0
  0
LINE
  5
3D50
330
1F
100
AcDbEntity
  8
AM_11
 48
0.5
100
AcDbLine
 10
-64.10924570372014
 20
6.750958371057921
 30
0.0
 11
-51.08969459050983
 21
6.749999411057722
 31
0.0
  0
LINE
  5
3D51
330
1F
100
AcDbEntity
  8
AM_0
 48
0.5
100
AcDbLine
 10
-46.35207401600133
 20
-6.750000588942554
 30
0.0
 11
-28.19777885313773
 21
-6.750000588942958
 31
0.0
  0
LINE
  5
3D52
330
1F
100
AcDbEntity
  8
AM_0
 48
0.5
100
AcDbLine
 10
-51.08971216233132
 20
6.749999411057722
 30
0.0
 11
-28.19777885313733
 21
6.749999411057033
 31
0.0
  0
LINE
  5
3D53
330
1F
100
AcDbEntity
  8
AM_0
 48
0.5
100
AcDbLine
 10
-0.0000000000000284
 20
0.0000000000000887
 30
0.0
 11
-5.147426701678995
 21
2.591794378707219
 31
0.0
  0
SPLINE
  5
3D54
330
1F
100
AcDbEntity
  8
AM_0
100
AcDbSpline
210
0.0
220
0.0
230
1.0
 70
     8
 71
     3
 72
    17
 73
    13
 74
     0
 42
0.0000000001
 43
0.0000000001
 40
1.580019955310467
 40
1.580019955310467
 40
1.580019955310467
 40
1.580019955310467
 40
2.030549285115227
 40
3.082371838836284
 40
4.126290986361125
 40
5.162752068350215
 40
6.192395305374981
 40
7.216039564037012
 40
8.234688489606833
 40
9.249433870634691
 40
10.26152376260694
 40
11.27226744710342
 40
11.27226744710342
 40
11.27226744710342
 40
11.27226744710352
 10
-17.99615779452515
 20
-4.981699353428205
 30
0.0
 10
-18.14938961915076
 20
-5.033006712216444
 30
0.0
 10
-18.66123539350057
 20
-5.201173433722257
 30
0.0
 10
-19.53508306275578
 20
-5.46494895351383
 30
0.0
 10
-20.61747267333336
 20
-5.76034254346409
 30
0.0
 10
-21.70016026475734
 20
-6.019658895547484
 30
0.0
 10
-22.78289746454881
 20
-6.242027167171547
 30
0.0
 10
-23.86575262661769
 20
-6.425829840789677
 30
0.0
 10
-24.94868260004244
 20
-6.570018035589304
 30
0.0
 10
-26.03168000535612
 20
-6.673657363822178
 30
0.0
 10
-27.11471816030723
 20
-6.736080687096615
 30
0.0
 10
-27.83691883876046
 20
-6.750000627566834
 30
0.0
 10
-28.19777885313764
 20
-6.750000588942963
 30
0.0
  0
SPLINE
  5
3D55
330
1F
100
AcDbEntity
  8
AM_0
100
AcDbSpline
210
0.0
220
0.0
230
1.0
 70
     8
 71
     3
 72
    22
 73
    18
 74
     0
 42
0.0000000001
 43
0.0000000001
 40
17.17441611292
 40
17.17441611292
 40
17.17441611292
 40
17.17441611292
 40
17.38177636558528
 40
18.41823744757437
 40
19.46215659509824
 40
20.51397914882054
 40
21.57394542641293
 40
22.64209583141747
 40
23.71826625065247
 40
24.80210429862395
 40
25.8930771157021
 40
26.99048705697709
 40
28.09349309193389
 40
29.20112995599786
 40
30.31233024745139
 40
31.42594771747373
 40
32.5407895042663
 40
32.54078950426994
 40
32.54078950426994
 40
32.54078950426994
 10
-32.33149565438235
 20
-6.061549443073986
 30
0.0
 10
-32.40401743321092
 20
-6.045923855125928
 30
0.0
 10
-32.83874589083801
 20
-5.950746691015464
 30
0.0
 10
-33.6351439283598
 20
-5.759904089390263
 30
0.0
 10
-34.71768422606997
 20
-5.464964084330642
 30
0.0
 10
-35.8001142151962
 20
-5.136343804532806
 30
0.0
 10
-36.88244153763351
 20
-4.776094579265671
 30
0.0
 10
-37.96466476370276
 20
-4.386425268915282
 30
0.0
 10
-39.04679721431695
 20
-3.96976096566405
 30
0.0
 10
-40.12884390005354
 20
-3.528662354257719
 30
0.0
 10
-41.21081483241739
 20
-3.065849665663418
 30
0.0
 10
-42.29272204223931
 20
-2.584178161019335
 30
0.0
 10
-43.37457491982108
 20
-2.086609652973629
 30
0.0
 10
-44.45638435576104
 20
-1.576205267066773
 30
0.0
 10
-45.53815993935817
 20
-1.056103412527552
 30
0.0
 10
-46.61991769617711
 20
-0.5295133989176853
 30
0.0
 10
-47.340947976661
 20
-0.1763406468836475
 30
0.0
 10
-47.70166118911212
 20
0.000342733812397
 30
0.0
  0
SPLINE
  5
3D56
330
1F
100
AcDbEntity
  8
AM_0
100
AcDbSpline
210
0.0
220
0.0
230
1.0
 70
     8
 71
     3
 72
    11
 73
     7
 74
     0
 42
0.0000000001
 43
0.0000000001
 40
11.27226913003534
 40
11.27226913003534
 40
11.27226913003534
 40
11.2722691300354
 40
12.28301561507924
 40
13.29510212255852
 40
14.30984805882082
 40
15.18258238371378
 40
15.18258238371378
 40
15.18258238371378
 40
15.18258238371378
 10
-28.1977788531377
 20
-6.750000588942963
 30
0.0
 10
-28.55726670008489
 20
-6.716964127405763
 30
0.0
 10
-29.2755643315409
 20
-6.636984291829717
 30
0.0
 10
-30.34930162366604
 20
-6.475645180507413
 30
0.0
 10
-31.36829724682948
 20
-6.282943302176552
 30
0.0
 10
-32.02732380204851
 20
-6.134807633127826
 30
0.0
 10
-32.33102200445744
 20
-6.061632704272371
 30
0.0
  0
SPLINE
  5
3D57
330
1F
100
AcDbEntity
  8
AM_0
100
AcDbSpline
210
0.0
220
0.0
230
1.0
 70
     8
 71
     3
 72
    55
 73
    51
 74
     0
 42
0.0000000001
 43
0.0000000001
 40
0.0
 40
0.0
 40
0.0
 40
0.0
 40
1.010743684496582
 40
2.022833576467832
 40
3.037578957496688
 40
4.056212745003489
 40
5.079857003664532
 40
6.109500240690281
 40
7.145961322679372
 40
8.189895241603872
 40
9.241717795325891
 40
10.30168407291828
 40
11.36983447792315
 40
12.44600489715814
 40
13.52984294512926
 40
14.62081576220742
 40
15.7182257034828
 40
16.82123173843959
 40
17.92886860250316
 40
19.0400688939571
 40
20.15368796660465
 40
21.26852814259644
 40
22.38336992938901
 40
23.49698739941135
 40
24.6081876908653
 40
25.71582455492886
 40
26.81883757994213
 40
27.91624752121713
 40
29.00722033829659
 40
30.09105838626677
 40
31.16722880550176
 40
32.23537921050758
 40
33.29534548809967
 40
34.347168041821
 40
35.39108718934584
 40
36.42754827133493
 40
37.45720575381954
 40
38.48085062012849
 40
39.49948440763516
 40
40.51422944315121
 40
41.52631975251916
 40
42.53706336719636
 40
43.54780698187354
 40
44.55989729124051
 40
45.57464232675757
 40
46.59327611426424
 40
47.6169209805722
 40
48.64656348684535
 40
49.68302456883444
 40
50.58557219878025
 40
50.58557219878025
 40
50.58557219878025
 40
50.58557219878025
 10
-7.796128460451144
 20
-6.750000588943583
 30
0.0
 10
-8.156988479589141
 20
-6.74598450247232
 30
0.0
 10
-8.879189146596766
 20
-6.737946980512339
 30
0.0
 10
-9.962227324519725
 20
-6.673155530264049
 30
0.0
 10
-11.04521927162641
 20
-6.570154049784388
 30
0.0
 10
-12.12814419216407
 20
-6.42579355745088
 30
0.0
 10
-13.2109912802467
 20
-6.242030414711094
 30
0.0
 10
-14.29373917372234
 20
-6.019681786976141
 30
0.0
 10
-15.37639149433467
 20
-5.760245493854203
 30
0.0
 10
-16.45893864114563
 20
-5.465310199073631
 30
0.0
 10
-17.54137324003617
 20
-5.136686787452418
 30
0.0
 10
-18.62370068634438
 20
-4.776437994175079
 30
0.0
 10
-19.705923878759
 20
-4.386768566553516
 30
0.0
 10
-20.78805633879197
 20
-3.970104295757439
 30
0.0
 10
-21.87010302084874
 20
-3.529005673003863
 30
0.0
 10
-22.95207395846462
 20
-3.066192997124802
 30
0.0
 10
-24.0339811508437
 20
-2.584521452735069
 30
0.0
 10
-25.11583409338113
 20
-2.086953091937115
 30
0.0
 10
-26.197643285583
 20
-1.57654815370871
 30
0.0
 10
-27.27942030326737
 20
-1.056448119805515
 30
0.0
 10
-28.36117463464843
 20
-0.529850351493584
 30
0.0
 10
-29.44292155577297
 20
-0.0000019661881235
 30
0.0
 10
-30.52466362075896
 20
0.5298559567184784
 30
0.0
 10
-31.60642157794475
 20
1.056445524510273
 30
0.0
 10
-32.68819726016087
 20
1.57654713272666
 30
0.0
 10
-33.77000838121657
 20
2.086954015370383
 30
0.0
 10
-34.85186581179896
 20
2.584518129832576
 30
0.0
 10
-35.93377471171344
 20
3.066192116967227
 30
0.0
 10
-37.01574580552993
 20
3.529004417552924
 30
0.0
 10
-38.09779244821451
 20
3.970103133067882
 30
0.0
 10
-39.17992491101835
 20
4.386767404473451
 30
0.0
 10
-40.26214813099804
 20
4.776436738919179
 30
0.0
 10
-41.34447546559825
 20
5.136685900043675
 30
0.0
 10
-42.42690541258252
 20
5.465306409924374
 30
0.0
 10
-43.50944586508973
 20
5.760245567621463
 30
0.0
 10
-44.59209778409423
 20
6.019687077680875
 30
0.0
 10
-45.67485340875273
 20
6.242010310116019
 30
0.0
 10
-46.75770407425615
 20
6.425830331433171
 30
0.0
 10
-47.84062931582121
 20
6.570019703036003
 30
0.0
 10
-48.92362201542363
 20
6.673646673984907
 30
0.0
 10
-50.00665927505926
 20
6.736089584177615
 30
0.0
 10
-51.0897203337819
 20
6.756949694296364
 30
0.0
 10
-52.17278139091092
 20
6.736089584144968
 30
0.0
 10
-53.25581865533658
 20
6.673646674116225
 30
0.0
 10
-54.33881133730357
 20
6.570019702541681
 30
0.0
 10
-55.42173664498807
 20
6.425830333291528
 30
0.0
 10
-56.50458178282008
 20
6.242011199281408
 30
0.0
 10
-57.58733314183352
 20
6.019689350816102
 30
0.0
 10
-58.62075922762208
 20
5.772022569644322
 30
0.0
 10
-59.29125784107249
 20
5.590901511212501
 30
0.0
 10
-59.60233011822783
 20
5.502632383821346
 30
0.0
  0
SPLINE
  5
3D58
330
1F
100
AcDbEntity
  8
AM_0
 48
0.5
100
AcDbSpline
210
0.0
220
0.0
230
1.0
 70
     8
 71
     3
 72
    10
 73
     6
 74
     0
 42
0.0000000001
 43
0.0000000001
 40
0.0
 40
0.0
 40
0.0
 40
0.0
 40
2.69986029516136
 40
4.147722969032201
 40
6.285750005020438
 40
6.285750005020438
 40
6.285750005020438
 40
6.285750005020438
 10
-9.059050416487522
 20
1.221713430831718
 30
0.0
 10
-8.288230279273435
 20
0.5945917862294344
 30
0.0
 10
-7.104039973632368
 20
-0.3688383787890492
 30
0.0
 10
-4.303588975938039
 20
0.0975750419689248
 30
0.0
 10
-4.83099535494321
 20
1.668517158763684
 30
0.0
 10
-5.179471792815369
 20
2.626054762665012
 30
0.0
  0
SPLINE
  5
3D59
330
1F
100
AcDbEntity
  8
AM_0
 48
0.5
100
AcDbSpline
210
0.0
220
0.0
230
1.0
 70
     8
 71
     3
 72
    25
 73
    21
 74
     0
 42
0.0000000001
 43
0.0000000001
 40
6.846175049578289
 40
6.846175049578289
 40
6.846175049578289
 40
6.846175049578289
 40
7.604337694224321
 40
8.711974558287883
 40
9.814980593243754
 40
10.91239053451967
 40
12.0033633515982
 40
13.08720139956839
 40
14.16337181880432
 40
15.23152222380919
 40
16.29148850140128
 40
17.34331105512262
 40
18.38723020264746
 40
19.42369128463655
 40
20.45333379090873
 40
21.47697865721768
 40
22.49561244472435
 40
23.5103574802404
 40
24.52244778960836
 40
25.53320666051913
 40
25.53320666051913
 40
25.53320666051913
 40
25.53320666051913
 10
-9.059223570448207
 20
1.221793602299614
 30
0.0
 10
-9.305252770871611
 20
1.340311597468818
 30
0.0
 10
-9.911235835026269
 20
1.630792345043815
 30
0.0
 10
-10.87807331818767
 20
2.086951686793607
 30
0.0
 10
-11.95992613664519
 20
2.584520335438268
 30
0.0
 10
-13.0418333621836
 20
3.06619180264315
 30
0.0
 10
-14.12380429040225
 20
3.52900450135294
 30
0.0
 10
-15.2058509771274
 20
3.97010310945085
 30
0.0
 10
-16.28798342789213
 20
4.386767415880625
 30
0.0
 10
-17.37020665239976
 20
4.776436716893454
 30
0.0
 10
-18.4525339808641
 20
5.136685975983003
 30
0.0
 10
-19.53496394768477
 20
5.465306131157457
 30
0.0
 10
-20.61750432772909
 20
5.760246596089253
 30
0.0
 10
-21.70015130066225
 20
6.01968203022564
 30
0.0
 10
-22.78290063711801
 20
6.242022279972712
 30
0.0
 10
-23.86574631210526
 20
6.425793571025469
 30
0.0
 10
-24.94867147698005
 20
6.570154831315044
 30
0.0
 10
-26.03166419680803
 20
6.67314527675929
 30
0.0
 10
-27.11470689135393
 20
6.737954832578731
 30
0.0
 10
-27.83691331786227
 20
6.745986313670073
 30
0.0
 10
-28.19777885313733
 20
6.749999411057035
 30
0.0
  0
SPLINE
  5
3D5B
330
1F
100
AcDbEntity
  8
AM_0
 48
0.5
100
AcDbSpline
210
0.0
220
0.0
230
1.0
 70
     8
 71
     3
 72
    17
 73
    13
 74
     0
 42
0.0000000001
 43
0.0000000001
 40
0.0
 40
0.0
 40
0.0
 40
0.0
 40
1.010743614677189
 40
2.022833924044153
 40
3.037578959561199
 40
4.056212747067873
 40
5.079857613375832
 40
6.109500119648989
 40
7.14596120163808
 40
8.18989512056258
 40
9.241717674284874
 40
9.693948937866434
 40
9.693948937866434
 40
9.693948937866434
 40
9.693948937866434
 10
-7.796128460450761
 20
6.749999411056415
 30
0.0
 10
-8.156988545260972
 20
6.745986218772364
 30
0.0
 10
-8.879189517681382
 20
6.737954487106749
 30
0.0
 10
-9.962226783194436
 20
6.673145307297867
 30
0.0
 10
-11.04521946069192
 20
6.570154728726441
 30
0.0
 10
-12.12814478526146
 20
6.425793953077906
 30
0.0
 10
-13.21098985957617
 20
6.242020843829893
 30
0.0
 10
-14.29374145775389
 20
6.019687438886581
 30
0.0
 10
-15.37638504744843
 20
5.760224971903836
 30
0.0
 10
-16.45896263957693
 20
5.465380211031372
 30
0.0
 10
-17.33284750153669
 20
5.199769650674444
 30
0.0
 10
-17.84604392929249
 20
5.033724853981482
 30
0.0
 10
-18.00007796357605
 20
4.982899653266426
 30
0.0
  0
SPLINE
  5
3D5C
330
1F
100
AcDbEntity
  8
AM_0
100
AcDbSpline
210
0.0
220
0.0
230
1.0
 70
     8
 71
     3
 72
    17
 73
    13
 74
     0
 42
0.0000000001
 43
0.0000000001
 40
1.580019955310467
 40
1.580019955310467
 40
1.580019955310467
 40
1.580019955310467
 40
2.030549285115227
 40
3.082371838836284
 40
4.126290986361125
 40
5.162752068350215
 40
6.192395305374981
 40
7.216039564037012
 40
8.234688489606833
 40
9.249433870634691
 40
10.26152376260694
 40
11.27226744710342
 40
11.27226744710342
 40
11.27226744710342
 40
11.27226744710352
 10
-56.55210335007537
 20
-4.981699353427177
 30
0.0
 10
-56.70533517470097
 20
-5.033006712215414
 30
0.0
 10
-57.21718094905078
 20
-5.20117343372123
 30
0.0
 10
-58.09102861830599
 20
-5.4649489535128
 30
0.0
 10
-59.17341822888356
 20
-5.760342543463065
 30
0.0
 10
-60.25610582030754
 20
-6.019658895546458
 30
0.0
 10
-61.33884302009899
 20
-6.24202716717052
 30
0.0
 10
-62.42169818216787
 20
-6.425829840788649
 30
0.0
 10
-63.50462815559261
 20
-6.570018035588274
 30
0.0
 10
-64.58762556090627
 20
-6.673657363821147
 30
0.0
 10
-65.6706637158574
 20
-6.736080687095584
 30
0.0
 10
-66.39286439431065
 20
-6.750000627565801
 30
0.0
 10
-66.75372440868781
 20
-6.750000588941936
 30
0.0
  0
SPLINE
  5
3D5D
330
1F
100
AcDbEntity
  8
AM_0
100
AcDbSpline
210
0.0
220
0.0
230
1.0
 70
     8
 71
     3
 72
    11
 73
     7
 74
     0
 42
0.0000000001
 43
0.0000000001
 40
11.27226913003534
 40
11.27226913003534
 40
11.27226913003534
 40
11.2722691300354
 40
12.28301561507924
 40
13.29510212255852
 40
14.30984805882082
 40
15.18258238371378
 40
15.18258238371378
 40
15.18258238371378
 40
15.18258238371378
 10
-66.75372440868788
 20
-6.750000588941936
 30
0.0
 10
-67.11321225563506
 20
-6.716964127404734
 30
0.0
 10
-67.83150988709106
 20
-6.636984291828688
 30
0.0
 10
-68.9052471792162
 20
-6.475645180506385
 30
0.0
 10
-69.92424280237966
 20
-6.282943302175529
 30
0.0
 10
-70.58326935759871
 20
-6.134807633126798
 30
0.0
 10
-70.88696756000763
 20
-6.061632704271342
 30
0.0
  0
SPLINE
  5
3D5E
330
1F
100
AcDbEntity
  8
AM_0
100
AcDbSpline
210
0.0
220
0.0
230
1.0
 70
     8
 71
     3
 72
    23
 73
    19
 74
     0
 42
0.0000000001
 43
0.0000000001
 40
16.03460024169435
 40
16.03460024169435
 40
16.03460024169435
 40
16.03460024169435
 40
16.35212704903564
 40
17.38177054169784
 40
18.41822485651776
 40
19.46214173629503
 40
20.51396345435107
 40
21.57393551351153
 40
22.64208202342361
 40
23.7182574881101
 40
24.80209208578934
 40
25.89306333925047
 40
26.99048218457928
 40
28.09348763352352
 40
29.20111863782268
 40
30.31232390128032
 40
31.42594612798585
 40
32.5407912310448
 40
32.5407912310486
 40
32.5407912310486
 40
32.5407912310486
 10
-64.10924570372014
 20
6.750958371057918
 30
0.0
 10
-63.99797684095425
 20
6.72817155973032
 30
0.0
 10
-63.52637050725373
 20
6.628941409887097
 30
0.0
 10
-62.69563087158811
 20
6.434515075699351
 30
0.0
 10
-61.61982086865144
 20
6.145405242987859
 30
0.0
 10
-60.54501012864815
 20
5.820783090583146
 30
0.0
 10
-59.47113514015445
 20
5.462527365928786
 30
0.0
 10
-58.39815778944398
 20
5.072635352710001
 30
0.0
 10
-57.3260160609974
 20
4.653335838096942
 30
0.0
 10
-56.25463529493977
 20
4.207069040089342
 30
0.0
 10
-55.18395461156798
 20
3.736362141545311
 30
0.0
 10
-54.11388817052922
 20
3.243954076230306
 30
0.0
 10
-53.04434925490464
 20
2.732706932564033
 30
0.0
 10
-51.97526660436678
 20
2.205560167294032
 30
0.0
 10
-50.90655077006869
 20
1.665579066670539
 30
0.0
 10
-49.83810276629035
 20
1.115916724160228
 30
0.0
 10
-48.76983559120326
 20
0.5597582841946361
 30
0.0
 10
-48.05784876527226
 20
0.1868844606268951
 30
0.0
 10
-47.70166118910732
 20
0.0003427338099718
 30
0.0
  0
ELLIPSE
  5
3D5F
330
1F
100
AcDbEntity
  8
AM_0
 48
0.5
100
AcDbEllipse
 10
-19.90251556268604
 20
46.33358844603633
 30
0.0
 11
0.0067610488031652
 21
50.60757557542
 31
0.0
210
0.0
220
0.0
230
1.0
 40
0.9777845340103807
 41
3.480588853166372
 42
3.555655079397148
  0
ELLIPSE
  5
3D60
330
1F
100
AcDbEntity
  8
AM_0
 48
0.5
100
AcDbEllipse
 10
-13.11315099232032
 20
11.3289464783168
 30
0.0
 11
-0.000000000009375
 21
16.27496516704483
 31
0.0
210
0.0
220
0.0
230
1.0
 40
0.9520120120119678
 41
3.652175978817592
 42
3.740670756497095
  0
ELLIPSE
  5
3D61
330
1F
100
AcDbEntity
  8
AM_0
 48
0.5
100
AcDbEllipse
 10
2.112920074665064
 20
8.103789694259205
 30
0.0
 11
0.000000000000697
 21
13.60425209999057
 31
0.0
210
0.0
220
0.0
230
1.0
 40
0.9520120120120134
 41
2.101163880029009
 42
2.509284810223906
  0
ELLIPSE
  5
3D62
330
1F
100
AcDbEntity
  8
AM_0
 48
0.5
100
AcDbEllipse
 10
-3.90388271002327
 20
-1.759147756149957
 30
0.0
 11
-0.9192126542361217
 21
0.5766457780658654
 31
0.0
210
0.0
220
0.0
230
1.0
 40
0.5116449098074219
 41
4.513383202928133
 42
7.656823544257642
  0
ELLIPSE
  5
3D63
330
1F
100
AcDbEntity
  8
AM_0
 48
0.5
100
AcDbEllipse
 10
-3.90388271002327
 20
-1.759147756149957
 30
0.0
 11
-0.1804805996260717
 21
1.108862874546033
 31
0.0
210
0.0
220
0.0
230
1.0
 40
0.4773126204892474
 41
1.816264100094801
 42
4.951605989806777
  0
ELLIPSE
  5
3D64
330
1F
100
AcDbEntity
  8
AM_0
 48
0.5
100
AcDbEllipse
 10
4.657214521661048
 20
-1.500432603408874
 30
0.0
 11
10.16539976057863
 21
1.623676433208459
 31
0.0
210
0.0
220
0.0
230
1.0
 40
0.6664892816651406
 41
3.104289391514818
 42
3.759735842372197
  0
LINE
  5
3D65
330
1F
100
AcDbEntity
  8
AM_11
 48
0.5
100
AcDbLine
 10
-106.2493088532296
 20
6.749999411059185
 30
0.0
 11
-89.64580643195551
 21
6.749999411058757
 31
0.0
  0
LINE
  5
3D66
330
1F
100
AcDbEntity
  8
AM_0
 48
0.5
100
AcDbLine
 10
-94.8529975941504
 20
3.537682707196508
 30
0.0
 11
-112.504171295795
 21
-0.2180216430259503
 31
0.0
  0
LINE
  5
3D67
330
1F
100
AcDbEntity
  8
AM_11
 48
0.5
100
AcDbLine
 10
-109.8890155749512
 20
-6.75034332275225
 30
0.0
 11
-89.64580643195583
 21
-6.750000588941248
 31
0.0
  0
SPLINE
  5
3D68
330
1F
100
AcDbEntity
  8
AM_0
100
AcDbSpline
210
0.0
220
0.0
230
1.0
 70
     8
 71
     3
 72
    23
 73
    19
 74
     0
 42
0.0000000001
 43
0.0000000001
 40
16.03460024169435
 40
16.03460024169435
 40
16.03460024169435
 40
16.03460024169435
 40
16.35212704903564
 40
17.38177054169784
 40
18.41822485651776
 40
19.46214173629503
 40
20.51396345435107
 40
21.57393551351153
 40
22.64208202342361
 40
23.7182574881101
 40
24.80209208578934
 40
25.89306333925047
 40
26.99048218457928
 40
28.09348763352352
 40
29.20111863782268
 40
30.31232390128032
 40
31.42594612798585
 40
32.5407912310448
 40
32.5407912310486
 40
32.5407912310486
 40
32.5407912310486
 10
-106.2529751105912
 20
6.750615637247413
 30
0.0
 10
-106.1173707653231
 20
6.727828825919807
 30
0.0
 10
-105.5426199633825
 20
6.628598676076585
 30
0.0
 10
-104.530190236122
 20
6.43417234188886
 30
0.0
 10
-103.2190910889331
 20
6.145062509177357
 30
0.0
 10
-101.9092097523019
 20
5.820440356772656
 30
0.0
 10
-100.6004688242957
 20
5.46218463211831
 30
0.0
 10
-99.2928218553799
 20
5.072292618899537
 30
0.0
 10
-97.98619326669344
 20
4.652993104286489
 30
0.0
 10
-96.68049206958757
 20
4.206726306278924
 30
0.0
 10
-95.37564406943086
 20
3.736019407734873
 30
0.0
 10
-94.07154465182767
 20
3.243611342419874
 30
0.0
 10
-92.7680881341034
 20
2.732364198753621
 30
0.0
 10
-91.46518767066796
 20
2.205217433483633
 30
0.0
 10
-90.16273424942189
 20
1.665236332860128
 30
0.0
 10
-88.86060723559445
 20
1.115573990349859
 30
0.0
 10
-87.55870059928936
 20
0.5594155503842555
 30
0.0
 10
-86.69099596953158
 20
0.1865417268165178
 30
0.0
 10
-86.25690702624753
 20
-0.0000000000003887
 30
0.0
  0
SPLINE
  5
3D69
330
1F
100
AcDbEntity
  8
AM_0
 48
0.5
100
AcDbSpline
210
0.0
220
0.0
230
1.0
 70
     8
 71
     3
 72
    26
 73
    22
 74
     0
 42
0.0000000001
 43
0.0000000001
 40
0.0
 40
0.0
 40
0.0
 40
0.0
 40
0.4211432018735474
 40
0.8428473235286537
 40
1.265657898956934
 40
1.690088643751428
 40
2.116607084860617
 40
2.545625100287603
 40
2.977483884449724
 40
3.412450195918404
 40
3.850709593302191
 40
4.292362208965671
 40
4.737427885281768
 40
5.185826256336565
 40
5.637431371058531
 40
6.092003378174421
 40
6.549257520372505
 40
7.008843368271169
 40
7.470358728297647
 40
7.933358849736796
 40
8.383035712276667
 40
8.383035712276667
 40
8.383035712276667
 40
8.383035712276667
 10
-86.6911185567978
 20
-6.750343322752728
 30
0.0
 10
-87.13090184763156
 20
-6.746327236456465
 30
0.0
 10
-88.01105417577742
 20
-6.738289714846723
 30
0.0
 10
-89.33096236283253
 20
-6.673498261966743
 30
0.0
 10
-90.65081421181528
 20
-6.570496791528946
 30
0.0
 10
-91.9705843604793
 20
-6.426136261448798
 30
0.0
 10
-93.29025970836683
 20
-6.242373260651634
 30
0.0
 10
-94.60981396242546
 20
-6.020024098468303
 30
0.0
 10
-95.92924624481447
 20
-5.760591052110515
 30
0.0
 10
-97.24854755703496
 20
-5.465649787240928
 30
0.0
 10
-98.56771478013072
 20
-5.137030365128868
 30
0.0
 10
-99.8867587708972
 20
-4.776778140391065
 30
0.0
 10
-101.2056740636472
 20
-4.387117554393721
 30
0.0
 10
-102.5244756020621
 20
-3.970438881796895
 30
0.0
 10
-103.8431810194277
 20
-3.529352983152812
 30
0.0
 10
-105.1617931649707
 20
-3.066535599191928
 30
0.0
 10
-106.4803218682518
 20
-2.584862108380093
 30
0.0
 10
-107.7987913424992
 20
-2.087304332161622
 30
0.0
 10
-109.1171797985413
 20
-1.576858768210086
 30
0.0
 10
-110.3502705148136
 20
-1.062277724546046
 30
0.0
 10
-111.1807721803377
 20
-0.8588403557963872
 30
0.0
 10
-112.504171295795
 20
-0.2180216430259503
 30
0.0
  0
ELLIPSE
  5
3D6A
330
1F
100
AcDbEntity
  8
AM_0
 48
0.5
100
AcDbEllipse
 10
-110.4416475519233
 20
-4.457754001585178
 30
0.0
 11
2.036425911374014
 21
0.3692326043715324
 31
0.0
210
0.0
220
0.0
230
1.0
 40
0.8244620948155338
 41
1.023900771614026
 42
2.967110707279819
  0
ELLIPSE
  5
3D6B
330
1F
100
AcDbEntity
  8
AM_0
 48
0.5
100
AcDbEllipse
 10
-109.8890147554699
 20
-4.500343322752364
 30
0.0
 11
-2.611219369856387
 21
0.0023546011103942
 31
0.0
210
0.0
220
0.0
230
1.0
 40
0.8616659618271702
 41
0.0141907451912227
 42
1.571572998324127
  0
SPLINE
  5
3D6C
330
1F
100
AcDbEntity
  8
AM_0
 48
0.5
100
AcDbSpline
210
0.0
220
0.0
230
1.0
 70
     8
 71
     3
 72
    19
 73
    15
 74
     0
 42
0.0000000001
 43
0.0000000001
 40
3.111699631838226
 40
3.111699631838226
 40
3.111699631838226
 40
3.111699631838226
 40
4.056212471389632
 40
5.079857945358201
 40
6.109499720892564
 40
7.145961650132166
 40
8.189873411961459
 40
9.241710626092514
 40
10.30166235592959
 40
11.36982472628033
 40
12.44598212828784
 40
13.52983440361964
 40
14.62080578343036
 40
14.90544694398022
 40
14.90544694398022
 40
14.90544694398022
 40
14.90544694398022
 10
-94.10849362879959
 20
-6.750059215020289
 30
0.0
 10
-94.92227616291009
 20
-6.647586824330795
 30
0.0
 10
-95.69727334915283
 20
-6.519175117059666
 30
0.0
 10
-97.09980102242722
 20
-6.310084530708185
 30
0.0
 10
-98.3046621096059
 20
-6.020028825348915
 30
0.0
 10
-99.62408864713582
 20
-5.760586351460928
 30
0.0
 10
-100.9433920028486
 20
-5.465640816446483
 30
0.0
 10
-102.2625602944758
 20
-5.137033810918021
 30
0.0
 10
-103.5816004158612
 20
-4.776765274126613
 30
0.0
 10
-104.9005208699674
 20
-4.387127759488627
 30
0.0
 10
-106.2193206661302
 20
-3.970437645534013
 30
0.0
 10
-107.5380245105101
 20
-3.529349436946509
 30
0.0
 10
-108.5291226064244
 20
-3.181503660496188
 30
0.0
 10
-109.0813970511946
 20
-2.982686195878857
 30
0.0
 10
-109.6426452602011
 20
-2.831670379272525
 30
0.0
  0
SPLINE
  5
3D6D
330
1F
100
AcDbEntity
  8
AM_0
100
AcDbSpline
210
0.0
220
0.0
230
1.0
 70
     8
 71
     3
 72
    13
 73
     9
 74
     0
 42
0.0000000001
 43
0.0000000001
 40
16.03460056234195
 40
16.03460056234195
 40
16.03460056234195
 40
16.03460056234195
 40
16.35212717791071
 40
17.38177067057215
 40
18.41822498539278
 40
19.46214186516937
 40
20.5139635832251
 40
21.34083983469381
 40
21.34083983469381
 40
21.34083983469381
 40
21.34083983469381
 10
-109.6515904218496
 20
-6.75095720550348
 30
0.0
 10
-109.5159860216288
 20
-6.728171065268279
 30
0.0
 10
-108.9412347440937
 20
-6.628943637980428
 30
0.0
 10
-107.9288055687242
 20
-6.434515033819637
 30
0.0
 10
-106.6177062565394
 20
-6.145406002740473
 30
0.0
 10
-105.3078249645924
 20
-5.820783633240209
 30
0.0
 10
-104.0957538588367
 20
-5.488990435892207
 30
0.0
 10
-103.3224738378211
 20
-5.260527207021763
 30
0.0
 10
-102.6217578950976
 20
-5.036792247507812
 30
0.0
  0
SPLINE
  5
3D6E
330
1F
100
AcDbEntity
  8
AM_0
100
AcDbSpline
210
0.0
220
0.0
230
1.0
 70
     8
 71
     3
 72
    46
 73
    42
 74
     0
 42
0.0000000001
 43
0.0000000001
 40
0.0
 40
0.0
 40
0.0
 40
0.0
 40
1.348332046947654
 40
2.024828967632893
 40
2.703918159304094
 40
3.386347665078122
 40
4.072776489761951
 40
4.763750544421345
 40
5.459696642770595
 40
6.160921452191748
 40
6.867565637253344
 40
7.579665907256597
 40
8.297112853413899
 40
9.019671552060666
 40
9.746986763446125
 40
10.47859339096365
 40
11.21393074760088
 40
11.95235532364327
 40
12.69315551794651
 40
13.43556823304427
 40
14.1787950170388
 40
14.92202180103393
 40
15.66443451613169
 40
16.40523471043432
 40
17.14365928647669
 40
17.87899664311455
 40
18.61060327063121
 40
19.33791848201689
 40
20.06048192311554
 40
20.77792886927282
 40
21.49002913927608
 40
22.19667332433747
 40
22.89788836015233
 40
23.59383445850157
 40
24.28480851316097
 40
24.97123685067575
 40
25.65366676154837
 40
26.33276604526151
 40
27.00926273560554
 40
27.68398960851752
 40
28.35781868496899
 40
28.35781868496899
 40
28.35781868496899
 40
28.35781868496899
 10
-43.3203030355785
 20
-6.750000588942645
 30
0.0
 10
-44.04253898815976
 20
-6.734623567161452
 30
0.0
 10
-45.12714146539308
 20
-6.711531451826088
 30
0.0
 10
-46.56938467697204
 20
-6.569357539953677
 30
0.0
 10
-47.6523212324144
 20
-6.426008416849225
 30
0.0
 10
-48.73516522256103
 20
-6.241972492908533
 30
0.0
 10
-49.81791379483013
 20
-6.019696960471716
 30
0.0
 10
-50.90056138692987
 20
-5.760244485944916
 30
0.0
 10
-51.98310618558823
 20
-5.465305237500231
 30
0.0
 10
-53.06554337309858
 20
-5.136690185783484
 30
0.0
 10
-54.14787511299314
 20
-4.776437523210186
 30
0.0
 10
-55.23009849412864
 20
-4.386768694192984
 30
0.0
 10
-56.31223090300275
 20
-3.970104261145288
 30
0.0
 10
-57.39427759899526
 20
-3.529005682515313
 30
0.0
 10
-58.47624853253479
 20
-3.06619299400698
 30
0.0
 10
-59.55815572716492
 20
-2.584521455625305
 30
0.0
 10
-60.64000866477506
 20
-2.086953083454478
 30
0.0
 10
-61.72181787452398
 20
-1.576548184903449
 30
0.0
 10
-62.80359482667316
 20
-1.056448003046266
 30
0.0
 10
-63.88534940332583
 20
-0.5298507884029453
 30
0.0
 10
-64.96709488655852
 20
-0.0000005890491957
 30
0.0
 10
-66.04884036955354
 20
0.529849610948426
 30
0.0
 10
-67.13059494691901
 20
1.056446823661061
 30
0.0
 10
-68.2123718964628
 20
1.576547012574037
 30
0.0
 10
-69.2941811158729
 20
2.086951884957708
 30
0.0
 10
-70.37603401766031
 20
2.584520354154436
 30
0.0
 10
-71.45794134495415
 20
3.066191533215107
 30
0.0
 10
-72.53991413993081
 20
3.529006556990156
 30
0.0
 10
-73.62196504023481
 20
3.970101128015929
 30
0.0
 10
-74.70409937946731
 20
4.386767697576149
 30
0.0
 10
-75.78632273540559
 20
4.776436642540559
 30
0.0
 10
-76.86865002920431
 20
5.136685994699759
 30
0.0
 10
-77.95108000465827
 20
5.465306129812991
 30
0.0
 10
-79.0336203844414
 20
5.760246583116779
 30
0.0
 10
-80.11626734996157
 20
6.019682082900584
 30
0.0
 10
-81.19901671603566
 20
6.242022084000829
 30
0.0
 10
-82.28186761697616
 20
6.425795202282293
 30
0.0
 10
-83.36479859232099
 20
6.57015347650867
 30
0.0
 10
-84.44779656807829
 20
6.673145503822591
 30
0.0
 10
-85.53083385585649
 20
6.737954438108062
 30
0.0
 10
-86.25303482531418
 20
6.745986202448245
 30
0.0
 10
-86.61389490864387
 20
6.749999411058666
 30
0.0
  0
SPLINE
  5
3D6F
330
1F
100
AcDbEntity
  8
AM_0
100
AcDbSpline
210
0.0
220
0.0
230
1.0
 70
     8
 71
     3
 72
    22
 73
    18
 74
     0
 42
0.0000000001
 43
0.0000000001
 40
17.17441611292
 40
17.17441611292
 40
17.17441611292
 40
17.17441611292
 40
17.38177636558528
 40
18.41823744757437
 40
19.46215659509824
 40
20.51397914882054
 40
21.57394542641293
 40
22.64209583141747
 40
23.71826625065247
 40
24.80210429862395
 40
25.8930771157021
 40
26.99048705697709
 40
28.09349309193389
 40
29.20112995599786
 40
30.31233024745139
 40
31.42594771747373
 40
32.5407895042663
 40
32.54078950426994
 40
32.54078950426994
 40
32.54078950426994
 10
-70.88744120993254
 20
-6.061549443072954
 30
0.0
 10
-70.9599629887611
 20
-6.0459238551249
 30
0.0
 10
-71.39469144638822
 20
-5.950746691014432
 30
0.0
 10
-72.19108948391002
 20
-5.759904089389238
 30
0.0
 10
-73.2736297816202
 20
-5.464964084329613
 30
0.0
 10
-74.35605977074641
 20
-5.136343804531775
 30
0.0
 10
-75.43838709318371
 20
-4.776094579264639
 30
0.0
 10
-76.52061031925299
 20
-4.386425268914253
 30
0.0
 10
-77.60274276986722
 20
-3.969760965663022
 30
0.0
 10
-78.6847894556038
 20
-3.52866235425669
 30
0.0
 10
-79.76676038796767
 20
-3.065849665662391
 30
0.0
 10
-80.84866759778947
 20
-2.584178161018308
 30
0.0
 10
-81.9305204753712
 20
-2.086609652972601
 30
0.0
 10
-83.01232991131115
 20
-1.576205267065744
 30
0.0
 10
-84.09410549490837
 20
-1.056103412526523
 30
0.0
 10
-85.17586325172732
 20
-0.529513398916656
 30
0.0
 10
-85.89689353221123
 20
-0.1763406468826187
 30
0.0
 10
-86.25760674466233
 20
0.0003427338134258
 30
0.0
  0
SPLINE
  5
3D70
330
1F
100
AcDbEntity
  8
AM_0
100
AcDbSpline
210
0.0
220
0.0
230
1.0
 70
     8
 71
     3
 72
    55
 73
    51
 74
     0
 42
0.0000000001
 43
0.0000000001
 40
0.0
 40
0.0
 40
0.0
 40
0.0
 40
1.010743684496582
 40
2.022833576467832
 40
3.037578957496688
 40
4.056212745003489
 40
5.079857003664532
 40
6.109500240690281
 40
7.145961322679372
 40
8.189895241603872
 40
9.241717795325891
 40
10.30168407291828
 40
11.36983447792315
 40
12.44600489715814
 40
13.52984294512926
 40
14.62081576220742
 40
15.7182257034828
 40
16.82123173843959
 40
17.92886860250316
 40
19.0400688939571
 40
20.15368796660465
 40
21.26852814259644
 40
22.38336992938901
 40
23.49698739941135
 40
24.6081876908653
 40
25.71582455492886
 40
26.81883757994213
 40
27.91624752121713
 40
29.00722033829659
 40
30.09105838626677
 40
31.16722880550176
 40
32.23537921050758
 40
33.29534548809967
 40
34.347168041821
 40
35.39108718934584
 40
36.42754827133493
 40
37.45720575381954
 40
38.48085062012849
 40
39.49948440763516
 40
40.51422944315121
 40
41.52631975251916
 40
42.53706336719636
 40
43.54780698187354
 40
44.55989729124051
 40
45.57464232675757
 40
46.59327611426424
 40
47.6169209805722
 40
48.64656348684535
 40
49.68302456883444
 40
50.58557219878025
 40
50.58557219878025
 40
50.58557219878025
 40
50.58557219878025
 10
-46.35207401600133
 20
-6.750000588942556
 30
0.0
 10
-46.71293403513933
 20
-6.745984502471287
 30
0.0
 10
-47.43513470214696
 20
-6.737946980511305
 30
0.0
 10
-48.51817288006991
 20
-6.673155530263019
 30
0.0
 10
-49.60116482717659
 20
-6.570154049783359
 30
0.0
 10
-50.68408974771426
 20
-6.425793557449851
 30
0.0
 10
-51.7669368357969
 20
-6.242030414710066
 30
0.0
 10
-52.84968472927254
 20
-6.019681786975113
 30
0.0
 10
-53.93233704988486
 20
-5.760245493853179
 30
0.0
 10
-55.01488419669581
 20
-5.465310199072599
 30
0.0
 10
-56.09731879558639
 20
-5.136686787451387
 30
0.0
 10
-57.17964624189461
 20
-4.776437994174055
 30
0.0
 10
-58.26186943430922
 20
-4.386768566552486
 30
0.0
 10
-59.34400189434214
 20
-3.970104295756412
 30
0.0
 10
-60.42604857639894
 20
-3.529005673002834
 30
0.0
 10
-61.50801951401484
 20
-3.066192997123774
 30
0.0
 10
-62.58992670639393
 20
-2.584521452734042
 30
0.0
 10
-63.67177964893134
 20
-2.086953091936087
 30
0.0
 10
-64.75358884113319
 20
-1.576548153707681
 30
0.0
 10
-65.83536585881756
 20
-1.056448119804486
 30
0.0
 10
-66.91712019019863
 20
-0.5298503514925555
 30
0.0
 10
-67.9988671113232
 20
-0.0000019661870947
 30
0.0
 10
-69.08060917630916
 20
0.5298559567195071
 30
0.0
 10
-70.16236713349499
 20
1.056445524511303
 30
0.0
 10
-71.24414281571114
 20
1.576547132727689
 30
0.0
 10
-72.32595393676684
 20
2.08695401537141
 30
0.0
 10
-73.40781136734921
 20
2.584518129833607
 30
0.0
 10
-74.48972026726358
 20
3.066192116968255
 30
0.0
 10
-75.57169136108005
 20
3.529004417553953
 30
0.0
 10
-76.65373800376467
 20
3.97010313306891
 30
0.0
 10
-77.73587046656854
 20
4.386767404474481
 30
0.0
 10
-78.81809368654827
 20
4.776436738920208
 30
0.0
 10
-79.90042102114845
 20
5.136685900044704
 30
0.0
 10
-80.98285096813272
 20
5.465306409925407
 30
0.0
 10
-82.06539142063995
 20
5.760245567622496
 30
0.0
 10
-83.14804333964445
 20
6.019687077681908
 30
0.0
 10
-84.23079896430296
 20
6.242010310117044
 30
0.0
 10
-85.31364962980639
 20
6.4258303314342
 30
0.0
 10
-86.39657487137146
 20
6.57001970303703
 30
0.0
 10
-87.47956757097385
 20
6.673646673985935
 30
0.0
 10
-88.56260483060948
 20
6.73608958417864
 30
0.0
 10
-89.64566588933209
 20
6.756949694297389
 30
0.0
 10
-90.72872694646116
 20
6.736089584145998
 30
0.0
 10
-91.81176421088681
 20
6.673646674117259
 30
0.0
 10
-92.8947568928538
 20
6.57001970254271
 30
0.0
 10
-93.97768220053832
 20
6.425830333292561
 30
0.0
 10
-95.06052733837028
 20
6.242011199282434
 30
0.0
 10
-96.14327869738371
 20
6.01968935081713
 30
0.0
 10
-97.17670478317229
 20
5.772022569645347
 30
0.0
 10
-97.84720339662269
 20
5.590901511213527
 30
0.0
 10
-99.30058246278138
 20
5.06974029070374
 30
0.0
  0
LINE
  5
3D71
330
1F
100
AcDbEntity
  8
AM_0
 48
0.5
100
AcDbLine
 10
-89.64581460317848
 20
-6.750000588941146
 30
0.0
 11
-66.75372140285361
 21
-6.750000588941777
 31
0.0
  0
LINE
  5
3D72
330
1F
100
AcDbEntity
  8
AM_0
100
AcDbLine
 10
-89.64580643195551
 20
6.749999411058757
 30
0.0
 11
-64.10924570372014
 21
6.750958371057921
 31
0.0
  0
DIMENSION
  5
3EE7
330
1F
100
AcDbEntity
  8
AM_5
100
AcDbDimension
  2
*D9
 10
-0.5873037318976897
 20
-1.613591571338073
 30
0.0
 11
32.7205201901403
 21
-0.0000397024384675
 31
0.0
 70
    34
  1
<>
 51
359.9999999999998
  3
AM_JIS$2
100
AcDb2LineAngularDimension
 13
-0.0000000000000284
 23
0.0000000000000781
 33
0.0
 14
-0.5872917675983729
 24
1.613570883515912
 34
0.0
 15
-0.0000000000000284
 25
0.0000000000000781
 35
0.0
 16
32.89096710601271
 26
-14.18780989177551
 36
0.0
1001
GENIUS_GENDTOL_13
1000

1000
h7
1000

1040
0.0
1001
ACAD
1000
DSTYLE
1002
{
1070
   271
1070
     0
1002
}
  0
ELLIPSE
  5
3FF3
330
1F
100
AcDbEntity
  8
AM_11
 48
0.5
100
AcDbEllipse
 10
3.310487223358705
 20
27.82689745097796
 30
0.0
 11
-31.07765833536794
 21
0.0000000000288672
 31
0.0
210
0.0
220
0.0
230
1.0
 40
0.9899999999999861
 41
1.130070686341231
 42
1.291800737381917
  0
ELLIPSE
  5
3FF4
330
1F
100
AcDbEntity
  8
AM_11
 48
0.5
100
AcDbEllipse
 10
-23.20466429179299
 20
-27.82687566608712
 30
0.0
 11
-31.07765833536737
 21
0.0000000000017409
 31
0.0
210
0.0
220
0.0
230
1.0
 40
0.9900000000000009
 41
4.271664206181739
 42
5.153113667165048
  0
ELLIPSE
  5
3FF5
330
1F
100
AcDbEntity
  8
AM_11
 48
0.5
100
AcDbEllipse
 10
-23.20466429179279
 20
27.82689745097805
 30
0.0
 11
-31.0776583353674
 21
0.0000000000010094
 31
0.0
210
0.0
220
0.0
230
1.0
 40
0.9899999999999995
 41
1.130070686340335
 42
2.011520147323624
  0
ELLIPSE
  5
3FF6
330
1F
100
AcDbEntity
  8
AM_11
 48
0.5
100
AcDbEllipse
 10
-49.71981580694446
 20
-27.82687566608708
 30
0.0
 11
-31.07765833536731
 21
0.000000000001451
 31
0.0
210
0.0
220
0.0
230
1.0
 40
0.9900000000000032
 41
4.271664206181728
 42
5.153113667165039
  0
ELLIPSE
  5
3FF7
330
1F
100
AcDbEntity
  8
AM_11
 48
0.5
100
AcDbEllipse
 10
-76.23490313694005
 20
27.82689745097781
 30
0.0
 11
-31.0776583353674
 21
0.0000000000010094
 31
0.0
210
0.0
220
0.0
230
1.0
 40
0.9899999999999995
 41
1.130070686340335
 42
2.011520147323624
  0
ELLIPSE
  5
3FF8
330
1F
100
AcDbEntity
  8
AM_11
 48
0.5
100
AcDbEllipse
 10
-76.23490313694024
 20
-27.82687566608736
 30
0.0
 11
-31.07765833536737
 21
0.0000000000017409
 31
0.0
210
0.0
220
0.0
230
1.0
 40
0.9900000000000009
 41
4.271664206181739
 42
5.153113667165048
  0
ELLIPSE
  5
3FF9
330
1F
100
AcDbEntity
  8
AM_11
 48
0.5
100
AcDbEllipse
 10
-49.71981580694436
 20
27.8268974509781
 30
0.0
 11
-31.0776583353674
 21
0.000000000000133
 31
0.0
210
0.0
220
0.0
230
1.0
 40
0.9900000000000002
 41
1.130070686340306
 42
2.011520147323597
  0
ELLIPSE
  5
3FFA
330
1F
100
AcDbEntity
  8
AM_11
 48
0.5
100
AcDbEllipse
 10
-129.2651992383652
 20
27.82692418676175
 30
0.0
 11
-31.0776583353674
 21
0.0000000000010094
 31
0.0
210
0.0
220
0.0
230
1.0
 40
0.9899999999999995
 41
1.130070686340335
 42
2.011520147323624
  0
ELLIPSE
  5
3FFB
330
1F
100
AcDbEntity
  8
AM_11
 48
0.5
100
AcDbEllipse
 10
-129.2651992383654
 20
-27.82684893030342
 30
0.0
 11
-31.07765833536737
 21
0.0000000000017409
 31
0.0
210
0.0
220
0.0
230
1.0
 40
0.9900000000000009
 41
4.271664206181739
 42
5.153113667165048
  0
ELLIPSE
  5
3FFC
330
1F
100
AcDbEntity
  8
AM_11
 48
0.5
100
AcDbEllipse
 10
-102.7500546520917
 20
-27.82687566608731
 30
0.0
 11
-31.07765833536731
 21
0.000000000001451
 31
0.0
210
0.0
220
0.0
230
1.0
 40
0.9900000000000032
 41
4.271664206181728
 42
5.153113667165039
  0
ELLIPSE
  5
3FFD
330
1F
100
AcDbEntity
  8
AM_11
 48
0.5
100
AcDbEllipse
 10
-102.7500546520916
 20
27.82689745097787
 30
0.0
 11
-31.0776583353674
 21
0.000000000000133
 31
0.0
210
0.0
220
0.0
230
1.0
 40
0.9900000000000002
 41
1.130070686340306
 42
2.011520147323597
  0
ELLIPSE
  5
3FFE
330
1F
100
AcDbEntity
  8
AM_11
 48
0.5
100
AcDbEllipse
 10
-182.2954953397904
 20
27.8269509225457
 30
0.0
 11
-31.0776583353674
 21
0.0000000000010094
 31
0.0
210
0.0
220
0.0
230
1.0
 40
0.9899999999999995
 41
1.677036728370183
 42
2.011520147323624
  0
ELLIPSE
  5
3FFF
330
1F
100
AcDbEntity
  8
AM_11
 48
0.5
100
AcDbEllipse
 10
-182.2954953397906
 20
-27.82682219451947
 30
0.0
 11
-31.07765833536737
 21
0.0000000000017409
 31
0.0
210
0.0
220
0.0
230
1.0
 40
0.9900000000000009
 41
4.271664206181739
 42
4.606148578809484
  0
ELLIPSE
  5
4000
330
1F
100
AcDbEntity
  8
AM_11
 48
0.5
100
AcDbEllipse
 10
-155.7803507535169
 20
-27.82684893030337
 30
0.0
 11
-31.07765833536731
 21
0.000000000001451
 31
0.0
210
0.0
220
0.0
230
1.0
 40
0.9900000000000032
 41
4.271664206181728
 42
5.153113667165039
  0
ELLIPSE
  5
4001
330
1F
100
AcDbEntity
  8
AM_11
 48
0.5
100
AcDbEllipse
 10
-155.7803507535168
 20
27.82692418676182
 30
0.0
 11
-31.0776583353674
 21
0.000000000000133
 31
0.0
210
0.0
220
0.0
230
1.0
 40
0.9900000000000002
 41
1.130070686340306
 42
2.011520147323597
  0
VIEWPORT
  5
110
330
101
100
AcDbEntity
 67
     1
  8
0
100
AcDbViewport
 10
420.5
 20
297.0
 30
0.0
 40
948.9782706766916
 41
628.452
 68
     1
 69
     1
1001
ACAD
1000
MVIEW
1002
{
1070
    16
1010
0.0
1020
0.0
1030
0.0
1010
0.0
1020
0.0
1030
1.0
1040
0.0
1040
628.452
1040
420.5
1040
297.0
1040
50.0
1040
0.0
1040
0.0
1070
     0
1070
   100
1070
     1
1070
     1
1070
     0
1070
     0
1070
     0
1070
     0
1040
0.0
1040
0.0
1040
0.0
1040
10.0
1040
10.0
1040
10.0
1040
10.0
1070
     0
1002
{
1002
}
1002
}
  0
ENDSEC
  0
SECTION
  2
OBJECTS
  0
DICTIONARY
  5
C
330
0
100
AcDbDictionary
  3
ACAD_GROUP
350
D
  3
ACAD_LAYOUT
350
1A
  3
ACAD_MLINESTYLE
350
17
  3
ACAD_PLOTSETTINGS
350
19
  3
ACAD_PLOTSTYLENAME
350
E
  3
ACDBVARIABLEDICTIONARY
350
34
  3
ACMDICTIONARY
350
43
  3
AMG
350
2B
  3
AMGSNAPSETTINGS
350
6E
  3
DWGPROPS
350
401B
  3
ACDBHEADERROUNDTRIPXREC
350
4028
  0
DICTIONARY
  5
74
330
1F
100
AcDbDictionary
280
     1
  3
ACAD_INDEX
360
401D
  3
ACAD_LAYOUTSELFREF
360
404B
  0
DICTIONARY
  5
4050
330
101
100
AcDbDictionary
280
     1
  3
ACAD_LAYOUTSELFREF
360
4051
  0
DICTIONARY
  5
D
102
{ACAD_REACTORS
330
C
102
}
330
C
100
AcDbDictionary
  0
DICTIONARY
  5
1A
102
{ACAD_REACTORS
330
C
102
}
330
C
100
AcDbDictionary
  0
DICTIONARY
  5
17
102
{ACAD_REACTORS
330
C
102
}
330
C
100
AcDbDictionary
  3
STANDARD
350
18
  0
DICTIONARY
  5
19
102
{ACAD_REACTORS
330
C
102
}
330
C
100
AcDbDictionary
  0
ACDBDICTIONARYWDFLT
  5
E
102
{ACAD_REACTORS
330
C
102
}
330
C
100
AcDbDictionary
281
     1
  3
Normal
350
F
100
AcDbDictionaryWithDefault
340
F
  0
DICTIONARY
  5
34
102
{ACAD_REACTORS
330
C
102
}
330
C
100
AcDbDictionary
  3
INDEXCTL
350
35
  3
SORTENTS
350
B5E
  0
DICTIONARY
  5
43
102
{ACAD_REACTORS
330
C
102
}
330
C
100
AcDbDictionary
  3
ACMSTDDICTIONARY
350
260
  0
DICTIONARY
  5
2B
102
{ACAD_REACTORS
330
C
102
}
330
C
100
AcDbDictionary
  3
ACMGSETTINGS
350
2C
  0
DICTIONARY
  5
6E
102
{ACAD_REACTORS
330
C
102
}
330
C
100
AcDbDictionary
  0
XRECORD
  5
401B
102
{ACAD_REACTORS
330
C
102
}
330
C
100
AcDbXrecord
  1
DWGPROPS COOKIE
  2

  3

  4

  6

  7

  8

  9

300
AmdtFileType=82
301
=
302
=
303
=
304
=
305
=
306
=
307
=
308
=
309
=
 40
0.0849754166666667
 41
2452800.443498622
 42
2452948.662228541
  1

 90
        1
  0
DICTIONARY
  5
4028
102
{ACAD_REACTORS
330
C
102
}
330
C
100
AcDbDictionary
  3
TSTACKALIGN
350
4029
  3
TSTACKSIZE
350
402A
  3
HYPERLINKBASE
350
402B
  3
STYLESHEET
350
402C
  3
LAYOUTDICT
350
402D
  3
PLOTSETDICT
350
402E
  3
PLOTSTYLNAMDICT
350
402F
  3
LWETCUNION
350
4030
  3
INSUNITS
350
4031
  3
CEPSNTYPE
350
4032
  3
FINGERPRINTGUID
350
4033
  3
VERSIONGUID
350
4034
  3
PSVPSCALE
350
4035
  3
DIMSTYLEDATA
350
4036
  3
PUCSORTHOREF
350
4037
  3
PUCSORTHOVIEW
350
4038
  3
PUCSBASE
350
4039
  3
PUCSORGTOP
350
403A
  3
PUCSORGBOTTOM
350
403B
  3
PUCSORGLEFT
350
403C
  3
PUCSORGRIGHT
350
403D
  3
PUCSORGFRONT
350
403E
  3
PUCSORGBACK
350
403F
  3
UCSORTHOREF
350
4040
  3
UCSORTHOVIEW
350
4041
  3
UCSBASE
350
4042
  3
UCSORGTOP
350
4043
  3
UCSORGBOTTOM
350
4044
  3
UCSORGLEFT
350
4045
  3
UCSORGRIGHT
350
4046
  3
UCSORGFRONT
350
4047
  3
UCSORGBACK
350
4048
  0
DICTIONARY
  5
401D
102
{ACAD_REACTORS
330
74
102
}
330
74
100
AcDbDictionary
  3
*A1
350
401E
  0
XRECORD
  5
404B
102
{ACAD_REACTORS
330
74
102
}
330
74
100
AcDbXrecord
340
1F
  0
XRECORD
  5
4051
102
{ACAD_REACTORS
330
4050
102
}
330
4050
100
AcDbXrecord
340
101
  0
MLINESTYLE
  5
18
102
{ACAD_REACTORS
330
17
102
}
330
17
100
AcDbMlineStyle
  2
STANDARD
 70
     0
  3

 62
   256
 51
90.0
 52
90.0
 71
     2
 49
0.5
 62
   256
  6
BYLAYER
 49
-0.5
 62
   256
  6
BYLAYER
  0
ACDBPLACEHOLDER
  5
F
102
{ACAD_REACTORS
330
E
102
}
330
E
100
AcDbPlaceHolder
280
     0
  0
DICTIONARYVAR
  5
35
102
{ACAD_REACTORS
330
34
102
}
330
34
100
DictionaryVariables
280
     0
  1
1
  0
DICTIONARYVAR
  5
B5E
102
{ACAD_REACTORS
330
34
102
}
330
34
100
DictionaryVariables
280
     0
  1
96
  0
DICTIONARY
  5
260
102
{ACAD_REACTORS
330
43
102
}
330
43
100
AcDbDictionary
  0
DICTIONARY
  5
2C
102
{ACAD_REACTORS
330
2B
102
}
330
2B
100
AcDbDictionary
  3
DWGSETTINGS
350
2D
  0
XRECORD
  5
4029
102
{ACAD_REACTORS
330
4028
102
}
330
4028
100
AcDbXrecord
 90
        1
  0
XRECORD
  5
402A
102
{ACAD_REACTORS
330
4028
102
}
330
4028
100
AcDbXrecord
 90
       70
  0
XRECORD
  5
402B
102
{ACAD_REACTORS
330
4028
102
}
330
4028
100
AcDbXrecord
  1

  0
XRECORD
  5
402C
102
{ACAD_REACTORS
330
4028
102
}
330
4028
100
AcDbXrecord
  1
ASAMI.ctb
  0
XRECORD
  5
402D
102
{ACAD_REACTORS
330
4028
102
}
330
4028
100
AcDbXrecord
340
1A
  0
XRECORD
  5
402E
102
{ACAD_REACTORS
330
4028
102
}
330
4028
100
AcDbXrecord
340
19
  0
XRECORD
  5
402F
102
{ACAD_REACTORS
330
4028
102
}
330
4028
100
AcDbXrecord
340
E
  0
XRECORD
  5
4030
102
{ACAD_REACTORS
330
4028
102
}
330
4028
100
AcDbXrecord
 90
    10781
  0
XRECORD
  5
4031
102
{ACAD_REACTORS
330
4028
102
}
330
4028
100
AcDbXrecord
 90
        4
  0
XRECORD
  5
4032
102
{ACAD_REACTORS
330
4028
102
}
330
4028
100
AcDbXrecord
 90
        0
  0
XRECORD
  5
4033
102
{ACAD_REACTORS
330
4028
102
}
330
4028
100
AcDbXrecord
  1
{AFB28963-8C59-40AE-9337-C84526B81ACE}
  0
XRECORD
  5
4034
102
{ACAD_REACTORS
330
4028
102
}
330
4028
100
AcDbXrecord
  1
{CCF8BED7-3B7A-425D-A423-16AACAE2125F}
  0
XRECORD
  5
4035
102
{ACAD_REACTORS
330
4028
102
}
330
4028
100
AcDbXrecord
 40
0.0
  0
XRECORD
  5
4036
102
{ACAD_REACTORS
330
4028
102
}
330
4028
100
AcDbXrecord
1000
DSTYLE
1002
{
1070
    79
 70
     2
1070
   341
340
59
1070
   342
340
59
1070
   371
 70
    -1
1070
   372
 70
    -1
1002
}
  0
XRECORD
  5
4037
102
{ACAD_REACTORS
330
4028
102
}
330
4028
100
AcDbXrecord
340
0
  0
XRECORD
  5
4038
102
{ACAD_REACTORS
330
4028
102
}
330
4028
100
AcDbXrecord
 70
     0
  0
XRECORD
  5
4039
102
{ACAD_REACTORS
330
4028
102
}
330
4028
100
AcDbXrecord
340
0
  0
XRECORD
  5
403A
102
{ACAD_REACTORS
330
4028
102
}
330
4028
100
AcDbXrecord
 10
0.0
 20
0.0
 30
0.0
  0
XRECORD
  5
403B
102
{ACAD_REACTORS
330
4028
102
}
330
4028
100
AcDbXrecord
 10
0.0
 20
0.0
 30
0.0
  0
XRECORD
  5
403C
102
{ACAD_REACTORS
330
4028
102
}
330
4028
100
AcDbXrecord
 10
0.0
 20
0.0
 30
0.0
  0
XRECORD
  5
403D
102
{ACAD_REACTORS
330
4028
102
}
330
4028
100
AcDbXrecord
 10
0.0
 20
0.0
 30
0.0
  0
XRECORD
  5
403E
102
{ACAD_REACTORS
330
4028
102
}
330
4028
100
AcDbXrecord
 10
0.0
 20
0.0
 30
0.0
  0
XRECORD
  5
403F
102
{ACAD_REACTORS
330
4028
102
}
330
4028
100
AcDbXrecord
 10
0.0
 20
0.0
 30
0.0
  0
XRECORD
  5
4040
102
{ACAD_REACTORS
330
4028
102
}
330
4028
100
AcDbXrecord
340
0
  0
XRECORD
  5
4041
102
{ACAD_REACTORS
330
4028
102
}
330
4028
100
AcDbXrecord
 70
     0
  0
XRECORD
  5
4042
102
{ACAD_REACTORS
330
4028
102
}
330
4028
100
AcDbXrecord
340
0
  0
XRECORD
  5
4043
102
{ACAD_REACTORS
330
4028
102
}
330
4028
100
AcDbXrecord
 10
0.0
 20
0.0
 30
0.0
  0
XRECORD
  5
4044
102
{ACAD_REACTORS
330
4028
102
}
330
4028
100
AcDbXrecord
 10
0.0
 20
0.0
 30
0.0
  0
XRECORD
  5
4045
102
{ACAD_REACTORS
330
4028
102
}
330
4028
100
AcDbXrecord
 10
0.0
 20
0.0
 30
0.0
  0
XRECORD
  5
4046
102
{ACAD_REACTORS
330
4028
102
}
330
4028
100
AcDbXrecord
 10
0.0
 20
0.0
 30
0.0
  0
XRECORD
  5
4047
102
{ACAD_REACTORS
330
4028
102
}
330
4028
100
AcDbXrecord
 10
0.0
 20
0.0
 30
0.0
  0
XRECORD
  5
4048
102
{ACAD_REACTORS
330
4028
102
}
330
4028
100
AcDbXrecord
 10
0.0
 20
0.0
 30
0.0
  0
LAYER_INDEX
  5
401E
102
{ACAD_REACTORS
330
401D
102
}
330
401D
100
AcDbIndex
 40
2453151.667931666
100
AcDbLayerIndex
  8
0
360
401F
 90
        0
  8
AM_0
360
4020
 90
       52
  8
AM_7
360
4021
 90
        1
  8
AM_11
360
4022
 90
       21
  8
AM_5
360
4023
 90
        5
  8
Defpoints
360
4024
 90
        0
  8
AM_6
360
4025
 90
        1
  8
AM_CL
360
4026
 90
        0
  0
XRECORD
  5
2D
102
{ACAD_REACTORS
330
2C
102
}
330
2C
100
AcDbXrecord
  1
VERSION
140
15.0
  1
PRODUCT
  2
AutoCAD Mechanical 2000
  0
IDBUFFER
  5
401F
330
0
100
AcDbIdBuffer
  0
IDBUFFER
  5
4020
330
0
100
AcDbIdBuffer
330
3D6F
330
3D70
330
3D71
330
3D72
330
1E25
330
1E26
330
1FD9
330
21D7
330
21D8
330
21D9
330
21DC
330
21DD
330
2694
330
2695
330
2696
330
2699
330
2CB4
330
2CB7
330
3366
330
3367
330
3D48
330
3D49
330
3D4A
330
3D4B
330
3D4C
330
3D51
330
3D52
330
3D53
330
3D54
330
3D55
330
3D56
330
3D57
330
3D58
330
3D59
330
3D5B
330
3D5C
330
3D5D
330
3D5E
330
3D5F
330
3D60
330
3D61
330
3D62
330
3D63
330
3D64
330
3D66
330
3D68
330
3D69
330
3D6A
330
3D6B
330
3D6C
330
3D6D
330
3D6E
  0
IDBUFFER
  5
4021
330
0
100
AcDbIdBuffer
330
C9F
  0
IDBUFFER
  5
4022
330
0
100
AcDbIdBuffer
330
3FFD
330
3FFE
330
3FFF
330
4000
330
4001
330
3D4D
330
3D4E
330
3D4F
330
3D50
330
3D65
330
3D67
330
3FF3
330
3FF4
330
3FF5
330
3FF6
330
3FF7
330
3FF8
330
3FF9
330
3FFA
330
3FFB
330
3FFC
  0
IDBUFFER
  5
4023
330
0
100
AcDbIdBuffer
330
CC6
330
DF5
330
1FB6
330
2216
330
3EE7
  0
IDBUFFER
  5
4024
330
0
100
AcDbIdBuffer
  0
IDBUFFER
  5
4025
330
0
100
AcDbIdBuffer
330
19BD
  0
IDBUFFER
  5
4026
330
0
100
AcDbIdBuffer
  0
ENDSEC
  0
EOF
