  0
SECTION
  2
HEADER
  9
$ACADVER
  1
AC1014
  9
$ACADMAINTVER
 70
     9
  9
$DWGCODEPAGE
  3
ANSI_932
  9
$INSBASE
 10
0.0
 20
0.0
 30
0.0
  9
$EXTMIN
 10
-149.150001
 20
-30.25000099999955
 30
-0.00000001
  9
$EXTMAX
 10
13.98299130850147
 20
13.65957798971916
 30
0.00000001
  9
$LIMMIN
 10
-156.1444050923396
 20
-44.51020785580943
  9
$LIMMAX
 10
20.31336096277607
 20
28.16015358894219
  9
$ORTHOMODE
 70
     0
  9
$REGENMODE
 70
     1
  9
$FILLMODE
 70
     1
  9
$QTEXTMODE
 70
     0
  9
$MIRRTEXT
 70
     0
  9
$DRAGMODE
 70
     2
  9
$LTSCALE
 40
1.0
  9
$OSMODE
 70
    55
  9
$ATTMODE
 70
     1
  9
$TEXTSIZE
 40
2.5
  9
$TRACEWID
 40
1.0
  9
$TEXTSTYLE
  7
STANDARD
  9
$CLAYER
  8
AM_0
  9
$CELTYPE
  6
BYLAYER
  9
$CECOLOR
 62
   256
  9
$CELTSCALE
 40
1.0
  9
$DELOBJ
 70
     1
  9
$DISPSILH
 70
     0
  9
$DIMSCALE
 40
0.5
  9
$DIMASZ
 40
2.5
  9
$DIMEXO
 40
1.0
  9
$DIMDLI
 40
12.0
  9
$DIMRND
 40
0.0
  9
$DIMDLE
 40
0.0
  9
$DIMEXE
 40
1.0
  9
$DIMTP
 40
0.1
  9
$DIMTM
 40
0.1
  9
$DIMTXT
 40
3.2
  9
$DIMCEN
 40
0.0
  9
$DIMTSZ
 40
0.0
  9
$DIMTOL
 70
     0
  9
$DIMLIM
 70
     0
  9
$DIMTIH
 70
     0
  9
$DIMTOH
 70
     0
  9
$DIMSE1
 70
     0
  9
$DIMSE2
 70
     0
  9
$DIMTAD
 70
     3
  9
$DIMZIN
 70
     8
  9
$DIMBLK
  1
OPEN30
  9
$DIMASO
 70
     1
  9
$DIMSHO
 70
     1
  9
$DIMPOST
  1

  9
$DIMAPOST
  1
"
  9
$DIMALT
 70
     0
  9
$DIMALTD
 70
     2
  9
$DIMALTF
 40
0.0393701
  9
$DIMLFAC
 40
1.0
  9
$DIMTOFL
 70
     1
  9
$DIMTVP
 40
0.0
  9
$DIMTIX
 70
     0
  9
$DIMSOXD
 70
     0
  9
$DIMSAH
 70
     0
  9
$DIMBLK1
  1

  9
$DIMBLK2
  1

  9
$DIMSTYLE
  2
AM_JIS
  9
$DIMCLRD
 70
   256
  9
$DIMCLRE
 70
   256
  9
$DIMCLRT
 70
     2
  9
$DIMTFAC
 40
0.71
  9
$DIMGAP
 40
1.5
  9
$DIMJUST
 70
     0
  9
$DIMSD1
 70
     0
  9
$DIMSD2
 70
     0
  9
$DIMTOLJ
 70
     0
  9
$DIMTZIN
 70
     0
  9
$DIMALTZ
 70
     0
  9
$DIMALTTZ
 70
     0
  9
$DIMFIT
 70
     3
  9
$DIMUPT
 70
     0
  9
$DIMUNIT
 70
     2
  9
$DIMDEC
 70
     3
  9
$DIMTDEC
 70
     3
  9
$DIMALTU
 70
     2
  9
$DIMALTTD
 70
     2
  9
$DIMTXSTY
  7
ASAMI
  9
$DIMAUNIT
 70
     0
  9
$LUNITS
 70
     2
  9
$LUPREC
 70
     2
  9
$SKETCHINC
 40
1.0
  9
$FILLETRAD
 40
2.5
  9
$AUNITS
 70
     0
  9
$AUPREC
 70
     0
  9
$MENU
  1
.
  9
$ELEVATION
 40
0.0
  9
$PELEVATION
 40
0.0
  9
$THICKNESS
 40
0.0
  9
$LIMCHECK
 70
     0
  9
$BLIPMODE
 70
     0
  9
$CHAMFERA
 40
0.75
  9
$CHAMFERB
 40
0.75
  9
$CHAMFERC
 40
20.0
  9
$CHAMFERD
 40
0.0
  9
$SKPOLY
 70
     0
  9
$TDCREATE
 40
2452800.443498622
  9
$TDUPDATE
 40
2453151.564220000
  9
$TDINDWG
 40
0.0843018981
  9
$TDUSRTIMER
 40
0.0843018981
  9
$USRTIMER
 70
     1
  9
$ANGBASE
 50
0.0
  9
$ANGDIR
 70
     0
  9
$PDMODE
 70
     0
  9
$PDSIZE
 40
0.0
  9
$PLINEWID
 40
0.0
  9
$COORDS
 70
     1
  9
$SPLFRAME
 70
     0
  9
$SPLINETYPE
 70
     6
  9
$SPLINESEGS
 70
     8
  9
$ATTDIA
 70
     1
  9
$ATTREQ
 70
     1
  9
$HANDLING
 70
 12289
  9
$HANDSEED
  5
3ED1
  9
$SURFTAB1
 70
     6
  9
$SURFTAB2
 70
     6
  9
$SURFTYPE
 70
     6
  9
$SURFU
 70
     6
  9
$SURFV
 70
     6
  9
$UCSNAME
  2

  9
$UCSORG
 10
0.0
 20
0.0
 30
0.0
  9
$UCSXDIR
 10
1.0
 20
0.0000000000000027
 30
0.0
  9
$UCSYDIR
 10
-0.0000000000000027
 20
1.0
 30
0.0
  9
$PUCSNAME
  2

  9
$PUCSORG
 10
0.0
 20
0.0
 30
0.0
  9
$PUCSXDIR
 10
1.0
 20
0.0
 30
0.0
  9
$PUCSYDIR
 10
0.0
 20
1.0
 30
0.0
  9
$USERI1
 70
     0
  9
$USERI2
 70
     0
  9
$USERI3
 70
     0
  9
$USERI4
 70
     0
  9
$USERI5
 70
     0
  9
$USERR1
 40
0.0
  9
$USERR2
 40
0.0
  9
$USERR3
 40
0.0
  9
$USERR4
 40
0.0
  9
$USERR5
 40
0.0
  9
$WORLDVIEW
 70
     1
  9
$SHADEDGE
 70
     3
  9
$SHADEDIF
 70
    70
  9
$TILEMODE
 70
     1
  9
$MAXACTVP
 70
    64
  9
$PINSBASE
 10
0.0
 20
0.0
 30
0.0
  9
$PLIMCHECK
 70
     0
  9
$PEXTMIN
 10
1.000000000000000E+20
 20
1.000000000000000E+20
 30
1.000000000000000E+20
  9
$PEXTMAX
 10
-1.000000000000000E+20
 20
-1.000000000000000E+20
 30
-1.000000000000000E+20
  9
$PLIMMIN
 10
0.0
 20
0.0
  9
$PLIMMAX
 10
841.0
 20
594.0
  9
$UNITMODE
 70
     0
  9
$VISRETAIN
 70
     1
  9
$PLINEGEN
 70
     0
  9
$PSLTSCALE
 70
     0
  9
$TREEDEPTH
 70
  3020
  9
$PICKSTYLE
 70
     0
  9
$CMLSTYLE
  2
STANDARD
  9
$CMLJUST
 70
     0
  9
$CMLSCALE
 40
20.0
  9
$PROXYGRAPHICS
 70
     1
  9
$MEASUREMENT
 70
     1
  0
ENDSEC
  0
SECTION
  2
CLASSES
  0
CLASS
  1
ACDBDICTIONARYWDFLT
  2
AcDbDictionaryWithDefault
  3
AutoCAD 2000
 90
        0
280
     0
281
     0
  0
CLASS
  1
ACDBPLACEHOLDER
  2
AcDbPlaceHolder
  3
AutoCAD 2000
 90
        0
280
     0
281
     0
  0
CLASS
  1
LAYOUT
  2
AcDbLayout
  3
AutoCAD 2000
 90
        0
280
     0
281
     0
  0
CLASS
  1
AMGSETTINGSOBJ
  2
AmgSettingsObj
  3
"AcadM|Product Description: AutoCAD Mechanical 2000|Company: Autodesk"
 90
        0
280
     0
281
     0
  0
CLASS
  1
ACME_DOCUMENT
  2
AcMeDbDoc
  3
AcMeServices
 90
        0
280
     0
281
     0
  0
CLASS
  1
ACMESCOPE
  2
AcMeScope
  3
AcMeServices
 90
        0
280
     0
281
     0
  0
CLASS
  1
ACMECOMMANDHISTORY
  2
AcMeCommandHistory
  3
AcMeServices
 90
        0
280
     0
281
     0
  0
CLASS
  1
DICTIONARYVAR
  2
AcDbDictionaryVar
  3
AutoCAD 2000
 90
        0
280
     0
281
     0
  0
CLASS
  1
ACIMSYSVARMAN
  2
AcImSysVarManager
  3
AcMeServices
 90
        0
280
     0
281
     0
  0
CLASS
  1
ACIMREALSYSVAR
  2
AcImRealSysVar
  3
AcMeServices
 90
        0
280
     0
281
     0
  0
CLASS
  1
ACIMINTSYSVAR
  2
AcImIntSysVar
  3
AcMeServices
 90
        0
280
     0
281
     0
  0
CLASS
  1
ACMEDRAWINGMAN
  2
AcMeDrawingMan
  3
AcMeServices
 90
        0
280
     0
281
     0
  0
CLASS
  1
ACMEVIEW
  2
AcMeView
  3
AcMeServices
 90
        0
280
     0
281
     0
  0
CLASS
  1
ACDBENTITYCACHE
  2
AcMeEntityCache
  3
AcMeServices
 90
        0
280
     0
281
     0
  0
CLASS
  1
GSMANAGER
  2
AcMeGSManager
  3
AcMeServices
 90
        0
280
     0
281
     0
  0
CLASS
  1
AmdtInternalReactor
  2
AmdtInternalReactor
  3
AcMeServices
 90
        0
280
     0
281
     0
  0
CLASS
  1
ACMESTATEMGR
  2
AcMeStateMgr
  3
AcMeServices
 90
        0
280
     0
281
     0
  0
CLASS
  1
ACME_DATABASE
  2
AcMeDbDatabase
  3
AcMeServices
 90
        0
280
     0
281
     0
  0
CLASS
  1
ACRFINSADJUSTERMGR
  2
AcRfInsAdjusterMgr
  3
AcMeServices
 90
        0
280
     0
281
     0
  0
CLASS
  1
ACMDATADICTIONARY
  2
AcmDataDictionary
  3
"AcmSymBB|Product Description: AutoCAD Mechanical 2000|Company: Autodesk"
 90
        0
280
     0
281
     0
  0
CLASS
  1
ACMDATAENTRYBLOCK
  2
AcmDataEntryBlock
  3
"AcmSymBB|Product Description: AutoCAD Mechanical 2000|Company: Autodesk"
 90
        0
280
     0
281
     0
  0
CLASS
  1
AMGOBJPROPCFG
  2
AmgObjPropCfg
  3
"AmgLay|Product Description: AutoCAD Mechanical 2000|Company: Autodesk"
 90
        1
280
     0
281
     0
  0
CLASS
  1
ACAMGFILTERDAT
  2
AcAmgFilterDat
  3
"AcadM|Product Description: AutoCAD Mechanical 2000|Company: Autodesk"
 90
        0
280
     0
281
     0
  0
CLASS
  1
LAYER_INDEX
  2
AcDbLayerIndex
  3
AutoCAD 2000
 90
        0
280
     0
281
     0
  0
CLASS
  1
IDBUFFER
  2
AcDbIdBuffer
  3
AutoCAD 2000
 90
        0
280
     0
281
     0
  0
CLASS
  1
ACIMSTRSYSVAR
  2
AcImStrSysVar
  3
AcMeServices
 90
        0
280
     0
281
     0
  0
CLASS
  1
ACMSTANDARDJIS
  2
AcmStandardJIS
  3
"AcmSymBB|Product Description: AutoCAD Mechanical 2000|Company: Autodesk"
 90
        0
280
     0
281
     0
  0
CLASS
  1
ACMSURFSTANDARDJIS
  2
AcmSurfTextStdJIS
  3
"AcmSymBB|Product Description: AutoCAD Mechanical 2000|Company: Autodesk"
 90
        0
280
     0
281
     0
  0
CLASS
  1
ACMFCFSTANDARDJIS
  2
AcmFCFStdJIS
  3
"AcmSymBB|Product Description: AutoCAD Mechanical 2000|Company: Autodesk"
 90
        0
280
     0
281
     0
  0
CLASS
  1
ACMWELDSTANDARDJIS
  2
AcmWeldingStdJIS
  3
"AcmSymBB|Product Description: AutoCAD Mechanical 2000|Company: Autodesk"
 90
        0
280
     0
281
     0
  0
CLASS
  1
ACMIDSTANDARDJIS
  2
AcmIdStdJIS
  3
"AcmSymBB|Product Description: AutoCAD Mechanical 2000|Company: Autodesk"
 90
        0
280
     0
281
     0
  0
CLASS
  1
ACMDATUMSTANDARDJIS
  2
AcmDatumStdJIS
  3
"AcmSymBB|Product Description: AutoCAD Mechanical 2000|Company: Autodesk"
 90
        0
280
     0
281
     0
  0
CLASS
  1
ACMBOMSTANDARDJIS
  2
AcmBOMStdJIS
  3
"AcmSymBB|Product Description: AutoCAD Mechanical 2000|Company: Autodesk"
 90
        0
280
     0
281
     0
  0
CLASS
  1
ACMSTANDARDANSI
  2
AcmStandardANSI
  3
"AcmSymBB|Product Description: AutoCAD Mechanical 2000|Company: Autodesk"
 90
        0
280
     0
281
     0
  0
CLASS
  1
ACMSURFSTANDARDANSI
  2
AcmSurfTextStdANSI
  3
"AcmSymBB|Product Description: AutoCAD Mechanical 2000|Company: Autodesk"
 90
        0
280
     0
281
     0
  0
CLASS
  1
ACMFCFSTANDARDANSI
  2
AcmFCFStdANSI
  3
"AcmSymBB|Product Description: AutoCAD Mechanical 2000|Company: Autodesk"
 90
        0
280
     0
281
     0
  0
CLASS
  1
ACMWELDSTANDARDANSI
  2
AcmWeldingStdANSI
  3
"AcmSymBB|Product Description: AutoCAD Mechanical 2000|Company: Autodesk"
 90
        0
280
     0
281
     0
  0
CLASS
  1
ACMIDSTANDARDANSI
  2
AcmIdStdANSI
  3
"AcmSymBB|Product Description: AutoCAD Mechanical 2000|Company: Autodesk"
 90
        0
280
     0
281
     0
  0
CLASS
  1
ACMDATUMSTANDARDANSI
  2
AcmDatumStdANSI
  3
"AcmSymBB|Product Description: AutoCAD Mechanical 2000|Company: Autodesk"
 90
        0
280
     0
281
     0
  0
CLASS
  1
ACMBOMSTANDARDANSI
  2
AcmBOMStdANSI
  3
"AcmSymBB|Product Description: AutoCAD Mechanical 2000|Company: Autodesk"
 90
        0
280
     0
281
     0
  0
CLASS
  1
ACMSTANDARDBSI
  2
AcmStandardBSI
  3
"AcmSymBB|Product Description: AutoCAD Mechanical 2000|Company: Autodesk"
 90
        0
280
     0
281
     0
  0
CLASS
  1
ACMSURFSTANDARDBSI
  2
AcmSurfTextStdBSI
  3
"AcmSymBB|Product Description: AutoCAD Mechanical 2000|Company: Autodesk"
 90
        0
280
     0
281
     0
  0
CLASS
  1
ACMFCFSTANDARDBSI
  2
AcmFCFStdBSI
  3
"AcmSymBB|Product Description: AutoCAD Mechanical 2000|Company: Autodesk"
 90
        0
280
     0
281
     0
  0
CLASS
  1
ACMWELDSTANDARDBSI
  2
AcmWeldingStdBSI
  3
"AcmSymBB|Product Description: AutoCAD Mechanical 2000|Company: Autodesk"
 90
        0
280
     0
281
     0
  0
CLASS
  1
ACMIDSTANDARDBSI
  2
AcmIdStdBSI
  3
"AcmSymBB|Product Description: AutoCAD Mechanical 2000|Company: Autodesk"
 90
        0
280
     0
281
     0
  0
CLASS
  1
ACMDATUMSTANDARDBSI
  2
AcmDatumStdBSI
  3
"AcmSymBB|Product Description: AutoCAD Mechanical 2000|Company: Autodesk"
 90
        0
280
     0
281
     0
  0
CLASS
  1
ACMBOMSTANDARDBSI
  2
AcmBOMStdBSI
  3
"AcmSymBB|Product Description: AutoCAD Mechanical 2000|Company: Autodesk"
 90
        0
280
     0
281
     0
  0
CLASS
  1
LONG_TRANSACTION
  2
AcDbLongTransaction
  3
AutoCAD 2000
 90
        0
280
     0
281
     0
  0
CLASS
  1
LWPOLYLINE
  2
AcDbPolyline
  3
AutoCAD 2000
 90
        0
280
     0
281
     1
  0
CLASS
  1
HATCH
  2
AcDbHatch
  3
AutoCAD 2000
 90
        0
280
     0
281
     1
  0
CLASS
  1
XRECORD
  2
AcDbXrecord
  3
AutoCAD 2000
 90
        0
280
     0
281
     0
  0
ENDSEC
  0
SECTION
  2
TABLES
  0
TABLE
  2
VPORT
  5
8
330
0
100
AcDbSymbolTable
 70
     3
  0
VPORT
  5
3E9B
330
8
100
AcDbSymbolTableRecord
100
AcDbViewportTableRecord
  2
*ACTIVE
 70
     0
 10
0.0
 20
0.0
 11
1.0
 21
1.0
 12
-64.53131158793185
 22
-8.294229598884484
 13
0.0
 23
0.0
 14
2.5
 24
2.5
 15
10.0
 25
10.0
 16
0.0
 26
0.0
 36
1.0
 17
0.0
 27
0.0
 37
0.0
 40
108.6158170565286
 41
1.56570841889117
 42
50.0
 43
0.0
 44
0.0
 50
0.0
 51
0.0
 71
     0
 72
   100
 73
     1
 74
     1
 75
     0
 76
     0
 77
     0
 78
     0
  0
ENDTAB
  0
TABLE
  2
LTYPE
  5
5
330
0
100
AcDbSymbolTable
 70
    10
  0
LTYPE
  5
14
330
5
100
AcDbSymbolTableRecord
100
AcDbLinetypeTableRecord
  2
BYBLOCK
 70
     0
  3

 72
    65
 73
     0
 40
0.0
  0
LTYPE
  5
15
330
5
100
AcDbSymbolTableRecord
100
AcDbLinetypeTableRecord
  2
BYLAYER
 70
     0
  3

 72
    65
 73
     0
 40
0.0
  0
LTYPE
  5
16
330
5
100
AcDbSymbolTableRecord
100
AcDbLinetypeTableRecord
  2
CONTINUOUS
 70
     0
  3
Solid line
 72
    65
 73
     0
 40
0.0
  0
LTYPE
  5
4B
330
5
100
AcDbSymbolTableRecord
100
AcDbLinetypeTableRecord
  2
AM_ISO02W050
 70
     0
  3
__ __ __ __ __ __ __ __ __ __ __ __ __ __ __
 72
    65
 73
     2
 40
7.5
 49
6.0
 74
     0
 49
-1.5
 74
     0
  0
LTYPE
  5
4C
330
5
100
AcDbSymbolTableRecord
100
AcDbLinetypeTableRecord
  2
AM_ISO08W050
 70
     0
  3
____ . ____ . ____ . ____ . ____ . ____ . ____
 72
    65
 73
     4
 40
18.0
 49
12.0
 74
     0
 49
-1.5
 74
     0
 49
3.0
 74
     0
 49
-1.5
 74
     0
  0
LTYPE
  5
4D
330
5
100
AcDbSymbolTableRecord
100
AcDbLinetypeTableRecord
  2
AM_ISO09W050
 70
     0
  3
_____ . . _____ . . _____ . . ____ .. ____
 72
    65
 73
     6
 40
22.5
 49
12.0
 74
     0
 49
-1.5
 74
     0
 49
3.0
 74
     0
 49
-1.5
 74
     0
 49
3.0
 74
     0
 49
-1.5
 74
     0
  0
LTYPE
  5
4E
330
5
100
AcDbSymbolTableRecord
100
AcDbLinetypeTableRecord
  2
AMCONSTR
 70
     0
  3
_______________________
 72
    65
 73
     2
 40
9999.0
 49
9999.0
 74
     0
 49
0.0
 74
     0
  0
LTYPE
  5
4F
330
5
100
AcDbSymbolTableRecord
100
AcDbLinetypeTableRecord
  2
AM_ISO02W050X2
 70
     0
  3
 _ _ _ _ _ _ _ _ _ _ _ _
 72
    65
 73
     2
 40
3.75
 49
3.0
 74
     0
 49
-0.75
 74
     0
  0
LTYPE
  5
50
330
5
100
AcDbSymbolTableRecord
100
AcDbLinetypeTableRecord
  2
AM_ISO08W050X2
 70
     0
  3
__ . __ . __ . __ . __ . __
 72
    65
 73
     4
 40
9.0
 49
6.0
 74
     0
 49
-0.75
 74
     0
 49
1.5
 74
     0
 49
-0.75
 74
     0
  0
LTYPE
  5
53
330
5
100
AcDbSymbolTableRecord
100
AcDbLinetypeTableRecord
  2
AMZIGZAG
 70
     0
  3
/\/-/\/-/\/-/\/-/\/-/\/
 72
    65
 73
     2
 40
11.00009999999999
 49
0.0001
 74
     4
 75
   135
340
52
 46
0.04
 50
0.0
 44
0.0
 45
0.0
 49
-11.0
 74
     0
  0
LTYPE
  5
166
330
5
100
AcDbSymbolTableRecord
100
AcDbLinetypeTableRecord
  2
ACJISTGL
 70
     0
  3
_ _ _ _ _
 72
    65
 73
     2
 40
3.0
 49
2.0
 74
     0
 49
-1.0
 74
     0
  0
LTYPE
  5
26A
330
5
100
AcDbSymbolTableRecord
100
AcDbLinetypeTableRecord
  2
ACJISTGB
 70
     0
  3
__ . . __ . .
 72
    65
 73
     6
 40
9.0
 49
4.0
 74
     0
 49
-1.0
 74
     0
 49
1.0
 74
     0
 49
-1.0
 74
     0
 49
1.0
 74
     0
 49
-1.0
 74
     0
  0
ENDTAB
  0
TABLE
  2
LAYER
  5
2
330
0
100
AcDbSymbolTable
 70
     7
  0
LAYER
  5
10
330
2
100
AcDbSymbolTableRecord
100
AcDbLayerTableRecord
  2
0
 70
     0
 62
     7
  6
CONTINUOUS
  0
LAYER
  5
3F9
330
2
100
AcDbSymbolTableRecord
100
AcDbLayerTableRecord
  2
AM_0
 70
     0
 62
     7
  6
CONTINUOUS
  0
LAYER
  5
C7C
330
2
100
AcDbSymbolTableRecord
100
AcDbLayerTableRecord
  2
AM_7
 70
     0
 62
     4
  6
AM_ISO08W050
  0
LAYER
  5
C97
330
2
100
AcDbSymbolTableRecord
100
AcDbLayerTableRecord
  2
AM_11
 70
     0
 62
     3
  6
AM_ISO09W050
  0
LAYER
  5
CC5
330
2
100
AcDbSymbolTableRecord
100
AcDbLayerTableRecord
  2
AM_5
 70
     0
 62
     3
  6
CONTINUOUS
  0
LAYER
  5
CC7
330
2
100
AcDbSymbolTableRecord
100
AcDbLayerTableRecord
  2
DEFPOINTS
 70
     0
 62
     7
  6
CONTINUOUS
  0
LAYER
  5
19BC
330
2
100
AcDbSymbolTableRecord
100
AcDbLayerTableRecord
  2
AM_6
 70
     0
 62
     2
  6
CONTINUOUS
  0
ENDTAB
  0
TABLE
  2
STYLE
  5
3
330
0
100
AcDbSymbolTable
 70
     5
  0
STYLE
  5
11
330
3
100
AcDbSymbolTableRecord
100
AcDbTextStyleTableRecord
  2
STANDARD
 70
     0
 40
0.0
 41
1.0
 50
0.0
 71
     0
 42
2.5
  3
simplex.shx
  4
EXTFONT.SHX
  0
STYLE
  5
52
330
3
100
AcDbSymbolTableRecord
100
AcDbTextStyleTableRecord
  2

 70
     1
 40
0.0
 41
1.0
 50
0.0
 71
     0
 42
2.5
  3
ltypeshp.shx
  4

  0
STYLE
  5
6B
330
3
100
AcDbSymbolTableRecord
100
AcDbTextStyleTableRecord
  2
ASAMI
 70
     0
 40
0.0
 41
1.0
 50
0.0
 71
     0
 42
2.5
  3
simplex.shx
  4
EXTFONT.SHX
  0
STYLE
  5
262
330
3
100
AcDbSymbolTableRecord
100
AcDbTextStyleTableRecord
  2
ACJISTS
 70
     0
 40
1.0
 41
1.0
 50
0.0
 71
     0
 42
2.5
  3
simplex.shx
  4
bigfont.shx
  0
STYLE
  5
269
330
3
100
AcDbSymbolTableRecord
100
AcDbTextStyleTableRecord
  2
ACJISGDT
 70
     0
 40
0.0
 41
1.0
 50
0.0
 71
     0
 42
2.5
  3
amgdtans.shx
  4

  0
ENDTAB
  0
TABLE
  2
VIEW
  5
6
330
0
100
AcDbSymbolTable
 70
     0
  0
ENDTAB
  0
TABLE
  2
UCS
  5
7
330
0
100
AcDbSymbolTable
 70
     0
  0
ENDTAB
  0
TABLE
  2
APPID
  5
9
330
0
100
AcDbSymbolTable
 70
    16
  0
APPID
  5
12
330
9
100
AcDbSymbolTableRecord
100
AcDbRegAppTableRecord
  2
ACAD
 70
     0
  0
APPID
  5
30
330
9
100
AcDbSymbolTableRecord
100
AcDbRegAppTableRecord
  2
MCAD_NO_VIS
 70
     0
  0
APPID
  5
31
330
9
100
AcDbSymbolTableRecord
100
AcDbRegAppTableRecord
  2
ACAD_TEMP_GRAPHIC
 70
     0
  0
APPID
  5
2C2
330
9
100
AcDbSymbolTableRecord
100
AcDbRegAppTableRecord
  2
GENIUS_GENDTOL_13
 70
     0
  0
APPID
  5
339
330
9
100
AcDbSymbolTableRecord
100
AcDbRegAppTableRecord
  2
GENIUS_GENODEF_13
 70
     0
  0
APPID
  5
33A
330
9
100
AcDbSymbolTableRecord
100
AcDbRegAppTableRecord
  2
GENIUS_GENOBJ-N-RSBK_13
 70
     0
  0
APPID
  5
33B
330
9
100
AcDbSymbolTableRecord
100
AcDbRegAppTableRecord
  2
GENIUS_GENOBJ-N-LIB_13
 70
     0
  0
APPID
  5
33C
330
9
100
AcDbSymbolTableRecord
100
AcDbRegAppTableRecord
  2
GENIUS_GENSCALE_13
 70
     0
  0
APPID
  5
378
330
9
100
AcDbSymbolTableRecord
100
AcDbRegAppTableRecord
  2
GENIUS_GENDIMSH_14
 70
     0
  0
APPID
  5
C82
330
9
100
AcDbSymbolTableRecord
100
AcDbRegAppTableRecord
  2
GENIUS_GENOBJ-N-CRS_13
 70
     0
  0
APPID
  5
C83
330
9
100
AcDbSymbolTableRecord
100
AcDbRegAppTableRecord
  2
GENIUS_GENOENT_13
 70
     0
  0
APPID
  5
C84
330
9
100
AcDbSymbolTableRecord
100
AcDbRegAppTableRecord
  2
GENIUS_GENOREF_13
 70
     0
  0
APPID
  5
C85
330
9
100
AcDbSymbolTableRecord
100
AcDbRegAppTableRecord
  2
GENIUS_GENOLIS_13
 70
     0
  0
APPID
  5
CA0
330
9
100
AcDbSymbolTableRecord
100
AcDbRegAppTableRecord
  2
GENIUS_GENOBJ-N-CEN_13
 70
     0
  0
APPID
  5
2796
330
9
100
AcDbSymbolTableRecord
100
AcDbRegAppTableRecord
  2
GENIUS_GENFIL_13
 70
     0
  0
APPID
  5
2797
330
9
100
AcDbSymbolTableRecord
100
AcDbRegAppTableRecord
  2
GENIUS_GENOBJ-N-CHA_13
 70
     0
  0
ENDTAB
  0
TABLE
  2
DIMSTYLE
  5
A
330
0
100
AcDbSymbolTable
 70
     9
  0
DIMSTYLE
105
58
330
A
100
AcDbSymbolTableRecord
100
AcDbDimStyleTableRecord
  2
AM_JIS
 70
     0
  3

  4
"
  5
OPEN30
  6

  7

 40
0.5
 41
2.5
 42
1.0
 43
12.0
 44
1.0
 45
0.0
 46
0.0
 47
0.1
 48
0.1
140
3.2
141
0.0
142
0.0
143
0.0393701
144
1.0
145
0.0
146
0.71
147
1.5
 71
     0
 72
     0
 73
     0
 74
     0
 75
     0
 76
     0
 77
     3
 78
     8
170
     0
171
     2
172
     1
173
     0
174
     0
175
     0
176
   256
177
   256
178
     2
270
     2
271
     3
272
     3
273
     2
274
     2
340
6B
275
     0
280
     0
281
     0
282
     0
283
     0
284
     0
285
     0
286
     0
287
     3
288
     0
  0
DIMSTYLE
105
5F
330
A
100
AcDbSymbolTableRecord
100
AcDbDimStyleTableRecord
  2
AM_JIS$3
 70
     0
  3

  4
"
  5
OPEN30
  6

  7

 40
0.5
 41
2.5
 42
1.0
 43
10.0
 44
1.0
 45
0.0
 46
0.0
 47
0.1
 48
0.1
140
3.2
141
0.0
142
0.0
143
0.0393701
144
1.0
145
0.0
146
0.71
147
1.5
 71
     0
 72
     0
 73
     0
 74
     1
 75
     0
 76
     0
 77
     3
 78
     8
170
     0
171
     2
172
     0
173
     0
174
     0
175
     0
176
   256
177
   256
178
     2
270
     2
271
     2
272
     3
273
     2
274
     2
340
6B
275
     0
280
     0
281
     0
282
     0
283
     0
284
     0
285
     0
286
     0
287
     0
288
     1
  0
DIMSTYLE
105
60
330
A
100
AcDbSymbolTableRecord
100
AcDbDimStyleTableRecord
  2
AM_JIS$4
 70
     0
  3

  4
"
  5
OPEN30
  6

  7

 40
0.5
 41
2.5
 42
1.0
 43
10.0
 44
1.0
 45
0.0
 46
0.0
 47
0.1
 48
0.1
140
3.2
141
0.0
142
0.0
143
0.0393701
144
1.0
145
0.0
146
0.71
147
1.5
 71
     0
 72
     0
 73
     0
 74
     1
 75
     0
 76
     0
 77
     3
 78
     8
170
     0
171
     2
172
     0
173
     0
174
     0
175
     0
176
   256
177
   256
178
     2
270
     2
271
     2
272
     3
273
     2
274
     2
340
6B
275
     0
280
     0
281
     0
282
     0
283
     0
284
     0
285
     0
286
     0
287
     0
288
     1
  0
DIMSTYLE
105
61
330
A
100
AcDbSymbolTableRecord
100
AcDbDimStyleTableRecord
  2
AM_JIS$6
 70
     0
  3

  4
"
  5
OPEN30
  6

  7

 40
0.5
 41
2.5
 42
1.0
 43
10.0
 44
1.0
 45
0.0
 46
0.0
 47
0.1
 48
0.1
140
3.2
141
0.0
142
0.0
143
0.0393701
144
1.0
145
0.0
146
0.71
147
1.5
 71
     0
 72
     0
 73
     0
 74
     0
 75
     0
 76
     0
 77
     0
 78
     8
170
     0
171
     2
172
     1
173
     0
174
     0
175
     0
176
   256
177
   256
178
     2
270
     2
271
     2
272
     2
273
     2
274
     2
340
6B
275
     0
280
     0
281
     0
282
     0
283
     0
284
     0
285
     0
286
     0
287
     3
288
     0
  0
DIMSTYLE
105
62
330
A
100
AcDbSymbolTableRecord
100
AcDbDimStyleTableRecord
  2
AM_JIS$7
 70
     0
  3

  4
"
  5
OPEN30
  6

  7

 40
0.5
 41
2.5
 42
1.0
 43
10.0
 44
1.0
 45
0.0
 46
0.0
 47
0.1
 48
0.1
140
3.2
141
0.0
142
0.0
143
0.0393701
144
1.0
145
0.0
146
0.71
147
1.5
 71
     0
 72
     0
 73
     0
 74
     0
 75
     0
 76
     0
 77
     3
 78
     8
170
     0
171
     2
172
     1
173
     0
174
     0
175
     0
176
   256
177
   256
178
     2
270
     2
271
     2
272
     3
273
     2
274
     2
340
6B
275
     0
280
     0
281
     0
282
     0
283
     0
284
     0
285
     0
286
     0
287
     3
288
     0
  0
DIMSTYLE
105
63
330
A
100
AcDbSymbolTableRecord
100
AcDbDimStyleTableRecord
  2
AM_JIS$SF
 70
     0
  3

  4
"
  5
OPEN30
  6

  7

 40
0.5
 41
2.5
 42
1.0
 43
10.0
 44
1.0
 45
0.0
 46
0.0
 47
0.1
 48
0.1
140
3.2
141
0.0
142
0.0
143
0.0393701
144
1.0
145
0.0
146
0.71
147
1.5
 71
     0
 72
     0
 73
     0
 74
     0
 75
     1
 76
     1
 77
     3
 78
     8
170
     0
171
     2
172
     1
173
     0
174
     0
175
     0
176
   256
177
   256
178
     2
270
     2
271
     2
272
     2
273
     2
274
     2
340
6B
275
     0
280
     0
281
     0
282
     0
283
     0
284
     0
285
     0
286
     0
287
     3
288
     0
  0
DIMSTYLE
105
68
330
A
100
AcDbSymbolTableRecord
100
AcDbDimStyleTableRecord
  2
AM_JIS$SH
 70
     0
  3

  4
"
  5

  6
GENAXEH
  7
OPEN30
 40
0.5
 41
2.5
 42
1.0
 43
10.0
 44
1.0
 45
0.0
 46
0.0
 47
0.1
 48
0.1
140
3.2
141
0.0
142
0.0
143
0.0393701
144
2.0
145
0.0
146
0.71
147
1.5
 71
     0
 72
     0
 73
     0
 74
     0
 75
     1
 76
     1
 77
     3
 78
     8
170
     0
171
     2
172
     1
173
     1
174
     0
175
     0
176
   256
177
   256
178
     2
270
     2
271
     2
272
     2
273
     2
274
     2
340
6B
275
     0
280
     0
281
     0
282
     0
283
     0
284
     0
285
     0
286
     0
287
     3
288
     0
  0
DIMSTYLE
105
B34
102
{ACAD_REACTORS
330
39C8
102
}
330
A
100
AcDbSymbolTableRecord
100
AcDbDimStyleTableRecord
  2
AM_JIS$2
 70
     0
  3

  4
"
  5
OPEN30
  6

  7

 40
0.5
 41
2.5
 42
1.0
 43
12.0
 44
1.0
 45
0.0
 46
0.0
 47
0.1
 48
0.1
140
3.2
141
0.0
142
0.0
143
0.0393701
144
1.0
145
0.0
146
0.71
147
1.5
 71
     0
 72
     0
 73
     0
 74
     0
 75
     0
 76
     0
 77
     3
 78
     8
170
     0
171
     2
172
     1
173
     0
174
     0
175
     0
176
   256
177
   256
178
     2
270
     2
271
     3
272
     3
273
     2
274
     2
340
6B
275
     0
280
     0
281
     0
282
     0
283
     0
284
     0
285
     0
286
     0
287
     3
288
     0
  0
DIMSTYLE
105
BA5
102
{ACAD_REACTORS
330
CC6
330
2069
330
2D60
330
324F
102
}
330
A
100
AcDbSymbolTableRecord
100
AcDbDimStyleTableRecord
  2
AM_JIS$0
 70
     0
  3

  4
"
  5
OPEN30
  6

  7

 40
0.5
 41
2.5
 42
0.0
 43
10.0
 44
1.0
 45
0.0
 46
0.0
 47
0.1
 48
0.1000000001
140
3.799999999999999
141
0.0
142
0.0
143
0.0393701
144
1.0
145
0.0
146
0.71
147
1.5
 71
     0
 72
     0
 73
     0
 74
     0
 75
     0
 76
     0
 77
     3
 78
     1
170
     0
171
     2
172
     1
173
     0
174
     0
175
     0
176
     3
177
     3
178
     2
270
     2
271
     2
272
     2
273
     2
274
     2
340
11
275
     1
280
     0
281
     0
282
     0
283
     0
284
     8
285
     0
286
     0
287
     0
288
     0
  0
ENDTAB
  0
TABLE
  2
BLOCK_RECORD
  5
1
330
0
100
AcDbSymbolTable
 70
    10
  0
BLOCK_RECORD
  5
1F
102
{ACAD_XDICTIONARY
360
74
102
}
330
1
100
AcDbSymbolTableRecord
100
AcDbBlockTableRecord
  2
*MODEL_SPACE
  0
BLOCK_RECORD
  5
101
102
{ACAD_XDICTIONARY
360
3EC4
102
}
330
1
100
AcDbSymbolTableRecord
100
AcDbBlockTableRecord
  2
*PAPER_SPACE
  0
BLOCK_RECORD
  5
59
330
1
100
AcDbSymbolTableRecord
100
AcDbBlockTableRecord
  2
_OPEN30
  0
BLOCK_RECORD
  5
64
330
1
100
AcDbSymbolTableRecord
100
AcDbBlockTableRecord
  2
GENAXEH
  0
BLOCK_RECORD
  5
CC8
330
1
100
AcDbSymbolTableRecord
100
AcDbBlockTableRecord
  2
*D5
  0
BLOCK_RECORD
  5
206A
330
1
100
AcDbSymbolTableRecord
100
AcDbBlockTableRecord
  2
*D6
  0
BLOCK_RECORD
  5
2D61
330
1
100
AcDbSymbolTableRecord
100
AcDbBlockTableRecord
  2
*D7
  0
BLOCK_RECORD
  5
3250
330
1
100
AcDbSymbolTableRecord
100
AcDbBlockTableRecord
  2
*D8
  0
BLOCK_RECORD
  5
39C9
330
1
100
AcDbSymbolTableRecord
100
AcDbBlockTableRecord
  2
*D9
  0
ENDTAB
  0
ENDSEC
  0
SECTION
  2
BLOCKS
  0
BLOCK
  5
20
330
1F
100
AcDbEntity
  8
0
100
AcDbBlockBegin
  2
*MODEL_SPACE
 70
     0
 10
0.0
 20
0.0
 30
0.0
  3
*MODEL_SPACE
  1

  0
ENDBLK
  5
21
330
1F
100
AcDbEntity
  8
0
100
AcDbBlockEnd
  0
BLOCK
  5
103
330
101
100
AcDbEntity
 67
     1
  8
0
100
AcDbBlockBegin
  2
*PAPER_SPACE
 70
     0
 10
0.0
 20
0.0
 30
0.0
  3
*PAPER_SPACE
  1

  0
ENDBLK
  5
104
330
101
100
AcDbEntity
 67
     1
  8
0
100
AcDbBlockEnd
  0
BLOCK
  5
5D
330
59
100
AcDbEntity
  8
0
100
AcDbBlockBegin
  2
_OPEN30
 70
     0
 10
0.0
 20
0.0
 30
0.0
  3
_OPEN30
  1

  0
LINE
  5
5A
330
59
100
AcDbEntity
  8
0
 62
     0
100
AcDbLine
 10
-1.0
 20
0.26794919
 30
0.0
 11
0.0
 21
0.0
 31
0.0
  0
LINE
  5
5B
330
59
100
AcDbEntity
  8
0
 62
     0
100
AcDbLine
 10
0.0
 20
0.0
 30
0.0
 11
-1.0
 21
-0.26794919
 31
0.0
  0
LINE
  5
5C
330
59
100
AcDbEntity
  8
0
 62
     0
100
AcDbLine
 10
0.0
 20
0.0
 30
0.0
 11
-1.0
 21
0.0
 31
0.0
  0
ENDBLK
  5
5E
330
59
100
AcDbEntity
  8
0
100
AcDbBlockEnd
  0
BLOCK
  5
66
330
64
100
AcDbEntity
  8
0
100
AcDbBlockBegin
  2
GENAXEH
 70
     0
 10
0.0
 20
0.0
 30
0.0
  3
GENAXEH
  1

  0
LINE
  5
65
330
64
100
AcDbEntity
  8
0
100
AcDbLine
 10
-1.0
 20
0.0
 30
0.0
 11
1.0
 21
0.0
 31
0.0
  0
ENDBLK
  5
67
330
64
100
AcDbEntity
  8
0
100
AcDbBlockEnd
  0
BLOCK
  5
CD2
330
CC8
100
AcDbEntity
  8
0
100
AcDbBlockBegin
  2
*D5
 70
     1
 10
0.0
 20
0.0
 30
0.0
  3
*D5
  1

  0
LINE
  5
3E49
330
CC8
100
AcDbEntity
  8
AM_5
 62
     3
100
AcDbLine
 10
-137.0
 20
-6.249999999999374
 30
0.0
 11
-137.0
 21
-19.50000099999952
 31
0.0
  0
LINE
  5
3E4A
330
CC8
100
AcDbEntity
  8
AM_5
 62
     3
100
AcDbLine
 10
-2.999999999999969
 20
-6.800000000000205
 30
0.0
 11
-2.99999999999997
 21
-19.50000099999952
 31
0.0
  0
LINE
  5
3E4B
330
CC8
100
AcDbEntity
  8
AM_5
 62
     3
100
AcDbLine
 10
-135.7499999999999
 20
-19.00000099999952
 30
0.0
 11
-4.24999999999997
 21
-19.00000099999952
 31
0.0
  0
INSERT
  5
3E4C
330
CC8
100
AcDbEntity
  8
AM_5
 62
     3
100
AcDbBlockReference
  2
_OPEN30
 10
-137.0
 20
-19.00000099999952
 30
0.0
 41
1.25
 42
1.25
 43
1.25
 50
180.0
  0
INSERT
  5
3E4D
330
CC8
100
AcDbEntity
  8
AM_5
 62
     3
100
AcDbBlockReference
  2
_OPEN30
 10
-2.99999999999997
 20
-19.00000099999952
 30
0.0
 41
1.25
 42
1.25
 43
1.25
  0
MTEXT
  5
3E4E
330
CC8
100
AcDbEntity
  8
AM_5
 62
     2
100
AcDbMText
 10
-69.99999999999999
 20
-17.30000099999952
 30
0.0
 40
1.9
 41
0.0
 71
     5
 72
     1
  1
134
1001
ACAD
1000
MTEXTBEGIN
1070
    73
1070
     1
1070
    44
1040
1.0
1070
    74
1070
     0
1000
MTEXTEND
  0
POINT
  5
3E4F
330
CC8
100
AcDbEntity
  8
DEFPOINTS
 62
     0
100
AcDbPoint
 10
-137.0
 20
-6.249999999999374
 30
0.0
  0
POINT
  5
3E50
330
CC8
100
AcDbEntity
  8
DEFPOINTS
 62
     0
100
AcDbPoint
 10
-2.999999999999969
 20
-6.800000000000205
 30
0.0
  0
POINT
  5
3E51
330
CC8
100
AcDbEntity
  8
DEFPOINTS
 62
     0
100
AcDbPoint
 10
-2.99999999999997
 20
-19.00000099999952
 30
0.0
  0
ENDBLK
  5
CD3
330
CC8
100
AcDbEntity
  8
0
100
AcDbBlockEnd
  0
BLOCK
  5
2074
330
206A
100
AcDbEntity
  8
0
100
AcDbBlockBegin
  2
*D6
 70
     1
 10
0.0
 20
0.0
 30
0.0
  3
*D6
  1

  0
LINE
  5
3E66
330
206A
100
AcDbEntity
  8
AM_5
 62
     3
100
AcDbLine
 10
-72.99999999999954
 20
-6.999999999999632
 30
0.0
 11
-72.99999999999951
 21
-14.50000099999964
 31
0.0
  0
LINE
  5
3E67
330
206A
100
AcDbEntity
  8
AM_5
 62
     3
100
AcDbLine
 10
-2.999999999999949
 20
-6.800000000000214
 30
0.0
 11
-2.999999999999928
 21
-14.50000099999944
 31
0.0
  0
LINE
  5
3E68
330
206A
100
AcDbEntity
  8
AM_5
 62
     3
100
AcDbLine
 10
-71.74999999999951
 20
-14.00000099999964
 30
0.0
 11
-4.249999999999928
 21
-14.00000099999944
 31
0.0
  0
INSERT
  5
3E69
330
206A
100
AcDbEntity
  8
AM_5
 62
     3
100
AcDbBlockReference
  2
_OPEN30
 10
-72.99999999999951
 20
-14.00000099999965
 30
0.0
 41
1.25
 42
1.25
 43
1.25
 50
180.0000000000001
  0
INSERT
  5
3E6A
330
206A
100
AcDbEntity
  8
AM_5
 62
     3
100
AcDbBlockReference
  2
_OPEN30
 10
-2.999999999999929
 20
-14.00000099999944
 30
0.0
 41
1.25
 42
1.25
 43
1.25
 50
0.0000000000001527
  0
MTEXT
  5
3E6B
330
206A
100
AcDbEntity
  8
AM_5
 62
     2
100
AcDbMText
 10
-37.99999999999973
 20
-12.30000099999954
 30
0.0
 40
1.9
 41
0.0
 71
     5
 72
     1
  1
70
1001
ACAD
1000
MTEXTBEGIN
1070
    73
1070
     1
1070
    44
1040
1.0
1070
    74
1070
     0
1000
MTEXTEND
  0
POINT
  5
3E6C
330
206A
100
AcDbEntity
  8
DEFPOINTS
 62
     0
100
AcDbPoint
 10
-72.99999999999956
 20
-6.99999999999942
 30
0.0
  0
POINT
  5
3E6D
330
206A
100
AcDbEntity
  8
DEFPOINTS
 62
     0
100
AcDbPoint
 10
-2.999999999999969
 20
-6.800000000000205
 30
0.0
  0
POINT
  5
3E6E
330
206A
100
AcDbEntity
  8
DEFPOINTS
 62
     0
100
AcDbPoint
 10
-2.99999999999997
 20
-14.00000099999943
 30
0.0
  0
ENDBLK
  5
2075
330
206A
100
AcDbEntity
  8
0
100
AcDbBlockEnd
  0
BLOCK
  5
2D6B
330
2D61
100
AcDbEntity
  8
0
100
AcDbBlockBegin
  2
*D7
 70
     1
 10
0.0
 20
0.0
 30
0.0
  3
*D7
  1

  0
LINE
  5
3E6F
330
2D61
100
AcDbEntity
  8
AM_5
 62
     3
100
AcDbLine
 10
-2.999999999999912
 20
6.800000000000018
 30
0.0
 11
8.819924900032322
 21
6.799958510222508
 31
0.0
  0
LINE
  5
3E70
330
2D61
100
AcDbEntity
  8
AM_5
 62
     3
100
AcDbLine
 10
-3.000000000000054
 20
-6.80000000000036
 30
0.0
 11
8.819877161913943
 21
-6.800041489610301
 31
0.0
  0
LINE
  5
3E71
330
2D61
100
AcDbEntity
  8
AM_5
 62
     3
100
AcDbLine
 10
8.319920512340701
 20
5.549960265308091
 30
0.0
 11
8.31988154961173
 21
-5.550039734540121
 31
0.0
  0
INSERT
  5
3E72
330
2D61
100
AcDbEntity
  8
AM_5
 62
     3
100
AcDbBlockReference
  2
_OPEN30
 10
8.319924900035404
 20
6.79996026530039
 30
0.0
 41
1.25
 42
1.25
 43
1.25
 50
89.99979888288931
  0
INSERT
  5
3E73
330
2D61
100
AcDbEntity
  8
AM_5
 62
     3
100
AcDbBlockReference
  2
_OPEN30
 10
8.319877161917025
 20
-6.800039734532419
 30
0.0
 41
1.25
 42
1.25
 43
1.25
 50
269.9997988828893
  0
MTEXT
  5
3E74
330
2D61
100
AcDbEntity
  8
AM_5
 62
     2
100
AcDbMText
 10
6.619901030986688
 20
-0.0000337673512178
 30
0.0
 40
1.9
 41
0.0
 71
     5
 72
     1
  1
%%c13.6
 11
0.0000035101557632
 21
0.9999999999938395
 31
0.0
1001
ACAD
1000
MTEXTBEGIN
1070
    73
1070
     1
1070
    44
1040
1.0
1070
    74
1070
     0
1000
MTEXTEND
  0
POINT
  5
3E75
330
2D61
100
AcDbEntity
  8
DEFPOINTS
 62
     0
100
AcDbPoint
 10
-2.999999999999893
 20
6.800000000000026
 30
0.0
  0
POINT
  5
3E76
330
2D61
100
AcDbEntity
  8
DEFPOINTS
 62
     0
100
AcDbPoint
 10
-3.000000000000074
 20
-6.800000000000353
 30
0.0
  0
POINT
  5
3E77
330
2D61
100
AcDbEntity
  8
DEFPOINTS
 62
     0
100
AcDbPoint
 10
8.319877161917005
 20
-6.800039734532444
 30
0.0
  0
ENDBLK
  5
2D6C
330
2D61
100
AcDbEntity
  8
0
100
AcDbBlockEnd
  0
BLOCK
  5
325A
330
3250
100
AcDbEntity
  8
0
100
AcDbBlockBegin
  2
*D8
 70
     1
 10
0.0
 20
0.0
 30
0.0
  3
*D8
  1

  0
LINE
  5
3E52
330
3250
100
AcDbEntity
  8
AM_5
 62
     3
100
AcDbLine
 10
-136.2499999999993
 20
-7.000000000000639
 30
0.0
 11
-147.0000009999999
 21
-7.000000000000686
 31
0.0
  0
LINE
  5
3E53
330
3250
100
AcDbEntity
  8
AM_5
 62
     3
100
AcDbLine
 10
-136.2499999999999
 20
6.999999999999987
 30
0.0
 11
-147.000001
 21
6.99999999999994
 31
0.0
  0
LINE
  5
3E54
330
3250
100
AcDbEntity
  8
AM_5
 62
     3
100
AcDbLine
 10
-146.5000009999999
 20
-5.750000000000684
 30
0.0
 11
-146.500001
 21
5.749999999999942
 31
0.0
  0
INSERT
  5
3E55
330
3250
100
AcDbEntity
  8
AM_5
 62
     3
100
AcDbBlockReference
  2
_OPEN30
 10
-146.5000009999999
 20
-7.000000000000684
 30
0.0
 41
1.25
 42
1.25
 43
1.25
 50
270.0000000000002
  0
INSERT
  5
3E56
330
3250
100
AcDbEntity
  8
AM_5
 62
     3
100
AcDbBlockReference
  2
_OPEN30
 10
-146.500001
 20
6.999999999999942
 30
0.0
 41
1.25
 42
1.25
 43
1.25
 50
90.00000000000026
  0
MTEXT
  5
3E57
330
3250
100
AcDbEntity
  8
AM_5
 62
     2
100
AcDbMText
 10
-148.200001
 20
0.0000129000658812
 30
0.0
 40
1.9
 41
0.0
 71
     5
 72
     1
  1
%%c14
 11
-0.0000000000000046
 21
1.0
 31
0.0
1001
ACAD
1000
MTEXTBEGIN
1070
    73
1070
     1
1070
    44
1040
1.0
1070
    74
1070
     0
1000
MTEXTEND
  0
POINT
  5
3E58
330
3250
100
AcDbEntity
  8
DEFPOINTS
 62
     0
100
AcDbPoint
 10
-136.2499999999993
 20
-7.000000000000004
 30
0.0
  0
POINT
  5
3E59
330
3250
100
AcDbEntity
  8
DEFPOINTS
 62
     0
100
AcDbPoint
 10
-136.2499999999999
 20
7.000000000000622
 30
0.0
  0
POINT
  5
3E5A
330
3250
100
AcDbEntity
  8
DEFPOINTS
 62
     0
100
AcDbPoint
 10
-146.500001
 20
7.000000000000626
 30
0.0
  0
ENDBLK
  5
325B
330
3250
100
AcDbEntity
  8
0
100
AcDbBlockEnd
  0
BLOCK
  5
39D7
330
39C9
100
AcDbEntity
  8
0
100
AcDbBlockBegin
  2
*D9
 70
     1
 10
0.0
 20
0.0
 30
0.0
  3
*D9
  1

  0
LINE
  5
3EC6
330
39C9
100
AcDbEntity
  8
AM_5
100
AcDbLine
 10
0.1710100704080686
 20
-0.4698463108496516
 30
0.0
 11
4.97168376799127
 21
-13.65958900272799
 31
0.0
  0
LINE
  5
3EC7
330
39C9
100
AcDbEntity
  8
AM_5
100
AcDbLine
 10
0.1710111111829824
 20
0.4698459320372756
 30
0.0
 11
4.971714025880367
 21
13.65957798971916
 31
0.0
  0
ARC
  5
3EC8
330
39C9
100
AcDbEntity
  8
AM_5
100
AcDbCircle
 10
-0.0000000000000028
 20
0.0000000000000077
 30
0.0
 40
14.03623098373012
100
AcDbArc
 50
295.1041772050756
 51
64.89569587675413
  0
INSERT
  5
3EC9
330
39C9
100
AcDbEntity
  8
AM_5
100
AcDbBlockReference
  2
_OPEN30
 10
4.800673697583201
 20
-13.18974269187833
 30
0.0
 41
1.25
 42
1.25
 43
1.25
 50
202.552088526031
  0
INSERT
  5
3ECA
330
39C9
100
AcDbEntity
  8
AM_5
100
AcDbBlockReference
  2
_OPEN30
 10
4.800702914697385
 20
13.18973205768189
 30
0.0
 41
1.25
 42
1.25
 43
1.25
 50
157.4477845557987
  0
MTEXT
  5
3ECB
330
39C9
100
AcDbEntity
  8
AM_5
 62
     2
100
AcDbMText
 10
12.48623098372245
 20
-0.0000138293745401
 30
0.0
 40
1.6
 41
0.0
 71
     5
 72
     1
  1
140°
  7
ASAMI
 11
0.0000011075699751
 21
0.9999999999993868
 31
0.0
  0
POINT
  5
3ECC
330
39C9
100
AcDbEntity
  8
DEFPOINTS
 62
     0
100
AcDbPoint
 10
12.88828925920117
 20
-5.559476612036854
 30
0.0
  0
POINT
  5
3ECD
330
39C9
100
AcDbEntity
  8
DEFPOINTS
 62
     0
100
AcDbPoint
 10
0.0
 20
0.0000000000000154
 30
0.0
  0
POINT
  5
3ECE
330
39C9
100
AcDbEntity
  8
DEFPOINTS
 62
     0
100
AcDbPoint
 10
0.0
 20
0.0
 30
0.0
  0
POINT
  5
3ECF
330
39C9
100
AcDbEntity
  8
DEFPOINTS
 62
     0
100
AcDbPoint
 10
-0.8156548808968489
 20
2.240993385953359
 30
0.0
  0
POINT
  5
3ED0
330
39C9
100
AcDbEntity
  8
DEFPOINTS
 62
     0
100
AcDbPoint
 10
-0.815671185010801
 20
-2.241022735342982
 30
0.0
  0
ENDBLK
  5
39D8
330
39C9
100
AcDbEntity
  8
0
100
AcDbBlockEnd
  0
ENDSEC
  0
SECTION
  2
ENTITIES
  0
LINE
  5
C1D
330
1F
100
AcDbEntity
  8
AM_0
 48
0.5
100
AcDbLine
 10
0.0
 20
0.0
 30
0.0
 11
-0.8156548808968489
 21
2.240993385953359
 31
0.0
  0
LINE
  5
C20
330
1F
100
AcDbEntity
  8
AM_0
 48
0.5
100
AcDbLine
 10
0.0
 20
0.0000000000000154
 30
0.0
 11
-0.815671185010801
 21
-2.241022735342982
 31
0.0
  0
DIMENSION
  5
CC6
330
1F
100
AcDbEntity
  8
AM_5
100
AcDbDimension
  2
*D5
 10
-2.99999999999997
 20
-19.00000099999952
 30
0.0
 11
-69.99999999999999
 21
-17.30000099999952
 31
0.0
 70
    32
  1
<>
  3
AM_JIS$0
100
AcDbAlignedDimension
 13
-137.0
 23
-6.249999999999374
 33
0.0
 14
-2.999999999999969
 24
-6.800000000000205
 34
0.0
 50
0.0000000000001132
100
AcDbRotatedDimension
1001
GENIUS_GENDTOL_13
1000

1000
h7
1000

1040
0.0
1001
ACAD
1000
DSTYLE
1002
{
1070
   271
1070
     0
1002
}
  0
TEXT
  5
19BD
330
1F
100
AcDbEntity
  8
AM_6
100
AcDbText
 10
-81.0119047619047
 20
-30.25000099999955
 30
0.0
 40
2.5
  1
MDW136MHK
 50
0.0000000000001527
 72
     4
 11
-69.99999999999994
 21
-29.00000099999952
 31
0.0
100
AcDbText
  0
DIMENSION
  5
2069
330
1F
100
AcDbEntity
  8
AM_5
100
AcDbDimension
  2
*D6
 10
-2.99999999999997
 20
-14.00000099999943
 30
0.0
 11
-37.99999999999976
 21
-12.30000099999943
 31
0.0
 70
    32
  1
<>
 51
359.9999999999998
  3
AM_JIS$0
100
AcDbAlignedDimension
 13
-72.99999999999956
 23
-6.99999999999942
 33
0.0
 14
-2.999999999999969
 24
-6.800000000000205
 34
0.0
 50
0.0000000000001527
100
AcDbRotatedDimension
1001
ACAD
1000
DSTYLE
1002
{
1070
   271
1070
     0
1070
   174
1070
     1
1002
}
1001
GENIUS_GENDTOL_13
1000

1000
h7
1000

1040
0.0
  0
LINE
  5
23EF
330
1F
100
AcDbEntity
  8
AM_7
100
AcDbLine
 10
-139.4999999999999
 20
0.0000000000006433
 30
0.0
 11
1.319900031072549
 21
0.000000000000012
 31
0.0
1001
GENIUS_GENODEF_13
1002
{
1000
HIER
1070
     0
1002
}
1002
{
1000
MANEDIT
1070
     0
1002
}
1002
{
1000
NOSEL
1070
     0
1002
}
1002
{
1000
BEHIND
1070
     0
1002
}
1002
{
1000
REACTOR
1002
}
1001
GENIUS_GENOBJ-N-CEN_13
1002
{
1000
OWNER
1000
GEN
1002
}
  0
LINE
  5
24A7
330
1F
100
AcDbEntity
  8
AM_0
 48
0.5
100
AcDbLine
 10
-2.035492642575992
 20
5.238137003253065
 30
0.0
 11
-2.999999999999892
 21
6.800000000000026
 31
0.0
  0
ELLIPSE
  5
24B7
330
1F
100
AcDbEntity
  8
AM_11
 48
0.5
100
AcDbEllipse
 10
-23.32861992899415
 20
25.57825854459661
 30
0.0
 11
-29.52377541859904
 21
0.0000000000002247
 31
0.0
210
0.0
220
0.0
230
1.0
 40
0.9578947368421056
 41
1.130070686340284
 42
2.011520147323574
  0
ELLIPSE
  5
24B8
330
1F
100
AcDbEntity
  8
AM_11
 48
0.5
100
AcDbEllipse
 10
-23.32861992899555
 20
-25.57823997715019
 30
0.0
 11
-29.523775418599
 21
0.0000000000001329
 31
0.0
210
0.0
220
0.0
230
1.0
 40
0.9578947368421054
 41
4.271664206181664
 42
5.153113667164971
  0
ELLIPSE
  5
24BE
330
1F
100
AcDbEntity
  8
AM_0
 48
0.5
100
AcDbEllipse
 10
6.427941069841768
 20
6.82215150481635
 30
0.0
 11
-4.125194819159457
 21
8.273242462115604
 31
0.0
210
0.0
220
0.0
230
1.0
 40
0.9264225005910461
 41
1.312765717361252
 42
1.664773036319176
  0
ELLIPSE
  5
24C7
330
1F
100
AcDbEntity
  8
AM_11
 48
0.5
100
AcDbEllipse
 10
-98.89680174716888
 20
25.57825854459854
 30
0.0
 11
-29.52377541859904
 21
0.0000000000006574
 31
0.0
210
0.0
220
0.0
230
1.0
 40
0.9578947368421056
 41
1.130070686340301
 42
2.011520147323591
  0
ELLIPSE
  5
24C8
330
1F
100
AcDbEntity
  8
AM_11
 48
0.5
100
AcDbEllipse
 10
-98.89680174717033
 20
-25.57823997714826
 30
0.0
 11
29.523775418599
 21
0.0000000000004935
 31
0.0
210
0.0
220
0.0
230
1.0
 40
0.957894736842107
 41
1.13007155259185
 42
2.011521013575156
  0
ELLIPSE
  5
24D4
330
1F
100
AcDbEntity
  8
AM_11
 48
0.5
100
AcDbEllipse
 10
-73.70740780777495
 20
25.57825854459792
 30
0.0
 11
-29.52377541859908
 21
0.0000000000001723
 31
0.0
210
0.0
220
0.0
230
1.0
 40
0.9578947368421049
 41
1.130070686340283
 42
2.011520147323574
  0
ELLIPSE
  5
24D5
330
1F
100
AcDbEntity
  8
AM_11
 48
0.5
100
AcDbEllipse
 10
-73.70740780777636
 20
-25.57823997714887
 30
0.0
 11
-29.52377541859895
 21
0.0000000000005328
 31
0.0
210
0.0
220
0.0
230
1.0
 40
0.9578947368421083
 41
4.271664206181676
 42
5.153113667164986
  0
ELLIPSE
  5
24E6
330
1F
100
AcDbEntity
  8
AM_11
 48
0.5
100
AcDbEllipse
 10
-48.51801386838949
 20
-25.57823997714955
 30
0.0
 11
-29.52377541859899
 21
0.0000000000008016
 31
0.0
210
0.0
220
0.0
230
1.0
 40
0.957894736842106
 41
4.271664206181685
 42
5.153113667164993
  0
ELLIPSE
  5
24E7
330
1F
100
AcDbEntity
  8
AM_11
 48
0.5
100
AcDbEllipse
 10
-48.51801386838808
 20
25.57825854459726
 30
0.0
 11
29.52377541859905
 21
0.0000000000000477
 31
0.0
210
0.0
220
0.0
230
1.0
 40
0.9578947368421053
 41
4.271663339930067
 42
5.153112800913361
  0
ELLIPSE
  5
2BF3
330
1F
100
AcDbEntity
  8
AM_11
 48
0.5
100
AcDbEllipse
 10
-124.0861956865524
 20
25.57825854459776
 30
0.0
 11
-29.52377541859908
 21
0.0000000000001723
 31
0.0
210
0.0
220
0.0
230
1.0
 40
0.9578947368421049
 41
1.130070686340283
 42
2.011520147323574
  0
ELLIPSE
  5
2BF5
330
1F
100
AcDbEntity
  8
AM_11
 48
0.5
100
AcDbEllipse
 10
-124.0861956865538
 20
-25.57823997714904
 30
0.0
 11
-29.52377541859895
 21
0.0000000000005328
 31
0.0
210
0.0
220
0.0
230
1.0
 40
0.9578947368421083
 41
4.271664206181676
 42
5.153113667164986
  0
LINE
  5
2C0E
330
1F
100
AcDbEntity
  8
AM_0
 48
0.5
100
AcDbLine
 10
-72.99999999999994
 20
-6.99999999999942
 30
0.0
 11
-72.99999999999994
 21
7.000000000000577
 31
0.0
  0
DIMENSION
  5
2D60
330
1F
100
AcDbEntity
  8
AM_5
100
AcDbDimension
  2
*D7
 10
8.319877161917005
 20
-6.800039734532444
 30
0.0
 11
6.619901030986688
 21
-0.0000337673512371
 31
0.0
 70
    32
  1
%%c<>
 51
359.9999999999998
  3
AM_JIS$0
100
AcDbAlignedDimension
 13
-2.999999999999892
 23
6.800000000000026
 33
0.0
 14
-3.000000000000073
 24
-6.800000000000352
 34
0.0
 50
89.99979888288933
100
AcDbRotatedDimension
1001
ACAD
1000
DSTYLE
1002
{
1070
   271
1070
     1
1002
}
1001
GENIUS_GENDTOL_13
1000

1000
h7
1000

1040
0.0
  0
LINE
  5
2FB7
330
1F
100
AcDbEntity
  8
AM_0
100
AcDbLine
 10
-72.99999999999994
 20
7.000000000000555
 30
0.0
 11
-72.65366075317129
 21
6.800040942613116
 31
0.0
  0
LINE
  5
2FB9
330
1F
100
AcDbEntity
  8
AM_0
100
AcDbLine
 10
-72.99999999999991
 20
-6.999999999999622
 30
0.0
 11
-72.65358947567048
 21
-6.799999790527914
 31
0.0
  0
LINE
  5
324C
330
1F
100
AcDbEntity
  8
AM_0
100
AcDbLine
 10
-136.25
 20
-6.999999999999375
 30
0.0
 11
-72.99999999999994
 21
-6.99999999999942
 31
0.0
  0
DIMENSION
  5
324F
330
1F
100
AcDbEntity
  8
AM_5
100
AcDbDimension
  2
*D8
 10
-146.500001
 20
7.000000000000626
 30
0.0
 11
-146.500001
 21
0.0000129000665754
 31
0.0
 70
   160
  1
%%c<>
 51
359.9999999999997
  3
AM_JIS$0
100
AcDbAlignedDimension
 13
-136.2499999999993
 23
-7.000000000000004
 33
0.0
 14
-136.2499999999999
 24
7.000000000000622
 34
0.0
 50
270.0
100
AcDbRotatedDimension
1001
ACAD
1000
DSTYLE
1002
{
1070
   271
1070
     0
1002
}
1001
GENIUS_GENDTOL_13
1000

1000
h7
1000

1040
0.0
  0
LINE
  5
325C
330
1F
100
AcDbEntity
  8
AM_0
 48
0.5
100
AcDbLine
 10
-136.2499999999999
 20
-6.999999999999375
 30
0.0
 11
-136.2499999999999
 21
7.000000000000622
 31
0.0
  0
LINE
  5
325D
330
1F
100
AcDbEntity
  8
AM_0
 48
0.5
100
AcDbLine
 10
-137.0
 20
-6.249999999999374
 30
0.0
 11
-136.9999999999999
 21
6.250000000000623
 31
0.0
  0
LINE
  5
325E
330
1F
100
AcDbEntity
  8
AM_0
100
AcDbLine
 10
-72.99999999999994
 20
7.000000000000576
 30
0.0
 11
-136.2499999999999
 21
7.000000000000622
 31
0.0
  0
ELLIPSE
  5
353A
330
1F
100
AcDbEntity
  8
AM_11
 48
0.5
100
AcDbEllipse
 10
-149.2755360592989
 20
-25.57823997714843
 30
0.0
 11
29.523775418599
 21
0.0000000000004935
 31
0.0
210
0.0
220
0.0
230
1.0
 40
0.957894736842107
 41
1.13007155259185
 42
1.141990804268682
  0
ELLIPSE
  5
353B
330
1F
100
AcDbEntity
  8
AM_11
 48
0.5
100
AcDbEllipse
 10
-149.2755360592975
 20
25.57825854459837
 30
0.0
 11
-29.52377541859904
 21
0.0000000000006574
 31
0.0
210
0.0
220
0.0
230
1.0
 40
0.9578947368421056
 41
1.999601849321061
 42
2.011520147323591
  0
LINE
  5
3921
330
1F
100
AcDbEntity
  8
AM_0
 48
0.5
100
AcDbLine
 10
-136.2499999999999
 20
7.000000000000622
 30
0.0
 11
-136.9999999999999
 21
6.250000000000623
 31
0.0
1001
GENIUS_GENFIL_13
1070
     0
1040
0.75
1040
0.75
1040
20.0
1040
0.0
1002
{
1002
}
1001
GENIUS_GENODEF_13
1002
{
1000
HIER
1070
     0
1002
}
1002
{
1000
MANEDIT
1070
     0
1002
}
1002
{
1000
NOSEL
1070
     0
1002
}
1002
{
1000
BEHIND
1070
     0
1002
}
1002
{
1000
REACTOR
1002
}
1001
GENIUS_GENOBJ-N-CHA_13
1002
{
1000
OWNER
1000
GEN
1002
}
  0
LINE
  5
3924
330
1F
100
AcDbEntity
  8
AM_0
100
AcDbLine
 10
-137.0
 20
-6.249999999999374
 30
0.0
 11
-136.25
 21
-6.999999999999375
 31
0.0
1001
GENIUS_GENFIL_13
1070
     0
1040
0.75
1040
0.75
1040
20.0
1040
0.0
1002
{
1002
}
1001
GENIUS_GENODEF_13
1002
{
1000
HIER
1070
     0
1002
}
1002
{
1000
MANEDIT
1070
     0
1002
}
1002
{
1000
NOSEL
1070
     0
1002
}
1002
{
1000
BEHIND
1070
     0
1002
}
1002
{
1000
REACTOR
1002
}
1001
GENIUS_GENOBJ-N-CHA_13
1002
{
1000
OWNER
1000
GEN
1002
}
  0
ELLIPSE
  5
3976
330
1F
100
AcDbEntity
  8
AM_0
 48
0.5
100
AcDbEllipse
 10
6.427941069842418
 20
-6.82215150481584
 30
0.0
 11
-4.125194819158669
 21
-8.273242462115996
 31
0.0
210
0.0
220
0.0
230
-1.0
 40
0.9264225005910461
 41
1.312765717361252
 42
1.664773036319176
  0
LINE
  5
3977
330
1F
100
AcDbEntity
  8
AM_0
 48
0.5
100
AcDbLine
 10
-2.035492642575492
 20
-5.238137003253362
 30
0.0
 11
-3.000000000000073
 21
-6.800000000000352
 31
0.0
  0
DIMENSION
  5
39C8
330
1F
100
AcDbEntity
  8
AM_5
100
AcDbDimension
  2
*D9
 10
-0.815671185010801
 20
-2.241022735342982
 30
0.0
 11
12.48623098372245
 21
-0.0000138293745771
 31
0.0
 70
    34
  1
<>
 51
359.9999999999998
  3
AM_JIS$2
100
AcDb2LineAngularDimension
 13
0.0
 23
0.0
 33
0.0
 14
-0.8156548808968489
 24
2.240993385953359
 34
0.0
 15
0.0
 25
0.0000000000000154
 35
0.0
 16
12.88828925920117
 26
-5.559476612036854
 36
0.0
1001
GENIUS_GENDTOL_13
1000

1000
h7
1000

1040
0.0
1001
ACAD
1000
DSTYLE
1002
{
1070
   271
1070
     1
1070
   179
1070
     1
1002
}
  0
LINE
  5
3CE5
330
1F
100
AcDbEntity
  8
AM_0
100
AcDbLine
 10
-72.65366075317129
 20
6.800040942613106
 30
0.0
 11
-72.65368338314776
 21
-0.0696163098188933
 31
0.0
  0
ELLIPSE
  5
3D59
330
1F
100
AcDbEntity
  8
AM_0
 48
0.5
100
AcDbEllipse
 10
3.023189323224976
 20
8.163819062492418
 30
0.0
 11
-12.23888616759082
 21
10.68773947705387
 31
0.0
210
0.0
220
0.0
230
1.0
 40
0.8442703294306783
 41
1.287453071190635
 42
1.64081836742795
  0
LINE
  5
3D5E
330
1F
100
AcDbEntity
  8
AM_0
 48
0.5
100
AcDbLine
 10
-0.0000000000000167
 20
0.0000000000000423
 30
0.0
 11
-4.443180192990642
 21
2.610994152010509
 31
0.0
  0
ELLIPSE
  5
3D65
330
1F
100
AcDbEntity
  8
AM_11
 48
0.5
100
AcDbEllipse
 10
1.86077401039995
 20
25.9629371803957
 30
0.0
 11
-29.52377541860006
 21
0.0000000000180494
 31
0.0
210
0.0
220
0.0
230
1.0
 40
0.9723007856340966
 41
1.13007068634088
 42
1.291800737381565
  0
SPLINE
  5
3D6C
330
1F
100
AcDbEntity
  8
AM_0
 48
0.5
100
AcDbSpline
210
0.0
220
0.0
230
1.0
 70
     8
 71
     3
 72
    10
 73
     6
 74
     0
 42
0.0000000001
 43
0.0000000001
 40
0.0
 40
0.0
 40
0.0
 40
0.0
 40
2.69986029516136
 40
4.147722969032201
 40
6.285750005020438
 40
6.285750005020438
 40
6.285750005020438
 40
6.285750005020438
 10
-9.061890443300685
 20
1.230764456373015
 30
0.0
 10
-8.044544002265919
 20
0.5989974662551464
 30
0.0
 10
-6.784461986000873
 20
-0.3715692185042299
 30
0.0
 10
-3.80453728739778
 20
0.0982991164815459
 30
0.0
 10
-4.365743784598499
 20
1.680877841548865
 30
0.0
 10
-4.443180192990642
 20
2.610994152010509
 30
0.0
  0
ELLIPSE
  5
3D6F
330
1F
100
AcDbEntity
  8
AM_0
 48
0.5
100
AcDbEllipse
 10
-16.93721493653155
 20
30.29593133823019
 30
0.0
 11
0.0000000000536521
 21
35.02897415248436
 31
0.0
210
0.0
220
0.0
230
1.0
 40
0.9632352941177369
 41
3.579847691618613
 42
3.667473607415685
  0
ELLIPSE
  5
3D70
330
1F
100
AcDbEntity
  8
AM_0
 48
0.5
100
AcDbEllipse
 10
-8.85345340353767
 20
6.937285596750562
 30
0.0
 11
-0.0000000000012771
 21
10.56481088994616
 31
0.0
210
0.0
220
0.0
230
1.0
 40
0.9632352941176369
 41
3.517054509082546
 42
3.681821570856052
  0
ELLIPSE
  5
3D71
330
1F
100
AcDbEntity
  8
AM_0
 48
0.5
100
AcDbEllipse
 10
-3.119842409097987
 20
-1.769765400087091
 30
0.0
 11
-0.1968239868086126
 21
1.115916922519509
 31
0.0
210
0.0
220
0.0
230
1.0
 40
0.5018108671515558
 41
1.803300994111673
 42
4.938642883823649
  0
ELLIPSE
  5
3D72
330
1F
100
AcDbEntity
  8
AM_0
 48
0.5
100
AcDbEllipse
 10
-3.11994066564836
 20
-1.772177183845633
 30
0.0
 11
-0.9878756995585057
 21
0.5650957956894006
 31
0.0
210
0.0
220
0.0
230
1.0
 40
0.4986023749173336
 41
4.480641451409677
 42
7.62408179273919
  0
ELLIPSE
  5
3D73
330
1F
100
AcDbEntity
  8
AM_0
 48
0.5
100
AcDbEllipse
 10
5.762601090860454
 20
-1.816040132716197
 30
0.0
 11
-10.4629859756176
 21
5.178742842043331
 31
0.0
210
0.0
220
0.0
230
1.0
 40
0.8173662612306916
 41
0.6522761438376512
 42
1.06636180229977
  0
LINE
  5
3E02
330
1F
100
AcDbEntity
  8
AM_0
 48
0.5
100
AcDbLine
 10
-7.688035858001574
 20
-6.799999296882097
 30
0.0
 11
-3.000000000000076
 21
-6.800000000000356
 31
0.0
  0
LINE
  5
3E03
330
1F
100
AcDbEntity
  8
AM_0
 48
0.5
100
AcDbLine
 10
-57.83199978713464
 20
3.160266535829889
 30
0.0
 11
-72.99999999999994
 21
-0.1450842613972741
 31
0.0
  0
LINE
  5
3E04
330
1F
100
AcDbEntity
  8
AM_11
 48
0.5
100
AcDbLine
 10
-70.58583774446181
 20
-6.799999913178051
 30
0.0
 11
-53.45441161764289
 21
-6.799999296880423
 31
0.0
  0
LINE
  5
3E05
330
1F
100
AcDbEntity
  8
AM_0
 48
0.5
100
AcDbLine
 10
-53.66808207559792
 20
-6.799999296880417
 30
0.0
 11
-29.87960557730697
 21
-6.79999999999959
 31
0.0
  0
LINE
  5
3E06
330
1F
100
AcDbEntity
  8
AM_11
 48
0.5
100
AcDbLine
 10
-29.87960557730697
 20
-6.79999999999959
 30
0.0
 11
-7.688035858001574
 21
-6.799999296882097
 31
0.0
  0
SPLINE
  5
3E07
330
1F
100
AcDbEntity
  8
AM_0
100
AcDbSpline
210
0.0
220
0.0
230
1.0
 70
     8
 71
     3
 72
    13
 73
     9
 74
     0
 42
0.0000000001
 43
0.0000000001
 40
16.03460056234195
 40
16.03460056234195
 40
16.03460056234195
 40
16.03460056234195
 40
16.35212717791071
 40
17.38177067057215
 40
18.41822498539278
 40
19.46214186516937
 40
20.5139635832251
 40
21.34083983469381
 40
21.34083983469381
 40
21.34083983469381
 40
21.34083983469381
 10
-70.58583872644728
 20
-6.799999999999072
 30
0.0
 10
-70.33711443699923
 20
-6.778009369454733
 30
0.0
 10
-69.82413185597974
 20
-6.678046924186999
 30
0.0
 10
-68.92050875537917
 20
-6.482178108143539
 30
0.0
 10
-67.75031368939895
 20
-6.190927528686064
 30
0.0
 10
-66.58120574264716
 20
-5.863900549041367
 30
0.0
 10
-65.49939629130284
 20
-5.529649624305612
 30
0.0
 10
-64.80922091190635
 20
-5.299494075221327
 30
0.0
 10
-64.17768206978802
 20
-5.005650240393832
 30
0.0
  0
SPLINE
  5
3E08
330
1F
100
AcDbEntity
  8
AM_0
 48
0.5
100
AcDbSpline
210
0.0
220
0.0
230
1.0
 70
     8
 71
     3
 72
    22
 73
    18
 74
     0
 42
0.0000000001
 43
0.0000000001
 40
0.0
 40
0.0
 40
0.0
 40
0.0
 40
1.010743684496582
 40
2.022833993863546
 40
3.037578683882831
 40
4.056212471389632
 40
5.079857945358201
 40
6.109499720892564
 40
7.145961650132166
 40
8.189873411961459
 40
9.241710626092514
 40
10.30166235592959
 40
11.36982472628033
 40
12.44598212828784
 40
13.52983440361964
 40
14.62080578343036
 40
14.90544694398022
 40
14.90544694398022
 40
14.90544694398022
 40
14.90544694398022
 10
-53.03192219933686
 20
-6.799999999999284
 30
0.0
 10
-53.42463853833361
 20
-6.796301239325358
 30
0.0
 10
-54.21020093726014
 20
-6.788206597508263
 30
0.0
 10
-55.38825695194726
 20
-6.722917028495328
 30
0.0
 10
-56.56626518892307
 20
-6.619170043201508
 30
0.0
 10
-57.74419987045394
 20
-6.473740079822464
 30
0.0
 10
-58.92204605657293
 20
-6.288598457321377
 30
0.0
 10
-60.09979145963607
 20
-6.064621631462109
 30
0.0
 10
-61.27741882149319
 20
-5.803257361471215
 30
0.0
 10
-62.45493623992095
 20
-5.506127044715891
 30
0.0
 10
-63.63233310964189
 20
-5.175085913220524
 30
0.0
 10
-64.80961558361649
 20
-4.812148720600998
 30
0.0
 10
-65.98679125099096
 20
-4.419625002150866
 30
0.0
 10
-67.16385922756829
 20
-3.999848294759522
 30
0.0
 10
-68.34084156433021
 20
-3.555492766108357
 30
0.0
 10
-69.22542604314344
 20
-3.205070354276902
 30
0.0
 10
-69.71834738352626
 20
-3.004780167699458
 30
0.0
 10
-70.75360934724251
 20
-2.627877535679593
 30
0.0
  0
SPLINE
  5
3E09
330
1F
100
AcDbEntity
  8
AM_0
100
AcDbSpline
210
0.0
220
0.0
230
1.0
 70
     8
 71
     3
 72
    11
 73
     7
 74
     0
 42
0.0000000001
 43
0.0000000001
 40
11.27226913003534
 40
11.27226913003534
 40
11.27226913003534
 40
11.2722691300354
 40
12.28301561507924
 40
13.29510212255852
 40
14.30984805882082
 40
15.18258238371378
 40
15.18258238371378
 40
15.18258238371378
 40
15.18258238371378
 10
-29.87960557730704
 20
-6.799999999999593
 30
0.0
 10
-30.2706279592766
 20
-6.76671812081405
 30
0.0
 10
-31.05194458225041
 20
-6.686145842011499
 30
0.0
 10
-32.21988494332846
 20
-6.523611626160873
 30
0.0
 10
-33.32828093998701
 20
-6.329482326509029
 30
0.0
 10
-34.04512640908599
 20
-6.180249356208078
 30
0.0
 10
-34.3754692134029
 20
-6.106532390842579
 30
0.0
  0
SPLINE
  5
3E0A
330
1F
100
AcDbEntity
  8
AM_0
100
AcDbSpline
210
0.0
220
0.0
230
1.0
 70
     8
 71
     3
 72
    17
 73
    13
 74
     0
 42
0.0000000001
 43
0.0000000001
 40
1.580019955310467
 40
1.580019955310467
 40
1.580019955310467
 40
1.580019955310467
 40
2.030549285115227
 40
3.082371838836284
 40
4.126290986361125
 40
5.162752068350215
 40
6.192395305374981
 40
7.216039564037012
 40
8.234688489606833
 40
9.249433870634691
 40
10.26152376260694
 40
11.27226744710342
 40
11.27226744710342
 40
11.27226744710342
 40
11.27226744710352
 10
-18.7829526787325
 20
-5.018599533696076
 30
0.0
 10
-18.94962811591294
 20
-5.070286946993859
 30
0.0
 10
-19.50638007274144
 20
-5.239699347918224
 30
0.0
 10
-20.45689373175498
 20
-5.505428760448987
 30
0.0
 10
-21.63424551219197
 20
-5.803010451065532
 30
0.0
 10
-22.81192141647184
 20
-6.064247665016189
 30
0.0
 10
-23.98965128145051
 20
-6.288263109022628
 30
0.0
 10
-25.16750945798722
 20
-6.473427283926806
 30
0.0
 10
-26.34544900936548
 20
-6.618683539428634
 30
0.0
 10
-27.52346190868949
 20
-6.723090566389147
 30
0.0
 10
-28.70151913277213
 20
-6.785976284650776
 30
0.0
 10
-29.48708123194638
 20
-6.799999335791145
 30
0.0
 10
-29.87960557730698
 20
-6.799999999999593
 30
0.0
  0
SPLINE
  5
3E0B
330
1F
100
AcDbEntity
  8
AM_0
100
AcDbSpline
210
0.0
220
0.0
230
1.0
 70
     8
 71
     3
 72
    22
 73
    18
 74
     0
 42
0.0000000001
 43
0.0000000001
 40
17.17441611292
 40
17.17441611292
 40
17.17441611292
 40
17.17441611292
 40
17.38177636558528
 40
18.41823744757437
 40
19.46215659509824
 40
20.51397914882054
 40
21.57394542641293
 40
22.64209583141747
 40
23.71826625065247
 40
24.80210429862395
 40
25.8930771157021
 40
26.99048705697709
 40
28.09349309193389
 40
29.20112995599786
 40
30.31233024745139
 40
31.42594771747373
 40
32.5407895042663
 40
32.54078950426994
 40
32.54078950426994
 40
32.54078950426994
 10
-34.37598441844267
 20
-6.106448512894576
 30
0.0
 10
-34.45486880959895
 20
-6.090707179850604
 30
0.0
 10
-34.92773765330559
 20
-5.994824999709685
 30
0.0
 10
-35.7940067289229
 20
-5.802568749183542
 30
0.0
 10
-36.97152241684951
 20
-5.505444003345687
 30
0.0
 10
-38.14891811839926
 20
-5.174389499253034
 30
0.0
 10
-39.32620214591979
 20
-4.811471761206116
 30
0.0
 10
-40.50337294430078
 20
-4.418916011519791
 30
0.0
 10
-41.68044500314972
 20
-3.999165306022238
 30
0.0
 10
-42.85742377264118
 20
-3.554799297494362
 30
0.0
 10
-44.0343201426275
 20
-3.088558366762311
 30
0.0
 10
-45.21114719945013
 20
-2.603318925046774
 30
0.0
 10
-46.38791515725799
 20
-2.102064724348859
 30
0.0
 10
-47.56463586212299
 20
-1.587879565213044
 30
0.0
 10
-48.74131974465003
 20
-1.063925104343887
 30
0.0
 10
-49.91798423638761
 20
-0.5334344239665226
 30
0.0
 10
-50.70227325411361
 20
-0.1776455774729627
 30
0.0
 10
-51.09463321281629
 20
0.0003465690060211
 30
0.0
  0
ELLIPSE
  5
3E0C
330
1F
100
AcDbEntity
  8
AM_0
 48
0.5
100
AcDbEllipse
 10
-71.17692627981738
 20
-4.37293640319403
 30
0.0
 11
1.547656717277598
 21
1.053962707276651
 31
0.0
210
0.0
220
0.0
230
1.0
 40
0.915059717803687
 41
0.7792464146585321
 42
2.607492596920368
  0
ELLIPSE
  5
3E0D
330
1F
100
AcDbEntity
  8
AM_0
 48
0.5
100
AcDbEllipse
 10
-70.67019212651195
 20
-4.533679199216478
 30
0.0
 11
-2.078680688038843
 21
1.117595751804196
 31
0.0
210
0.0
220
0.0
230
1.0
 40
0.9485234559870058
 41
0.5269168798214215
 42
2.078547110333953
  0
SPLINE
  5
3E0E
330
1F
100
AcDbEntity
  8
AM_0
 48
0.5
100
AcDbSpline
210
0.0
220
0.0
230
1.0
 70
     8
 71
     3
 72
    26
 73
    22
 74
     0
 42
0.0000000001
 43
0.0000000001
 40
0.0
 40
0.0
 40
0.0
 40
0.0
 40
0.8422864037471089
 40
1.685694647057321
 40
2.531315797913884
 40
3.380177287502886
 40
4.233214169721234
 40
5.09125020057522
 40
5.954967768899448
 40
6.824900391836836
 40
7.701419186604396
 40
8.584724417931369
 40
9.47485577056355
 40
10.37165251267315
 40
11.27486274211709
 40
12.18400675634887
 40
13.09851504074504
 40
14.01768673654235
 40
14.94071745659532
 40
15.8667176994736
 40
16.58504726436246
 40
16.58504726436246
 40
16.58504726436246
 40
16.58504726436246
 10
-49.73435900326808
 20
-6.800345865883949
 30
0.0
 10
-50.1268786486156
 20
-6.796300030800311
 30
0.0
 10
-50.91244073543492
 20
-6.788202971993433
 30
0.0
 10
-52.09049798379471
 20
-6.722931582425432
 30
0.0
 10
-53.268504948752
 20
-6.619167138132488
 30
0.0
 10
-54.446438993749
 20
-6.473737270792476
 30
0.0
 10
-55.62428842623798
 20
-6.288613062581988
 30
0.0
 10
-56.80202977888917
 20
-6.064616869567642
 30
0.0
 10
-57.97966226820367
 20
-5.80326209694051
 30
0.0
 10
-59.1571778627538
 20
-5.506136081960752
 30
0.0
 10
-60.33457377877875
 20
-5.175082441907071
 30
0.0
 10
-61.51185970629082
 20
-4.812161682171191
 30
0.0
 10
-62.68903076700166
 20
-4.419614721462724
 30
0.0
 10
-63.86610029859085
 20
-3.999849540179992
 30
0.0
 10
-65.04308403928918
 20
-3.555496338582948
 30
0.0
 10
-66.21998453211654
 20
-3.089250677703809
 30
0.0
 10
-67.39681055024755
 20
-2.604009235108153
 30
0.0
 10
-68.57358370470738
 20
-2.10276584573247
 30
0.0
 10
-69.75028454801337
 20
-1.588539203529421
 30
0.0
 10
-70.83819008051307
 20
-1.104290727268524
 30
0.0
 10
-71.53343747263036
 20
-0.7909228660257294
 30
0.0
 10
-72.99999999999994
 20
-0.145084261397292
 30
0.0
  0
LINE
  5
3E0F
330
1F
100
AcDbEntity
  8
AM_0
 48
0.5
100
AcDbLine
 10
-72.65358947567048
 20
-6.799999790527914
 30
0.0
 11
-70.58583774446181
 21
-6.799999913178051
 31
0.0
  0
LINE
  5
3E10
330
1F
100
AcDbEntity
  8
AM_0
 48
0.5
100
AcDbLine
 10
-7.688035859564172
 20
6.80000000000024
 30
0.0
 11
-2.999999999999889
 21
6.800000000000022
 31
0.0
  0
LINE
  5
3E11
330
1F
100
AcDbEntity
  8
AM_11
 48
0.5
100
AcDbLine
 10
-69.75528780127142
 20
6.800000000000917
 30
0.0
 11
-54.77991170988811
 21
6.800000000000733
 31
0.0
  0
LINE
  5
3E12
330
1F
100
AcDbEntity
  8
AM_0
 48
0.5
100
AcDbLine
 10
-54.77993082335254
 20
6.800000703119893
 30
0.0
 11
-29.87960087363085
 21
6.800000000001176
 31
0.0
  0
LINE
  5
3E13
330
1F
100
AcDbEntity
  8
AM_11
 48
0.5
100
AcDbLine
 10
-29.87960087363085
 20
6.800000000001176
 30
0.0
 11
-7.688035859564174
 21
6.800000000000241
 31
0.0
  0
SPLINE
  5
3E14
330
1F
100
AcDbEntity
  8
AM_0
 48
0.5
100
AcDbSpline
210
0.0
220
0.0
230
1.0
 70
     8
 71
     3
 72
    17
 73
    13
 74
     0
 42
0.0000000001
 43
0.0000000001
 40
0.0
 40
0.0
 40
0.0
 40
0.0
 40
1.010743614677189
 40
2.022833924044153
 40
3.037578959561199
 40
4.056212747067873
 40
5.079857613375832
 40
6.109500119648989
 40
7.14596120163808
 40
8.18989512056258
 40
9.241717674284874
 40
9.693948937866434
 40
9.693948937866434
 40
9.693948937866434
 40
9.693948937866434
 10
-7.688035859564172
 20
6.800000000000241
 30
0.0
 10
-8.080555576298364
 20
6.795957080365945
 30
0.0
 10
-8.866117995230657
 20
6.787865854391703
 30
0.0
 10
-10.04417425184142
 20
6.722576606584254
 30
0.0
 10
-11.22218200855991
 20
6.618823134838237
 30
0.0
 10
-12.40011650322113
 20
6.47339302011084
 30
0.0
 10
-13.57796370696652
 20
6.28825862857212
 30
0.0
 10
-14.75570923355681
 20
6.064278309518131
 30
0.0
 10
-15.93333727566764
 20
5.802893898335527
 30
0.0
 10
-17.11089352999417
 20
5.505865102197368
 30
0.0
 10
-18.06144764477013
 20
5.238287056208179
 30
0.0
 10
-18.61966875298066
 20
5.071012298058239
 30
0.0
 10
-18.78721678073277
 20
5.019810614374926
 30
0.0
  0
SPLINE
  5
3E15
330
1F
100
AcDbEntity
  8
AM_0
 48
0.5
100
AcDbSpline
210
0.0
220
0.0
230
1.0
 70
     8
 71
     3
 72
    25
 73
    21
 74
     0
 42
0.0000000001
 43
0.0000000001
 40
6.846175049578289
 40
6.846175049578289
 40
6.846175049578289
 40
6.846175049578289
 40
7.604337694224321
 40
8.711974558287883
 40
9.814980593243754
 40
10.91239053451967
 40
12.0033633515982
 40
13.08720139956839
 40
14.16337181880432
 40
15.23152222380919
 40
16.29148850140128
 40
17.34331105512262
 40
18.38723020264746
 40
19.42369128463655
 40
20.45333379090873
 40
21.47697865721768
 40
22.49561244472435
 40
23.5103574802404
 40
24.52244778960836
 40
25.53320666051913
 40
25.53320666051913
 40
25.53320666051913
 40
25.53320666051913
 10
-9.061947120714684
 20
1.230845221703658
 30
0.0
 10
-9.329561401494245
 20
1.350241127948192
 30
0.0
 10
-9.988709671696543
 20
1.642873584764495
 30
0.0
 10
-11.04037149574702
 20
2.102411884601337
 30
0.0
 10
-12.21713938924339
 20
2.60366622693968
 30
0.0
 10
-13.39396646316141
 20
3.088905630938691
 30
0.0
 10
-14.57086282863885
 20
3.555146571861162
 30
0.0
 10
-15.74784159920558
 20
3.999512577056108
 30
0.0
 10
-16.92491365821827
 20
4.419263285755749
 30
0.0
 10
-18.10208445490063
 20
4.811819026035359
 30
0.0
 10
-19.27936848897698
 20
5.174736798155221
 30
0.0
 10
-20.45676416626423
 20
5.505791176701348
 30
0.0
 10
-21.63427994374847
 20
5.802916385817836
 30
0.0
 10
-22.81191166592233
 20
6.064273563910805
 30
0.0
 10
-23.98965473236117
 20
6.288260778470853
 30
0.0
 10
-25.16750258947839
 20
6.473393338346232
 30
0.0
 10
-26.34543691043422
 20
6.618823941304636
 30
0.0
 10
-27.52344471319702
 20
6.722577278937367
 30
0.0
 10
-28.70150687515039
 20
6.787866905540682
 30
0.0
 10
-29.48707522667854
 20
6.795957879084561
 30
0.0
 10
-29.87960087363085
 20
6.800000000001176
 30
0.0
  0
SPLINE
  5
3E16
330
1F
100
AcDbEntity
  8
AM_0
100
AcDbSpline
210
0.0
220
0.0
230
1.0
 70
     8
 71
     3
 72
    23
 73
    19
 74
     0
 42
0.0000000001
 43
0.0000000001
 40
16.03460024169435
 40
16.03460024169435
 40
16.03460024169435
 40
16.03460024169435
 40
16.35212704903564
 40
17.38177054169784
 40
18.41822485651776
 40
19.46214173629503
 40
20.51396345435107
 40
21.57393551351153
 40
22.64208202342361
 40
23.7182574881101
 40
24.80209208578934
 40
25.89306333925047
 40
26.99048218457928
 40
28.09348763352352
 40
29.20111863782268
 40
30.31232390128032
 40
31.42594612798585
 40
32.5407912310448
 40
32.5407912310486
 40
32.5407912310486
 40
32.5407912310486
 10
-69.75528780127142
 20
6.800000000000917
 30
0.0
 10
-68.85406324224681
 20
6.719234716453231
 30
0.0
 10
-68.30770465080793
 20
6.677079209488088
 30
0.0
 10
-67.40408105762819
 20
6.481212680232271
 30
0.0
 10
-66.23388613891171
 20
6.189961293204378
 30
0.0
 10
-65.06477815227795
 20
5.862934532263319
 30
0.0
 10
-63.89668801420365
 20
5.502025061500387
 30
0.0
 10
-62.72957426709977
 20
5.109244959294785
 30
0.0
 10
-61.56336945458884
 20
4.686839522351238
 30
0.0
 10
-60.39799236660034
 20
4.237267044358383
 30
0.0
 10
-59.23337678222253
 20
3.76307342804734
 30
0.0
 10
-58.06942933000098
 20
3.267017895581836
 30
0.0
 10
-56.90605568501067
 20
2.751983736036536
 30
0.0
 10
-55.74317833498382
 20
2.220932179912666
 30
0.0
 10
-54.58069998338497
 20
1.67695121928454
 30
0.0
 10
-53.41851296009897
 20
1.123217303866729
 30
0.0
 10
-52.25652263029523
 20
0.5629391717532263
 30
0.0
 10
-51.48207048389092
 20
0.1873033198627502
 30
0.0
 10
-51.09463321281111
 20
-0.0006201975231929
 30
0.0
  0
SPLINE
  5
3E17
330
1F
100
AcDbEntity
  8
AM_0
100
AcDbSpline
210
0.0
220
0.0
230
1.0
 70
     8
 71
     3
 72
    46
 73
    42
 74
     0
 42
0.0000000001
 43
0.0000000001
 40
0.0
 40
0.0
 40
0.0
 40
0.0
 40
1.685415058684571
 40
2.531036209541119
 40
3.379897699130121
 40
4.232934581347655
 40
5.090970612202441
 40
5.954688180526682
 40
6.824620803463246
 40
7.701151815239689
 40
8.584457046566678
 40
9.474582384070741
 40
10.37139106676737
 40
11.27458944007583
 40
12.18373345430765
 40
13.09824173870457
 40
14.01741343450111
 40
14.9404441545541
 40
15.86644439743314
 40
16.79446029130534
 40
17.7234937712985
 40
18.65252725129241
 40
19.58054314516461
 40
20.50654338804289
 40
21.42957410809586
 40
22.34874580389317
 40
23.26325408828901
 40
24.17239810252111
 40
25.07560240389441
 40
25.97241108659103
 40
26.8625364240951
 40
27.74584165542183
 40
28.62236045019041
 40
29.49229307312697
 40
30.35601064145121
 40
31.21404606334468
 40
32.06708345193547
 40
32.91595755657689
 40
33.76157841950693
 40
34.60498701064689
 40
35.44727335621125
 40
35.44727335621125
 40
35.44727335621125
 40
35.44727335621125
 10
-4.390276043240119
 20
-6.799999296882247
 30
0.0
 10
-5.175876511276229
 20
-6.784508371235984
 30
0.0
 10
-6.355635301602768
 20
-6.761245203194418
 30
0.0
 10
-7.924412012300843
 20
-6.618018151234046
 30
0.0
 10
-9.102358723162188
 20
-6.473607182773244
 30
0.0
 10
-10.28020474762128
 20
-6.288208029766312
 30
0.0
 10
-11.45794698282841
 20
-6.064286011904014
 30
0.0
 10
-12.63557937849071
 20
-5.802911667195522
 30
0.0
 10
-13.81309996225089
 20
-5.505787683577159
 30
0.0
 10
-14.99050349372643
 20
-5.174738446292127
 30
0.0
 10
-16.16779232626458
 20
-4.811817245477515
 30
0.0
 10
-17.34496329331641
 20
-4.419261980689806
 30
0.0
 10
-18.52203530676324
 20
-3.999511144434327
 30
0.0
 10
-19.69901408741045
 20
-3.555145168925605
 30
0.0
 10
-20.8759104586755
 20
-3.088904238280139
 30
0.0
 10
-22.05273749897357
 20
-2.603664762577123
 30
0.0
 10
-23.2295055220763
 20
-2.102410698760555
 30
0.0
 10
-24.40622598090572
 20
-1.588225023183214
 30
0.0
 10
-25.58291135205314
 20
-1.064272247386323
 30
0.0
 10
-26.75957238461625
 20
-0.5337743126345224
 30
0.0
 10
-27.93622352595904
 20
0.0000007030107534
 30
0.0
 10
-29.1128746670433
 20
0.5337757193046735
 30
0.0
 10
-30.28953570038177
 20
1.064273652111489
 30
0.0
 10
-31.46622106869517
 20
1.588226435016433
 30
0.0
 10
-32.64294153803335
 20
2.102412084232591
 30
0.0
 10
-33.8197095221705
 20
2.603666245793755
 30
0.0
 10
-34.99653670677144
 20
3.08890535951415
 30
0.0
 10
-36.17343510278468
 20
3.555148642724588
 30
0.0
 10
-37.35041845660362
 20
3.99951058094316
 30
0.0
 10
-38.52749256976651
 20
4.419263569537181
 30
0.0
 10
-39.70466350941043
 20
4.811818951130974
 30
0.0
 10
-40.88194750577983
 20
5.174736817009888
 30
0.0
 10
-42.05934319245773
 20
5.505791175346193
 30
0.0
 10
-43.23685896965789
 20
5.802916372748543
 30
0.0
 10
-44.41449068376843
 20
6.064273616975214
 30
0.0
 10
-45.59223378242409
 20
6.288260581046586
 30
0.0
 10
-46.77008732398739
 20
6.47339498168571
 30
0.0
 10
-47.94802796518797
 20
6.618822576461928
 30
0.0
 10
-49.12604148500273
 20
6.72257750768189
 30
0.0
 10
-50.30409776583205
 20
6.78786650814728
 30
0.0
 10
-51.0896601815417
 20
6.795957767038135
 30
0.0
 10
-51.4821798966655
 20
6.800000703119756
 30
0.0
  0
SPLINE
  5
3E18
330
1F
100
AcDbEntity
  8
AM_0
100
AcDbSpline
210
0.0
220
0.0
230
1.0
 70
     8
 71
     3
 72
    55
 73
    51
 74
     0
 42
0.0000000001
 43
0.0000000001
 40
0.0
 40
0.0
 40
0.0
 40
0.0
 40
1.010743684496582
 40
2.022833576467832
 40
3.037578957496688
 40
4.056212745003489
 40
5.079857003664532
 40
6.109500240690281
 40
7.145961322679372
 40
8.189895241603872
 40
9.241717795325891
 40
10.30168407291828
 40
11.36983447792315
 40
12.44600489715814
 40
13.52984294512926
 40
14.62081576220742
 40
15.7182257034828
 40
16.82123173843959
 40
17.92886860250316
 40
19.0400688939571
 40
20.15368796660465
 40
21.26852814259644
 40
22.38336992938901
 40
23.49698739941135
 40
24.6081876908653
 40
25.71582455492886
 40
26.81883757994213
 40
27.91624752121713
 40
29.00722033829659
 40
30.09105838626677
 40
31.16722880550176
 40
32.23537921050758
 40
33.29534548809967
 40
34.347168041821
 40
35.39108718934584
 40
36.42754827133493
 40
37.45720575381954
 40
38.48085062012849
 40
39.49948440763516
 40
40.51422944315121
 40
41.52631975251916
 40
42.53706336719636
 40
43.54780698187354
 40
44.55989729124051
 40
45.57464232675757
 40
46.59327611426424
 40
47.6169209805722
 40
48.64656348684535
 40
49.68302456883444
 40
50.58557219878025
 40
50.58557219878025
 40
50.58557219878025
 40
50.58557219878025
 10
-7.688035858001571
 20
-6.799999296882098
 30
0.0
 10
-8.080555503301878
 20
-6.795953461622157
 30
0.0
 10
-8.866117590026355
 20
-6.787856402462466
 30
0.0
 10
-10.04417483909622
 20
-6.722585015545647
 30
0.0
 10
-11.22218180134395
 20
-6.618820561136492
 30
0.0
 10
-12.40011585652603
 20
-6.473390731822724
 30
0.0
 10
-13.57796525071488
 20
-6.288266380618182
 30
0.0
 10
-14.75570674757542
 20
-6.064270726011096
 30
0.0
 10
-15.93334428660075
 20
-5.802912682569727
 30
0.0
 10
-17.11086742452588
 20
-5.505792681901864
 30
0.0
 10
-18.28826814027216
 20
-5.174735022787143
 30
0.0
 10
-19.46555230253128
 20
-4.811817719929958
 30
0.0
 10
-20.64272306430498
 20
-4.419261852103771
 30
0.0
 10
-21.81979513339904
 20
-3.999511179301787
 30
0.0
 10
-22.99677389888785
 20
-3.555145159342612
 30
0.0
 10
-24.17367027458695
 20
-3.088904241419985
 30
0.0
 10
-25.35049731243644
 20
-2.603664759664387
 30
0.0
 10
-26.52726534089875
 20
-2.102410707304947
 30
0.0
 10
-27.70398578064163
 20
-1.588224991756314
 30
0.0
 10
-28.88067122307386
 20
-1.064272365009376
 30
0.0
 10
-30.0573319888468
 20
-0.5337738724877111
 30
0.0
 10
-31.23398469423317
 20
-0.0000006843281188
 30
0.0
 10
-32.41063211743343
 20
0.5337821120815115
 30
0.0
 10
-33.58729682711677
 20
1.064272343338447
 30
0.0
 10
-34.76398081691504
 20
1.588226556060158
 30
0.0
 10
-35.94070335473745
 20
2.102414230427185
 30
0.0
 10
-37.11747626499803
 20
2.603664004996522
 30
0.0
 10
-38.29430516019149
 20
3.088905947591446
 30
0.0
 10
-39.47120170579532
 20
3.555146487440759
 30
0.0
 10
-40.64818042845764
 20
3.999512600848438
 30
0.0
 10
-41.82525250056568
 20
4.419263274264433
 30
0.0
 10
-43.00242329232284
 20
4.811819048224599
 30
0.0
 10
-44.17970733307337
 20
5.174736721653732
 30
0.0
 10
-45.35710298878391
 20
5.505791457533566
 30
0.0
 10
-46.53461884508847
 20
5.802915349732129
 30
0.0
 10
-47.71225594727142
 20
6.064278648754955
 30
0.0
 10
-48.89000585360096
 20
6.288248719948897
 30
0.0
 10
-50.06785913907137
 20
6.473430371053601
 30
0.0
 10
-51.2457935434458
 20
6.618687812075735
 30
0.0
 10
-52.42380132420855
 20
6.723082390216867
 30
0.0
 10
-53.60185757442628
 20
6.785987840485088
 30
0.0
 10
-54.77993971171565
 20
6.807002469938069
 30
0.0
 10
-55.95802184727162
 20
6.785987840452237
 30
0.0
 10
-57.13607810269959
 20
6.72308239034923
 30
0.0
 10
-58.31408586427972
 20
6.618687811577849
 30
0.0
 10
-59.49202034057453
 20
6.47343037292586
 30
0.0
 10
-60.66986761340978
 20
6.288249615700864
 30
0.0
 10
-61.847612879853
 20
6.064280938728427
 30
0.0
 10
-62.97170537867508
 20
5.814779588807238
 30
0.0
 10
-63.70102939344014
 20
5.632316892905562
 30
0.0
 10
-64.03939322821313
 20
5.543393920126335
 30
0.0
  0
LINE
  5
3E19
330
1F
100
AcDbEntity
  8
AM_0
 48
0.5
100
AcDbLine
 10
-68.94189973754063
 20
6.800106731876166
 30
0.0
 11
-72.65366075317128
 21
6.800040942613106
 31
0.0
  0
LINE
  5
3E1B
330
1F
100
AcDbEntity
  8
AM_0
100
AcDbLine
 10
-72.6537017373819
 20
-5.64131001937296
 30
0.0
 11
-72.65370555432958
 21
-6.79999979052103
 31
0.0
  0
LINE
  5
3E1C
330
1F
100
AcDbEntity
  8
AM_0
100
AcDbLine
 10
-72.65368413436076
 20
-0.2976578954711007
 30
0.0
 11
-72.65369454716307
 21
-3.458614911322236
 31
0.0
  0
VIEWPORT
  5
110
330
101
100
AcDbEntity
 67
     1
  8
0
100
AcDbViewport
 10
420.5
 20
297.0
 30
0.0
 40
948.9782706766916
 41
628.452
 68
     1
 69
     1
1001
ACAD
1000
MVIEW
1002
{
1070
    16
1010
0.0
1020
0.0
1030
0.0
1010
0.0
1020
0.0
1030
1.0
1040
0.0
1040
628.452
1040
420.5
1040
297.0
1040
50.0
1040
0.0
1040
0.0
1070
     0
1070
   100
1070
     1
1070
     1
1070
     0
1070
     0
1070
     0
1070
     0
1040
0.0
1040
0.0
1040
0.0
1040
10.0
1040
10.0
1040
10.0
1040
10.0
1070
     0
1002
{
1002
}
1002
}
  0
ENDSEC
  0
SECTION
  2
OBJECTS
  0
DICTIONARY
  5
C
330
0
100
AcDbDictionary
  3
ACAD_GROUP
350
D
  3
ACAD_LAYOUT
350
1A
  3
ACAD_MLINESTYLE
350
17
  3
ACAD_PLOTSETTINGS
350
19
  3
ACAD_PLOTSTYLENAME
350
E
  3
ACDBVARIABLEDICTIONARY
350
34
  3
ACMDICTIONARY
350
43
  3
AMG
350
2B
  3
AMGSNAPSETTINGS
350
6E
  3
DWGPROPS
350
3E90
  3
ACDBHEADERROUNDTRIPXREC
350
3E9C
  0
DICTIONARY
  5
74
330
1F
100
AcDbDictionary
280
     1
  3
ACAD_INDEX
360
3E92
  3
ACAD_LAYOUTSELFREF
360
3EBF
  0
DICTIONARY
  5
3EC4
330
101
100
AcDbDictionary
280
     1
  3
ACAD_LAYOUTSELFREF
360
3EC5
  0
DICTIONARY
  5
D
102
{ACAD_REACTORS
330
C
102
}
330
C
100
AcDbDictionary
  0
DICTIONARY
  5
1A
102
{ACAD_REACTORS
330
C
102
}
330
C
100
AcDbDictionary
  0
DICTIONARY
  5
17
102
{ACAD_REACTORS
330
C
102
}
330
C
100
AcDbDictionary
  3
STANDARD
350
18
  0
DICTIONARY
  5
19
102
{ACAD_REACTORS
330
C
102
}
330
C
100
AcDbDictionary
  0
ACDBDICTIONARYWDFLT
  5
E
102
{ACAD_REACTORS
330
C
102
}
330
C
100
AcDbDictionary
281
     1
  3
Normal
350
F
100
AcDbDictionaryWithDefault
340
F
  0
DICTIONARY
  5
34
102
{ACAD_REACTORS
330
C
102
}
330
C
100
AcDbDictionary
  3
INDEXCTL
350
35
  3
SORTENTS
350
B5E
  0
DICTIONARY
  5
43
102
{ACAD_REACTORS
330
C
102
}
330
C
100
AcDbDictionary
  3
ACMSTDDICTIONARY
350
260
  0
DICTIONARY
  5
2B
102
{ACAD_REACTORS
330
C
102
}
330
C
100
AcDbDictionary
  3
ACMGSETTINGS
350
2C
  0
DICTIONARY
  5
6E
102
{ACAD_REACTORS
330
C
102
}
330
C
100
AcDbDictionary
  0
XRECORD
  5
3E90
102
{ACAD_REACTORS
330
C
102
}
330
C
100
AcDbXrecord
  1
DWGPROPS COOKIE
  2

  3

  4

  6

  7

  8

  9

300
AmdtFileType=82
301
=
302
=
303
=
304
=
305
=
306
=
307
=
308
=
309
=
 40
0.0842259490740741
 41
2452800.443498622
 42
2452946.636037326
  1

 90
        1
  0
DICTIONARY
  5
3E9C
102
{ACAD_REACTORS
330
C
102
}
330
C
100
AcDbDictionary
  3
TSTACKALIGN
350
3E9D
  3
TSTACKSIZE
350
3E9E
  3
HYPERLINKBASE
350
3E9F
  3
STYLESHEET
350
3EA0
  3
LAYOUTDICT
350
3EA1
  3
PLOTSETDICT
350
3EA2
  3
PLOTSTYLNAMDICT
350
3EA3
  3
LWETCUNION
350
3EA4
  3
INSUNITS
350
3EA5
  3
CEPSNTYPE
350
3EA6
  3
FINGERPRINTGUID
350
3EA7
  3
VERSIONGUID
350
3EA8
  3
PSVPSCALE
350
3EA9
  3
DIMSTYLEDATA
350
3EAA
  3
PUCSORTHOREF
350
3EAB
  3
PUCSORTHOVIEW
350
3EAC
  3
PUCSBASE
350
3EAD
  3
PUCSORGTOP
350
3EAE
  3
PUCSORGBOTTOM
350
3EAF
  3
PUCSORGLEFT
350
3EB0
  3
PUCSORGRIGHT
350
3EB1
  3
PUCSORGFRONT
350
3EB2
  3
PUCSORGBACK
350
3EB3
  3
UCSORTHOREF
350
3EB4
  3
UCSORTHOVIEW
350
3EB5
  3
UCSBASE
350
3EB6
  3
UCSORGTOP
350
3EB7
  3
UCSORGBOTTOM
350
3EB8
  3
UCSORGLEFT
350
3EB9
  3
UCSORGRIGHT
350
3EBA
  3
UCSORGFRONT
350
3EBB
  3
UCSORGBACK
350
3EBC
  0
DICTIONARY
  5
3E92
102
{ACAD_REACTORS
330
74
102
}
330
74
100
AcDbDictionary
  3
*A1
350
3E93
  0
XRECORD
  5
3EBF
102
{ACAD_REACTORS
330
74
102
}
330
74
100
AcDbXrecord
340
1F
  0
XRECORD
  5
3EC5
102
{ACAD_REACTORS
330
3EC4
102
}
330
3EC4
100
AcDbXrecord
340
101
  0
MLINESTYLE
  5
18
102
{ACAD_REACTORS
330
17
102
}
330
17
100
AcDbMlineStyle
  2
STANDARD
 70
     0
  3

 62
   256
 51
90.0
 52
90.0
 71
     2
 49
0.5
 62
   256
  6
BYLAYER
 49
-0.5
 62
   256
  6
BYLAYER
  0
ACDBPLACEHOLDER
  5
F
102
{ACAD_REACTORS
330
E
102
}
330
E
100
AcDbPlaceHolder
280
     0
  0
DICTIONARYVAR
  5
35
102
{ACAD_REACTORS
330
34
102
}
330
34
100
DictionaryVariables
280
     0
  1
1
  0
DICTIONARYVAR
  5
B5E
102
{ACAD_REACTORS
330
34
102
}
330
34
100
DictionaryVariables
280
     0
  1
96
  0
DICTIONARY
  5
260
102
{ACAD_REACTORS
330
43
102
}
330
43
100
AcDbDictionary
  0
DICTIONARY
  5
2C
102
{ACAD_REACTORS
330
2B
102
}
330
2B
100
AcDbDictionary
  3
DWGSETTINGS
350
2D
  0
XRECORD
  5
3E9D
102
{ACAD_REACTORS
330
3E9C
102
}
330
3E9C
100
AcDbXrecord
 90
        1
  0
XRECORD
  5
3E9E
102
{ACAD_REACTORS
330
3E9C
102
}
330
3E9C
100
AcDbXrecord
 90
       70
  0
XRECORD
  5
3E9F
102
{ACAD_REACTORS
330
3E9C
102
}
330
3E9C
100
AcDbXrecord
  1

  0
XRECORD
  5
3EA0
102
{ACAD_REACTORS
330
3E9C
102
}
330
3E9C
100
AcDbXrecord
  1
ASAMI.ctb
  0
XRECORD
  5
3EA1
102
{ACAD_REACTORS
330
3E9C
102
}
330
3E9C
100
AcDbXrecord
340
1A
  0
XRECORD
  5
3EA2
102
{ACAD_REACTORS
330
3E9C
102
}
330
3E9C
100
AcDbXrecord
340
19
  0
XRECORD
  5
3EA3
102
{ACAD_REACTORS
330
3E9C
102
}
330
3E9C
100
AcDbXrecord
340
E
  0
XRECORD
  5
3EA4
102
{ACAD_REACTORS
330
3E9C
102
}
330
3E9C
100
AcDbXrecord
 90
    10781
  0
XRECORD
  5
3EA5
102
{ACAD_REACTORS
330
3E9C
102
}
330
3E9C
100
AcDbXrecord
 90
        4
  0
XRECORD
  5
3EA6
102
{ACAD_REACTORS
330
3E9C
102
}
330
3E9C
100
AcDbXrecord
 90
        0
  0
XRECORD
  5
3EA7
102
{ACAD_REACTORS
330
3E9C
102
}
330
3E9C
100
AcDbXrecord
  1
{AFB28963-8C59-40AE-9337-C84526B81ACE}
  0
XRECORD
  5
3EA8
102
{ACAD_REACTORS
330
3E9C
102
}
330
3E9C
100
AcDbXrecord
  1
{DB340B3C-AAE0-498F-98B2-6156F68F92F7}
  0
XRECORD
  5
3EA9
102
{ACAD_REACTORS
330
3E9C
102
}
330
3E9C
100
AcDbXrecord
 40
0.0
  0
XRECORD
  5
3EAA
102
{ACAD_REACTORS
330
3E9C
102
}
330
3E9C
100
AcDbXrecord
1000
DSTYLE
1002
{
1070
    79
 70
     2
1070
   341
340
59
1070
   342
340
59
1070
   371
 70
    -1
1070
   372
 70
    -1
1002
}
  0
XRECORD
  5
3EAB
102
{ACAD_REACTORS
330
3E9C
102
}
330
3E9C
100
AcDbXrecord
340
0
  0
XRECORD
  5
3EAC
102
{ACAD_REACTORS
330
3E9C
102
}
330
3E9C
100
AcDbXrecord
 70
     0
  0
XRECORD
  5
3EAD
102
{ACAD_REACTORS
330
3E9C
102
}
330
3E9C
100
AcDbXrecord
340
0
  0
XRECORD
  5
3EAE
102
{ACAD_REACTORS
330
3E9C
102
}
330
3E9C
100
AcDbXrecord
 10
0.0
 20
0.0
 30
0.0
  0
XRECORD
  5
3EAF
102
{ACAD_REACTORS
330
3E9C
102
}
330
3E9C
100
AcDbXrecord
 10
0.0
 20
0.0
 30
0.0
  0
XRECORD
  5
3EB0
102
{ACAD_REACTORS
330
3E9C
102
}
330
3E9C
100
AcDbXrecord
 10
0.0
 20
0.0
 30
0.0
  0
XRECORD
  5
3EB1
102
{ACAD_REACTORS
330
3E9C
102
}
330
3E9C
100
AcDbXrecord
 10
0.0
 20
0.0
 30
0.0
  0
XRECORD
  5
3EB2
102
{ACAD_REACTORS
330
3E9C
102
}
330
3E9C
100
AcDbXrecord
 10
0.0
 20
0.0
 30
0.0
  0
XRECORD
  5
3EB3
102
{ACAD_REACTORS
330
3E9C
102
}
330
3E9C
100
AcDbXrecord
 10
0.0
 20
0.0
 30
0.0
  0
XRECORD
  5
3EB4
102
{ACAD_REACTORS
330
3E9C
102
}
330
3E9C
100
AcDbXrecord
340
0
  0
XRECORD
  5
3EB5
102
{ACAD_REACTORS
330
3E9C
102
}
330
3E9C
100
AcDbXrecord
 70
     0
  0
XRECORD
  5
3EB6
102
{ACAD_REACTORS
330
3E9C
102
}
330
3E9C
100
AcDbXrecord
340
0
  0
XRECORD
  5
3EB7
102
{ACAD_REACTORS
330
3E9C
102
}
330
3E9C
100
AcDbXrecord
 10
0.0
 20
0.0
 30
0.0
  0
XRECORD
  5
3EB8
102
{ACAD_REACTORS
330
3E9C
102
}
330
3E9C
100
AcDbXrecord
 10
0.0
 20
0.0
 30
0.0
  0
XRECORD
  5
3EB9
102
{ACAD_REACTORS
330
3E9C
102
}
330
3E9C
100
AcDbXrecord
 10
0.0
 20
0.0
 30
0.0
  0
XRECORD
  5
3EBA
102
{ACAD_REACTORS
330
3E9C
102
}
330
3E9C
100
AcDbXrecord
 10
0.0
 20
0.0
 30
0.0
  0
XRECORD
  5
3EBB
102
{ACAD_REACTORS
330
3E9C
102
}
330
3E9C
100
AcDbXrecord
 10
0.0
 20
0.0
 30
0.0
  0
XRECORD
  5
3EBC
102
{ACAD_REACTORS
330
3E9C
102
}
330
3E9C
100
AcDbXrecord
 10
0.0
 20
0.0
 30
0.0
  0
LAYER_INDEX
  5
3E93
102
{ACAD_REACTORS
330
3E92
102
}
330
3E92
100
AcDbIndex
 40
2453151.56422
100
AcDbLayerIndex
  8
0
360
3E94
 90
        0
  8
AM_0
360
3E95
 90
       46
  8
AM_7
360
3E96
 90
        1
  8
AM_11
360
3E97
 90
       17
  8
AM_5
360
3E98
 90
        5
  8
Defpoints
360
3E99
 90
        0
  8
AM_6
360
3E9A
 90
        1
  0
XRECORD
  5
2D
102
{ACAD_REACTORS
330
2C
102
}
330
2C
100
AcDbXrecord
  1
VERSION
140
15.0
  1
PRODUCT
  2
AutoCAD Mechanical 2000
  0
IDBUFFER
  5
3E94
330
0
100
AcDbIdBuffer
  0
IDBUFFER
  5
3E95
330
0
100
AcDbIdBuffer
330
3D59
330
3D5E
330
3D6C
330
3D6F
330
3D70
330
3D71
330
3D72
330
3D73
330
3E02
330
3E03
330
3E05
330
3E07
330
3E08
330
3E09
330
3E0A
330
3E0B
330
3E0C
330
3E0D
330
3E0E
330
3E0F
330
3E10
330
3E12
330
3E14
330
3E15
330
3E16
330
3E17
330
3E18
330
3E19
330
3E1B
330
3E1C
330
C1D
330
C20
330
24A7
330
24BE
330
2C0E
330
2FB7
330
2FB9
330
324C
330
325C
330
325D
330
325E
330
3921
330
3924
330
3976
330
3977
330
3CE5
  0
IDBUFFER
  5
3E96
330
0
100
AcDbIdBuffer
330
23EF
  0
IDBUFFER
  5
3E97
330
0
100
AcDbIdBuffer
330
3E13
330
24B7
330
24B8
330
24C7
330
24C8
330
24D4
330
24D5
330
24E6
330
24E7
330
2BF3
330
2BF5
330
353A
330
353B
330
3D65
330
3E04
330
3E06
330
3E11
  0
IDBUFFER
  5
3E98
330
0
100
AcDbIdBuffer
330
CC6
330
2069
330
2D60
330
324F
330
39C8
  0
IDBUFFER
  5
3E99
330
0
100
AcDbIdBuffer
  0
IDBUFFER
  5
3E9A
330
0
100
AcDbIdBuffer
330
19BD
  0
ENDSEC
  0
EOF
